osu file format v14

[General]
AudioFilename: audio.mp3
AudioLeadIn: 0
PreviewTime: 5684
Countdown: 0
SampleSet: Soft
StackLeniency: 0.2
Mode: 0
LetterboxInBreaks: 0
WidescreenStoryboard: 0

[Editor]
DistanceSpacing: 1
BeatDivisor: 8
GridSize: 4
TimelineZoom: 3.099999

[Metadata]
Title:Kokeshineko Medore
TitleUnicode:コケシネコ・メドレー
Artist:Ino
ArtistUnicode:Ino
Creator:[ -Scarlet- ]
Version:Expert
Source:BMS
Tags:Groundbreaking -BOF2013 COMPILATION ALBUM- walaowey Leminine Lemi9 YukiZura- Underdogs
BeatmapID:1421048
BeatmapSetID:672227

[Difficulty]
HPDrainRate:6
CircleSize:4.3
OverallDifficulty:8.8
ApproachRate:9.4
SliderMultiplier:2
SliderTickRate:1

[Events]
//Background and Video events
0,0,"yande.re 360946 sample landscape neko sakimori.jpg",0,0
//Break Periods
2,122584,125369
//Storyboard Layer 0 (Background)
//Storyboard Layer 1 (Fail)
//Storyboard Layer 2 (Pass)
//Storyboard Layer 3 (Foreground)
//Storyboard Sound Samples

[TimingPoints]
1240,555.555555555556,4,2,0,60,1,0
6240,324.324324324324,4,2,0,60,1,0
11267,-166.666666666667,4,2,0,60,0,0
11915,-100,4,2,0,60,0,0
14996,-100,4,2,0,60,0,0
15321,-83.3333333333333,4,2,0,60,0,0
15645,-66.6666666666667,4,2,0,60,0,0
15969,-50,4,2,0,60,0,0
16294,-200,4,2,0,60,0,0
16537,-100,4,2,1,5,0,0
16578,322.58064516129,4,2,0,60,1,0
16578,-100,4,2,1,60,0,0
36416,-66.6666666666667,4,2,1,60,0,0
37223,-100,4,2,1,60,0,0
47545,-83.3333333333333,4,2,1,60,0,0
48352,-100,4,2,1,60,0,0
48916,-100,4,2,1,5,0,0
48997,-100,4,2,1,60,0,0
52707,-125,4,2,0,60,0,0
56416,-166.666666666667,4,2,0,60,0,0
57707,-125,4,2,0,60,0,0
57868,-100,4,2,0,60,0,0
58190,-83.3333333333333,4,2,0,60,0,0
58513,-71.4285714285714,4,2,0,60,0,0
58836,-125,4,2,0,60,0,0
59481,-83.3333333333333,4,2,0,60,0,0
59803,-71.4285714285714,4,2,0,60,0,0
60126,-66.6666666666667,4,2,0,60,0,0
60771,-83.3333333333333,4,2,0,60,0,0
61094,-71.4285714285714,4,2,0,60,0,0
61416,-125,4,2,0,60,0,0
62061,-83.3333333333333,4,2,0,60,0,0
62384,-71.4285714285714,4,2,0,60,0,0
62707,-100,4,2,0,60,0,0
67384,-76.9230769230769,4,2,0,60,0,0
68190,-100,4,2,0,60,0,0
70448,-200,4,2,0,60,0,0
70489,-200,4,2,0,5,0,0
70771,-100,4,2,0,60,0,0
75610,-200,4,2,0,60,0,0
75650,-200,4,2,0,5,0,0
75932,-100,4,2,0,60,0,0
87545,-125,4,2,0,60,0,0
87868,-125,4,2,0,50,0,0
88190,-125,4,2,0,40,0,0
88513,-125,4,2,0,30,0,0
88836,-125,4,2,0,60,0,0
99158,-83.3333333333333,4,2,0,60,0,0
100287,-125,4,2,0,60,0,0
102868,-125,4,2,0,60,0,0
112061,-100,4,2,0,60,0,0
125923,284.36018957346,4,2,0,60,1,0
125923,-76.9230769230769,4,2,0,60,0,0
126207,284.36018957346,4,2,0,60,1,0
126207,-100,4,2,0,60,0,0
135022,-333,4,2,0,60,0,0
135235,-200,4,2,0,5,0,0
135306,-100,4,2,0,60,0,0
152368,-90.9090909090909,4,2,0,60,0,0
153505,-100,4,2,0,5,0,0
156064,320,4,2,0,60,1,0
160544,-100,4,2,0,30,0,0

[Colours]
Combo1 : 192,192,192
Combo2 : 0,128,255
Combo3 : 128,128,255

[HitObjects]
1,248,6240,6,0,P|51:245|95:223,1,100,2|0,0:0|0:0,0:0:0:0:
168,64,6564,1,2,0:0:0:0:
160,140,6726,2,0,L|156:180,4,25,2|0|0|0|0,0:0|0:0|0:0|0:0|0:0,0:0:0:0:
284,236,7050,5,2,0:0:0:0:
372,212,7212,1,2,0:0:0:0:
460,188,7375,1,2,0:0:0:0:
416,20,7537,5,2,0:0:0:0:
400,132,7699,1,0,0:0:0:0:
412,368,7861,5,2,0:0:0:0:
432,264,8023,1,2,0:0:0:0:
436,184,8348,6,0,P|408:184|384:204,1,50,2|0,0:0|0:0,0:0:0:0:
292,196,8510,2,0,P|269:212|260:242,1,50,2|0,0:0|0:0,0:0:0:0:
336,372,8672,1,2,0:0:0:0:
312,328,8753,1,0,0:0:0:0:
332,280,8834,5,2,0:0:0:0:
296,312,8915,1,0,0:0:0:0:
248,312,8996,1,0,0:0:0:0:
200,296,9077,2,0,P|168:300|140:312,1,50,0|2,0:0|0:0,0:0:0:0:
0,252,9240,1,0,0:0:0:0:
44,224,9321,1,0,0:0:0:0:
52,164,9402,5,0,0:0:0:0:
84,200,9483,1,2,0:0:0:0:
132,216,9564,1,0,0:0:0:0:
176,192,9645,5,0,0:0:0:0:
164,176,9726,1,0,0:0:0:0:
144,172,9807,1,2,0:0:0:0:
128,124,9888,5,0,0:0:0:0:
176,128,9969,1,0,0:0:0:0:
216,100,10050,1,0,0:0:0:0:
236,56,10131,6,0,L|232:24,8,25,2|0|0|0|0|0|0|0|2,0:0|0:0|0:0|0:0|0:0|0:0|0:0|0:0|0:0,0:0:0:0:
304,136,10537,5,0,0:0:0:0:
344,144,10618,1,0,0:0:0:0:
380,128,10699,1,0,0:0:0:0:
396,60,10780,5,2,0:0:0:0:
448,108,10861,1,0,0:0:0:0:
472,168,10942,1,0,0:0:0:0:
472,228,11023,1,0,0:0:0:0:
452,280,11104,1,2,0:0:0:0:
416,316,11185,1,0,0:0:0:0:
384,328,11267,6,0,L|352:316,1,29.9999990844727
296,264,11429,1,2,0:0:0:0:
276,216,11510,1,0,0:0:0:0:
312,176,11591,1,0,0:0:0:0:
364,188,11672,1,0,0:0:0:0:
376,240,11753,1,2,0:0:0:0:
284,348,11915,6,0,L|292:384,6,25,0|0|0|0|2|0|0,0:0|0:0|0:0|0:0|0:0|0:0|0:0,0:0:0:0:
144,280,12239,1,0,0:0:0:0:
192,292,12321,1,0,0:0:0:0:
236,272,12402,1,2,0:0:0:0:
256,224,12483,5,0,0:0:0:0:
292,244,12564,1,0,0:0:0:0:
332,248,12645,1,0,0:0:0:0:
356,288,12726,5,2,0:0:0:0:
392,280,12807,1,0,0:0:0:0:
416,256,12888,1,0,0:0:0:0:
472,248,12969,5,0,0:0:0:0:
444,208,13050,1,2,0:0:0:0:
396,212,13131,1,0,0:0:0:0:
364,248,13212,5,0,0:0:0:0:
316,260,13294,1,0,0:0:0:0:
272,236,13375,2,0,L|212:248,3,50,2|0|0|0,0:0|0:0|0:0|0:0,0:0:0:0:
176,328,13699,6,0,P|148:328|124:308,2,33.3333333333333,2|0|0,0:0|0:0|0:0,0:0:0:0:
108,248,13861,2,0,P|88:228|85:197,2,33.3333333333333
44,72,14023,5,2,0:0:0:0:
20,104,14104,1,0,0:0:0:0:
24,144,14185,2,0,L|80:120,1,50
176,184,14348,5,2,0:0:0:0:
144,152,14429,1,0,0:0:0:0:
156,108,14510,2,0,L|201:127,1,50
312,32,14672,5,2,0:0:0:0:
280,72,14753,1,0,0:0:0:0:
296,120,14834,2,0,L|352:96,1,50
436,128,14996,6,0,L|444:168,5,33.3333333333333,2|0|0|0|0|0,0:0|0:0|0:0|0:0|0:0|0:0,0:0:0:0:
440,300,15321,6,0,P|424:288|392:284,2,39.9999987792969,2|0|0,0:0|0:0|0:0,0:0:0:0:
360,216,15483,2,0,P|341:215|312:232,2,39.9999987792969,2|0|0,0:0|0:0|0:0,0:0:0:0:
272,312,15645,6,0,P|248:320|216:304,2,50.0000019073487,2|0|0,0:0|0:0|0:0,0:0:0:0:
176,248,15807,2,0,P|152:240|136:208,2,50.0000019073487,2|0|0,0:0|0:0|0:0,0:0:0:0:
112,136,15969,6,0,L|124:64,5,66.6666666666667,2|0|0|0|0|0,0:0|0:0|0:0|0:0|0:0|0:0,0:0:0:0:
200,40,16294,6,0,B|280:56,1,75
300,184,16578,5,4,0:0:0:0:
268,144,16658,1,0,0:0:0:0:
224,124,16739,1,0,0:0:0:0:
176,132,16819,1,0,0:0:0:0:
136,164,16900,1,8,0:0:0:0:
88,172,16981,1,0,0:0:0:0:
40,160,17061,1,0,0:0:0:0:
16,116,17142,1,0,0:0:0:0:
24,68,17223,5,0,1:0:0:0:
48,84,17303,1,0,0:0:0:0:
76,80,17384,1,0,1:0:0:0:
100,60,17465,1,0,0:0:0:0:
104,32,17545,6,0,P|128:36|156:52,1,50,8|0,0:0|0:0,0:0:0:0:
224,188,17707,2,0,P|200:172|172:168,1,50
36,284,17868,5,0,1:0:0:0:
72,248,17948,1,0,0:0:0:0:
120,236,18029,1,0,0:0:0:0:
168,248,18110,1,0,0:0:0:0:
184,284,18190,5,8,0:0:0:0:
224,264,18271,1,0,0:0:0:0:
268,272,18352,1,0,0:0:0:0:
300,300,18432,1,0,0:0:0:0:
292,336,18513,5,0,1:0:0:0:
320,356,18594,1,0,0:0:0:0:
356,356,18674,1,0,1:0:0:0:
388,340,18755,1,0,0:0:0:0:
428,344,18836,5,8,0:0:0:0:
448,328,18916,1,0,0:0:0:0:
456,304,18997,1,0,0:0:0:0:
452,280,19077,1,0,0:0:0:0:
436,264,19158,6,0,P|420:236|424:208,1,50,0|0,1:0|0:0,0:0:0:0:
452,68,19319,2,0,P|468:96|464:124,1,50
336,244,19481,5,8,0:0:0:0:
288,248,19561,1,0,0:0:0:0:
240,236,19642,1,0,0:0:0:0:
200,208,19723,1,0,0:0:0:0:
176,164,19803,5,0,1:0:0:0:
192,152,19884,1,0,0:0:0:0:
212,144,19965,1,0,1:0:0:0:
232,140,20045,1,0,0:0:0:0:
272,128,20126,5,8,0:0:0:0:
244,100,20207,1,0,0:0:0:0:
208,84,20287,1,0,0:0:0:0:
168,84,20368,1,0,0:0:0:0:
124,108,20448,5,0,1:0:0:0:
72,108,20529,1,0,0:0:0:0:
32,76,20610,2,0,P|24:52|36:16,1,50
96,200,20771,5,8,1:2:0:0:
116,244,20852,1,0,0:0:0:0:
108,292,20933,2,0,P|91:310|54:318,1,50
197,171,21094,5,0,1:0:0:0:
224,131,21175,1,0,0:0:0:0:
272,112,21256,2,0,P|296:117|321:145,1,50
324,356,21416,5,8,3:2:0:0:
300,280,21497,1,2,3:0:0:0:
276,204,21577,1,2,3:0:0:0:
67,320,21739,5,0,1:0:0:0:
116,316,21819,1,0,0:0:0:0:
160,296,21900,1,0,0:0:0:0:
184,252,21981,1,0,0:0:0:0:
192,204,22061,1,8,0:0:0:0:
228,168,22142,1,0,0:0:0:0:
276,160,22223,1,0,0:0:0:0:
324,176,22303,1,0,0:0:0:0:
360,208,22384,6,0,L|424:216,3,50,0|0|0|0,1:0|0:0|1:0|0:0,0:0:0:0:
284,276,22707,1,8,0:0:0:0:
276,268,22787,1,0,0:0:0:0:
272,260,22868,1,0,0:0:0:0:
272,252,22948,1,0,0:0:0:0:
288,216,23029,5,0,1:0:0:0:
252,204,23110,1,0,0:0:0:0:
212,208,23190,1,0,0:0:0:0:
180,232,23271,1,0,0:0:0:0:
132,212,23352,5,8,0:0:0:0:
96,244,23432,1,0,0:0:0:0:
88,292,23513,1,0,0:0:0:0:
100,340,23594,1,0,0:0:0:0:
168,364,23674,5,0,1:0:0:0:
228,324,23755,1,0,0:0:0:0:
296,336,23836,1,0,1:0:0:0:
348,288,23916,1,0,0:0:0:0:
416,304,23997,6,0,L|480:324,1,50,8|0,0:0|0:0,0:0:0:0:
380,108,24158,2,0,L|316:88,1,50
416,200,24319,5,0,1:0:0:0:
232,56,24481,1,0,0:0:0:0:
264,48,24561,1,2,0:0:0:0:
112,224,24723,1,0,0:0:0:0:
144,232,24803,1,2,0:0:0:0:
20,64,24965,5,0,1:0:0:0:
68,48,25045,1,0,0:0:0:0:
116,56,25126,1,2,0:0:0:0:
148,92,25207,1,0,0:0:0:0:
136,124,25287,5,8,0:0:0:0:
152,124,25368,1,0,0:0:0:0:
168,120,25448,1,0,0:0:0:0:
180,112,25529,1,0,0:0:0:0:
212,84,25610,5,0,1:0:0:0:
248,80,25690,1,0,0:0:0:0:
280,88,25771,1,0,0:0:0:0:
308,112,25852,1,0,0:0:0:0:
316,164,25932,5,0,1:0:0:0:
360,192,26013,1,0,0:0:0:0:
412,192,26094,1,0,1:0:0:0:
456,168,26174,1,0,0:0:0:0:
476,124,26255,6,0,L|448:64,2,50,0|0|0,0:0|0:0|1:0,0:0:0:0:
308,16,26497,5,0,0:0:0:0:
368,60,26577,1,0,1:0:0:0:
388,132,26658,1,0,0:0:0:0:
376,208,26739,2,0,L|396:256,1,50
280,352,26900,5,0,0:0:0:0:
272,328,26981,1,0,0:0:0:0:
280,304,27061,1,0,0:0:0:0:
304,264,27142,5,0,0:0:0:0:
256,248,27223,1,0,0:0:0:0:
208,248,27303,1,0,0:0:0:0:
160,264,27384,1,0,0:0:0:0:
120,296,27465,1,0,0:0:0:0:
108,348,27545,5,0,0:0:0:0:
72,368,27626,1,0,0:0:0:0:
36,348,27707,1,0,0:0:0:0:
24,312,27787,1,0,0:0:0:0:
44,280,27868,6,0,P|68:256|96:256,1,50
168,168,28029,2,0,P|200:172|224:188,1,50
416,216,28190,5,0,0:0:0:0:
424,176,28271,1,0,0:0:0:0:
408,140,28352,2,0,L|416:80,1,50
304,120,28513,5,0,0:0:0:0:
268,92,28594,1,0,0:0:0:0:
224,84,28675,2,0,L|176:47,1,50
168,168,28836,5,0,0:0:0:0:
120,184,28917,1,0,0:0:0:0:
92,228,28998,2,0,L|36:251,1,50
196,344,29158,5,0,0:0:0:0:
268,364,29239,1,0,0:0:0:0:
344,360,29319,1,0,0:0:0:0:
416,344,29400,1,0,0:0:0:0:
468,288,29481,5,0,0:0:0:0:
448,244,29561,1,0,0:0:0:0:
400,236,29642,1,0,0:0:0:0:
372,280,29723,1,0,0:0:0:0:
328,296,29803,5,0,0:0:0:0:
296,272,29884,1,0,0:0:0:0:
288,232,29965,1,0,0:0:0:0:
308,196,30045,1,0,0:0:0:0:
344,184,30126,5,0,0:0:0:0:
340,164,30207,1,0,0:0:0:0:
336,144,30287,1,0,0:0:0:0:
332,124,30368,1,0,0:0:0:0:
352,76,30448,5,0,0:0:0:0:
316,104,30529,1,0,0:0:0:0:
272,104,30610,1,0,0:0:0:0:
240,76,30690,1,0,0:0:0:0:
200,44,30771,5,0,0:0:0:0:
152,36,30852,1,0,0:0:0:0:
108,56,30932,2,0,L|120:132,1,50
264,184,31094,5,0,0:0:0:0:
312,184,31175,1,0,0:0:0:0:
352,211,31255,2,0,L|326:283,1,50
132,336,31416,5,0,0:0:0:0:
172,272,31497,1,0,0:0:0:0:
152,200,31577,1,0,0:0:0:0:
192,136,31658,1,0,0:0:0:0:
188,60,31739,6,0,L|264:40,1,50
80,264,31900,2,0,L|0:288,1,50
300,332,32061,5,0,0:0:0:0:
288,292,32142,1,0,0:0:0:0:
260,264,32223,1,0,0:0:0:0:
216,284,32303,5,0,0:0:0:0:
248,324,32384,1,0,0:0:0:0:
300,332,32465,1,0,0:0:0:0:
348,320,32545,2,0,P|364:304|376:268,1,50
332,60,32707,5,0,0:0:0:0:
320,108,32787,1,0,0:0:0:0:
308,156,32868,1,0,0:0:0:0:
252,176,32948,5,0,0:0:0:0:
268,124,33029,1,0,0:0:0:0:
320,108,33110,1,0,0:0:0:0:
368,136,33190,1,0,0:0:0:0:
424,144,33271,1,0,0:0:0:0:
468,112,33352,6,0,P|468:84|448:44,3,50
400,240,33674,2,0,P|400:268|420:308,3,50
252,248,33997,1,0,0:0:0:0:
204,232,34078,1,0,0:0:0:0:
156,216,34159,1,0,0:0:0:0:
108,204,34239,1,0,0:0:0:0:
60,192,34319,5,0,0:0:0:0:
76,248,34400,1,0,0:0:0:0:
96,304,34481,1,0,0:0:0:0:
340,360,34642,5,0,0:0:0:0:
280,316,34723,1,0,0:0:0:0:
252,248,34803,1,0,0:0:0:0:
276,180,34884,1,0,0:0:0:0:
332,140,34965,5,0,0:0:0:0:
396,136,35045,1,0,0:0:0:0:
452,164,35126,1,0,0:0:0:0:
484,216,35207,1,0,0:0:0:0:
484,272,35287,5,0,0:0:0:0:
448,316,35368,1,0,0:0:0:0:
400,332,35448,1,0,0:0:0:0:
352,320,35529,1,0,0:0:0:0:
324,280,35610,5,0,0:0:0:0:
320,236,35690,1,0,0:0:0:0:
340,200,35771,1,0,0:0:0:0:
376,180,35852,1,0,0:0:0:0:
412,184,35932,5,0,0:0:0:0:
440,208,36013,1,0,0:0:0:0:
444,240,36094,1,0,0:0:0:0:
424,264,36174,1,0,0:0:0:0:
396,264,36255,5,0,0:0:0:0:
228,344,36416,6,0,B|196:304|192:240|240:192|316:220|308:280|272:296,2,225.000008583069
232,88,37223,6,0,B|200:52|156:40|100:56|100:56|136:68|148:108,1,200
96,232,37707,2,0,L|72:132,1,100
180,196,38029,5,0,0:0:0:0:
280,188,38190,1,0,0:0:0:0:
356,256,38352,1,0,0:0:0:0:
272,308,38513,5,0,0:0:0:0:
440,196,38674,1,0,0:0:0:0:
280,188,38836,5,0,0:0:0:0:
424,328,38997,1,0,0:0:0:0:
356,256,39319,5,0,0:0:0:0:
280,276,39481,1,0,0:0:0:0:
220,220,39642,1,0,0:0:0:0:
252,64,39803,5,0,0:0:0:0:
300,188,39965,1,0,0:0:0:0:
252,64,40126,1,0,0:0:0:0:
44,136,40287,5,0,0:0:0:0:
188,148,40448,1,0,0:0:0:0:
44,136,40610,1,0,0:0:0:0:
152,252,40771,5,0,0:0:0:0:
104,48,40932,1,0,0:0:0:0:
40,284,41094,1,0,0:0:0:0:
64,264,41174,1,0,0:0:0:0:
92,252,41255,1,0,0:0:0:0:
124,248,41336,1,0,0:0:0:0:
152,252,41416,6,0,P|176:240|196:208,1,50
200,124,41577,1,0,0:0:0:0:
332,224,41900,5,0,0:0:0:0:
268,272,42061,1,0,0:0:0:0:
268,352,42223,1,0,0:0:0:0:
440,336,42384,6,0,B|480:352|480:352|468:304|408:276|348:312,1,200
238,356,42868,2,0,P|271:320|268:272,1,100
24,172,43190,5,0,0:0:0:0:
144,168,43352,1,0,0:0:0:0:
180,284,43513,1,0,0:0:0:0:
88,332,43674,5,0,0:0:0:0:
267,271,43836,1,0,0:0:0:0:
232,360,43997,5,0,0:0:0:0:
116,216,44158,1,0,0:0:0:0:
180,284,44481,5,0,0:0:0:0:
244,236,44642,1,0,0:0:0:0:
324,248,44803,1,0,0:0:0:0:
308,340,44965,5,0,0:0:0:0:
336,168,45126,1,0,0:0:0:0:
308,340,45287,1,0,0:0:0:0:
208,248,45448,5,0,0:0:0:0:
432,176,45610,1,0,0:0:0:0:
208,248,45771,1,0,0:0:0:0:
432,304,45932,5,0,0:0:0:0:
288,88,46094,1,0,0:0:0:0:
208,248,46255,1,0,0:0:0:0:
180,260,46336,1,0,0:0:0:0:
152,264,46416,1,0,0:0:0:0:
124,260,46497,1,0,0:0:0:0:
100,240,46577,6,0,P|76:256|64:284,1,50
52,360,46739,1,0,0:0:0:0:
292,184,47061,5,0,0:0:0:0:
216,160,47223,1,0,0:0:0:0:
200,80,47384,1,0,0:0:0:0:
376,56,47545,6,0,B|396:60|424:32|424:32|412:92|376:108|376:108|336:112|272:72,1,239.999992675781
108,324,48190,1,0,0:0:0:0:
192,336,48352,2,0,L|324:356,1,100
416,352,48674,2,0,P|416:292|312:292,1,150
352,280,48997,5,0,0:0:0:0:
290,350,49158,1,0,0:0:0:0:
156,248,49319,2,0,P|204:248|270:193,1,100
304,156,49642,5,0,0:0:0:0:
280,140,49723,1,0,0:0:0:0:
252,136,49803,1,0,0:0:0:0:
248,223,49965,1,0,0:0:0:0:
304,156,50126,6,0,P|324:96|260:148,1,200
28,328,50771,1,0,0:0:0:0:
72,260,50932,2,0,P|116:244|184:240,1,100
256,352,51255,2,0,P|236:296|272:244,1,100
272,256,51497,1,0,0:0:0:0:
292,248,51577,1,0,0:0:0:0:
312,240,51658,1,0,0:0:0:0:
332,232,51739,5,0,0:0:0:0:
504,176,51900,2,0,B|456:176|420:220|420:220|412:152|328:136,1,200
500,268,52384,1,0,0:0:0:0:
332,232,52545,1,0,0:0:0:0:
448,108,52707,5,0,0:0:0:0:
344,340,53029,1,0,0:0:0:0:
164,156,53352,1,0,0:0:0:0:
164,156,53513,2,0,L|152:248,1,80
153,235,53836,6,0,B|232:196|240:288|336:216,1,160
268,156,54319,1,0,0:0:0:0:
212,384,54481,2,0,L|192:296,1,80
116,280,54803,5,0,0:0:0:0:
112,304,54884,1,0,0:0:0:0:
116,328,54965,1,0,0:0:0:0:
194,305,55126,1,0,0:0:0:0:
116,280,55287,6,0,P|60:292|120:324,1,160
344,264,55932,5,0,0:0:0:0:
376,352,56094,1,0,0:0:0:0:
468,328,56255,1,0,0:0:0:0:
280,328,56416,6,0,P|232:292|160:296,1,119.999996337891
112,352,56900,1,0,0:0:0:0:
112,352,57061,1,0,0:0:0:0:
262,166,57384,1,0,0:0:0:0:
262,166,57465,1,0,0:0:0:0:
262,166,57545,6,0,L|314:154,1,29.9999990844727
384,252,57707,2,0,L|346:265,1,40
480,160,57868,6,0,P|432:112|372:140,1,100
292,160,58110,1,0,0:0:0:0:
308,84,58190,6,0,P|260:132|192:104,1,119.999996337891
96,40,58432,1,0,0:0:0:0:
124,124,58513,6,0,P|72:72|0:96,1,139.999995727539
84,252,58755,1,0,0:0:0:0:
84,252,58836,6,0,B|108:268|120:272|120:272|132:256|140:216,1,80
224,212,59077,1,0,0:0:0:0:
224,212,59158,6,0,B|248:196|260:192|260:192|272:208|280:248,1,80
404,376,59400,1,0,0:0:0:0:
340,328,59481,6,0,L|376:196,1,119.999996337891
504,104,59723,1,0,0:0:0:0:
436,156,59804,6,0,L|396:16,1,139.999995727539
264,144,60044,1,0,0:0:0:0:
176,124,60126,6,0,P|156:84|232:116,1,150.000005722046
264,144,60368,1,0,0:0:0:0:
288,228,60450,6,0,P|263:265|253:183,1,150.000005722046
264,144,60690,1,0,0:0:0:0:
344,114,60771,6,0,L|468:144,1,119.999996337891
488,320,61013,1,0,0:0:0:0:
412,352,61094,6,0,L|269:315,1,139.999995727539
160,332,61336,1,0,0:0:0:0:
160,332,61416,6,0,P|180:352|176:316,1,80
88,280,61658,1,0,0:0:0:0:
88,280,61738,6,0,P|68:300|72:264,1,80
32,132,61981,1,0,0:0:0:0:
116,152,62061,6,0,B|144:136|152:104|152:104|176:124|224:116,1,119.999996337891
288,64,62303,1,0,0:0:0:0:
344,140,62384,6,0,B|373:148|409:120|409:120|421:156|453:172,1,139.999995727539
492,88,62626,1,0,0:0:0:0:
492,88,62707,6,0,L|480:40,1,50
376,236,62868,2,0,L|392:292,1,50
389,284,63029,6,0,P|340:256|273:277,1,100
208,216,63352,2,0,P|160:228|152:284,1,100
204,344,63674,1,0,0:0:0:0:
48,256,63835,1,0,0:0:0:0:
204,344,63997,1,0,0:0:0:0:
288,188,64158,6,0,L|264:88,1,100
412,48,64481,1,0,0:0:0:0:
496,204,64642,1,0,0:0:0:0:
383,170,64803,2,0,P|335:168|284:188,1,100
240,356,65126,6,0,L|190:350,1,50
148,240,65287,1,0,0:0:0:0:
148,240,65448,2,0,L|100:252,1,50
24,324,65610,6,0,P|96:288|140:368,1,150
128,348,65932,2,0,L|100:252,1,100
76,184,66174,1,0,0:0:0:0:
64,172,66255,5,0,0:0:0:0:
164,48,66416,1,0,0:0:0:0:
320,84,66577,1,0,0:0:0:0:
220,208,66739,1,0,0:0:0:0:
204,128,66900,5,0,0:0:0:0:
208,148,66981,1,0,0:0:0:0:
212,168,67061,1,0,0:0:0:0:
216,188,67142,1,0,0:0:0:0:
220,208,67223,1,0,0:0:0:0:
40,324,67384,6,0,P|8:252|112:304,1,259.999988098145
156,348,67787,1,0,0:0:0:0:
188,324,67868,1,0,0:0:0:0:
232,320,67948,1,0,0:0:0:0:
280,344,68029,1,0,0:0:0:0:
340,352,68110,1,0,0:0:0:0:
392,304,68190,6,0,P|396:280|376:244,3,50
436,172,68513,2,0,P|417:156|376:155,3,50
364,56,68836,5,0,0:0:0:0:
344,92,68916,1,0,0:0:0:0:
308,108,68997,1,0,0:0:0:0:
268,104,69077,1,0,0:0:0:0:
220,48,69158,5,0,0:0:0:0:
200,40,69239,1,0,0:0:0:0:
180,40,69319,1,0,0:0:0:0:
160,48,69400,1,0,0:0:0:0:
88,48,69481,5,0,0:0:0:0:
56,72,69561,1,0,0:0:0:0:
44,112,69642,1,0,0:0:0:0:
60,148,69723,1,0,0:0:0:0:
124,184,69803,5,0,0:0:0:0:
148,220,69884,1,0,0:0:0:0:
148,264,69965,1,0,0:0:0:0:
120,300,70045,1,0,0:0:0:0:
52,356,70126,5,0,0:0:0:0:
96,336,70207,1,0,0:0:0:0:
144,348,70287,1,0,0:0:0:0:
192,336,70368,1,0,0:0:0:0:
240,344,70448,6,0,L|252:324,1,12.5
364,40,70771,5,0,0:0:0:0:
340,64,70852,1,0,0:0:0:0:
308,72,70932,1,0,0:0:0:0:
276,64,71013,1,0,0:0:0:0:
240,32,71094,5,0,0:0:0:0:
176,24,71174,1,0,0:0:0:0:
120,56,71255,1,0,0:0:0:0:
92,116,71336,1,0,0:0:0:0:
88,180,71416,5,0,0:0:0:0:
136,192,71497,1,0,0:0:0:0:
172,156,71577,1,0,0:0:0:0:
224,156,71658,1,0,0:0:0:0:
252,188,71739,5,0,0:0:0:0:
288,200,71819,1,0,0:0:0:0:
320,176,71900,1,0,0:0:0:0:
360,164,71981,1,0,0:0:0:0:
396,180,72061,6,0,P|420:180|444:168,1,50
292,56,72223,2,0,L|284:116,1,50
124,224,72384,5,0,0:0:0:0:
196,204,72465,1,0,0:0:0:0:
272,208,72545,1,0,0:0:0:0:
336,248,72626,1,0,0:0:0:0:
388,300,72707,5,0,0:0:0:0:
340,344,72787,1,0,0:0:0:0:
280,352,72868,1,0,0:0:0:0:
228,332,72948,1,0,0:0:0:0:
196,292,73029,1,0,0:0:0:0:
196,248,73110,1,0,0:0:0:0:
216,212,73190,1,0,0:0:0:0:
244,192,73271,1,0,0:0:0:0:
276,180,73352,6,0,L|340:164,3,50
352,88,73674,2,0,L|400:75,3,50
488,96,73997,5,0,0:0:0:0:
484,116,74077,1,0,0:0:0:0:
480,136,74158,1,0,0:0:0:0:
476,156,74239,1,0,0:0:0:0:
408,204,74319,5,0,0:0:0:0:
412,224,74399,1,0,0:0:0:0:
416,244,74480,1,0,0:0:0:0:
420,264,74561,1,0,0:0:0:0:
484,324,74642,5,0,0:0:0:0:
456,316,74723,1,0,0:0:0:0:
428,312,74803,1,0,0:0:0:0:
400,320,74884,1,0,0:0:0:0:
336,360,74965,5,0,0:0:0:0:
304,372,75046,1,0,0:0:0:0:
268,376,75126,1,0,0:0:0:0:
236,368,75207,1,0,0:0:0:0:
176,316,75287,5,0,0:0:0:0:
180,296,75368,1,0,0:0:0:0:
184,276,75448,1,0,0:0:0:0:
188,256,75529,1,0,0:0:0:0:
192,236,75610,6,0,L|188:216,1,12.5
72,44,75932,5,0,0:0:0:0:
112,88,76013,1,0,0:0:0:0:
172,104,76094,1,0,0:0:0:0:
228,84,76174,1,0,0:0:0:0:
276,44,76255,5,0,0:0:0:0:
332,28,76336,1,0,0:0:0:0:
392,36,76416,1,0,0:0:0:0:
440,72,76497,1,0,0:0:0:0:
464,128,76577,5,0,0:0:0:0:
416,148,76658,1,0,0:0:0:0:
388,180,76739,1,0,0:0:0:0:
376,224,76819,1,0,0:0:0:0:
376,268,76900,5,0,0:0:0:0:
404,256,76981,1,0,0:0:0:0:
432,256,77061,1,0,0:0:0:0:
460,268,77142,1,0,0:0:0:0:
480,280,77223,5,0,0:0:0:0:
476,256,77303,1,0,0:0:0:0:
464,228,77384,1,0,0:0:0:0:
440,200,77465,1,0,0:0:0:0:
408,176,77545,5,0,0:0:0:0:
364,160,77626,1,0,0:0:0:0:
316,152,77707,1,0,0:0:0:0:
260,152,77787,1,0,0:0:0:0:
200,160,77868,5,0,0:0:0:0:
140,184,77948,1,0,0:0:0:0:
84,228,78029,1,0,0:0:0:0:
44,292,78110,1,0,0:0:0:0:
40,372,78190,5,0,0:0:0:0:
80,364,78271,1,0,0:0:0:0:
108,336,78352,1,0,0:0:0:0:
148,356,78432,1,0,0:0:0:0:
188,356,78513,1,0,0:0:0:0:
456,228,78674,5,0,0:0:0:0:
436,252,78755,1,0,0:0:0:0:
408,260,78836,1,0,0:0:0:0:
316,368,78997,5,0,0:0:0:0:
305,338,79078,1,0,0:0:0:0:
312,310,79159,1,0,0:0:0:0:
260,184,79319,5,0,0:0:0:0:
290,189,79400,1,0,0:0:0:0:
311,209,79481,1,0,0:0:0:0:
144,344,79642,5,0,0:0:0:0:
84,352,79723,1,0,0:0:0:0:
108,296,79803,1,0,0:0:0:0:
260,184,79965,6,0,P|236:184|208:172,2,50
12,192,80287,2,0,P|36:192|60:201,2,50
152,272,80610,2,0,L|136:204,1,50
52,116,80771,5,0,0:0:0:0:
92,120,80852,1,0,0:0:0:0:
128,136,80932,1,0,0:0:0:0:
152,104,81013,1,0,0:0:0:0:
188,88,81094,1,0,0:0:0:0:
360,92,81255,5,0,0:0:0:0:
360,92,81336,2,0,L|368:24,1,50
368,220,81577,5,0,0:0:0:0:
368,220,81658,2,0,L|360:152,1,50
368,352,81900,5,0,0:0:0:0:
368,352,81981,2,0,L|376:284,1,50
136,384,82223,5,0,0:0:0:0:
120,332,82303,1,0,0:0:0:0:
80,368,82384,1,0,0:0:0:0:
260,356,82545,6,0,P|262:334|242:302,2,50
140,132,82868,2,0,P|138:154|158:186,2,50
52,288,83190,5,0,0:0:0:0:
84,256,83271,1,0,0:0:0:0:
128,252,83352,1,0,0:0:0:0:
168,268,83432,1,0,0:0:0:0:
200,236,83513,1,0,0:0:0:0:
244,224,83594,1,0,0:0:0:0:
288,236,83674,1,0,0:0:0:0:
272,52,83836,6,0,P|220:48|200:56,1,50
144,76,83997,1,0,0:0:0:0:
0,144,84158,6,0,P|50:158|66:172,1,50
112,210,84319,1,0,0:0:0:0:
240,248,84481,6,0,P|197:278|187:297,1,50
157,348,84642,1,0,0:0:0:0:
384,280,84803,5,0,0:0:0:0:
424,316,84884,1,0,0:0:0:0:
372,336,84965,1,0,0:0:0:0:
240,248,85126,6,0,L|228:192,2,50
72,76,85448,2,0,L|82:124,2,50
296,60,85771,5,0,0:0:0:0:
260,28,85852,1,0,0:0:0:0:
208,32,85933,1,0,0:0:0:0:
176,68,86013,1,0,0:0:0:0:
176,120,86094,1,0,0:0:0:0:
216,152,86175,1,0,0:0:0:0:
264,152,86255,6,0,B|307:128|343:136|375:164|375:164|371:120|403:84,1,200
308,232,86739,1,0,0:0:0:0:
308,232,86819,1,0,0:0:0:0:
308,232,86900,6,0,B|344:304|276:328|328:384|328:384|348:368|348:336,1,200
168,284,87384,1,0,0:0:0:0:
168,284,87465,1,0,0:0:0:0:
168,284,87545,6,0,B|156:328|116:340|116:340|80:312|96:260,3,160
69,119,88836,6,0,B|101:111|129:83|129:83|125:139|157:171,1,160
153,167,89481,1,0,0:0:0:0:
212,104,89642,2,0,P|248:88|292:88,1,80
432,100,89965,6,0,B|428:64|400:32|352:28|352:28|372:48|372:72,1,160
352,152,90448,1,0,0:0:0:0:
288,87,90610,1,0,0:0:0:0:
288,87,90932,5,0,0:0:0:0:
216,132,91094,1,0,0:0:0:0:
160,72,91255,1,0,0:0:0:0:
40,168,91416,6,0,B|68:136|112:136|112:136|132:176|108:220,1,160
60,328,92061,1,0,0:0:0:0:
140,292,92223,1,0,0:0:0:0:
328,132,92545,6,0,B|308:32,1,80
312,53,92868,1,0,0:0:0:0:
404,108,93029,5,0,0:0:0:0:
248,140,93190,1,0,0:0:0:0:
392,188,93352,5,0,0:0:0:0:
304,208,93513,1,0,0:0:0:0:
380,268,93674,5,0,0:0:0:0:
352,276,93836,1,0,0:0:0:0:
392,348,93997,5,0,0:0:0:0:
296,316,94319,6,0,B|328:288|332:252|332:252|364:260|376:272|376:272|388:252|408:236|408:236|424:272|472:288,1,240
392,348,94965,1,0,0:0:0:0:
184,228,95287,5,0,0:0:0:0:
108,256,95448,1,0,0:0:0:0:
76,300,95610,1,0,0:0:0:0:
64,340,95771,1,0,0:0:0:0:
64,340,96094,5,0,0:0:0:0:
168,332,96255,1,0,0:0:0:0:
184,228,96416,1,0,0:0:0:0:
20,224,96577,6,0,P|64:228|112:197,1,80
212,144,96900,2,0,P|248:118|265:64,1,80
104,80,97223,5,0,0:0:0:0:
184,228,97385,1,0,0:0:0:0:
388,100,97707,1,0,0:0:0:0:
388,100,97868,6,0,L|460:80,2,60
312,52,98190,5,0,0:0:0:0:
272,124,98298,1,0,0:0:0:0:
332,176,98405,1,0,0:0:0:0:
416,212,98513,5,0,0:0:0:0:
444,300,98621,1,0,0:0:0:0:
368,348,98728,1,0,0:0:0:0:
292,300,98836,6,0,L|232:288,2,53.3333333333333
164,336,99158,6,0,B|104:324|76:304|64:232|96:184|180:208|160:272,1,239.999992675781
164,336,99803,1,0,0:0:0:0:
239,289,99965,1,0,0:0:0:0:
308,328,100126,1,0,0:0:0:0:
384,352,100287,6,0,P|332:324|324:224,1,160
408,264,100771,1,0,0:0:0:0:
408,264,100932,1,0,0:0:0:0:
320,230,101255,6,0,L|312:178,2,40
352,336,101577,1,0,0:0:0:0:
408,264,101739,2,0,P|332:248|272:296,1,160
56,316,102383,5,0,0:0:0:0:
104,252,102545,1,0,0:0:0:0:
172,208,102707,1,0,0:0:0:0:
240,264,102868,2,0,L|336:248,1,80
176,328,103190,5,0,0:0:0:0:
104,252,103351,1,0,0:0:0:0:
16,200,103513,1,0,0:0:0:0:
272,60,103836,5,0,0:0:0:0:
348,40,103997,1,0,0:0:0:0:
420,72,104158,1,0,0:0:0:0:
300,160,104319,6,0,B|272:172|272:172|300:120|340:116|392:144,1,160
352,344,104965,1,0,0:0:0:0:
304,280,105126,1,0,0:0:0:0:
228,260,105287,1,0,0:0:0:0:
88,380,105448,6,0,P|160:352|268:360,1,160
136,192,105932,1,0,0:0:0:0:
88,380,106094,1,0,0:0:0:0:
152,272,106416,6,0,L|160:324,2,40
136,192,106739,1,0,0:0:0:0:
0,216,106900,6,0,P|36:244|92:232,1,80
211,220,107223,2,0,P|248:204|267:169,1,80
56,80,107545,5,0,0:0:0:0:
144,64,107707,1,0,0:0:0:0:
192,136,107868,1,0,0:0:0:0:
288,80,108029,6,0,B|332:72|360:108|360:108|368:56|424:40,1,160
448,128,108513,1,0,0:0:0:0:
436,208,108674,1,0,0:0:0:0:
276,336,108997,5,0,0:0:0:0:
248,320,109158,1,0,0:0:0:0:
240,288,109319,1,0,0:0:0:0:
312,132,109481,5,0,0:0:0:0:
328,264,109803,1,0,0:0:0:0:
160,340,110126,1,0,0:0:0:0:
84,316,110287,1,0,0:0:0:0:
48,264,110448,1,0,0:0:0:0:
36,216,110610,6,0,L|132:192,1,80
264,232,110932,1,0,0:0:0:0:
160,340,111094,1,0,0:0:0:0:
113,196,111255,2,0,B|88:96|88:96|109:124|149:132,1,160
160,40,111658,1,0,0:0:0:0:
160,40,111739,5,0,0:0:0:0:
252,192,111900,1,0,0:0:0:0:
252,192,112061,1,0,0:0:0:0:
364,80,112223,6,0,P|330:130|372:148,1,100
280,336,112545,2,0,P|253:281|200:292,1,100
84,132,112868,2,0,P|140:124|188:76,1,100
252,192,113190,1,0,0:0:0:0:
252,192,113352,1,0,0:0:0:0:
200,300,113513,6,0,B|228:324|224:348|224:348|248:340|260:308,1,100
392,152,113836,2,0,B|388:128|400:104|400:104|376:88|336:96,1,100
144,72,114158,2,0,B|116:80|100:100|100:100|104:132|79:159,1,100
252,192,114481,1,0,0:0:0:0:
252,192,114642,1,0,0:0:0:0:
351,93,114803,6,0,B|403:77|403:77|387:125,1,100
124,208,115126,2,0,B|72:192|72:192|60:240,1,100
348,316,115448,2,0,B|400:304|400:304|448:344,1,100
252,192,115771,1,0,0:0:0:0:
252,192,115932,1,0,0:0:0:0:
160,296,116094,6,0,B|128:308|124:328|124:328|128:308|104:280,1,100
368,184,116416,2,0,B|392:196|400:224|400:224|412:204|456:192,1,100
152,80,116739,2,0,B|124:88|112:104|112:104|84:92|44:104,1,100
300,264,117061,1,0,0:0:0:0:
252,192,117223,5,0,0:0:0:0:
280,176,117303,1,0,0:0:0:0:
312,176,117384,1,0,0:0:0:0:
340,188,117465,1,0,0:0:0:0:
360,208,117545,1,0,0:0:0:0:
388,216,117626,1,0,0:0:0:0:
420,216,117707,1,0,0:0:0:0:
448,204,117787,1,0,0:0:0:0:
468,180,117868,6,0,L|460:128,1,50
300,264,118029,2,0,L|307:313,1,50
472,168,118190,6,0,L|464:116,1,50
304,252,118351,2,0,L|311:301,1,50
184,348,118513,5,0,0:0:0:0:
148,328,118594,1,0,0:0:0:0:
128,296,118674,1,0,0:0:0:0:
128,256,118755,1,0,0:0:0:0:
148,224,118836,1,0,0:0:0:0:
168,188,118916,1,0,0:0:0:0:
168,148,118997,1,0,0:0:0:0:
140,120,119077,1,0,0:0:0:0:
100,116,119158,6,0,L|44:136,1,50
232,268,119319,2,0,L|279:251,1,50
88,112,119481,6,0,L|32:132,1,50
220,264,119642,2,0,L|267:247,1,50
464,100,119803,5,0,0:0:0:0:
440,56,119884,1,0,0:0:0:0:
392,36,119965,1,0,0:0:0:0:
344,44,120045,1,0,0:0:0:0:
312,80,120126,1,0,0:0:0:0:
304,128,120207,1,0,0:0:0:0:
264,156,120287,1,0,0:0:0:0:
216,172,120368,1,0,0:0:0:0:
168,168,120448,5,0,0:0:0:0:
220,200,120529,1,0,0:0:0:0:
244,256,120610,1,0,0:0:0:0:
228,312,120690,1,0,0:0:0:0:
184,352,120771,1,0,0:0:0:0:
124,368,120852,1,0,0:0:0:0:
68,352,120932,1,0,0:0:0:0:
20,316,121013,1,0,0:0:0:0:
12,256,121094,6,0,P|18:232|33:212,1,50
152,24,121255,2,0,P|157:61|177:85,1,50
336,260,121416,2,0,P|320:240|314:216,1,50
456,48,121577,5,0,0:0:0:0:
456,48,121900,5,0,0:0:0:0:
392,344,122061,1,0,0:0:0:0:
456,48,122223,1,0,0:0:0:0:
392,344,122384,1,0,0:0:0:0:
430,142,125923,6,0,P|483:82|404:69,1,194.999991073609
404,68,126207,6,0,B|388:196|388:196|400:148|456:132,1,200
456,348,126633,2,0,B|472:220|472:220|460:268|404:284,1,200
392,284,126988,1,0,0:0:0:0:
352,280,127060,1,0,0:0:0:0:
320,256,127131,1,0,0:0:0:0:
296,288,127202,1,0,0:0:0:0:
260,304,127273,1,0,0:0:0:0:
220,300,127344,5,0,0:0:0:0:
344,360,127486,1,0,0:0:0:0:
385,197,127629,2,0,L|377:137,1,50
440,56,127771,5,0,0:0:0:0:
296,188,127913,1,0,0:0:0:0:
208,88,128055,1,0,0:0:0:0:
172,64,128126,1,0,0:0:0:0:
128,60,128197,1,0,0:0:0:0:
84,76,128268,1,0,0:0:0:0:
56,112,128339,1,0,0:0:0:0:
84,328,128481,5,0,0:0:0:0:
148,180,128624,1,0,0:0:0:0:
248,304,128766,1,0,0:0:0:0:
44,224,128908,5,0,0:0:0:0:
164,328,129050,1,0,0:0:0:0:
280,224,129193,2,0,P|316:252|320:280,1,50
360,356,129335,2,0,P|392:356|424:340,1,50
476,280,129477,1,0,0:0:0:0:
476,280,129548,1,0,0:0:0:0:
476,280,129619,5,0,0:0:0:0:
368,96,129761,2,0,L|380:52,2,25
300,152,129904,5,0,0:0:0:0:
252,160,129975,1,0,0:0:0:0:
204,168,130046,1,0,0:0:0:0:
156,176,130117,1,0,0:0:0:0:
108,184,130188,1,0,0:0:0:0:
60,192,130259,1,0,0:0:0:0:
12,204,130330,6,0,L|15:228,4,25
96,276,130543,1,0,0:0:0:0:
96,276,130614,2,0,L|160:260,1,50
276,280,130756,6,0,P|264:312|256:272,1,100
300,272,131183,6,0,P|268:332|252:248,1,200
260,216,131538,1,0,0:0:0:0:
264,176,131609,1,0,0:0:0:0:
244,140,131680,1,0,0:0:0:0:
228,104,131752,1,0,0:0:0:0:
236,64,131823,1,0,0:0:0:0:
268,40,131894,5,0,0:0:0:0:
440,8,132036,1,0,0:0:0:0:
456,188,132178,2,0,L|396:196,1,50
324,256,132321,1,0,0:0:0:0:
296,300,132392,1,0,0:0:0:0:
312,348,132463,1,0,0:0:0:0:
356,372,132534,1,0,0:0:0:0:
404,360,132605,1,0,0:0:0:0:
436,320,132676,1,0,0:0:0:0:
432,272,132747,6,0,P|408:284|384:288,1,50
324,156,132889,2,0,P|292:156|264:172,1,50
212,304,133032,1,0,0:0:0:0:
172,280,133103,1,0,0:0:0:0:
128,272,133174,1,0,0:0:0:0:
88,292,133245,1,0,0:0:0:0:
64,332,133316,6,0,P|32:324|20:292,1,50
84,188,133458,1,0,0:0:0:0:
96,148,133529,1,0,0:0:0:0:
76,112,133600,1,0,0:0:0:0:
44,92,133671,1,0,0:0:0:0:
40,52,133742,6,0,P|68:36|100:36,1,50
184,160,133885,2,0,P|208:155|229:141,1,50
304,48,134027,2,0,P|332:32|364:32,1,50
512,108,134169,5,0,0:0:0:0:
392,212,134311,1,0,0:0:0:0:
272,316,134453,1,0,0:0:0:0:
488,352,134595,5,0,0:0:0:0:
392,212,134737,1,0,0:0:0:0:
296,72,134879,1,0,0:0:0:0:
96,188,135022,6,0,L|108:236,1,45.045045045045
68,316,135306,6,0,P|108:280|164:300,1,100
336,316,135590,1,0,0:0:0:0:
272,364,135733,2,0,P|244:332|232:256,1,100
320,120,136017,1,0,0:0:0:0:
200,200,136159,1,0,0:0:0:0:
244,184,136230,1,0,0:0:0:0:
284,204,136301,1,0,0:0:0:0:
328,216,136372,1,0,0:0:0:0:
368,192,136444,6,0,P|424:192|448:232,1,100
220,352,136728,1,0,0:0:0:0:
380,292,136870,1,0,0:0:0:0:
320,120,137013,1,0,0:0:0:0:
232,208,137154,1,0,0:0:0:0:
232,208,137225,1,0,0:0:0:0:
232,208,137297,6,0,L|240:240,4,25
72,164,137581,6,0,B|128:140|128:140|168:144|168:144|220:124,1,150
260,64,137866,1,0,0:0:0:0:
144,224,138008,1,0,0:0:0:0:
44,52,138150,1,0,0:0:0:0:
260,64,138292,5,0,0:0:0:0:
144,224,138434,1,0,0:0:0:0:
44,52,138576,1,0,0:0:0:0:
12,208,138719,5,0,0:0:0:0:
168,68,138861,1,0,0:0:0:0:
268,252,139003,1,0,0:0:0:0:
182,166,139145,2,0,L|167:67,1,100
59,193,139429,1,0,0:0:0:0:
59,193,139500,1,0,0:0:0:0:
59,193,139572,6,0,L|-2:211,1,50
220,267,139714,2,0,L|267:252,1,50
93,344,139856,5,0,0:0:0:0:
182,166,139998,1,0,0:0:0:0:
290,334,140141,1,0,0:0:0:0:
59,193,140283,5,0,0:0:0:0:
292,136,140425,1,0,0:0:0:0:
212,360,140567,1,0,0:0:0:0:
105,87,140709,2,0,P|145:55|233:67,1,100
384,216,140994,5,0,0:0:0:0:
180,136,141136,1,0,0:0:0:0:
184,356,141278,1,0,0:0:0:0:
292,80,141420,5,0,0:0:0:0:
92,244,141562,1,0,0:0:0:0:
336,336,141704,1,0,0:0:0:0:
52,156,141846,2,0,L|12:164,4,25
228,196,142131,5,0,0:0:0:0:
268,264,142273,1,0,0:0:0:0:
236,336,142415,1,0,0:0:0:0:
36,344,142557,6,0,B|96:340|132:364|132:364|120:296|168:252,1,200
468,304,142984,1,0,0:0:0:0:
430,337,143055,1,0,0:0:0:0:
382,341,143126,1,0,0:0:0:0:
350,311,143197,1,0,0:0:0:0:
314,275,143268,1,0,0:0:0:0:
266,275,143339,1,0,0:0:0:0:
230,311,143410,6,0,L|238:347,4,25
292,72,143695,2,0,L|286:47,4,25
472,152,143979,1,0,0:0:0:0:
436,120,144050,1,0,0:0:0:0:
384,116,144121,1,0,0:0:0:0:
348,148,144192,1,0,0:0:0:0:
304,172,144263,1,0,0:0:0:0:
256,164,144334,1,0,0:0:0:0:
220,128,144406,6,0,P|168:112|116:136,1,100
104,304,144690,1,0,0:0:0:0:
12,268,144832,2,0,B|48:216|36:148|36:148|48:200|96:216,1,200
168,376,145259,1,0,0:0:0:0:
184,340,145330,1,0,0:0:0:0:
204,304,145401,1,0,0:0:0:0:
184,268,145472,1,0,0:0:0:0:
164,236,145543,1,0,0:0:0:0:
104,304,145686,5,0,0:0:0:0:
256,208,145828,1,0,0:0:0:0:
128,84,145970,2,0,L|0:104,1,100
312,292,146254,5,0,0:0:0:0:
180,160,146396,1,0,0:0:0:0:
360,60,146539,2,0,P|396:116|388:168,1,100
132,276,146823,5,0,0:0:0:0:
304,132,146965,1,0,0:0:0:0:
88,32,147108,2,0,P|52:88|60:140,1,100
132,276,147391,1,0,0:0:0:0:
320,196,147534,1,0,0:0:0:0:
360,204,147605,1,0,0:0:0:0:
396,224,147676,1,0,0:0:0:0:
416,260,147747,1,0,0:0:0:0:
420,300,147818,5,0,0:0:0:0:
248,228,147960,1,0,0:0:0:0:
148,368,148103,1,0,0:0:0:0:
332,280,148245,6,0,B|356:220|324:160|324:160|368:188|420:160,1,200
415,83,148600,1,0,0:0:0:0:
415,83,148671,2,0,P|390:80|368:90,1,50
280,96,148813,2,0,P|255:99|233:88,1,50
84,36,148955,6,0,P|148:68|156:108,1,100
60,292,149240,1,0,0:0:0:0:
0,228,149382,2,0,B|-4:176|44:148|96:156|96:156|84:192|96:228,1,200
232,316,149808,1,0,0:0:0:0:
256,280,149879,1,0,0:0:0:0:
252,236,149951,1,0,0:0:0:0:
220,204,150022,1,0,0:0:0:0:
176,196,150093,5,0,0:0:0:0:
164,364,150235,1,0,0:0:0:0:
352,324,150377,1,0,0:0:0:0:
116,292,150519,2,0,L|8:324,1,100
196,128,150804,5,0,0:0:0:0:
244,112,150875,1,0,0:0:0:0:
292,100,150946,1,0,0:0:0:0:
340,84,151017,1,0,0:0:0:0:
388,68,151088,2,0,L|376:36,2,25
464,108,151230,5,0,0:0:0:0:
308,16,151373,1,0,0:0:0:0:
252,184,151515,1,0,0:0:0:0:
136,52,151657,2,0,B|196:16|196:16|158:167,1,200
16,200,152083,6,0,L|56:192,2,25
92,268,152225,2,0,L|116:263,2,25
184,224,152368,6,0,B|148:232|116:216|116:216|92:240|92:240|56:228|56:228|44:272|-4:280,1,220.000006713867
264,340,152794,5,0,0:0:0:0:
408,308,152936,1,0,0:0:0:0:
328,208,153079,1,0,0:0:0:0:
428,168,153221,1,0,0:0:0:0:
380,92,153363,1,0,0:0:0:0:
444,48,153505,5,0,0:0:0:0:
256,192,153541,12,0,155922,0:0:0:0:
336,104,156064,5,0,0:0:0:0:
416,84,156384,1,0,0:0:0:0:
268,280,156704,5,0,0:0:0:0:
245,359,157024,1,0,0:0:0:0:
124,152,157344,5,0,0:0:0:0:
66,92,157664,1,0,0:0:0:0:
256,192,157984,5,0,0:0:0:0:
52,240,158304,1,0,0:0:0:0:
256,192,158464,1,0,0:0:0:0:
52,240,158784,5,0,0:0:0:0:
88,272,158864,1,0,0:0:0:0:
136,284,158944,1,0,0:0:0:0:
184,268,159024,1,0,0:0:0:0:
216,228,159104,1,0,0:0:0:0:
260,208,159184,1,0,0:0:0:0:
308,204,159264,5,0,0:0:0:0:
356,216,159344,1,0,0:0:0:0:
392,252,159424,1,0,0:0:0:0:
396,300,159504,1,0,0:0:0:0:
376,348,159584,1,0,0:0:0:0:
336,376,159664,1,0,0:0:0:0:
288,368,159744,1,0,0:0:0:0:
272,320,159824,1,0,0:0:0:0:
312,292,159904,5,0,0:0:0:0:
312,292,160224,6,0,B|324:323|352:340|352:340|376:308|376:308|408:324|408:324|420:296|416:264,1,200
