osu file format v14

[General]
AudioFilename: audio.ogg
AudioLeadIn: 0
PreviewTime: 233567
Countdown: 0
SampleSet: Soft
StackLeniency: 0.7
Mode: 3
LetterboxInBreaks: 0
SpecialStyle: 0
WidescreenStoryboard: 1

[Editor]
Bookmarks: 2577,22787,42998,64471,74577,84682,94787,104087,122633,131360,140087,165697,181389,196158,211968,218368,222368,233600,243705,253810
DistanceSpacing: 1.3
BeatDivisor: 4
GridSize: 4
TimelineZoom: 2.237024

[Metadata]
Title:Toho-Assisted-Speedrun!!!
TitleUnicode:Toho-Assisted-Speedrun!!!
Artist:Innocent Key
ArtistUnicode:イノセントキー
Creator:FAMoss
Version:Normal!!!
Source:東方永夜抄 ~ Imperishable Night.
Tags:zun かめりあ camellia ななひら nanahira ココ koko kamelcamellia かめるかめりあ masaya oya cemetek touhou vs tora 虎 Key electronic japanese speedcore 東方Project 月まで届け、不死の煙 tsuki made todoke fushi no kemuri 竹取飛翔 Lunatic Princess take to hishou Fujiwara no Mokou 蓬莱山輝夜 kaguya houraisan Reach for the Moon Immortal Smoke 東方疾走響 Touhou Eiyashou Hibiki 2 toho Extra Stage Boss IK-27 太田順也 Ōta jun'ya ota junya
BeatmapID:3807991
BeatmapSetID:1852057

[Difficulty]
HPDrainRate:7.5
CircleSize:4
OverallDifficulty:7.5
ApproachRate:5
SliderMultiplier:1.4
SliderTickRate:1

[Events]
//Background and Video events
0,0,"Toho-Assited-Speedrun 99436259.jpeg",0,0
//Break Periods
//Storyboard Layer 0 (Background)
//Storyboard Layer 1 (Fail)
//Storyboard Layer 2 (Pass)
//Storyboard Layer 3 (Foreground)
//Storyboard Layer 4 (Overlay)
//Storyboard Sound Samples

[TimingPoints]
2582,315.789473684211,4,2,1,30,1,0
12687,-100,4,2,1,40,0,0
17739,-100,4,2,1,50,0,0
22792,-100,4,2,1,60,0,0
43003,-100,4,2,1,60,0,1
64476,-100,4,2,1,50,0,0
74582,-100,4,2,1,60,0,0
94792,308.483290488432,4,2,1,60,1,0
94792,-102.040816326531,4,2,1,60,0,0
97259,300,4,2,1,60,1,0
97259,-105.263157894737,4,2,1,60,0,0
99659,279.06976744186,4,2,1,60,1,0
99659,-113.636363636364,4,2,1,60,0,0
103007,272.727272727273,4,2,1,60,1,0
103007,-116.279069767442,4,2,1,60,0,0
104097,-116.279069767442,4,2,1,60,0,1
122643,-116.279069767442,4,2,1,50,0,0
131370,-116.279069767442,4,2,1,60,0,0
151007,260.869565217393,4,2,1,60,1,0
151007,-120.481927710843,4,2,1,60,0,0
154137,252.631578947368,4,2,1,60,1,0
154137,-125,4,2,1,60,0,0
157168,244.897959183673,4,2,1,60,1,0
157168,-128.205128205128,4,2,1,60,0,0
160106,236.686390532545,4,2,1,60,1,0
160106,-133.333333333333,4,2,1,60,0,0
162946,230.76923076923,4,2,1,60,1,0
162946,-136.986301369863,4,2,1,60,0,0
165715,-136.986301369863,4,2,1,60,0,1
173099,-136.986301369863,4,2,1,60,0,0
176792,-136.986301369863,4,2,1,60,0,1
181407,-136.986301369863,4,2,1,50,0,0
188792,-136.986301369863,4,2,1,60,0,0
203561,226.415094339623,4,2,1,60,1,0
203561,-138.888888888889,4,2,1,60,0,0
204466,222.222222222222,4,2,1,60,1,0
204466,-142.857142857143,4,2,1,60,0,0
205354,218.181818181818,4,2,1,60,1,0
205354,-144.927536231884,4,2,1,60,0,0
206226,214.285714285714,4,2,1,60,1,0
206226,-147.058823529412,4,2,1,60,0,0
207083,210.526315789474,4,2,1,60,1,0
207083,-149.253731343284,4,2,1,60,0,0
207925,206.896551724138,4,2,1,60,1,0
207925,-151.515151515152,4,2,1,60,0,0
208752,203.389830508475,4,2,1,60,1,0
208752,-156.25,4,2,1,60,0,0
209565,200,4,2,1,60,1,0
209565,-158.730158730159,4,2,1,60,0,0
211965,-158.730158730159,4,2,1,60,0,1
222365,-158.730158730159,4,2,1,50,0,0
226765,266.666666666667,4,2,1,50,1,0
226765,-119.047619047619,4,2,1,50,0,0
227298,300,4,2,1,50,1,0
227298,-105.263157894737,4,2,1,50,0,0
227598,342.857142857143,4,2,1,50,1,0
227598,-91.743119266055,4,2,1,50,0,0
227940,400,4,2,1,50,1,0
227940,-78.740157480315,4,2,1,50,0,0
228340,480,4,2,1,50,1,0
228340,-65.7894736842105,4,2,1,50,0,0
228820,666.666666666667,4,2,1,50,1,0
228820,-47.39336492891,4,2,1,50,0,0
230153,1095.8904109589,4,2,1,50,1,0
230153,-28.8184438040346,4,2,1,50,0,0
232344,315.789473684211,4,2,1,50,1,0
233607,-100,4,2,1,60,0,0
253817,-100,4,2,1,40,0,0

[HitObjects]
320,192,2582,128,0,2739:0:0:0:0:
64,192,2739,1,0,0:0:0:0:
192,192,2897,128,0,3055:0:0:0:100:tick01.wav
320,192,3055,1,0,0:0:0:0:
448,192,3213,128,0,3371:0:0:0:0:
320,192,3371,1,0,0:0:0:0:
64,192,3529,128,0,3687:0:0:0:100:tick01.wav
192,192,3687,1,0,0:0:0:0:
320,192,3845,128,0,4003:0:0:0:0:
64,192,4003,1,0,0:0:0:0:
192,192,4160,128,0,4318:0:0:0:100:tick01.wav
448,192,4318,128,0,4476:0:0:0:0:
64,192,4476,1,0,0:0:0:0:
320,192,4634,128,0,4792:0:0:0:0:
64,192,4792,128,0,4950:0:0:0:100:tick01.wav
192,192,4950,1,0,0:0:0:0:
320,192,5108,128,0,5266:0:0:0:0:
64,192,5266,1,0,0:0:0:0:
192,192,5424,128,0,5582:0:0:0:100:tick01.wav
320,192,5582,1,0,0:0:0:0:
448,192,5739,128,0,5897:0:0:0:0:
64,192,5897,128,0,6055:0:0:0:0:
320,192,6055,1,0,0:0:0:100:tick01.wav
192,192,6213,128,0,6371:0:0:0:0:
448,192,6371,1,0,0:0:0:0:
320,192,6529,128,0,6687:0:0:0:0:
64,192,6687,1,0,0:0:0:100:tick01.wav
448,192,6845,128,0,7003:0:0:0:0:
192,192,7003,1,0,0:0:0:0:
64,192,7160,128,0,7318:0:0:0:0:
320,192,7318,128,0,7634:0:0:0:100:tick01.wav
192,192,7634,128,0,7792:0:0:0:0:
448,192,7792,1,0,0:0:0:0:
320,192,7950,128,0,8108:0:0:0:100:tick01.wav
192,192,8108,1,0,0:0:0:0:
64,192,8266,128,0,8424:0:0:0:0:
320,192,8424,128,0,8582:0:0:0:0:
192,192,8582,128,0,8739:0:0:0:100:tick01.wav
448,192,8739,1,0,0:0:0:0:
320,192,8897,1,0,0:0:0:0:
64,192,9055,128,0,9213:0:0:0:0:
448,192,9213,1,0,0:0:0:100:tick01.wav
192,192,9371,128,0,9529:0:0:0:0:
320,192,9687,128,0,9845:0:0:0:0:
64,192,9845,1,0,0:0:0:100:tick01.wav
192,192,10003,1,0,0:0:0:0:
448,192,10160,128,0,10318:0:0:0:0:
64,192,10318,1,0,0:0:0:0:
320,192,10476,128,0,10634:0:0:0:100:tick01.wav
192,192,10634,1,0,0:0:0:0:
64,192,10792,128,0,10950:0:0:0:0:
448,192,10950,1,0,0:0:0:0:
192,192,11108,128,0,11266:0:0:0:100:tick01.wav
320,192,11266,128,0,11424:0:0:0:0:
64,192,11424,1,0,0:0:0:0:
192,192,11582,128,0,11739:0:0:0:0:
448,192,11739,1,0,0:0:0:100:tick01.wav
64,192,11897,128,0,12055:0:0:0:0:
320,192,12055,128,0,12213:0:0:0:0:
192,192,12213,1,0,0:0:0:0:
448,192,12371,1,0,0:0:0:100:tick01.wav
192,192,12529,1,0,0:0:0:0:
320,192,12687,128,0,12845:0:0:0:0:
64,192,12845,1,0,0:0:0:0:
192,192,13003,128,0,13160:0:0:0:100:tick01.wav
320,192,13160,1,0,0:0:0:0:
448,192,13318,128,0,13476:0:0:0:0:
320,192,13476,1,0,0:0:0:0:
64,192,13634,128,0,13792:0:0:0:100:tick01.wav
192,192,13792,1,0,0:0:0:0:
320,192,13950,128,0,14108:0:0:0:0:
64,192,14108,1,0,0:0:0:0:
192,192,14266,128,0,14424:0:0:0:100:tick01.wav
448,192,14424,128,0,14582:0:0:0:0:
64,192,14582,1,0,0:0:0:0:
320,192,14739,128,0,14897:0:0:0:0:
64,192,14897,128,0,15055:0:0:0:100:tick01.wav
192,192,15055,1,0,0:0:0:0:
320,192,15213,128,2,15371:0:0:0:0:
64,192,15371,1,0,0:0:0:0:
192,192,15529,128,8,15687:0:0:0:0:
320,192,15687,1,0,0:0:0:0:
448,192,15845,128,0,16003:0:0:0:0:
64,192,16003,128,2,16160:0:0:0:0:
320,192,16160,1,8,0:0:0:0:
192,192,16318,128,0,16476:0:0:0:0:
448,192,16476,1,2,0:0:0:0:
320,192,16634,128,0,16792:0:0:0:0:
64,192,16792,1,8,0:0:0:0:
448,192,16950,128,0,17108:0:0:0:0:
192,192,17108,1,0,0:0:0:0:
64,192,17266,128,2,17424:0:0:0:0:
320,192,17424,128,8,17739:0:0:0:0:
64,192,17739,1,2,0:0:0:0:
192,192,17739,128,0,17897:0:0:0:0:
448,192,17897,1,0,0:0:0:0:
320,192,18055,128,8,18213:0:0:0:0:
192,192,18213,1,0,0:0:0:0:
64,192,18371,128,0,18529:0:0:0:0:
320,192,18529,128,2,18687:0:0:0:0:
192,192,18687,128,8,18845:0:0:0:0:
448,192,18845,1,0,0:0:0:0:
192,192,19003,1,2,0:0:0:0:
320,192,19003,1,0,0:0:0:0:
64,192,19160,128,0,19318:0:0:0:0:
448,192,19318,1,8,0:0:0:0:
192,192,19476,128,0,19634:0:0:0:0:
320,192,19792,128,2,19950:0:0:0:0:
64,192,19950,1,8,0:0:0:0:
192,192,20108,1,0,0:0:0:0:
320,192,20266,1,2,0:0:0:0:
448,192,20266,128,0,20424:0:0:0:0:
64,192,20424,1,0,0:0:0:0:
320,192,20582,128,8,20739:0:0:0:0:
192,192,20739,1,0,0:0:0:0:
64,192,20897,128,0,21055:0:0:0:0:
448,192,21055,1,2,0:0:0:0:
192,192,21213,128,8,21371:0:0:0:0:
320,192,21371,128,0,21529:0:0:0:0:
64,192,21529,1,2,0:0:0:0:
448,192,21529,1,0,0:0:0:0:
192,192,21687,1,0,0:0:0:0:
320,192,21845,1,8,0:0:0:0:
64,192,22003,1,0,0:0:0:0:
192,192,22082,1,0,0:0:0:0:
320,192,22160,1,0,0:0:0:0:
448,192,22318,1,2,0:0:0:0:
320,192,22397,1,0,0:0:0:0:
192,192,22476,1,8,0:0:0:0:
320,192,22634,1,0,0:0:0:0:
64,192,22792,1,4,0:0:0:0:
448,192,22792,1,2,0:0:0:0:
192,192,22950,1,0,0:0:0:0:
320,192,23108,1,8,0:0:0:0:
448,192,23108,1,0,0:0:0:0:
64,192,23266,1,0,0:0:0:0:
192,192,23424,1,0,0:0:0:0:
320,192,23582,1,2,0:0:0:0:
64,192,23739,1,8,0:0:0:0:
448,192,23739,1,0,0:0:0:0:
64,192,24055,1,2,0:0:0:0:
192,192,24213,1,0,0:0:0:0:
320,192,24371,1,8,0:0:0:0:
448,192,24371,1,0,0:0:0:0:
64,192,24529,1,0,0:0:0:0:
192,192,24687,1,0,0:0:0:0:
320,192,24845,1,2,0:0:0:0:
64,192,25003,1,8,0:0:0:0:
448,192,25003,1,0,0:0:0:0:
448,192,25318,1,2,0:0:0:0:
320,192,25476,1,0,0:0:0:0:
64,192,25634,1,8,0:0:0:0:
192,192,25634,1,0,0:0:0:0:
448,192,25792,1,0,0:0:0:0:
320,192,25950,1,0,0:0:0:0:
192,192,26108,1,2,0:0:0:0:
64,192,26266,1,8,0:0:0:0:
448,192,26266,1,0,0:0:0:0:
320,192,26424,1,0,0:0:0:0:
64,192,26582,1,2,0:0:0:0:
192,192,26739,1,0,0:0:0:0:
320,192,26897,1,8,0:0:0:0:
448,192,26897,1,0,0:0:0:0:
64,192,27055,1,0,0:0:0:0:
192,192,27213,1,0,0:0:0:0:
320,192,27371,1,2,0:0:0:0:
64,192,27529,1,8,0:0:0:0:
448,192,27529,1,0,0:0:0:0:
448,192,27845,1,2,0:0:0:0:
320,192,28003,1,0,0:0:0:0:
64,192,28160,1,8,0:0:0:0:
192,192,28160,1,0,0:0:0:0:
448,192,28318,1,0,0:0:0:0:
320,192,28476,1,0,0:0:0:0:
192,192,28634,1,2,0:0:0:0:
64,192,28792,1,8,0:0:0:0:
448,192,28792,1,0,0:0:0:0:
448,192,29108,1,2,0:0:0:0:
320,192,29266,1,0,0:0:0:0:
64,192,29424,1,8,0:0:0:0:
192,192,29424,1,0,0:0:0:0:
448,192,29582,1,0,0:0:0:0:
320,192,29739,1,0,0:0:0:0:
192,192,29897,1,2,0:0:0:0:
64,192,30055,1,8,0:0:0:0:
448,192,30055,1,0,0:0:0:0:
64,192,30371,1,2,0:0:0:0:
192,192,30529,1,0,0:0:0:0:
320,192,30687,1,8,0:0:0:0:
448,192,30687,1,0,0:0:0:0:
64,192,30845,1,0,0:0:0:0:
192,192,31003,1,0,0:0:0:0:
320,192,31160,1,2,0:0:0:0:
64,192,31318,1,8,0:0:0:0:
448,192,31318,1,0,0:0:0:0:
192,192,31476,1,0,0:0:0:0:
448,192,31634,1,2,0:0:0:0:
320,192,31792,1,0,0:0:0:0:
64,192,31950,1,8,0:0:0:0:
192,192,31950,1,0,0:0:0:0:
448,192,32108,1,0,0:0:0:0:
320,192,32266,1,0,0:0:0:0:
192,192,32424,1,2,0:0:0:0:
64,192,32582,1,8,0:0:0:0:
448,192,32582,1,0,0:0:0:0:
64,192,32897,1,4,0:0:0:0:
192,192,32897,1,2,0:0:0:0:
320,192,33055,1,0,0:0:0:0:
192,192,33213,1,8,0:0:0:0:
448,192,33213,1,0,0:0:0:0:
64,192,33371,1,0,0:0:0:0:
320,192,33529,1,0,0:0:0:0:
192,192,33687,1,2,0:0:0:0:
64,192,33845,1,8,0:0:0:0:
448,192,33845,1,0,0:0:0:0:
320,192,34160,1,2,0:0:0:0:
192,192,34318,1,0,0:0:0:0:
64,192,34476,1,8,0:0:0:0:
320,192,34476,1,0,0:0:0:0:
448,192,34634,1,0,0:0:0:0:
192,192,34792,1,0,0:0:0:0:
320,192,34950,1,2,0:0:0:0:
64,192,35108,1,8,0:0:0:0:
448,192,35108,1,0,0:0:0:0:
448,192,35424,1,2,0:0:0:0:
320,192,35582,1,0,0:0:0:0:
64,192,35739,1,8,0:0:0:0:
192,192,35739,1,0,0:0:0:0:
448,192,35897,1,0,0:0:0:0:
320,192,36055,1,0,0:0:0:0:
192,192,36213,1,2,0:0:0:0:
64,192,36371,1,8,0:0:0:0:
448,192,36371,1,0,0:0:0:0:
320,192,36529,1,0,0:0:0:0:
64,192,36687,1,2,0:0:0:0:
192,192,36845,1,0,0:0:0:0:
320,192,37003,1,8,0:0:0:0:
448,192,37003,1,0,0:0:0:0:
64,192,37160,1,0,0:0:0:0:
192,192,37318,1,0,0:0:0:0:
320,192,37476,1,2,0:0:0:0:
64,192,37634,1,8,0:0:0:0:
448,192,37634,1,0,0:0:0:0:
64,192,37950,1,2,0:0:0:0:
192,192,37950,1,4,0:0:0:0:
320,192,38108,1,2,0:0:0:0:
448,192,38266,1,2,0:0:0:0:
192,192,38424,1,2,0:0:0:0:
320,192,38582,1,2,0:0:0:0:
192,192,38739,1,2,0:0:0:0:
64,192,38897,1,2,0:0:0:0:
448,192,38897,1,0,0:0:0:70:snare16.wav
320,192,39213,1,2,0:0:0:0:
192,192,39371,1,2,0:0:0:0:
64,192,39529,1,2,0:0:0:0:
320,192,39687,1,2,0:0:0:0:
192,192,39845,1,2,0:0:0:0:
320,192,40003,1,2,0:0:0:0:
64,192,40160,1,2,0:0:0:0:
448,192,40160,1,0,0:0:0:70:snare16.wav
320,192,40476,1,2,0:0:0:0:
64,192,40634,1,2,0:0:0:0:
192,192,40713,1,2,0:0:0:0:
448,192,40792,1,2,0:0:0:0:
192,192,40950,1,2,0:0:0:0:
320,192,41029,1,2,0:0:0:0:
64,192,41108,1,2,0:0:0:0:
448,192,41266,1,2,0:0:0:0:
320,192,41345,1,2,0:0:0:0:
192,192,41424,1,2,0:0:0:0:
448,192,41582,1,2,0:0:0:0:
320,192,41660,1,2,0:0:0:0:
64,192,41739,128,6,42055:0:0:0:0:
192,192,41739,1,0,0:0:0:100:tick01.wav
320,192,42055,128,0,42371:0:0:0:50:S3.wav
64,192,42371,1,0,0:0:0:50:S3.wav
192,192,42529,1,0,0:0:0:50:S3.wav
320,192,42608,1,0,0:0:0:50:S3.wav
64,192,42687,1,8,0:0:0:0:
448,192,42687,1,0,0:0:0:100:hithit.wav
320,192,43003,1,4,0:0:0:0:
448,192,43003,128,2,43318:0:0:0:0:
64,192,43318,1,8,0:0:0:0:
192,192,43318,1,0,0:0:0:0:
320,192,43476,1,0,0:0:0:0:
64,192,43634,1,0,0:0:0:0:
192,192,43792,1,2,0:0:0:0:
320,192,43950,1,8,0:0:0:0:
448,192,43950,1,0,0:0:0:0:
192,192,44108,1,0,0:0:0:0:
320,192,44266,128,2,44582:0:0:0:0:
64,192,44582,1,8,0:0:0:0:
192,192,44582,1,0,0:0:0:0:
448,192,44739,1,0,0:0:0:0:
192,192,44818,1,2,0:0:0:0:
320,192,44976,1,0,0:0:0:0:
64,192,45055,1,2,0:0:0:0:
320,192,45213,1,8,0:0:0:0:
448,192,45213,128,0,45529:0:0:0:0:
192,192,45529,128,2,45845:0:0:0:0:
320,192,45845,1,8,0:0:0:0:
448,192,45845,1,0,0:0:0:0:
64,192,46003,1,0,0:0:0:0:
192,192,46160,1,0,0:0:0:0:
320,192,46318,1,2,0:0:0:0:
64,192,46476,1,8,0:0:0:0:
448,192,46476,1,0,0:0:0:0:
192,192,46634,1,0,0:0:0:0:
320,192,46792,128,2,47108:0:0:0:0:
64,192,47108,1,8,0:0:0:0:
192,192,47108,1,0,0:0:0:0:
448,192,47266,1,0,0:0:0:0:
192,192,47345,1,2,0:0:0:0:
320,192,47503,1,0,0:0:0:0:
64,192,47582,1,2,0:0:0:0:
320,192,47739,1,8,0:0:0:0:
448,192,47739,1,0,0:0:0:0:
192,192,47897,1,0,0:0:0:0:
64,192,48055,128,2,48371:0:0:0:0:
320,192,48371,1,8,0:0:0:0:
448,192,48371,1,0,0:0:0:0:
192,192,48529,1,0,0:0:0:0:
448,192,48687,1,0,0:0:0:0:
320,192,48845,1,2,0:0:0:0:
64,192,49003,1,8,0:0:0:0:
192,192,49003,1,0,0:0:0:0:
320,192,49160,1,0,0:0:0:0:
192,192,49318,128,2,49634:0:0:0:0:
320,192,49634,1,8,0:0:0:0:
448,192,49634,1,0,0:0:0:0:
64,192,49792,1,0,0:0:0:0:
320,192,49871,1,2,0:0:0:0:
192,192,50029,1,0,0:0:0:0:
448,192,50108,1,2,0:0:0:0:
64,192,50266,128,8,50582:0:0:0:0:
192,192,50266,1,0,0:0:0:0:
320,192,50582,128,2,50897:0:0:0:0:
64,192,50897,1,8,0:0:0:0:
192,192,50897,1,0,0:0:0:0:
448,192,51055,1,0,0:0:0:0:
320,192,51213,1,0,0:0:0:0:
192,192,51371,1,2,0:0:0:0:
64,192,51529,1,8,0:0:0:0:
448,192,51529,1,0,0:0:0:0:
320,192,51687,1,0,0:0:0:0:
192,192,51845,128,2,52160:0:0:0:0:
64,192,52160,1,8,0:0:0:0:
448,192,52160,1,4,0:0:0:0:
320,192,52318,1,0,0:0:0:0:
64,192,52397,1,2,0:0:0:0:
192,192,52555,1,0,0:0:0:0:
320,192,52634,1,2,0:0:0:0:
64,192,52792,1,8,0:0:0:0:
448,192,52792,1,4,0:0:0:0:
192,192,52950,1,0,0:0:0:0:
320,192,53108,1,4,0:0:0:0:
448,192,53108,128,2,53424:0:0:0:0:
64,192,53424,1,8,0:0:0:0:
192,192,53424,1,0,0:0:0:0:
320,192,53582,1,0,0:0:0:0:
192,192,53739,1,0,0:0:0:0:
64,192,53897,1,2,0:0:0:0:
320,192,54055,1,8,0:0:0:0:
448,192,54055,1,0,0:0:0:0:
192,192,54213,1,0,0:0:0:0:
320,192,54371,128,2,54687:0:0:0:0:
64,192,54687,1,8,0:0:0:0:
192,192,54687,1,0,0:0:0:0:
448,192,54845,1,0,0:0:0:0:
192,192,54924,1,2,0:0:0:0:
320,192,55082,1,0,0:0:0:0:
64,192,55160,1,2,0:0:0:0:
320,192,55318,1,8,0:0:0:0:
448,192,55318,128,0,55634:0:0:0:0:
192,192,55634,128,2,55950:0:0:0:0:
320,192,55950,1,8,0:0:0:0:
448,192,55950,1,0,0:0:0:0:
64,192,56108,1,0,0:0:0:0:
320,192,56266,1,0,0:0:0:0:
192,192,56424,1,2,0:0:0:0:
320,192,56582,1,8,0:0:0:0:
448,192,56582,1,0,0:0:0:0:
64,192,56739,1,0,0:0:0:0:
448,192,56897,128,2,57213:0:0:0:0:
64,192,57213,1,8,0:0:0:0:
192,192,57213,1,0,0:0:0:0:
320,192,57371,1,0,0:0:0:0:
64,192,57450,1,2,0:0:0:0:
448,192,57608,1,0,0:0:0:0:
192,192,57687,1,2,0:0:0:0:
320,192,57845,1,8,0:0:0:0:
448,192,57845,1,0,0:0:0:0:
192,192,58003,1,0,0:0:0:0:
64,192,58160,128,2,58476:0:0:0:0:
320,192,58476,1,8,0:0:0:0:
448,192,58476,1,0,0:0:0:0:
192,192,58634,1,0,0:0:0:0:
320,192,58792,1,0,0:0:0:0:
448,192,58950,1,2,0:0:0:0:
64,192,59108,1,8,0:0:0:0:
192,192,59108,1,0,0:0:0:0:
320,192,59266,1,0,0:0:0:0:
192,192,59424,128,2,59739:0:0:0:0:
320,192,59739,1,8,0:0:0:0:
448,192,59739,1,0,0:0:0:0:
64,192,59897,1,0,0:0:0:0:
320,192,59976,1,2,0:0:0:0:
192,192,60134,1,0,0:0:0:0:
448,192,60213,1,2,0:0:0:0:
64,192,60371,128,8,60687:0:0:0:0:
192,192,60371,1,0,0:0:0:0:
320,192,60687,128,2,61003:0:0:0:0:
64,192,61003,1,8,0:0:0:0:
192,192,61003,1,0,0:0:0:0:
448,192,61160,1,0,0:0:0:0:
192,192,61318,1,0,0:0:0:0:
320,192,61476,1,2,0:0:0:0:
64,192,61634,1,8,0:0:0:0:
192,192,61634,1,0,0:0:0:0:
448,192,61792,1,0,0:0:0:0:
64,192,61950,128,2,62266:0:0:0:0:
320,192,62266,1,8,0:0:0:0:
448,192,62266,1,4,0:0:0:0:
192,192,62424,1,0,0:0:0:0:
448,192,62503,1,2,0:0:0:0:
64,192,62660,1,0,0:0:0:0:
320,192,62739,1,2,0:0:0:0:
64,192,62897,1,8,0:0:0:0:
192,192,62897,1,4,0:0:0:0:
320,192,63055,1,0,0:0:0:0:
64,192,63213,1,6,0:0:0:0:
448,192,63213,1,0,0:0:0:50:S3.wav
192,192,63529,1,0,0:0:0:50:S3.wav
448,192,63845,128,0,64003:0:0:0:50:S3.wav
64,192,64003,1,0,0:0:0:50:S3.wav
192,192,64160,128,0,64318:0:0:0:50:S3.wav
320,192,64318,1,0,0:0:0:50:S3.wav
64,192,64476,1,2,0:0:0:0:
448,192,64476,128,4,65108:0:0:0:0:
192,192,65108,128,0,65739:0:0:0:0:
320,192,65739,128,0,66055:0:0:0:0:
64,192,66213,1,0,0:0:0:0:
192,192,66371,1,0,0:0:0:0:
448,192,66687,1,0,0:0:0:0:
320,192,66845,1,0,0:0:0:0:
192,192,67003,128,0,67318:0:0:0:0:
448,192,67318,1,0,0:0:0:0:
64,192,67476,1,0,0:0:0:0:
320,192,67634,1,0,0:0:0:0:
192,192,67792,1,0,0:0:0:0:
448,192,67950,1,0,0:0:0:0:
64,192,68108,1,0,0:0:0:0:
320,192,68266,128,0,68582:0:0:0:0:
192,192,68582,128,0,68897:0:0:0:0:
448,192,68897,128,0,69213:0:0:0:0:
64,192,69213,1,0,0:0:0:0:
192,192,69371,1,0,0:0:0:0:
320,192,69529,128,6,70160:0:0:0:0:
64,192,70160,128,0,70792:0:0:0:0:
448,192,70792,128,0,71266:0:0:0:0:
192,192,71266,1,0,0:0:0:0:
320,192,71424,1,0,0:0:0:0:
448,192,71739,1,0,0:0:0:0:
320,192,71897,1,0,0:0:0:0:
64,192,72055,128,0,72371:0:0:0:0:
320,192,72371,1,0,0:0:0:0:
448,192,72529,1,0,0:0:0:0:
192,192,72687,1,0,0:0:0:0:
320,192,72845,1,0,0:0:0:0:
64,192,73003,1,0,0:0:0:0:
192,192,73160,1,0,0:0:0:0:
448,192,73318,128,0,74266:0:0:0:50:S3.wav
64,192,73634,1,0,0:0:0:0:
192,192,73792,1,0,0:0:0:70:LR_Air Dart Snare.wav
320,192,74108,1,0,0:0:0:50:S3.wav
64,192,74266,1,0,0:0:0:70:LR_Air Dart Snare.wav
192,192,74266,1,0,0:0:0:0:
320,192,74582,1,4,0:0:0:0:
448,192,74582,128,2,74897:0:0:0:0:
64,192,74897,1,2,0:0:0:0:
192,192,74897,1,0,0:0:0:70:Clap.wav
320,192,75055,1,0,0:0:0:0:
64,192,75213,1,2,0:0:0:0:
192,192,75371,1,0,0:0:0:0:
320,192,75529,1,2,0:0:0:0:
448,192,75529,1,0,0:0:0:70:Clap.wav
192,192,75845,1,2,0:0:0:0:
448,192,76003,1,0,0:0:0:0:
320,192,76160,1,2,0:0:0:0:
64,192,76239,1,0,0:0:0:0:
192,192,76397,1,0,0:0:0:0:
448,192,76476,1,2,0:0:0:0:
320,192,76634,1,0,0:0:0:0:
64,192,76792,1,2,0:0:0:0:
192,192,76792,1,0,0:0:0:70:Clap.wav
320,192,76950,1,0,0:0:0:0:
64,192,77108,1,2,0:0:0:0:
192,192,77266,1,0,0:0:0:0:
320,192,77424,1,2,0:0:0:0:
448,192,77424,1,0,0:0:0:70:Clap.wav
192,192,77582,1,0,0:0:0:0:
448,192,77739,1,2,0:0:0:0:
320,192,77897,1,0,0:0:0:0:
64,192,78055,1,2,0:0:0:0:
192,192,78055,1,0,0:0:0:70:Clap.wav
320,192,78371,128,2,78687:0:0:0:0:
64,192,78687,1,2,0:0:0:0:
448,192,78687,1,0,0:0:0:70:Clap.wav
192,192,78845,1,0,0:0:0:0:
320,192,79003,1,2,0:0:0:0:
64,192,79160,128,0,79318:0:0:0:0:
320,192,79318,1,2,0:0:0:0:
448,192,79318,128,0,79476:0:0:0:70:Clap.wav
192,192,79476,1,2,0:0:0:0:
64,192,79634,128,2,79950:0:0:0:0:
320,192,79950,1,2,0:0:0:0:
448,192,79950,1,0,0:0:0:70:Clap.wav
192,192,80108,1,0,0:0:0:0:
448,192,80266,1,2,0:0:0:0:
320,192,80424,1,0,0:0:0:0:
64,192,80582,1,2,0:0:0:0:
192,192,80582,1,0,0:0:0:70:Clap.wav
448,192,80897,128,2,81055:0:0:0:0:
320,192,81055,1,0,0:0:0:0:
64,192,81134,128,0,81292:0:0:0:0:
320,192,81371,128,0,81529:0:0:0:0:
192,192,81529,1,2,0:0:0:0:
448,192,81687,1,0,0:0:0:0:
64,192,81845,1,2,0:0:0:0:
192,192,81845,1,0,0:0:0:70:Clap.wav
320,192,82003,1,0,0:0:0:0:
64,192,82160,1,2,0:0:0:0:
192,192,82318,1,0,0:0:0:0:
320,192,82476,1,2,0:0:0:0:
448,192,82476,1,0,0:0:0:70:Clap.wav
192,192,82634,1,0,0:0:0:0:
448,192,82792,1,2,0:0:0:0:
320,192,82950,1,0,0:0:0:0:
64,192,83108,1,2,0:0:0:0:
192,192,83108,1,0,0:0:0:70:Clap.wav
448,192,83266,1,2,0:0:0:0:
192,192,83424,1,2,0:0:0:0:
320,192,83582,1,0,0:0:0:0:
64,192,83739,1,2,0:0:0:0:
448,192,83739,1,0,0:0:0:70:Clap.wav
192,192,83897,1,2,0:0:0:0:
320,192,83976,1,2,0:0:0:0:
448,192,84055,1,2,0:0:0:0:
320,192,84213,1,2,0:0:0:0:
192,192,84292,1,2,0:0:0:0:
64,192,84371,1,2,0:0:0:0:
448,192,84371,1,0,0:0:0:70:Clap.wav
192,192,84529,1,2,0:0:0:0:
320,192,84608,1,2,0:0:0:0:
64,192,84687,128,4,85003:0:0:0:0:
448,192,84687,1,2,0:0:0:0:
320,192,85003,1,2,0:0:0:0:
448,192,85003,1,0,0:0:0:70:Clap.wav
192,192,85160,1,0,0:0:0:0:
320,192,85318,1,2,0:0:0:0:
448,192,85476,1,0,0:0:0:0:
64,192,85634,1,2,0:0:0:0:
192,192,85634,1,0,0:0:0:70:Clap.wav
320,192,85792,1,0,0:0:0:0:
64,192,85950,1,2,0:0:0:0:
192,192,86108,1,0,0:0:0:0:
320,192,86266,1,2,0:0:0:0:
448,192,86266,1,0,0:0:0:70:Clap.wav
64,192,86424,1,0,0:0:0:0:
448,192,86582,1,2,0:0:0:0:
320,192,86739,1,0,0:0:0:0:
64,192,86897,1,2,0:0:0:0:
192,192,86897,1,0,0:0:0:70:Clap.wav
320,192,87055,1,0,0:0:0:0:
64,192,87213,128,2,87529:0:0:0:0:
320,192,87529,1,2,0:0:0:0:
448,192,87529,1,0,0:0:0:70:Clap.wav
192,192,87687,1,0,0:0:0:0:
320,192,87845,1,2,0:0:0:0:
448,192,88003,1,0,0:0:0:0:
64,192,88160,1,2,0:0:0:0:
192,192,88160,1,0,0:0:0:70:Clap.wav
320,192,88318,1,0,0:0:0:0:
448,192,88476,1,2,0:0:0:0:
192,192,88634,1,0,0:0:0:0:
64,192,88792,1,2,0:0:0:0:
448,192,88792,1,0,0:0:0:70:Clap.wav
320,192,88950,1,0,0:0:0:0:
64,192,89108,1,2,0:0:0:0:
192,192,89266,1,0,0:0:0:0:
320,192,89424,1,2,0:0:0:0:
448,192,89424,1,0,0:0:0:70:Clap.wav
192,192,89582,1,2,0:0:0:0:
448,192,89739,128,2,90055:0:0:0:0:
64,192,90055,1,2,0:0:0:0:
192,192,90055,1,0,0:0:0:70:Clap.wav
320,192,90213,1,0,0:0:0:0:
192,192,90371,1,2,0:0:0:0:
64,192,90529,1,0,0:0:0:0:
320,192,90687,1,2,0:0:0:0:
448,192,90687,1,0,0:0:0:70:Clap.wav
192,192,90845,1,0,0:0:0:0:
448,192,91003,1,2,0:0:0:0:
320,192,91160,1,0,0:0:0:0:
64,192,91318,1,2,0:0:0:0:
192,192,91318,1,0,0:0:0:70:Clap.wav
448,192,91476,1,0,0:0:0:0:
64,192,91634,1,2,0:0:0:0:
192,192,91792,1,0,0:0:0:0:
320,192,91950,1,2,0:0:0:0:
448,192,91950,1,0,0:0:0:70:Clap.wav
192,192,92108,1,0,0:0:0:0:
448,192,92266,128,2,92582:0:0:0:0:
64,192,92582,1,2,0:0:0:0:
192,192,92582,1,0,0:0:0:70:Clap.wav
320,192,92739,1,0,0:0:0:0:
192,192,92897,1,2,0:0:0:0:
64,192,93055,1,0,0:0:0:0:
320,192,93213,1,2,0:0:0:0:
448,192,93213,1,0,0:0:0:70:Clap.wav
192,192,93371,1,2,0:0:0:0:
64,192,93529,1,2,0:0:0:0:
320,192,93687,1,0,0:0:0:0:
192,192,93766,1,0,0:0:0:0:
64,192,93845,1,2,0:0:0:0:
448,192,93845,1,0,0:0:0:70:Clap.wav
320,192,94003,1,2,0:0:0:0:
192,192,94082,1,2,0:0:0:0:
448,192,94160,1,2,0:0:0:0:
192,192,94318,1,2,0:0:0:0:
320,192,94397,1,2,0:0:0:0:
64,192,94476,1,2,0:0:0:0:
448,192,94476,1,0,0:0:0:0:
320,192,94634,1,2,0:0:0:0:
192,192,94713,1,2,0:0:0:0:
64,192,94792,1,2,0:0:0:0:
448,192,94792,1,4,0:0:0:0:
320,192,94946,1,0,0:0:0:0:
192,192,95100,1,2,0:0:0:0:
320,192,95254,1,0,0:0:0:0:
64,192,95408,1,2,0:0:0:0:
192,192,95563,1,0,0:0:0:0:
320,192,95717,1,2,0:0:0:0:
448,192,95717,1,0,0:0:0:70:snare16.wav
64,192,96025,1,2,0:0:0:0:
448,192,96025,1,0,0:0:0:0:
320,192,96180,1,0,0:0:0:0:
192,192,96334,1,2,0:0:0:0:
320,192,96488,1,0,0:0:0:0:
64,192,96642,1,2,0:0:0:0:
192,192,96797,1,0,0:0:0:0:
320,192,96951,1,2,0:0:0:0:
448,192,96951,1,0,0:0:0:70:snare16.wav
64,192,97259,1,2,0:0:0:0:
448,192,97259,1,0,0:0:0:0:
320,192,97409,1,0,0:0:0:0:
192,192,97559,1,2,0:0:0:0:
320,192,97709,1,0,0:0:0:0:
64,192,97859,1,2,0:0:0:0:
192,192,98009,1,0,0:0:0:0:
320,192,98159,1,2,0:0:0:0:
448,192,98159,1,0,0:0:0:0:
192,192,98309,1,0,0:0:0:0:
448,192,98459,1,2,0:0:0:0:
320,192,98609,1,0,0:0:0:0:
64,192,98759,1,2,0:0:0:0:
192,192,98759,1,0,0:0:0:0:
448,192,98909,1,0,0:0:0:0:
320,192,99059,1,2,0:0:0:0:
64,192,99209,1,0,0:0:0:0:
320,192,99359,1,2,0:0:0:0:
448,192,99359,1,0,0:0:0:0:
64,192,99659,1,2,0:0:0:0:
448,192,99659,1,4,0:0:0:0:
192,192,99798,1,2,0:0:0:0:
320,192,99938,1,2,0:0:0:0:
448,192,100077,1,2,0:0:0:0:
64,192,100217,1,2,0:0:0:0:
192,192,100356,1,2,0:0:0:0:
320,192,100496,1,2,0:0:0:0:
448,192,100496,1,0,0:0:0:70:snare16.wav
64,192,100775,1,2,0:0:0:0:
448,192,100775,1,0,0:0:0:0:
320,192,100914,1,2,0:0:0:0:
192,192,101054,1,2,0:0:0:0:
64,192,101193,1,2,0:0:0:0:
448,192,101333,1,2,0:0:0:0:
320,192,101472,1,2,0:0:0:0:
64,192,101612,1,2,0:0:0:0:
192,192,101612,1,0,0:0:0:70:snare16.wav
448,192,101891,1,2,0:0:0:0:
64,192,102031,1,2,0:0:0:0:
192,192,102100,1,2,0:0:0:0:
320,192,102170,1,2,0:0:0:0:
64,192,102310,1,2,0:0:0:0:
448,192,102379,1,2,0:0:0:0:
192,192,102449,1,2,0:0:0:0:
448,192,102589,1,2,0:0:0:0:
320,192,102659,1,2,0:0:0:0:
64,192,102728,1,2,0:0:0:0:
448,192,102868,1,2,0:0:0:0:
320,192,102938,1,2,0:0:0:0:
64,192,103007,128,6,103279:0:0:0:0:
192,192,103007,1,0,0:0:0:100:tick01.wav
320,192,103279,128,0,103552:0:0:0:50:S3.wav
64,192,103552,1,0,0:0:0:50:S3.wav
192,192,103688,1,0,0:0:0:50:S3.wav
320,192,103757,1,0,0:0:0:50:S3.wav
64,192,103825,1,8,0:0:0:0:
448,192,103825,1,0,0:0:0:100:hithit.wav
320,192,104097,1,2,0:0:0:0:
448,192,104097,1,4,0:0:0:0:
64,192,104370,1,8,0:0:0:0:
192,192,104370,1,2,0:0:0:0:
320,192,104507,1,0,0:0:0:0:
64,192,104643,1,2,0:0:0:0:
192,192,104779,1,0,0:0:0:0:
320,192,104916,1,2,0:0:0:0:
448,192,104916,1,8,0:0:0:0:
192,192,105052,1,2,0:0:0:0:
448,192,105188,1,2,0:0:0:0:
320,192,105325,1,0,0:0:0:0:
64,192,105461,1,8,0:0:0:0:
192,192,105461,1,2,0:0:0:0:
448,192,105597,1,0,0:0:0:0:
192,192,105734,1,2,0:0:0:0:
320,192,105870,1,2,0:0:0:0:
64,192,106007,1,2,0:0:0:0:
448,192,106007,1,8,0:0:0:0:
192,192,106143,1,2,0:0:0:0:
448,192,106279,1,2,0:0:0:0:
320,192,106416,1,2,0:0:0:0:
64,192,106552,1,2,0:0:0:0:
192,192,106552,1,8,0:0:0:0:
448,192,106688,1,0,0:0:0:0:
64,192,106825,1,2,0:0:0:0:
192,192,106961,1,0,0:0:0:0:
320,192,107097,1,8,0:0:0:0:
448,192,107097,1,2,0:0:0:0:
192,192,107234,1,2,0:0:0:0:
64,192,107370,1,2,0:0:0:0:
320,192,107507,1,0,0:0:0:0:
64,192,107643,1,2,0:0:0:0:
192,192,107643,1,8,0:0:0:0:
448,192,107779,1,0,0:0:0:0:
320,192,107916,1,2,0:0:0:0:
192,192,108052,1,2,0:0:0:0:
64,192,108188,1,8,0:0:0:0:
448,192,108188,1,2,0:0:0:0:
320,192,108325,1,2,0:0:0:0:
192,192,108461,1,2,0:0:0:0:
320,192,108734,1,2,0:0:0:0:
448,192,108734,1,8,0:0:0:0:
192,192,108870,1,0,0:0:0:0:
448,192,109007,1,2,0:0:0:0:
320,192,109143,1,0,0:0:0:0:
64,192,109279,1,8,0:0:0:0:
192,192,109279,1,2,0:0:0:0:
320,192,109416,1,2,0:0:0:0:
64,192,109552,1,2,0:0:0:0:
192,192,109688,1,0,0:0:0:0:
320,192,109825,1,2,0:0:0:0:
448,192,109825,1,8,0:0:0:0:
64,192,109961,1,0,0:0:0:0:
320,192,110097,1,2,0:0:0:0:
192,192,110234,1,2,0:0:0:0:
64,192,110370,1,8,0:0:0:0:
448,192,110370,1,2,0:0:0:0:
320,192,110507,1,2,0:0:0:0:
64,192,110643,1,2,0:0:0:0:
192,192,110779,1,2,0:0:0:0:
320,192,110916,1,8,0:0:0:0:
448,192,110916,1,2,0:0:0:0:
64,192,111052,1,0,0:0:0:0:
448,192,111188,1,2,0:0:0:0:
320,192,111325,1,0,0:0:0:0:
64,192,111461,1,2,0:0:0:0:
192,192,111461,1,8,0:0:0:0:
448,192,111597,1,2,0:0:0:0:
320,192,111734,1,2,0:0:0:0:
192,192,111870,1,2,0:0:0:0:
64,192,112007,1,10,0:0:0:0:
448,192,112007,1,4,0:0:0:0:
192,192,112279,1,2,0:0:0:0:
320,192,112416,1,2,0:0:0:0:
64,192,112552,1,10,0:0:0:0:
448,192,112552,1,4,0:0:0:0:
320,192,112825,1,2,0:0:0:0:
448,192,112825,1,4,0:0:0:0:
64,192,113097,1,8,0:0:0:0:
192,192,113097,1,2,0:0:0:0:
320,192,113234,1,0,0:0:0:0:
64,192,113370,1,2,0:0:0:0:
192,192,113507,1,0,0:0:0:0:
320,192,113643,1,2,0:0:0:0:
448,192,113643,1,8,0:0:0:0:
192,192,113779,1,2,0:0:0:0:
448,192,113916,128,2,114188:0:0:0:0:
64,192,114188,1,8,0:0:0:0:
192,192,114188,1,2,0:0:0:0:
320,192,114325,1,0,0:0:0:0:
192,192,114461,1,2,0:0:0:0:
320,192,114597,1,2,0:0:0:0:
64,192,114734,1,2,0:0:0:0:
448,192,114734,1,8,0:0:0:0:
192,192,114870,1,2,0:0:0:0:
448,192,115007,1,2,0:0:0:0:
320,192,115143,1,2,0:0:0:0:
64,192,115279,1,2,0:0:0:0:
192,192,115279,1,8,0:0:0:0:
448,192,115416,1,0,0:0:0:0:
64,192,115552,1,2,0:0:0:0:
192,192,115688,1,0,0:0:0:0:
320,192,115825,1,8,0:0:0:0:
448,192,115825,1,2,0:0:0:0:
192,192,115961,1,2,0:0:0:0:
64,192,116097,128,2,116370:0:0:0:0:
320,192,116370,1,2,0:0:0:0:
448,192,116370,1,8,0:0:0:0:
192,192,116507,1,0,0:0:0:0:
320,192,116643,1,2,0:0:0:0:
448,192,116779,1,2,0:0:0:0:
64,192,116916,1,8,0:0:0:0:
192,192,116916,1,2,0:0:0:0:
320,192,117052,1,2,0:0:0:0:
448,192,117188,1,2,0:0:0:0:
64,192,117461,1,2,0:0:0:0:
192,192,117461,1,8,0:0:0:0:
320,192,117597,1,0,0:0:0:0:
64,192,117734,1,2,0:0:0:0:
192,192,117870,1,0,0:0:0:0:
320,192,118007,1,8,0:0:0:0:
448,192,118007,1,2,0:0:0:0:
192,192,118143,1,2,0:0:0:0:
448,192,118279,128,2,118552:0:0:0:0:
64,192,118552,1,2,0:0:0:0:
192,192,118552,1,8,0:0:0:0:
320,192,118688,1,0,0:0:0:0:
192,192,118825,1,2,0:0:0:0:
320,192,118961,1,2,0:0:0:0:
64,192,119097,1,8,0:0:0:0:
448,192,119097,1,2,0:0:0:0:
192,192,119234,1,2,0:0:0:0:
448,192,119370,1,2,0:0:0:0:
320,192,119507,1,2,0:0:0:0:
64,192,119643,1,8,0:0:0:0:
192,192,119643,1,2,0:0:0:0:
448,192,119779,1,0,0:0:0:0:
64,192,119916,1,2,0:0:0:0:
192,192,120052,1,0,0:0:0:0:
320,192,120188,1,2,0:0:0:0:
448,192,120188,1,8,0:0:0:0:
64,192,120325,1,2,0:0:0:0:
192,192,120461,1,2,0:0:0:0:
320,192,120597,1,2,0:0:0:0:
64,192,120734,1,10,0:0:0:0:
448,192,120734,1,4,0:0:0:0:
320,192,121007,1,2,0:0:0:0:
192,192,121143,1,2,0:0:0:0:
64,192,121279,1,10,0:0:0:0:
448,192,121279,1,4,0:0:0:0:
320,192,121552,1,2,0:0:0:0:
448,192,121552,1,4,0:0:0:0:
192,192,121825,1,0,0:0:0:50:S3.wav
448,192,122097,128,0,122234:0:0:0:50:S3.wav
64,192,122234,1,0,0:0:0:50:S3.wav
192,192,122370,128,0,122507:0:0:0:50:S3.wav
320,192,122507,1,0,0:0:0:50:S3.wav
64,192,122643,1,4,0:0:0:0:
448,192,122643,128,2,123188:0:0:0:0:
192,192,123188,128,0,123734:0:0:0:0:
320,192,123734,128,0,124007:0:0:0:0:
64,192,124143,1,0,0:0:0:0:
192,192,124279,1,0,0:0:0:0:
448,192,124552,1,0,0:0:0:0:
320,192,124688,1,0,0:0:0:0:
192,192,124825,128,0,125097:0:0:0:0:
448,192,125097,1,0,0:0:0:0:
64,192,125234,1,0,0:0:0:0:
320,192,125370,1,0,0:0:0:0:
192,192,125507,1,0,0:0:0:0:
448,192,125643,1,0,0:0:0:0:
64,192,125779,1,0,0:0:0:0:
320,192,125916,128,0,126188:0:0:0:0:
192,192,126188,128,0,126461:0:0:0:0:
448,192,126461,128,0,126734:0:0:0:0:
64,192,126734,1,0,0:0:0:0:
192,192,126870,1,0,0:0:0:0:
320,192,127007,128,6,127552:0:0:0:0:
64,192,127552,128,0,128097:0:0:0:0:
448,192,128097,128,0,128507:0:0:0:0:
192,192,128507,1,0,0:0:0:0:
320,192,128643,1,0,0:0:0:0:
448,192,128916,1,0,0:0:0:0:
320,192,129052,1,0,0:0:0:0:
64,192,129188,128,0,129461:0:0:0:0:
320,192,129461,1,0,0:0:0:0:
448,192,129597,1,0,0:0:0:0:
192,192,129734,1,0,0:0:0:0:
320,192,129870,1,0,0:0:0:0:
64,192,130007,1,0,0:0:0:0:
192,192,130143,1,0,0:0:0:0:
448,192,130279,128,0,131097:0:0:0:50:S3.wav
64,192,130552,1,0,0:0:0:0:
192,192,130688,1,0,0:0:0:70:LR_Air Dart Snare.wav
320,192,130961,1,0,0:0:0:50:S3.wav
64,192,131097,1,0,0:0:0:70:LR_Air Dart Snare.wav
192,192,131097,1,0,0:0:0:0:
320,192,131370,1,2,0:0:0:0:
448,192,131370,128,4,131643:0:0:0:0:
64,192,131643,1,2,0:0:0:0:
192,192,131643,1,0,0:0:0:70:Clap.wav
320,192,131779,1,0,0:0:0:0:
64,192,131916,1,2,0:0:0:0:
192,192,132052,1,0,0:0:0:0:
320,192,132188,1,2,0:0:0:0:
448,192,132188,1,0,0:0:0:70:Clap.wav
448,192,132461,1,2,0:0:0:0:
64,192,132597,128,0,132734:0:0:0:0:
320,192,132734,1,2,0:0:0:0:
192,192,132870,128,0,133007:0:0:0:0:
448,192,133007,1,2,0:0:0:0:
320,192,133143,1,0,0:0:0:0:
64,192,133279,1,2,0:0:0:0:
192,192,133279,1,0,0:0:0:70:Clap.wav
64,192,133552,1,2,0:0:0:0:
192,192,133688,1,0,0:0:0:0:
320,192,133825,1,2,0:0:0:0:
448,192,133825,1,0,0:0:0:70:Clap.wav
192,192,133961,1,0,0:0:0:0:
448,192,134097,1,2,0:0:0:0:
320,192,134234,1,0,0:0:0:0:
64,192,134370,1,2,0:0:0:0:
192,192,134370,1,0,0:0:0:70:Clap.wav
320,192,134643,128,2,134916:0:0:0:0:
64,192,134916,1,2,0:0:0:0:
448,192,134916,1,0,0:0:0:70:Clap.wav
192,192,135052,1,0,0:0:0:0:
320,192,135188,1,2,0:0:0:0:
64,192,135325,128,0,135461:0:0:0:0:
320,192,135461,1,2,0:0:0:0:
448,192,135461,128,0,135734:0:0:0:70:Clap.wav
64,192,135734,128,2,136007:0:0:0:0:
320,192,136007,1,2,0:0:0:0:
448,192,136007,1,0,0:0:0:70:Clap.wav
192,192,136143,1,0,0:0:0:0:
448,192,136279,1,2,0:0:0:0:
320,192,136416,1,0,0:0:0:0:
64,192,136552,1,2,0:0:0:0:
192,192,136552,1,0,0:0:0:70:Clap.wav
448,192,136825,128,2,136961:0:0:0:0:
320,192,136961,1,0,0:0:0:0:
64,192,137029,128,0,137166:0:0:0:0:
320,192,137234,128,0,137370:0:0:0:0:
192,192,137370,1,2,0:0:0:0:
448,192,137507,1,0,0:0:0:0:
64,192,137643,1,2,0:0:0:0:
192,192,137643,1,0,0:0:0:70:Clap.wav
320,192,137916,1,2,0:0:0:0:
192,192,138052,1,0,0:0:0:0:
64,192,138188,1,2,0:0:0:0:
448,192,138188,1,0,0:0:0:70:Clap.wav
320,192,138325,1,0,0:0:0:0:
192,192,138461,1,2,0:0:0:0:
320,192,138597,1,0,0:0:0:0:
64,192,138734,1,2,0:0:0:0:
448,192,138734,1,0,0:0:0:70:Clap.wav
192,192,139007,1,2,0:0:0:0:
320,192,139143,1,0,0:0:0:50:S3.wav
64,192,139279,1,2,0:0:0:0:
448,192,139279,1,0,0:0:0:70:Clap.wav
192,192,139416,1,0,0:0:0:50:S3.wav
320,192,139552,1,2,0:0:0:0:
448,192,139688,1,0,0:0:0:50:S3.wav
64,192,139825,1,2,0:0:0:0:
192,192,139825,1,0,0:0:0:70:Clap.wav
64,192,140097,128,4,140370:0:0:0:0:
448,192,140097,1,2,0:0:0:0:
320,192,140370,1,2,0:0:0:0:
448,192,140370,1,0,0:0:0:70:Clap.wav
192,192,140507,1,0,0:0:0:0:
320,192,140643,1,2,0:0:0:0:
448,192,140779,1,0,0:0:0:0:
64,192,140916,1,2,0:0:0:0:
192,192,140916,1,0,0:0:0:70:Clap.wav
64,192,141188,1,2,0:0:0:0:
192,192,141325,1,0,0:0:0:0:
320,192,141461,1,2,0:0:0:0:
448,192,141461,1,0,0:0:0:70:Clap.wav
64,192,141597,1,0,0:0:0:0:
448,192,141734,1,2,0:0:0:0:
320,192,141870,1,0,0:0:0:0:
64,192,142007,1,2,0:0:0:0:
192,192,142007,1,0,0:0:0:70:Clap.wav
64,192,142279,128,2,142552:0:0:0:0:
320,192,142552,1,2,0:0:0:0:
448,192,142552,1,0,0:0:0:70:Clap.wav
192,192,142688,1,0,0:0:0:0:
320,192,142825,1,2,0:0:0:0:
448,192,142961,1,0,0:0:0:0:
64,192,143097,1,2,0:0:0:0:
192,192,143097,1,0,0:0:0:70:Clap.wav
320,192,143370,1,2,0:0:0:0:
192,192,143507,1,0,0:0:0:0:
64,192,143643,1,2,0:0:0:0:
448,192,143643,1,0,0:0:0:70:Clap.wav
320,192,143779,1,0,0:0:0:0:
64,192,143916,1,2,0:0:0:0:
192,192,144052,1,0,0:0:0:0:
320,192,144188,1,2,0:0:0:0:
448,192,144188,1,0,0:0:0:70:Clap.wav
448,192,144461,128,2,144734:0:0:0:0:
64,192,144734,1,2,0:0:0:0:
192,192,144734,1,0,0:0:0:70:Clap.wav
320,192,144870,1,0,0:0:0:0:
192,192,145007,1,2,0:0:0:0:
64,192,145143,1,0,0:0:0:0:
320,192,145279,1,2,0:0:0:0:
448,192,145279,1,0,0:0:0:70:Clap.wav
448,192,145552,1,2,0:0:0:0:
320,192,145688,1,0,0:0:0:0:
64,192,145825,1,2,0:0:0:0:
192,192,145825,1,0,0:0:0:70:Clap.wav
448,192,145961,1,0,0:0:0:0:
64,192,146097,1,2,0:0:0:0:
192,192,146234,1,0,0:0:0:0:
320,192,146370,1,2,0:0:0:0:
448,192,146370,1,0,0:0:0:70:Clap.wav
448,192,146643,128,2,146916:0:0:0:0:
64,192,146916,1,2,0:0:0:0:
192,192,146916,1,0,0:0:0:70:Clap.wav
320,192,147052,1,0,0:0:0:0:
192,192,147188,1,2,0:0:0:0:
64,192,147325,1,0,0:0:0:0:
320,192,147461,1,2,0:0:0:0:
448,192,147461,1,0,0:0:0:70:Clap.wav
192,192,147734,1,2,0:0:0:0:
320,192,147870,1,0,0:0:0:0:
64,192,148007,1,2,0:0:0:0:
448,192,148007,1,0,0:0:0:70:Clap.wav
192,192,148143,1,0,0:0:0:0:
320,192,148279,1,2,0:0:0:0:
192,192,148416,1,0,0:0:0:0:
64,192,148552,1,2,0:0:0:0:
448,192,148552,1,0,0:0:0:70:Clap.wav
320,192,148825,1,4,0:0:0:0:
448,192,148825,1,2,0:0:0:0:
64,192,149097,1,2,0:0:0:0:
192,192,149097,1,0,0:0:0:0:
320,192,149370,1,2,0:0:0:0:
448,192,149370,1,0,0:0:0:0:
64,192,149643,1,2,0:0:0:0:
448,192,149643,1,0,0:0:0:70:snare16.wav
320,192,149916,1,2,0:0:0:0:
448,192,149916,1,0,0:0:0:0:
64,192,150188,1,2,0:0:0:0:
192,192,150188,1,0,0:0:0:0:
320,192,150461,1,2,0:0:0:0:
448,192,150461,1,0,0:0:0:0:
64,192,150734,1,2,0:0:0:0:
448,192,150734,1,0,0:0:0:70:snare16.wav
320,192,151007,1,2,0:0:0:0:
192,192,151137,1,0,0:0:0:0:
64,192,151267,1,2,0:0:0:0:
448,192,151398,1,0,0:0:0:0:
320,192,151528,1,2,0:0:0:0:
192,192,151659,1,0,0:0:0:0:
64,192,151789,1,2,0:0:0:0:
448,192,151789,1,0,0:0:0:0:
320,192,152050,1,2,0:0:0:0:
448,192,152050,1,0,0:0:0:0:
64,192,152311,1,2,0:0:0:0:
192,192,152311,1,0,0:0:0:0:
320,192,152572,1,2,0:0:0:0:
192,192,152702,1,2,0:0:0:0:
64,192,152833,1,2,0:0:0:0:
448,192,152833,1,0,0:0:0:70:snare16.wav
64,192,153093,1,2,0:0:0:0:
192,192,153093,1,0,0:0:0:0:
320,192,153354,1,2,0:0:0:0:
448,192,153354,1,0,0:0:0:0:
64,192,153615,1,2,0:0:0:0:
192,192,153615,1,0,0:0:0:0:
64,192,153876,1,2,0:0:0:0:
448,192,153876,1,0,0:0:0:70:snare16.wav
64,192,154137,1,2,0:0:0:0:
192,192,154137,1,0,0:0:0:0:
320,192,154389,1,2,0:0:0:0:
448,192,154389,1,0,0:0:0:0:
64,192,154642,1,2,0:0:0:0:
192,192,154642,1,0,0:0:0:0:
64,192,154894,1,2,0:0:0:0:
448,192,154894,1,0,0:0:0:70:snare16.wav
192,192,155147,1,2,0:0:0:0:
320,192,155273,1,0,0:0:0:0:
448,192,155400,1,2,0:0:0:0:
64,192,155526,1,0,0:0:0:0:
192,192,155652,1,2,0:0:0:0:
320,192,155779,1,0,0:0:0:0:
64,192,155905,1,2,0:0:0:0:
448,192,155905,1,0,0:0:0:0:
320,192,156158,1,2,0:0:0:0:
448,192,156158,1,0,0:0:0:0:
64,192,156410,1,2,0:0:0:0:
192,192,156410,1,0,0:0:0:0:
320,192,156663,1,2,0:0:0:0:
448,192,156663,1,0,0:0:0:0:
64,192,156915,1,2,0:0:0:0:
448,192,156915,1,0,0:0:0:70:snare16.wav
64,192,157168,1,2,0:0:0:0:
192,192,157168,1,4,0:0:0:0:
320,192,157412,1,2,0:0:0:0:
448,192,157412,1,0,0:0:0:0:
64,192,157657,1,2,0:0:0:0:
192,192,157657,1,0,0:0:0:0:
64,192,157902,1,2,0:0:0:0:
448,192,157902,1,0,0:0:0:70:snare16.wav
320,192,158147,1,2,0:0:0:0:
448,192,158147,1,0,0:0:0:0:
64,192,158392,1,2,0:0:0:0:
192,192,158392,1,0,0:0:0:0:
320,192,158637,1,2,0:0:0:0:
448,192,158637,1,0,0:0:0:0:
64,192,158882,1,2,0:0:0:0:
448,192,158882,1,0,0:0:0:70:snare16.wav
320,192,159127,1,2,0:0:0:0:
192,192,159249,1,0,0:0:0:0:
64,192,159372,1,2,0:0:0:0:
448,192,159494,1,0,0:0:0:0:
320,192,159616,1,2,0:0:0:0:
192,192,159739,1,0,0:0:0:0:
64,192,159861,1,2,0:0:0:0:
448,192,159861,1,0,0:0:0:0:
192,192,160106,1,2,0:0:0:0:
320,192,160224,1,0,0:0:0:0:
448,192,160342,1,2,0:0:0:0:
64,192,160461,1,0,0:0:0:0:
192,192,160579,1,2,0:0:0:0:
320,192,160697,1,2,0:0:0:0:
64,192,160816,1,2,0:0:0:0:
448,192,160816,1,0,0:0:0:0:
320,192,161052,1,2,0:0:0:0:
448,192,161052,128,4,161289:0:0:0:0:
64,192,161289,1,2,0:0:0:0:
192,192,161289,128,0,161526:0:0:0:0:
320,192,161526,128,2,161762:0:0:0:0:
448,192,161526,1,0,0:0:0:0:
64,192,161762,128,2,161999:0:0:0:0:
192,192,161762,1,0,0:0:0:70:snare16.wav
320,192,161999,1,2,0:0:0:0:
448,192,161999,128,0,162236:0:0:0:0:
64,192,162236,1,2,0:0:0:0:
192,192,162236,128,0,162472:0:0:0:0:
320,192,162472,128,2,162709:0:0:0:0:
448,192,162472,1,0,0:0:0:0:
64,192,162709,128,2,162946:0:0:0:0:
192,192,162709,1,0,0:0:0:70:snare16.wav
320,192,162946,1,2,0:0:0:0:
448,192,162946,128,0,163176:0:0:0:0:
192,192,163176,1,2,0:0:0:0:
320,192,163292,1,2,0:0:0:0:
64,192,163407,1,2,0:0:0:0:
192,192,163407,128,0,163638:0:0:0:0:
448,192,163638,1,2,0:0:0:0:
320,192,163753,1,2,0:0:0:0:
64,192,163869,1,6,0:0:0:0:
192,192,163869,1,0,0:0:0:100:tick01.wav
320,192,164099,1,0,0:0:0:100:tick01.wav
192,192,164330,128,0,164792:0:0:0:100:tick01.wav
320,192,164792,128,0,165253:0:0:0:100:tick01.wav
192,192,165253,1,8,0:0:0:0:
448,192,165484,1,8,0:0:0:0:
320,192,165599,1,8,0:0:0:0:
64,192,165715,1,4,0:0:0:0:
192,192,165715,1,2,0:0:0:0:
320,192,165946,1,0,0:0:0:0:
192,192,166061,1,0,0:0:0:0:
64,192,166176,1,8,0:0:0:0:
448,192,166176,1,0,0:0:0:0:
320,192,166407,1,0,0:0:0:0:
192,192,166522,1,0,0:0:0:0:
448,192,166638,1,2,0:0:0:0:
448,192,166869,1,2,0:0:0:0:
320,192,166984,1,0,0:0:0:0:
64,192,167099,128,8,167561:0:0:0:0:
192,192,167099,1,0,0:0:0:0:
320,192,167561,1,2,0:0:0:0:
192,192,167676,1,0,0:0:0:0:
448,192,167792,1,0,0:0:0:0:
320,192,167907,1,0,0:0:0:0:
64,192,168022,1,8,0:0:0:0:
192,192,168022,1,0,0:0:0:0:
320,192,168253,128,0,168484:0:0:0:0:
192,192,168484,1,0,0:0:0:0:
448,192,168599,1,2,0:0:0:0:
64,192,168715,1,2,0:0:0:0:
320,192,168945,1,8,0:0:0:0:
448,192,168945,128,0,169176:0:0:0:0:
192,192,169176,128,0,169407:0:0:0:0:
320,192,169407,1,2,0:0:0:0:
192,192,169638,1,0,0:0:0:0:
320,192,169753,1,0,0:0:0:0:
64,192,169869,1,8,0:0:0:0:
448,192,169869,1,0,0:0:0:0:
192,192,170099,1,0,0:0:0:0:
320,192,170215,1,0,0:0:0:0:
64,192,170330,1,2,0:0:0:0:
64,192,170561,1,2,0:0:0:0:
192,192,170676,1,0,0:0:0:0:
320,192,170792,1,8,0:0:0:0:
448,192,170792,128,0,171022:0:0:0:0:
64,192,171022,128,0,171253:0:0:0:0:
448,192,171253,1,2,0:0:0:0:
64,192,171484,1,0,0:0:0:0:
192,192,171599,1,0,0:0:0:0:
320,192,171715,1,8,0:0:0:0:
448,192,171715,1,0,0:0:0:0:
192,192,171945,128,0,172176:0:0:0:0:
448,192,172176,1,2,0:0:0:0:
320,192,172292,1,2,0:0:0:0:
64,192,172407,1,8,0:0:0:0:
192,192,172407,1,4,0:0:0:0:
64,192,172638,1,2,0:0:0:0:
192,192,172753,1,2,0:0:0:0:
320,192,172869,1,12,0:0:0:0:
448,192,172869,1,0,0:0:0:70:bass_growl #1.wav
64,192,173099,1,2,0:0:0:0:
192,192,173099,1,4,0:0:0:0:
448,192,175869,128,0,176099:0:0:0:100:tick01.wav
64,192,176099,128,0,176330:0:0:0:100:tick01.wav
320,192,176330,1,8,0:0:0:0:
192,192,176561,1,8,0:0:0:0:
320,192,176792,1,4,0:0:0:0:
448,192,176792,1,2,0:0:0:0:
192,192,177022,1,0,0:0:0:0:
320,192,177138,1,0,0:0:0:0:
64,192,177253,1,8,0:0:0:0:
448,192,177253,1,0,0:0:0:0:
192,192,177484,1,0,0:0:0:0:
320,192,177599,1,0,0:0:0:0:
64,192,177715,1,2,0:0:0:0:
64,192,177945,1,2,0:0:0:0:
192,192,178061,1,0,0:0:0:0:
320,192,178176,1,8,0:0:0:0:
448,192,178176,128,0,178407:0:0:0:0:
64,192,178407,128,0,178638:0:0:0:0:
448,192,178638,1,2,0:0:0:0:
64,192,178869,1,0,0:0:0:0:
192,192,178984,1,0,0:0:0:0:
320,192,179099,1,8,0:0:0:0:
448,192,179099,1,0,0:0:0:0:
192,192,179330,128,0,179561:0:0:0:0:
448,192,179561,1,2,0:0:0:0:
320,192,179676,1,2,0:0:0:0:
64,192,179792,1,8,0:0:0:0:
192,192,179792,1,4,0:0:0:0:
64,192,180022,1,2,0:0:0:0:
192,192,180138,1,2,0:0:0:0:
320,192,180253,1,4,0:0:0:0:
448,192,180253,1,8,0:0:0:0:
64,192,180484,1,2,0:0:0:0:
192,192,180484,1,4,0:0:0:0:
320,192,180945,1,0,0:0:0:50:S3.wav
192,192,181176,1,0,0:0:0:50:S3.wav
64,192,181407,1,4,0:0:0:0:
448,192,181407,128,2,181869:0:0:0:0:
192,192,181869,128,0,182330:0:0:0:0:
320,192,182330,128,0,182676:0:0:0:0:
64,192,182676,1,0,0:0:0:0:
192,192,182792,1,0,0:0:0:0:
448,192,183022,1,0,0:0:0:0:
320,192,183138,1,0,0:0:0:0:
192,192,183253,128,0,183484:0:0:0:0:
448,192,183484,128,0,183715:0:0:0:0:
64,192,183715,128,0,183945:0:0:0:0:
320,192,183945,128,0,184176:0:0:0:0:
192,192,184176,128,0,184407:0:0:0:0:
448,192,184407,128,0,184638:0:0:0:0:
64,192,184638,128,0,184869:0:0:0:0:
320,192,184869,1,0,0:0:0:0:
192,192,184984,1,0,0:0:0:0:
448,192,185099,128,6,185561:0:0:0:0:
64,192,185561,128,0,186022:0:0:0:0:
320,192,186022,128,0,186369:0:0:0:0:
192,192,186369,1,0,0:0:0:0:
448,192,186484,1,0,0:0:0:0:
64,192,186715,1,0,0:0:0:0:
192,192,186830,1,0,0:0:0:0:
320,192,186945,128,0,187176:0:0:0:0:
64,192,187176,128,0,187407:0:0:0:0:
448,192,187407,128,0,187638:0:0:0:0:
192,192,187638,128,0,187869:0:0:0:0:
320,192,187869,128,0,188099:0:0:0:50:S3.wav
64,192,188099,1,0,0:0:0:50:S3.wav
192,192,188330,1,0,0:0:0:50:S3.wav
320,192,188561,1,0,0:0:0:70:LR_Air Dart Snare.wav
192,192,188676,1,0,0:0:0:0:
64,192,188792,1,2,0:0:0:0:
448,192,188792,1,4,0:0:0:0:
320,192,189022,1,2,0:0:0:0:
64,192,189253,1,2,0:0:0:0:
192,192,189369,1,0,0:0:0:0:
448,192,189484,1,2,0:0:0:0:
320,192,189715,1,2,0:0:0:0:
192,192,189945,1,2,0:0:0:0:
64,192,190061,1,0,0:0:0:0:
320,192,190176,1,2,0:0:0:0:
192,192,190292,1,0,0:0:0:0:
448,192,190407,1,2,0:0:0:0:
64,192,190638,1,2,0:0:0:0:
320,192,190869,1,2,0:0:0:0:
192,192,191099,1,2,0:0:0:0:
448,192,191330,1,2,0:0:0:0:
320,192,191445,1,0,0:0:0:0:
64,192,191561,1,2,0:0:0:0:
192,192,191792,1,2,0:0:0:0:
320,192,191907,1,0,0:0:0:0:
448,192,192022,1,2,0:0:0:0:
64,192,192253,1,2,0:0:0:0:
320,192,192369,1,0,0:0:0:0:
192,192,192484,1,2,0:0:0:0:
448,192,192715,1,2,0:0:0:0:
320,192,192945,1,2,0:0:0:0:
192,192,193061,1,0,0:0:0:0:
64,192,193176,1,2,0:0:0:0:
192,192,193407,1,2,0:0:0:0:
320,192,193638,1,2,0:0:0:0:
192,192,193869,1,2,0:0:0:0:
448,192,194099,1,2,0:0:0:0:
320,192,194215,1,0,0:0:0:0:
64,192,194330,1,2,0:0:0:0:
320,192,194561,1,2,0:0:0:0:
192,192,194676,1,0,0:0:0:0:
64,192,194792,1,2,0:0:0:0:
192,192,195022,1,2,0:0:0:0:
320,192,195138,1,0,0:0:0:0:
448,192,195253,1,2,0:0:0:0:
64,192,195484,1,2,0:0:0:0:
192,192,195599,1,0,0:0:0:50:S3.wav
448,192,195715,1,2,0:0:0:0:
192,192,195945,1,2,0:0:0:0:
320,192,196061,1,0,0:0:0:50:S3.wav
64,192,196176,1,2,0:0:0:0:
448,192,196176,1,4,0:0:0:0:
192,192,196407,1,2,0:0:0:0:
320,192,196638,1,2,0:0:0:0:
448,192,196638,1,0,0:0:0:0:
192,192,196869,1,2,0:0:0:0:
448,192,197099,1,2,0:0:0:0:
320,192,197330,1,2,0:0:0:0:
192,192,197445,1,0,0:0:0:0:
64,192,197561,1,2,0:0:0:0:
448,192,197792,1,2,0:0:0:0:
320,192,197907,1,0,0:0:0:0:
192,192,198022,1,2,0:0:0:0:
64,192,198253,1,2,0:0:0:0:
320,192,198484,1,2,0:0:0:0:
448,192,198484,1,0,0:0:0:0:
192,192,198715,1,2,0:0:0:0:
448,192,198945,1,2,0:0:0:0:
320,192,199176,1,2,0:0:0:0:
192,192,199292,1,0,0:0:0:0:
64,192,199407,1,2,0:0:0:0:
192,192,199638,1,2,0:0:0:0:
320,192,199753,1,0,0:0:0:0:
448,192,199869,1,2,0:0:0:0:
320,192,200099,1,2,0:0:0:0:
64,192,200330,1,2,0:0:0:0:
192,192,200330,1,0,0:0:0:0:
320,192,200561,1,2,0:0:0:0:
64,192,200792,1,2,0:0:0:0:
192,192,201022,1,2,0:0:0:0:
320,192,201138,1,0,0:0:0:0:
448,192,201253,1,2,0:0:0:0:
64,192,201484,1,2,0:0:0:0:
192,192,201599,1,0,0:0:0:0:
320,192,201715,1,2,0:0:0:0:
448,192,201945,1,2,0:0:0:0:
64,192,202176,1,2,0:0:0:0:
192,192,202176,1,0,0:0:0:0:
320,192,202407,1,2,0:0:0:0:
64,192,202638,1,2,0:0:0:0:
192,192,202869,1,2,0:0:0:0:
320,192,202984,1,0,0:0:0:0:
448,192,203099,1,2,0:0:0:0:
64,192,203330,1,2,0:0:0:0:
192,192,203445,1,0,0:0:0:0:
320,192,203561,1,2,0:0:0:0:
448,192,203561,1,4,0:0:0:0:
192,192,203787,1,0,0:0:0:0:
320,192,204013,1,0,0:0:0:0:
448,192,204240,1,2,0:0:0:0:
64,192,204466,1,2,0:0:0:0:
192,192,204466,1,4,0:0:0:0:
320,192,204688,1,0,0:0:0:0:
192,192,204910,1,0,0:0:0:0:
64,192,205132,1,2,0:0:0:0:
320,192,205354,1,4,0:0:0:0:
448,192,205354,128,2,205572:0:0:0:0:
192,192,205572,128,0,205790:0:0:0:0:
320,192,205790,128,0,206008:0:0:0:0:
64,192,206008,128,0,206226:0:0:0:0:
320,192,206226,1,2,0:0:0:0:
448,192,206226,1,4,0:0:0:0:
192,192,206440,1,0,0:0:0:0:
320,192,206654,1,0,0:0:0:0:
448,192,206868,1,2,0:0:0:0:
64,192,207083,1,2,0:0:0:0:
192,192,207083,1,4,0:0:0:0:
192,192,207504,1,4,0:0:0:0:
448,192,207504,1,2,0:0:0:0:
320,192,207925,1,2,0:0:0:0:
448,192,207925,1,4,0:0:0:0:
64,192,208338,1,2,0:0:0:0:
320,192,208338,1,4,0:0:0:0:
64,192,208752,1,2,0:0:0:0:
192,192,208752,1,4,0:0:0:0:
320,192,208955,1,6,0:0:0:0:
192,192,209158,128,6,209362:0:0:0:0:
448,192,209362,128,6,209565:0:0:0:0:
64,192,209565,128,2,209765:0:0:0:0:
192,192,209565,1,4,0:0:0:0:
448,192,209765,1,6,0:0:0:0:
320,192,209865,1,2,0:0:0:0:
192,192,209965,128,6,210165:0:0:0:0:
448,192,210165,1,6,0:0:0:0:
320,192,210265,1,2,0:0:0:0:
64,192,210365,1,6,0:0:0:0:
192,192,210365,1,0,0:0:0:100:tick01.wav
320,192,211565,1,0,0:0:0:100:hithit.wav
192,192,211765,1,8,0:0:0:0:
320,192,211865,1,8,0:0:0:0:
64,192,211965,128,4,212165:0:0:0:0:
448,192,211965,1,2,0:0:0:0:
320,192,212165,1,2,0:0:0:0:
192,192,212265,1,2,0:0:0:0:
448,192,212365,128,2,212565:0:0:0:0:
64,192,212565,1,2,0:0:0:0:
192,192,212665,1,2,0:0:0:0:
320,192,212765,128,2,212965:0:0:0:0:
64,192,212965,1,2,0:0:0:0:
192,192,213065,1,2,0:0:0:0:
448,192,213165,128,2,213365:0:0:0:0:
192,192,213365,1,2,0:0:0:0:
320,192,213465,1,2,0:0:0:0:
64,192,213565,128,2,213765:0:0:0:0:
320,192,213765,1,2,0:0:0:0:
192,192,213865,1,2,0:0:0:0:
448,192,213965,128,2,214165:0:0:0:0:
64,192,214165,1,2,0:0:0:0:
192,192,214265,1,2,0:0:0:0:
320,192,214365,128,2,214565:0:0:0:0:
64,192,214565,1,2,0:0:0:0:
448,192,214665,1,2,0:0:0:0:
192,192,214765,128,2,214965:0:0:0:0:
320,192,214965,1,2,0:0:0:0:
64,192,215065,1,2,0:0:0:0:
448,192,215165,128,2,215365:0:0:0:0:
192,192,215365,1,2,0:0:0:0:
320,192,215465,1,2,0:0:0:0:
64,192,215565,128,2,215765:0:0:0:0:
448,192,215765,1,2,0:0:0:0:
320,192,215865,1,2,0:0:0:0:
192,192,215965,128,2,216165:0:0:0:0:
448,192,216165,1,2,0:0:0:0:
320,192,216265,1,2,0:0:0:0:
64,192,216365,128,2,216565:0:0:0:0:
320,192,216565,1,2,0:0:0:0:
192,192,216665,1,2,0:0:0:0:
448,192,216765,128,2,216965:0:0:0:0:
192,192,216965,1,2,0:0:0:0:
320,192,217065,1,2,0:0:0:0:
64,192,217165,128,2,217365:0:0:0:0:
448,192,217365,1,2,0:0:0:0:
320,192,217465,1,2,0:0:0:0:
192,192,217565,128,2,217765:0:0:0:0:
320,192,217765,1,6,0:0:0:0:
64,192,217865,1,2,0:0:0:0:
448,192,217965,128,2,218165:0:0:0:0:
320,192,218165,1,6,0:0:0:0:
64,192,218365,1,4,0:0:0:0:
192,192,218365,128,0,218565:0:0:0:0:
448,192,218565,1,0,0:0:0:0:
64,192,218665,1,0,0:0:0:0:
320,192,218765,128,0,218965:0:0:0:0:
192,192,218965,1,0,0:0:0:0:
448,192,219065,1,0,0:0:0:0:
64,192,219165,128,0,219365:0:0:0:0:
448,192,219365,1,0,0:0:0:0:
320,192,219465,1,0,0:0:0:0:
192,192,219565,128,0,219765:0:0:0:0:
448,192,219765,1,0,0:0:0:0:
64,192,219865,1,0,0:0:0:0:
320,192,219965,128,0,220165:0:0:0:0:
64,192,220165,1,0,0:0:0:0:
448,192,220265,1,0,0:0:0:0:
192,192,220365,128,0,220565:0:0:0:0:
320,192,220565,1,0,0:0:0:0:
64,192,220665,1,0,0:0:0:0:
448,192,220765,128,0,220965:0:0:0:0:
64,192,220965,128,4,221165:0:0:0:0:
192,192,220965,1,2,0:0:0:0:
320,192,221165,128,0,221365:0:0:0:0:
64,192,221365,1,4,0:0:0:0:
192,192,221365,128,2,221565:0:0:0:0:
320,192,221565,1,2,0:0:0:0:
448,192,221565,1,4,0:0:0:0:
64,192,221765,1,0,0:0:0:50:S3.wav
192,192,221965,1,0,0:0:0:50:S3.wav
320,192,222165,1,0,0:0:0:50:S3.wav
64,192,222365,128,4,222765:0:0:0:0:
448,192,222365,1,2,0:0:0:0:
320,192,222765,128,0,223165:0:0:0:0:
192,192,223165,128,0,223565:0:0:0:0:
448,192,223565,1,0,0:0:0:0:
320,192,223765,128,0,223965:0:0:0:0:
64,192,223965,128,0,224165:0:0:0:0:
448,192,224165,128,0,224365:0:0:0:0:
192,192,224365,128,0,224565:0:0:0:0:
320,192,224565,128,0,224765:0:0:0:0:
64,192,224765,128,0,224965:0:0:0:0:
192,192,224965,128,0,225165:0:0:0:0:
448,192,225165,128,0,225365:0:0:0:0:
64,192,225365,128,0,225565:0:0:0:0:
320,192,225565,128,6,225965:0:0:0:0:
192,192,225965,128,0,226365:0:0:0:0:
448,192,226365,128,0,226765:0:0:0:0:
64,192,226765,1,0,0:0:0:0:
320,192,227031,1,0,0:0:0:0:
192,192,227165,1,0,0:0:0:0:
64,192,227298,128,0,227598:0:0:0:0:
320,192,227598,1,0,0:0:0:0:
448,192,227769,1,0,0:0:0:0:
192,192,227940,1,0,0:0:0:0:
320,192,228140,1,0,0:0:0:0:
64,192,228340,1,0,0:0:0:0:
192,192,228580,1,0,0:0:0:0:
320,192,228820,128,0,231248:0:0:0:0:
448,192,232344,128,0,233291:0:0:0:50:S3.wav
64,192,232659,1,0,0:0:0:0:
192,192,232817,1,0,0:0:0:70:LR_Air Dart Snare.wav
320,192,233133,1,0,0:0:0:50:S3.wav
64,192,233291,1,0,0:0:0:70:LR_Air Dart Snare.wav
192,192,233291,1,0,0:0:0:0:
320,192,233607,1,4,0:0:0:0:
448,192,233607,128,2,233922:0:0:0:0:
64,192,233922,1,2,0:0:0:0:
192,192,233922,1,0,0:0:0:70:Clap.wav
320,192,234080,1,0,0:0:0:0:
64,192,234238,1,2,0:0:0:0:
192,192,234396,1,0,0:0:0:0:
320,192,234554,1,2,0:0:0:0:
448,192,234554,1,0,0:0:0:70:Clap.wav
192,192,234870,1,2,0:0:0:0:
448,192,235028,1,0,0:0:0:0:
320,192,235186,1,2,0:0:0:0:
64,192,235265,1,0,0:0:0:0:
192,192,235422,1,0,0:0:0:0:
448,192,235501,1,2,0:0:0:0:
320,192,235659,1,0,0:0:0:0:
64,192,235817,1,2,0:0:0:0:
192,192,235817,1,0,0:0:0:70:Clap.wav
320,192,235975,1,0,0:0:0:0:
64,192,236133,1,2,0:0:0:0:
192,192,236291,1,0,0:0:0:0:
320,192,236449,1,2,0:0:0:0:
448,192,236449,1,0,0:0:0:70:Clap.wav
192,192,236607,1,0,0:0:0:0:
448,192,236765,1,2,0:0:0:0:
320,192,236922,1,0,0:0:0:0:
64,192,237080,1,2,0:0:0:0:
192,192,237080,1,0,0:0:0:70:Clap.wav
320,192,237396,128,2,237712:0:0:0:0:
64,192,237712,1,2,0:0:0:0:
448,192,237712,1,0,0:0:0:70:Clap.wav
192,192,237870,1,0,0:0:0:0:
320,192,238028,1,2,0:0:0:0:
64,192,238186,128,0,238344:0:0:0:0:
320,192,238344,1,2,0:0:0:0:
448,192,238344,128,0,238501:0:0:0:70:Clap.wav
192,192,238501,1,0,0:0:0:0:
64,192,238659,128,2,238975:0:0:0:0:
320,192,238975,1,2,0:0:0:0:
448,192,238975,1,0,0:0:0:70:Clap.wav
192,192,239133,1,0,0:0:0:0:
448,192,239291,1,2,0:0:0:0:
320,192,239449,1,0,0:0:0:0:
64,192,239607,1,2,0:0:0:0:
192,192,239607,1,0,0:0:0:70:Clap.wav
448,192,239922,128,2,240080:0:0:0:0:
320,192,240080,1,0,0:0:0:0:
64,192,240159,128,0,240317:0:0:0:0:
320,192,240396,128,0,240554:0:0:0:0:
192,192,240554,1,2,0:0:0:0:
448,192,240712,1,0,0:0:0:0:
64,192,240870,1,2,0:0:0:0:
192,192,240870,1,0,0:0:0:70:Clap.wav
320,192,241028,1,0,0:0:0:0:
64,192,241186,1,2,0:0:0:0:
192,192,241344,1,0,0:0:0:0:
320,192,241501,1,2,0:0:0:0:
448,192,241501,1,0,0:0:0:70:Clap.wav
192,192,241659,1,0,0:0:0:0:
448,192,241817,1,2,0:0:0:0:
320,192,241975,1,0,0:0:0:0:
64,192,242133,1,2,0:0:0:0:
192,192,242133,1,0,0:0:0:70:Clap.wav
448,192,242291,1,0,0:0:0:0:
192,192,242449,1,2,0:0:0:0:
320,192,242607,1,0,0:0:0:50:S3.wav
64,192,242765,1,2,0:0:0:0:
448,192,242765,1,0,0:0:0:70:Clap.wav
192,192,242922,1,0,0:0:0:50:S3.wav
320,192,243001,1,0,0:0:0:50:S3.wav
448,192,243080,1,2,0:0:0:0:
320,192,243238,1,0,0:0:0:50:S3.wav
192,192,243317,1,0,0:0:0:50:S3.wav
64,192,243396,1,2,0:0:0:0:
448,192,243396,1,0,0:0:0:70:Clap.wav
192,192,243554,1,0,0:0:0:50:S3.wav
320,192,243633,1,0,0:0:0:50:S3.wav
64,192,243712,128,4,244028:0:0:0:0:
448,192,243712,1,2,0:0:0:0:
320,192,244028,1,2,0:0:0:0:
448,192,244028,1,0,0:0:0:70:Clap.wav
192,192,244186,1,0,0:0:0:0:
320,192,244344,1,2,0:0:0:0:
448,192,244501,1,0,0:0:0:0:
64,192,244659,1,2,0:0:0:0:
192,192,244659,1,0,0:0:0:70:Clap.wav
320,192,244817,1,0,0:0:0:0:
64,192,244975,1,2,0:0:0:0:
192,192,245133,1,0,0:0:0:0:
320,192,245291,1,2,0:0:0:0:
448,192,245291,1,0,0:0:0:70:Clap.wav
64,192,245449,1,0,0:0:0:0:
448,192,245607,1,2,0:0:0:0:
320,192,245765,1,0,0:0:0:0:
64,192,245922,1,2,0:0:0:0:
192,192,245922,1,0,0:0:0:70:Clap.wav
320,192,246080,1,0,0:0:0:0:
64,192,246238,128,2,246554:0:0:0:0:
320,192,246554,1,2,0:0:0:0:
448,192,246554,1,0,0:0:0:70:Clap.wav
192,192,246712,1,0,0:0:0:0:
320,192,246870,1,2,0:0:0:0:
448,192,247028,1,0,0:0:0:0:
64,192,247186,1,2,0:0:0:0:
192,192,247186,1,0,0:0:0:70:Clap.wav
320,192,247344,1,0,0:0:0:0:
448,192,247501,1,2,0:0:0:0:
192,192,247659,1,0,0:0:0:0:
64,192,247817,1,2,0:0:0:0:
448,192,247817,1,0,0:0:0:70:Clap.wav
320,192,247975,1,0,0:0:0:0:
64,192,248133,1,2,0:0:0:0:
192,192,248291,1,0,0:0:0:0:
320,192,248449,1,2,0:0:0:0:
448,192,248449,1,0,0:0:0:70:Clap.wav
192,192,248607,1,0,0:0:0:0:
448,192,248765,128,2,249080:0:0:0:0:
64,192,249080,1,2,0:0:0:0:
192,192,249080,1,0,0:0:0:70:Clap.wav
320,192,249238,1,0,0:0:0:0:
192,192,249396,1,2,0:0:0:0:
64,192,249554,1,0,0:0:0:0:
320,192,249712,1,2,0:0:0:0:
448,192,249712,1,0,0:0:0:70:Clap.wav
192,192,249870,1,0,0:0:0:0:
448,192,250028,1,2,0:0:0:0:
320,192,250186,1,0,0:0:0:0:
64,192,250344,1,2,0:0:0:0:
192,192,250344,1,0,0:0:0:70:Clap.wav
448,192,250501,1,0,0:0:0:0:
64,192,250659,1,2,0:0:0:0:
192,192,250817,1,0,0:0:0:0:
320,192,250975,1,2,0:0:0:0:
448,192,250975,1,0,0:0:0:70:Clap.wav
192,192,251133,1,0,0:0:0:0:
448,192,251291,128,2,251607:0:0:0:0:
64,192,251607,1,2,0:0:0:0:
192,192,251607,1,0,0:0:0:70:Clap.wav
320,192,251765,1,0,0:0:0:0:
192,192,251922,1,2,0:0:0:0:
64,192,252080,1,0,0:0:0:0:
320,192,252238,1,2,0:0:0:0:
448,192,252238,1,0,0:0:0:70:Clap.wav
192,192,252396,1,0,0:0:0:0:
64,192,252554,1,2,0:0:0:0:
320,192,252712,1,0,0:0:0:0:
192,192,252791,1,0,0:0:0:0:
64,192,252870,1,2,0:0:0:0:
448,192,252870,1,0,0:0:0:70:Clap.wav
320,192,253028,1,0,0:0:0:50:S3.wav
192,192,253107,1,0,0:0:0:50:S3.wav
448,192,253186,1,2,0:0:0:0:
192,192,253344,1,0,0:0:0:50:S3.wav
320,192,253422,1,0,0:0:0:50:S3.wav
64,192,253501,1,2,0:0:0:0:
448,192,253501,1,0,0:0:0:70:Clap.wav
192,192,253659,1,0,0:0:0:50:S3.wav
448,192,253817,128,6,253975:0:0:0:0:
320,192,253975,1,6,0:0:0:0:
64,192,254054,1,2,0:0:0:0:
192,192,254054,1,4,0:0:0:0:
64,192,254291,128,6,254449:0:0:0:0:
192,192,254449,1,6,0:0:0:0:
320,192,254528,1,2,0:0:0:0:
448,192,254528,1,4,0:0:0:0:
448,192,254765,128,6,254922:0:0:0:0:
192,192,254922,1,6,0:0:0:0:
320,192,255001,1,6,0:0:0:0:
64,192,255080,128,4,258870:0:0:0:0:
448,192,255080,128,0,258870:0:0:0:0:
