osu file format v14

[General]
AudioFilename: audio.ogg
AudioLeadIn: 0
PreviewTime: 233567
Countdown: 0
SampleSet: Soft
StackLeniency: 0.7
Mode: 3
LetterboxInBreaks: 0
SpecialStyle: 0
WidescreenStoryboard: 0

[Editor]
Bookmarks: 2577,22787,42998,64471,74577,84682,94787,104087,122633,131360,140087,165697,181389,196158,211968,218368,222368,233600,243705,253810
DistanceSpacing: 1.3
BeatDivisor: 4
GridSize: 4
TimelineZoom: 2.2

[Metadata]
Title:Toho-Assisted-Speedrun!!!
TitleUnicode:Toho-Assisted-Speedrun!!!
Artist:Innocent Key
ArtistUnicode:イノセントキー
Creator:FAMoss
Version:Lunatic-Beyond-Faster!!!
Source:東方永夜抄 ~ Imperishable Night.
Tags:zun かめりあ camellia ななひら nanahira ココ koko kamelcamellia かめるかめりあ masaya oya cemetek touhou vs tora 虎 Key electronic japanese speedcore 東方Project 月まで届け、不死の煙 tsuki made todoke fushi no kemuri 竹取飛翔 Lunatic Princess take to hishou Fujiwara no Mokou 蓬莱山輝夜 kaguya houraisan Reach for the Moon Immortal Smoke 東方疾走響 Touhou Eiyashou Hibiki 2 toho Extra Stage Boss IK-27 太田順也 Ōta jun'ya ota junya
BeatmapID:3805385
BeatmapSetID:1852057

[Difficulty]
HPDrainRate:8.5
CircleSize:4
OverallDifficulty:8.5
ApproachRate:5
SliderMultiplier:1.4
SliderTickRate:1

[Events]
//Background and Video events
0,0,"Toho-Assited-Speedrun 99436259.jpeg",0,0
//Break Periods
//Storyboard Layer 0 (Background)
//Storyboard Layer 1 (Fail)
//Storyboard Layer 2 (Pass)
//Storyboard Layer 3 (Foreground)
//Storyboard Layer 4 (Overlay)
//Storyboard Sound Samples

[TimingPoints]
2582,315.789473684211,4,2,1,30,1,0
12687,-100,4,2,1,40,0,0
17739,-100,4,2,1,50,0,0
22792,-100,4,2,1,60,0,0
43003,-100,4,2,1,60,0,1
64476,-100,4,2,1,50,0,0
74582,-100,4,2,1,60,0,0
94792,308.483290488432,4,2,1,60,1,0
94792,-102.040816326531,4,2,1,60,0,0
97259,300,4,2,1,60,1,0
97259,-105.263157894737,4,2,1,60,0,0
99659,279.06976744186,4,2,1,60,1,0
99659,-113.636363636364,4,2,1,60,0,0
103007,272.727272727273,4,2,1,60,1,0
103007,-116.279069767442,4,2,1,60,0,0
104097,-116.279069767442,4,2,1,60,0,1
122643,-116.279069767442,4,2,1,50,0,0
131370,-116.279069767442,4,2,1,60,0,0
151007,260.869565217393,4,2,1,60,1,0
151007,-120.481927710843,4,2,1,60,0,0
154137,252.631578947368,4,2,1,60,1,0
154137,-125,4,2,1,60,0,0
157168,244.897959183673,4,2,1,60,1,0
157168,-128.205128205128,4,2,1,60,0,0
160106,236.686390532545,4,2,1,60,1,0
160106,-133.333333333333,4,2,1,60,0,0
162946,230.76923076923,4,2,1,60,1,0
162946,-136.986301369863,4,2,1,60,0,0
165715,-136.986301369863,4,2,1,60,0,1
173099,-136.986301369863,4,2,1,60,0,0
176792,-136.986301369863,4,2,1,60,0,1
181407,-136.986301369863,4,2,1,50,0,0
188792,-136.986301369863,4,2,1,60,0,0
203561,226.415094339623,4,2,1,60,1,0
203561,-138.888888888889,4,2,1,60,0,0
204466,222.222222222222,4,2,1,60,1,0
204466,-142.857142857143,4,2,1,60,0,0
205354,218.181818181818,4,2,1,60,1,0
205354,-144.927536231884,4,2,1,60,0,0
206226,214.285714285714,4,2,1,60,1,0
206226,-147.058823529412,4,2,1,60,0,0
207083,210.526315789474,4,2,1,60,1,0
207083,-149.253731343284,4,2,1,60,0,0
207925,206.896551724138,4,2,1,60,1,0
207925,-151.515151515152,4,2,1,60,0,0
208752,203.389830508475,4,2,1,60,1,0
208752,-156.25,4,2,1,60,0,0
209565,200,4,2,1,60,1,0
209565,-158.730158730159,4,2,1,60,0,0
211965,-158.730158730159,4,2,1,60,0,1
222365,-158.730158730159,4,2,1,50,0,0
226765,266.666666666667,4,2,1,50,1,0
226765,-119.047619047619,4,2,1,50,0,0
227298,300,4,2,1,50,1,0
227298,-105.263157894737,4,2,1,50,0,0
227598,342.857142857143,4,2,1,50,1,0
227598,-91.743119266055,4,2,1,50,0,0
227940,400,4,2,1,50,1,0
227940,-78.740157480315,4,2,1,50,0,0
228340,480,4,2,1,50,1,0
228340,-65.7894736842105,4,2,1,50,0,0
228820,666.666666666667,4,2,1,50,1,0
228820,-47.39336492891,4,2,1,50,0,0
230153,1095.8904109589,4,2,1,50,1,0
230153,-28.8184438040346,4,2,1,50,0,0
232344,315.789473684211,4,2,1,50,1,0
233607,-100,4,2,1,60,0,0
253817,-100,4,2,1,40,0,0

[HitObjects]
320,192,2582,128,0,2739:0:0:0:0:
64,192,2739,1,0,0:0:0:0:
192,192,2818,1,0,0:0:0:0:
320,192,2897,128,0,3055:0:0:0:100:tick01.wav
64,192,3055,1,0,0:0:0:0:
192,192,3134,1,0,0:0:0:0:
448,192,3213,128,0,3371:0:0:0:0:
192,192,3371,1,0,0:0:0:0:
320,192,3450,1,0,0:0:0:0:
64,192,3529,128,0,3687:0:0:0:100:tick01.wav
320,192,3687,1,0,0:0:0:0:
448,192,3766,1,0,0:0:0:0:
192,192,3845,128,0,4003:0:0:0:0:
448,192,4003,1,0,0:0:0:0:
320,192,4082,1,0,0:0:0:0:
192,192,4160,128,0,4318:0:0:0:100:tick01.wav
448,192,4318,1,0,0:0:0:0:
320,192,4397,1,0,0:0:0:0:
64,192,4476,128,0,4634:0:0:0:0:
320,192,4634,1,0,0:0:0:0:
192,192,4713,1,0,0:0:0:0:
448,192,4792,128,0,4950:0:0:0:100:tick01.wav
192,192,4950,1,0,0:0:0:0:
320,192,5029,1,0,0:0:0:0:
64,192,5108,128,0,5266:0:0:0:0:
448,192,5266,1,0,0:0:0:0:
320,192,5345,1,0,0:0:0:0:
64,192,5424,128,0,5582:0:0:0:100:tick01.wav
448,192,5582,1,0,0:0:0:0:
192,192,5660,1,0,0:0:0:0:
320,192,5739,128,0,5897:0:0:0:0:
64,192,5897,128,0,6055:0:0:0:0:
448,192,6055,1,0,0:0:0:100:tick01.wav
320,192,6213,128,0,6371:0:0:0:0:
192,192,6292,1,0,0:0:0:0:
64,192,6371,1,0,0:0:0:0:
192,192,6529,128,0,6687:0:0:0:0:
320,192,6608,1,0,0:0:0:0:
448,192,6687,1,0,0:0:0:100:tick01.wav
64,192,6845,128,0,7003:0:0:0:0:
192,192,6924,1,0,0:0:0:0:
448,192,7003,1,0,0:0:0:0:
320,192,7160,128,0,7318:0:0:0:0:
64,192,7239,1,0,0:0:0:0:
192,192,7318,1,0,0:0:0:100:tick01.wav
448,192,7397,1,0,0:0:0:0:
64,192,7476,1,0,0:0:0:0:
448,192,7555,1,0,0:0:0:0:
320,192,7634,128,0,7792:0:0:0:0:
64,192,7792,1,0,0:0:0:0:
192,192,7871,1,0,0:0:0:0:
320,192,7950,128,0,8108:0:0:0:100:tick01.wav
64,192,8108,1,0,0:0:0:0:
192,192,8187,1,0,0:0:0:0:
448,192,8266,128,0,8424:0:0:0:0:
64,192,8424,128,0,8582:0:0:0:0:
320,192,8582,128,0,8739:0:0:0:100:tick01.wav
192,192,8739,128,0,8897:0:0:0:0:
448,192,8818,1,0,0:0:0:0:
64,192,8897,1,0,0:0:0:0:
320,192,9055,128,0,9213:0:0:0:0:
192,192,9134,1,0,0:0:0:0:
64,192,9213,1,0,0:0:0:100:tick01.wav
448,192,9371,128,0,9529:0:0:0:0:
320,192,9450,1,0,0:0:0:0:
64,192,9529,1,0,0:0:0:0:
192,192,9687,128,0,9845:0:0:0:0:
448,192,9766,1,0,0:0:0:0:
320,192,9845,1,0,0:0:0:100:tick01.wav
64,192,9924,1,0,0:0:0:0:
320,192,10003,1,0,0:0:0:0:
192,192,10082,1,0,0:0:0:0:
64,192,10160,128,0,10318:0:0:0:0:
448,192,10318,1,0,0:0:0:0:
320,192,10397,1,0,0:0:0:0:
64,192,10476,128,0,10634:0:0:0:100:tick01.wav
448,192,10634,1,0,0:0:0:0:
192,192,10713,1,0,0:0:0:0:
320,192,10792,128,0,10871:0:0:0:0:
64,192,10950,128,0,11029:0:0:0:0:
448,192,11108,128,0,11187:0:0:0:100:tick01.wav
192,192,11266,1,0,0:0:0:0:
64,192,11345,1,0,0:0:0:0:
448,192,11424,1,0,0:0:0:0:
192,192,11582,1,0,0:0:0:0:
320,192,11660,1,0,0:0:0:0:
64,192,11739,128,0,11897:0:0:0:100:tick01.wav
448,192,11897,1,0,0:0:0:0:
192,192,11976,1,0,0:0:0:0:
320,192,12055,128,0,12213:0:0:0:0:
64,192,12213,1,0,0:0:0:0:
448,192,12292,1,0,0:0:0:0:
192,192,12371,128,0,12529:0:0:0:100:tick01.wav
320,192,12529,128,0,12687:0:0:0:0:
64,192,12687,1,0,0:0:0:0:
192,192,12687,128,0,12845:0:0:0:0:
448,192,12845,1,0,0:0:0:0:
320,192,12924,1,0,0:0:0:0:
192,192,13003,128,0,13160:0:0:0:100:tick01.wav
448,192,13160,1,0,0:0:0:0:
320,192,13239,1,0,0:0:0:0:
64,192,13318,128,0,13476:0:0:0:0:
320,192,13476,1,0,0:0:0:0:
192,192,13555,1,0,0:0:0:0:
448,192,13634,128,0,13792:0:0:0:100:tick01.wav
192,192,13792,1,0,0:0:0:0:
64,192,13871,1,0,0:0:0:0:
320,192,13950,128,0,14108:0:0:0:0:
448,192,13950,1,0,0:0:0:0:
64,192,14108,1,0,0:0:0:0:
192,192,14187,1,0,0:0:0:0:
320,192,14266,128,0,14424:0:0:0:100:tick01.wav
64,192,14424,128,0,14582:0:0:0:0:
448,192,14582,1,0,0:0:0:0:
192,192,14739,1,0,0:0:0:0:
320,192,14818,1,0,0:0:0:0:
64,192,14897,128,0,15055:0:0:0:100:tick01.wav
320,192,15055,128,0,15213:0:0:0:0:
192,192,15213,1,2,0:0:0:0:
448,192,15213,128,0,15371:0:0:0:0:
64,192,15371,1,0,0:0:0:0:
192,192,15450,1,0,0:0:0:0:
448,192,15529,128,8,15687:0:0:0:0:
320,192,15529,1,0,0:0:0:0:
64,192,15687,1,0,0:0:0:0:
320,192,15766,1,0,0:0:0:0:
192,192,15845,128,0,16003:0:0:0:0:
320,192,16003,1,2,0:0:0:0:
448,192,16003,128,0,16160:0:0:0:0:
64,192,16160,1,8,0:0:0:0:
192,192,16160,1,0,0:0:0:0:
320,192,16318,1,0,0:0:0:0:
64,192,16397,1,0,0:0:0:0:
320,192,16476,1,2,0:0:0:0:
448,192,16476,1,0,0:0:0:0:
192,192,16634,1,0,0:0:0:0:
320,192,16713,1,0,0:0:0:0:
64,192,16792,1,8,0:0:0:0:
448,192,16792,1,0,0:0:0:0:
192,192,16950,1,0,0:0:0:0:
64,192,17029,1,0,0:0:0:0:
320,192,17108,1,0,0:0:0:0:
192,192,17266,1,2,0:0:0:0:
320,192,17266,128,0,17424:0:0:0:0:
64,192,17424,1,8,0:0:0:0:
448,192,17424,1,0,0:0:0:0:
192,192,17503,1,0,0:0:0:0:
448,192,17582,1,0,0:0:0:0:
64,192,17660,1,0,0:0:0:0:
192,192,17739,128,2,17897:0:0:0:0:
448,192,17739,1,0,0:0:0:0:
64,192,17897,1,0,0:0:0:0:
448,192,17976,1,0,0:0:0:0:
192,192,18055,128,8,18213:0:0:0:0:
320,192,18055,1,0,0:0:0:0:
448,192,18213,1,0,0:0:0:0:
64,192,18292,1,0,0:0:0:0:
320,192,18371,128,0,18529:0:0:0:0:
64,192,18529,1,2,0:0:0:0:
192,192,18529,128,0,18687:0:0:0:0:
320,192,18687,1,8,0:0:0:0:
448,192,18687,128,0,18845:0:0:0:0:
192,192,18845,1,0,0:0:0:0:
64,192,18924,1,0,0:0:0:0:
448,192,19003,1,2,0:0:0:0:
320,192,19003,1,0,0:0:0:0:
192,192,19160,1,0,0:0:0:0:
320,192,19239,1,0,0:0:0:0:
64,192,19318,1,0,0:0:0:0:
448,192,19318,1,8,0:0:0:0:
192,192,19476,1,0,0:0:0:0:
64,192,19555,1,0,0:0:0:0:
320,192,19634,1,0,0:0:0:0:
192,192,19713,1,0,0:0:0:0:
320,192,19792,1,2,0:0:0:0:
448,192,19792,1,0,0:0:0:0:
192,192,19871,1,0,0:0:0:0:
448,192,19950,1,0,0:0:0:0:
64,192,19950,1,8,0:0:0:0:
320,192,20108,1,0,0:0:0:0:
192,192,20187,1,0,0:0:0:0:
320,192,20266,1,2,0:0:0:0:
448,192,20266,1,0,0:0:0:0:
192,192,20424,1,0,0:0:0:0:
320,192,20503,1,0,0:0:0:0:
64,192,20582,1,8,0:0:0:0:
448,192,20582,1,0,0:0:0:0:
64,192,20739,1,0,0:0:0:0:
192,192,20818,1,0,0:0:0:0:
320,192,20897,1,0,0:0:0:0:
64,192,21055,1,2,0:0:0:0:
192,192,21055,1,0,0:0:0:0:
64,192,21213,1,8,0:0:0:0:
448,192,21213,1,0,0:0:0:0:
192,192,21292,1,0,0:0:0:0:
448,192,21371,1,0,0:0:0:0:
320,192,21450,1,0,0:0:0:0:
64,192,21529,1,2,0:0:0:0:
192,192,21529,1,0,0:0:0:0:
448,192,21608,1,0,0:0:0:0:
320,192,21687,1,0,0:0:0:0:
192,192,21766,1,0,0:0:0:0:
64,192,21845,1,8,0:0:0:0:
448,192,21845,1,0,0:0:0:0:
320,192,21924,1,0,0:0:0:0:
64,192,22003,1,0,0:0:0:0:
448,192,22082,1,0,0:0:0:0:
320,192,22121,1,0,0:0:0:0:
192,192,22160,1,0,0:0:0:0:
64,192,22239,1,0,0:0:0:0:
320,192,22318,1,2,0:0:0:0:
448,192,22318,1,0,0:0:0:0:
192,192,22397,1,0,0:0:0:0:
64,192,22476,1,8,0:0:0:0:
448,192,22476,1,0,0:0:0:0:
320,192,22555,1,0,0:0:0:0:
192,192,22634,1,0,0:0:0:0:
320,192,22713,1,0,0:0:0:0:
64,192,22792,1,4,0:0:0:0:
192,192,22792,1,2,0:0:0:0:
448,192,22792,1,0,0:0:0:0:
448,192,22950,1,0,0:0:0:0:
320,192,23029,1,0,0:0:0:0:
64,192,23108,1,8,0:0:0:0:
192,192,23108,1,0,0:0:0:0:
448,192,23187,1,0,0:0:0:0:
320,192,23266,1,0,0:0:0:0:
192,192,23345,1,0,0:0:0:0:
448,192,23424,1,0,0:0:0:0:
320,192,23503,1,0,0:0:0:0:
64,192,23582,1,2,0:0:0:0:
192,192,23582,1,0,0:0:0:0:
320,192,23660,1,0,0:0:0:0:
64,192,23739,1,8,0:0:0:0:
192,192,23739,1,0,0:0:0:0:
448,192,23739,1,0,0:0:0:0:
320,192,23897,1,0,0:0:0:0:
192,192,23976,1,0,0:0:0:0:
64,192,24055,1,2,0:0:0:0:
448,192,24055,1,0,0:0:0:0:
320,192,24134,1,0,0:0:0:0:
64,192,24213,1,0,0:0:0:0:
192,192,24292,1,0,0:0:0:0:
320,192,24371,1,8,0:0:0:0:
448,192,24371,1,0,0:0:0:0:
64,192,24450,1,0,0:0:0:0:
192,192,24529,1,0,0:0:0:0:
320,192,24608,1,0,0:0:0:0:
64,192,24687,1,0,0:0:0:0:
192,192,24766,1,0,0:0:0:0:
320,192,24845,1,2,0:0:0:0:
448,192,24845,1,0,0:0:0:0:
192,192,24924,1,0,0:0:0:0:
64,192,25003,1,8,0:0:0:0:
320,192,25003,1,0,0:0:0:0:
448,192,25003,1,0,0:0:0:0:
192,192,25160,1,0,0:0:0:0:
320,192,25239,1,0,0:0:0:0:
64,192,25318,1,2,0:0:0:0:
448,192,25318,1,0,0:0:0:0:
192,192,25397,1,0,0:0:0:0:
448,192,25476,1,0,0:0:0:0:
320,192,25555,1,0,0:0:0:0:
64,192,25634,1,8,0:0:0:0:
192,192,25634,1,0,0:0:0:0:
320,192,25713,1,0,0:0:0:0:
64,192,25792,1,0,0:0:0:0:
192,192,25871,1,0,0:0:0:0:
448,192,25950,1,0,0:0:0:0:
320,192,26029,1,0,0:0:0:0:
64,192,26108,1,2,0:0:0:0:
192,192,26108,1,0,0:0:0:0:
320,192,26187,1,0,0:0:0:0:
64,192,26266,1,8,0:0:0:0:
192,192,26266,1,0,0:0:0:0:
448,192,26266,1,0,0:0:0:0:
320,192,26424,1,0,0:0:0:0:
192,192,26503,1,0,0:0:0:0:
64,192,26582,1,2,0:0:0:0:
448,192,26582,128,0,26739:0:0:0:0:
192,192,26739,1,0,0:0:0:0:
320,192,26818,1,0,0:0:0:0:
64,192,26897,1,8,0:0:0:0:
192,192,26897,128,0,27055:0:0:0:0:
448,192,26897,1,0,0:0:0:0:
448,192,27055,1,0,0:0:0:0:
192,192,27134,1,0,0:0:0:0:
320,192,27213,128,0,27371:0:0:0:0:
64,192,27371,1,2,0:0:0:0:
192,192,27371,1,0,0:0:0:0:
320,192,27450,1,0,0:0:0:0:
64,192,27529,1,8,0:0:0:0:
192,192,27529,1,0,0:0:0:0:
448,192,27529,1,0,0:0:0:0:
192,192,27687,1,0,0:0:0:0:
320,192,27766,1,0,0:0:0:0:
64,192,27845,1,2,0:0:0:0:
448,192,27845,1,0,0:0:0:0:
192,192,27924,1,0,0:0:0:0:
448,192,28003,1,0,0:0:0:0:
320,192,28082,1,0,0:0:0:0:
64,192,28160,1,8,0:0:0:0:
192,192,28160,1,0,0:0:0:0:
448,192,28239,1,0,0:0:0:0:
320,192,28318,1,0,0:0:0:0:
192,192,28397,1,0,0:0:0:0:
448,192,28476,1,0,0:0:0:0:
320,192,28555,1,0,0:0:0:0:
64,192,28634,1,2,0:0:0:0:
192,192,28634,1,0,0:0:0:0:
320,192,28713,1,0,0:0:0:0:
64,192,28792,1,8,0:0:0:0:
192,192,28792,1,0,0:0:0:0:
448,192,28792,1,0,0:0:0:0:
320,192,28950,1,0,0:0:0:0:
192,192,29029,1,0,0:0:0:0:
64,192,29108,1,2,0:0:0:0:
448,192,29108,1,0,0:0:0:0:
320,192,29187,1,0,0:0:0:0:
64,192,29266,1,0,0:0:0:0:
192,192,29345,1,0,0:0:0:0:
320,192,29424,1,8,0:0:0:0:
448,192,29424,1,0,0:0:0:0:
64,192,29503,1,0,0:0:0:0:
192,192,29582,1,0,0:0:0:0:
320,192,29660,1,0,0:0:0:0:
64,192,29739,1,0,0:0:0:0:
192,192,29818,1,0,0:0:0:0:
320,192,29897,1,2,0:0:0:0:
448,192,29897,1,0,0:0:0:0:
192,192,29976,1,0,0:0:0:0:
64,192,30055,1,8,0:0:0:0:
320,192,30055,1,0,0:0:0:0:
448,192,30055,1,0,0:0:0:0:
192,192,30213,1,0,0:0:0:0:
320,192,30292,1,0,0:0:0:0:
64,192,30371,1,2,0:0:0:0:
448,192,30371,1,0,0:0:0:0:
192,192,30450,1,0,0:0:0:0:
320,192,30529,1,0,0:0:0:0:
192,192,30608,1,0,0:0:0:0:
320,192,30687,1,8,0:0:0:0:
448,192,30687,1,0,0:0:0:0:
64,192,30766,1,0,0:0:0:0:
448,192,30845,1,0,0:0:0:0:
192,192,30924,1,0,0:0:0:0:
64,192,31003,1,0,0:0:0:0:
320,192,31082,1,0,0:0:0:0:
64,192,31160,1,2,0:0:0:0:
192,192,31160,1,0,0:0:0:0:
320,192,31239,1,0,0:0:0:0:
64,192,31318,1,8,0:0:0:0:
192,192,31318,1,0,0:0:0:0:
448,192,31318,1,0,0:0:0:0:
320,192,31476,1,0,0:0:0:0:
192,192,31555,1,0,0:0:0:0:
64,192,31634,1,2,0:0:0:0:
448,192,31634,128,0,31792:0:0:0:0:
192,192,31792,1,0,0:0:0:0:
320,192,31871,1,0,0:0:0:0:
64,192,31950,128,8,32108:0:0:0:0:
192,192,31950,1,0,0:0:0:0:
448,192,31950,1,0,0:0:0:0:
320,192,32108,1,0,0:0:0:0:
192,192,32187,1,0,0:0:0:0:
320,192,32266,128,0,32424:0:0:0:0:
64,192,32424,1,2,0:0:0:0:
192,192,32424,1,0,0:0:0:0:
320,192,32503,1,0,0:0:0:0:
64,192,32582,1,8,0:0:0:0:
192,192,32582,1,0,0:0:0:0:
448,192,32582,1,0,0:0:0:0:
320,192,32739,1,0,0:0:0:0:
192,192,32818,1,0,0:0:0:0:
64,192,32897,128,4,33055:0:0:0:0:
320,192,32897,1,2,0:0:0:0:
448,192,32897,1,0,0:0:0:0:
192,192,33055,1,0,0:0:0:0:
320,192,33134,1,0,0:0:0:0:
64,192,33213,1,8,0:0:0:0:
192,192,33213,1,0,0:0:0:0:
448,192,33213,128,0,33371:0:0:0:0:
320,192,33371,1,0,0:0:0:0:
192,192,33450,1,0,0:0:0:0:
320,192,33529,128,0,33687:0:0:0:0:
64,192,33687,1,2,0:0:0:0:
448,192,33687,1,0,0:0:0:0:
192,192,33766,1,0,0:0:0:0:
64,192,33845,1,8,0:0:0:0:
320,192,33845,1,0,0:0:0:0:
448,192,33845,1,0,0:0:0:0:
192,192,34003,1,0,0:0:0:0:
320,192,34082,1,0,0:0:0:0:
64,192,34160,1,2,0:0:0:0:
192,192,34160,1,0,0:0:0:0:
448,192,34160,128,0,34318:0:0:0:0:
320,192,34318,1,0,0:0:0:0:
192,192,34397,1,0,0:0:0:0:
64,192,34476,128,8,34634:0:0:0:0:
320,192,34476,1,0,0:0:0:0:
448,192,34476,1,0,0:0:0:0:
192,192,34634,1,0,0:0:0:0:
320,192,34713,1,0,0:0:0:0:
192,192,34792,128,0,34950:0:0:0:0:
64,192,34950,1,2,0:0:0:0:
448,192,34950,1,0,0:0:0:0:
320,192,35029,1,0,0:0:0:0:
64,192,35108,1,8,0:0:0:0:
192,192,35108,1,0,0:0:0:0:
448,192,35108,1,0,0:0:0:0:
320,192,35266,1,0,0:0:0:0:
192,192,35345,1,0,0:0:0:0:
320,192,35424,1,2,0:0:0:0:
448,192,35424,128,0,35582:0:0:0:0:
64,192,35582,1,0,0:0:0:0:
192,192,35660,1,0,0:0:0:0:
64,192,35739,1,8,0:0:0:0:
320,192,35739,128,0,35897:0:0:0:0:
448,192,35739,1,0,0:0:0:0:
192,192,35897,1,0,0:0:0:0:
320,192,35976,1,0,0:0:0:0:
64,192,36055,128,0,36213:0:0:0:0:
448,192,36213,1,2,0:0:0:0:
192,192,36213,1,0,0:0:0:0:
320,192,36292,1,0,0:0:0:0:
64,192,36371,1,8,0:0:0:0:
192,192,36371,128,0,36529:0:0:0:0:
448,192,36371,1,0,0:0:0:0:
320,192,36529,1,0,0:0:0:0:
192,192,36608,1,0,0:0:0:0:
64,192,36687,128,2,36845:0:0:0:0:
448,192,36687,128,0,36845:0:0:0:0:
192,192,36845,1,0,0:0:0:0:
320,192,36924,1,0,0:0:0:0:
64,192,37003,128,8,37160:0:0:0:0:
192,192,37003,128,0,37160:0:0:0:0:
448,192,37003,1,0,0:0:0:0:
448,192,37160,1,0,0:0:0:0:
192,192,37239,1,0,0:0:0:0:
320,192,37318,128,0,37476:0:0:0:0:
448,192,37318,128,0,37476:0:0:0:0:
64,192,37476,1,2,0:0:0:0:
192,192,37476,1,0,0:0:0:0:
320,192,37555,1,0,0:0:0:0:
64,192,37634,1,8,0:0:0:0:
192,192,37634,1,0,0:0:0:0:
448,192,37634,1,0,0:0:0:0:
320,192,37792,1,0,0:0:0:0:
192,192,37871,1,0,0:0:0:0:
64,192,37950,1,2,0:0:0:0:
320,192,37950,1,4,0:0:0:0:
448,192,37950,1,0,0:0:0:0:
192,192,38108,1,2,0:0:0:0:
448,192,38108,1,0,0:0:0:0:
64,192,38266,1,2,0:0:0:0:
192,192,38266,1,0,0:0:0:0:
320,192,38266,1,0,0:0:0:0:
64,192,38424,1,2,0:0:0:0:
448,192,38424,1,0,0:0:0:0:
192,192,38582,1,2,0:0:0:0:
320,192,38582,1,0,0:0:0:0:
448,192,38582,1,0,0:0:0:0:
64,192,38739,1,2,0:0:0:0:
320,192,38739,1,0,0:0:0:0:
64,192,38897,1,2,0:0:0:0:
192,192,38897,1,0,0:0:0:70:snare16.wav
448,192,38897,1,0,0:0:0:0:
192,192,39055,1,2,0:0:0:0:
320,192,39055,1,0,0:0:0:0:
64,192,39213,1,2,0:0:0:0:
320,192,39213,1,0,0:0:0:0:
448,192,39213,1,0,0:0:0:0:
192,192,39371,1,2,0:0:0:0:
448,192,39371,1,0,0:0:0:0:
64,192,39529,1,2,0:0:0:0:
192,192,39529,1,0,0:0:0:0:
320,192,39529,1,0,0:0:0:0:
64,192,39687,1,2,0:0:0:0:
448,192,39687,1,0,0:0:0:0:
192,192,39845,1,2,0:0:0:0:
320,192,39845,1,0,0:0:0:0:
448,192,39845,1,0,0:0:0:0:
64,192,40003,1,2,0:0:0:0:
320,192,40003,1,0,0:0:0:0:
64,192,40160,1,2,0:0:0:0:
192,192,40160,1,0,0:0:0:70:snare16.wav
448,192,40160,1,0,0:0:0:0:
192,192,40318,1,2,0:0:0:0:
320,192,40318,1,0,0:0:0:0:
320,192,40476,1,2,0:0:0:0:
448,192,40476,1,0,0:0:0:0:
64,192,40555,1,2,0:0:0:0:
192,192,40555,1,0,0:0:0:0:
320,192,40634,1,2,0:0:0:0:
448,192,40634,1,0,0:0:0:0:
64,192,40713,1,2,0:0:0:0:
192,192,40713,1,0,0:0:0:0:
320,192,40792,1,2,0:0:0:0:
448,192,40792,1,0,0:0:0:0:
64,192,40871,1,2,0:0:0:0:
192,192,40871,1,0,0:0:0:0:
320,192,40950,1,2,0:0:0:0:
448,192,40950,1,0,0:0:0:0:
64,192,41029,1,2,0:0:0:0:
192,192,41029,1,0,0:0:0:0:
320,192,41108,1,2,0:0:0:0:
448,192,41108,1,0,0:0:0:0:
64,192,41187,1,2,0:0:0:0:
192,192,41187,1,0,0:0:0:0:
320,192,41266,1,2,0:0:0:0:
448,192,41266,1,0,0:0:0:0:
64,192,41345,1,2,0:0:0:0:
192,192,41345,1,0,0:0:0:0:
320,192,41424,1,2,0:0:0:0:
448,192,41424,1,0,0:0:0:0:
64,192,41503,1,2,0:0:0:0:
192,192,41503,1,0,0:0:0:0:
320,192,41582,1,2,0:0:0:0:
448,192,41582,1,0,0:0:0:0:
192,192,41660,1,2,0:0:0:0:
64,192,41739,1,2,0:0:0:0:
320,192,41739,1,4,0:0:0:0:
448,192,41739,1,0,0:0:0:100:tick01.wav
192,192,41897,1,0,0:0:0:50:S3.wav
320,192,41976,1,0,0:0:0:50:S3.wav
64,192,42055,1,0,0:0:0:50:S3.wav
448,192,42055,1,0,0:0:0:100:tick01.wav
448,192,42213,1,0,0:0:0:50:S3.wav
320,192,42292,1,0,0:0:0:50:S3.wav
64,192,42371,1,0,0:0:0:50:S3.wav
192,192,42371,1,0,0:0:0:100:tick01.wav
320,192,42450,1,0,0:0:0:50:S3.wav
64,192,42529,1,0,0:0:0:50:S3.wav
320,192,42608,1,0,0:0:0:50:S3.wav
64,192,42687,1,8,0:0:0:0:
192,192,42687,1,0,0:0:0:100:hithit.wav
448,192,42687,1,0,0:0:0:0:
64,192,43003,1,4,0:0:0:0:
320,192,43003,1,2,0:0:0:0:
448,192,43003,1,0,0:0:0:0:
192,192,43082,1,0,0:0:0:0:
448,192,43160,1,0,0:0:0:0:
320,192,43239,1,0,0:0:0:0:
64,192,43318,128,8,43397:0:0:0:0:
192,192,43318,128,0,43397:0:0:0:0:
448,192,43318,1,0,0:0:0:0:
64,192,43476,128,0,43555:0:0:0:0:
192,192,43476,128,0,43555:0:0:0:0:
64,192,43634,128,0,43713:0:0:0:0:
192,192,43634,128,0,43713:0:0:0:0:
64,192,43792,1,2,0:0:0:0:
448,192,43792,1,0,0:0:0:0:
320,192,43871,1,0,0:0:0:0:
64,192,43950,128,8,44108:0:0:0:0:
192,192,43950,128,0,44108:0:0:0:0:
448,192,43950,1,0,0:0:0:0:
320,192,44108,128,0,44266:0:0:0:0:
64,192,44266,1,2,0:0:0:0:
448,192,44266,1,0,0:0:0:0:
192,192,44345,1,0,0:0:0:0:
320,192,44424,1,0,0:0:0:0:
192,192,44503,1,0,0:0:0:0:
64,192,44582,1,8,0:0:0:0:
320,192,44582,1,0,0:0:0:0:
448,192,44582,128,0,44739:0:0:0:0:
192,192,44739,1,0,0:0:0:0:
64,192,44818,1,2,0:0:0:0:
448,192,44818,1,0,0:0:0:0:
320,192,44897,128,0,45055:0:0:0:0:
64,192,45055,1,2,0:0:0:0:
192,192,45055,1,0,0:0:0:0:
320,192,45134,1,0,0:0:0:0:
64,192,45213,128,8,45450:0:0:0:0:
192,192,45213,1,0,0:0:0:0:
448,192,45213,1,0,0:0:0:0:
320,192,45292,128,0,45529:0:0:0:0:
448,192,45371,128,0,45529:0:0:0:0:
64,192,45529,1,2,0:0:0:0:
192,192,45529,1,0,0:0:0:0:
320,192,45608,1,0,0:0:0:0:
64,192,45687,1,0,0:0:0:0:
192,192,45766,1,0,0:0:0:0:
64,192,45845,128,8,45924:0:0:0:0:
320,192,45845,128,0,45924:0:0:0:0:
448,192,45845,1,0,0:0:0:0:
64,192,46003,128,0,46082:0:0:0:0:
320,192,46003,128,0,46082:0:0:0:0:
64,192,46160,128,0,46239:0:0:0:0:
320,192,46160,128,0,46239:0:0:0:0:
192,192,46318,1,2,0:0:0:0:
448,192,46318,1,0,0:0:0:0:
320,192,46397,1,0,0:0:0:0:
64,192,46476,128,8,46634:0:0:0:0:
192,192,46476,128,0,46792:0:0:0:0:
448,192,46476,1,0,0:0:0:0:
320,192,46634,128,0,46792:0:0:0:0:
64,192,46792,1,2,0:0:0:0:
448,192,46792,1,0,0:0:0:0:
320,192,46871,1,0,0:0:0:0:
192,192,46950,1,0,0:0:0:0:
320,192,47029,1,0,0:0:0:0:
64,192,47108,1,8,0:0:0:0:
192,192,47108,1,0,0:0:0:0:
448,192,47108,128,0,47266:0:0:0:0:
320,192,47266,1,0,0:0:0:0:
64,192,47345,1,2,0:0:0:0:
448,192,47345,1,0,0:0:0:0:
192,192,47424,128,0,47582:0:0:0:0:
64,192,47582,1,2,0:0:0:0:
448,192,47582,1,0,0:0:0:0:
320,192,47660,1,0,0:0:0:0:
64,192,47739,1,8,0:0:0:0:
192,192,47739,1,0,0:0:0:0:
448,192,47739,128,0,48055:0:0:0:0:
320,192,47897,128,0,48055:0:0:0:0:
64,192,48055,1,2,0:0:0:0:
192,192,48055,1,0,0:0:0:0:
320,192,48134,1,0,0:0:0:0:
64,192,48213,1,0,0:0:0:0:
192,192,48292,1,0,0:0:0:0:
64,192,48371,1,8,0:0:0:0:
320,192,48371,128,0,48450:0:0:0:0:
448,192,48371,128,0,48450:0:0:0:0:
320,192,48529,128,0,48608:0:0:0:0:
448,192,48529,128,0,48608:0:0:0:0:
320,192,48687,128,0,48766:0:0:0:0:
448,192,48687,128,0,48766:0:0:0:0:
64,192,48845,1,2,0:0:0:0:
448,192,48845,1,0,0:0:0:0:
192,192,48924,1,0,0:0:0:0:
64,192,49003,1,8,0:0:0:0:
320,192,49003,128,0,49160:0:0:0:0:
448,192,49003,128,0,49160:0:0:0:0:
192,192,49160,128,0,49318:0:0:0:0:
64,192,49318,1,2,0:0:0:0:
448,192,49318,1,0,0:0:0:0:
320,192,49397,1,0,0:0:0:0:
192,192,49476,1,0,0:0:0:0:
320,192,49555,1,0,0:0:0:0:
64,192,49634,128,8,49792:0:0:0:0:
192,192,49634,1,0,0:0:0:0:
448,192,49634,1,0,0:0:0:0:
320,192,49792,1,0,0:0:0:0:
64,192,49871,1,2,0:0:0:0:
448,192,49871,1,0,0:0:0:0:
192,192,49950,128,0,50108:0:0:0:0:
320,192,50108,1,2,0:0:0:0:
448,192,50108,1,0,0:0:0:0:
192,192,50187,1,0,0:0:0:0:
64,192,50266,1,8,0:0:0:0:
320,192,50266,1,0,0:0:0:0:
448,192,50266,128,0,50582:0:0:0:0:
192,192,50345,128,0,50582:0:0:0:0:
64,192,50582,1,2,0:0:0:0:
320,192,50582,1,0,0:0:0:0:
192,192,50660,1,0,0:0:0:0:
448,192,50739,1,0,0:0:0:0:
320,192,50818,1,0,0:0:0:0:
64,192,50897,128,8,50976:0:0:0:0:
192,192,50897,1,0,0:0:0:0:
448,192,50897,1,0,0:0:0:0:
320,192,50976,128,0,51055:0:0:0:0:
192,192,51055,128,0,51134:0:0:0:0:
448,192,51134,128,0,51213:0:0:0:0:
320,192,51213,128,0,51292:0:0:0:0:
192,192,51292,128,0,51371:0:0:0:0:
320,192,51371,1,2,0:0:0:0:
448,192,51371,1,0,0:0:0:0:
192,192,51450,1,0,0:0:0:0:
64,192,51529,1,8,0:0:0:0:
320,192,51529,128,0,51845:0:0:0:0:
448,192,51529,128,0,51687:0:0:0:0:
192,192,51687,128,0,51845:0:0:0:0:
64,192,51845,1,2,0:0:0:0:
448,192,51845,1,0,0:0:0:0:
192,192,51924,1,0,0:0:0:0:
320,192,52003,1,0,0:0:0:0:
192,192,52082,1,0,0:0:0:0:
64,192,52160,128,8,52318:0:0:0:0:
320,192,52160,1,4,0:0:0:0:
448,192,52160,128,0,52318:0:0:0:0:
192,192,52318,1,0,0:0:0:0:
64,192,52397,1,2,0:0:0:0:
448,192,52397,1,0,0:0:0:0:
320,192,52476,128,0,52634:0:0:0:0:
64,192,52634,1,2,0:0:0:0:
448,192,52634,1,0,0:0:0:0:
192,192,52713,1,0,0:0:0:0:
64,192,52792,128,8,53029:0:0:0:0:
320,192,52792,1,4,0:0:0:0:
448,192,52792,128,0,53029:0:0:0:0:
192,192,52950,128,0,53108:0:0:0:0:
64,192,53108,1,4,0:0:0:0:
320,192,53108,1,2,0:0:0:0:
448,192,53108,1,0,0:0:0:0:
192,192,53187,1,0,0:0:0:0:
448,192,53266,1,0,0:0:0:0:
192,192,53345,1,0,0:0:0:0:
64,192,53424,128,8,53503:0:0:0:0:
320,192,53424,1,0,0:0:0:0:
448,192,53424,128,0,53503:0:0:0:0:
64,192,53582,128,0,53660:0:0:0:0:
448,192,53582,128,0,53660:0:0:0:0:
64,192,53739,128,0,53818:0:0:0:0:
448,192,53739,128,0,53818:0:0:0:0:
64,192,53897,1,2,0:0:0:0:
320,192,53897,1,0,0:0:0:0:
192,192,53976,1,0,0:0:0:0:
64,192,54055,128,8,54213:0:0:0:0:
320,192,54055,1,0,0:0:0:0:
448,192,54055,128,0,54213:0:0:0:0:
192,192,54213,128,0,54371:0:0:0:0:
64,192,54371,1,2,0:0:0:0:
448,192,54371,1,0,0:0:0:0:
320,192,54450,1,0,0:0:0:0:
192,192,54529,1,0,0:0:0:0:
320,192,54608,1,0,0:0:0:0:
64,192,54687,128,8,54845:0:0:0:0:
192,192,54687,1,0,0:0:0:0:
448,192,54687,1,0,0:0:0:0:
320,192,54845,1,0,0:0:0:0:
64,192,54924,1,2,0:0:0:0:
192,192,54924,1,0,0:0:0:0:
320,192,55003,128,0,55160:0:0:0:0:
64,192,55160,1,2,0:0:0:0:
448,192,55160,1,0,0:0:0:0:
192,192,55239,1,0,0:0:0:0:
64,192,55318,128,8,55555:0:0:0:0:
320,192,55318,1,0,0:0:0:0:
448,192,55318,1,0,0:0:0:0:
192,192,55397,128,0,55634:0:0:0:0:
320,192,55476,128,0,55634:0:0:0:0:
64,192,55634,1,2,0:0:0:0:
448,192,55634,1,0,0:0:0:0:
320,192,55713,1,0,0:0:0:0:
192,192,55792,1,0,0:0:0:0:
320,192,55871,1,0,0:0:0:0:
64,192,55950,1,8,0:0:0:0:
192,192,55950,128,0,56029:0:0:0:0:
448,192,55950,128,0,56029:0:0:0:0:
192,192,56108,128,0,56187:0:0:0:0:
448,192,56108,128,0,56187:0:0:0:0:
192,192,56266,128,0,56345:0:0:0:0:
448,192,56266,128,0,56345:0:0:0:0:
64,192,56424,1,2,0:0:0:0:
320,192,56424,1,0,0:0:0:0:
192,192,56503,1,0,0:0:0:0:
64,192,56582,1,8,0:0:0:0:
320,192,56582,128,0,56897:0:0:0:0:
448,192,56582,128,0,56739:0:0:0:0:
192,192,56739,128,0,56897:0:0:0:0:
64,192,56897,1,2,0:0:0:0:
448,192,56897,1,0,0:0:0:0:
192,192,56976,1,0,0:0:0:0:
320,192,57055,1,0,0:0:0:0:
192,192,57134,1,0,0:0:0:0:
64,192,57213,1,8,0:0:0:0:
320,192,57213,128,0,57371:0:0:0:0:
448,192,57213,1,0,0:0:0:0:
192,192,57371,1,0,0:0:0:0:
320,192,57450,1,2,0:0:0:0:
448,192,57450,1,0,0:0:0:0:
64,192,57529,128,0,57687:0:0:0:0:
320,192,57687,1,2,0:0:0:0:
448,192,57687,1,0,0:0:0:0:
192,192,57766,1,0,0:0:0:0:
64,192,57845,128,8,58160:0:0:0:0:
320,192,57845,1,0,0:0:0:0:
448,192,57845,1,0,0:0:0:0:
192,192,58003,128,0,58160:0:0:0:0:
320,192,58160,1,2,0:0:0:0:
448,192,58160,1,0,0:0:0:0:
192,192,58239,1,0,0:0:0:0:
448,192,58318,1,0,0:0:0:0:
320,192,58397,1,0,0:0:0:0:
64,192,58476,128,8,58555:0:0:0:0:
192,192,58476,1,0,0:0:0:0:
448,192,58476,128,0,58555:0:0:0:0:
64,192,58634,128,0,58713:0:0:0:0:
448,192,58634,128,0,58713:0:0:0:0:
64,192,58792,128,0,58871:0:0:0:0:
448,192,58792,128,0,58871:0:0:0:0:
192,192,58950,1,2,0:0:0:0:
448,192,58950,1,0,0:0:0:0:
320,192,59029,1,0,0:0:0:0:
64,192,59108,128,8,59266:0:0:0:0:
192,192,59108,1,0,0:0:0:0:
448,192,59108,128,0,59266:0:0:0:0:
320,192,59266,128,0,59424:0:0:0:0:
64,192,59424,1,2,0:0:0:0:
448,192,59424,1,0,0:0:0:0:
192,192,59503,1,0,0:0:0:0:
320,192,59582,1,0,0:0:0:0:
192,192,59660,1,0,0:0:0:0:
64,192,59739,1,8,0:0:0:0:
320,192,59739,1,0,0:0:0:0:
448,192,59739,128,0,59897:0:0:0:0:
192,192,59897,1,0,0:0:0:0:
320,192,59976,1,2,0:0:0:0:
448,192,59976,1,0,0:0:0:0:
192,192,60055,128,0,60213:0:0:0:0:
64,192,60213,1,2,0:0:0:0:
320,192,60213,1,0,0:0:0:0:
192,192,60292,1,0,0:0:0:0:
64,192,60371,128,8,60687:0:0:0:0:
320,192,60371,1,0,0:0:0:0:
448,192,60371,1,0,0:0:0:0:
192,192,60450,128,0,60687:0:0:0:0:
320,192,60687,1,2,0:0:0:0:
448,192,60687,1,0,0:0:0:0:
192,192,60766,1,0,0:0:0:0:
448,192,60845,1,0,0:0:0:0:
192,192,60924,1,0,0:0:0:0:
64,192,61003,1,8,0:0:0:0:
320,192,61003,1,0,0:0:0:0:
448,192,61003,128,0,61082:0:0:0:0:
192,192,61082,128,0,61160:0:0:0:0:
320,192,61160,128,0,61239:0:0:0:0:
64,192,61239,128,0,61318:0:0:0:0:
192,192,61318,128,0,61397:0:0:0:0:
320,192,61397,128,0,61476:0:0:0:0:
64,192,61476,1,2,0:0:0:0:
192,192,61476,1,0,0:0:0:0:
320,192,61555,1,0,0:0:0:0:
64,192,61634,128,8,61792:0:0:0:0:
192,192,61634,128,0,61950:0:0:0:0:
448,192,61634,1,0,0:0:0:0:
320,192,61792,128,0,61950:0:0:0:0:
64,192,61950,1,2,0:0:0:0:
448,192,61950,1,0,0:0:0:0:
320,192,62029,1,0,0:0:0:0:
192,192,62108,1,0,0:0:0:0:
320,192,62187,1,0,0:0:0:0:
64,192,62266,128,8,62424:0:0:0:0:
192,192,62266,1,4,0:0:0:0:
448,192,62266,128,0,62424:0:0:0:0:
320,192,62424,1,0,0:0:0:0:
64,192,62503,1,2,0:0:0:0:
448,192,62503,1,0,0:0:0:0:
192,192,62582,128,0,62739:0:0:0:0:
64,192,62739,1,2,0:0:0:0:
448,192,62739,1,0,0:0:0:0:
320,192,62818,1,0,0:0:0:0:
64,192,62897,128,8,63134:0:0:0:0:
192,192,62897,1,4,0:0:0:0:
448,192,62897,128,0,63134:0:0:0:0:
320,192,63055,128,0,63213:0:0:0:0:
64,192,63213,1,2,0:0:0:0:
192,192,63213,1,4,0:0:0:0:
448,192,63213,1,0,0:0:0:50:S3.wav
320,192,63371,1,0,0:0:0:50:S3.wav
192,192,63450,1,0,0:0:0:0:
64,192,63529,1,0,0:0:0:50:S3.wav
448,192,63529,1,0,0:0:0:0:
320,192,63687,1,0,0:0:0:50:S3.wav
192,192,63766,1,0,0:0:0:50:S3.wav
320,192,63845,1,0,0:0:0:0:
448,192,63845,128,0,63924:0:0:0:50:S3.wav
64,192,63924,1,0,0:0:0:50:S3.wav
192,192,64003,1,0,0:0:0:50:S3.wav
320,192,64082,1,0,0:0:0:50:S3.wav
64,192,64160,1,0,0:0:0:50:S3.wav
192,192,64160,128,0,64239:0:0:0:0:
448,192,64239,1,0,0:0:0:50:S3.wav
320,192,64318,1,0,0:0:0:50:S3.wav
192,192,64397,1,0,0:0:0:50:S3.wav
64,192,64476,1,2,0:0:0:0:
320,192,64476,128,4,64792:0:0:0:0:
448,192,64476,128,0,65108:0:0:0:0:
64,192,65108,128,0,65424:0:0:0:0:
192,192,65108,128,0,65739:0:0:0:0:
320,192,65739,128,0,66213:0:0:0:0:
448,192,65739,128,0,66055:0:0:0:0:
64,192,66213,128,0,66371:0:0:0:0:
192,192,66213,1,0,0:0:0:0:
320,192,66371,128,0,66529:0:0:0:0:
448,192,66371,1,0,0:0:0:0:
192,192,66687,128,0,66845:0:0:0:0:
448,192,66845,128,0,67003:0:0:0:0:
64,192,67003,128,0,67318:0:0:0:0:
192,192,67003,1,0,0:0:0:0:
320,192,67318,128,0,67476:0:0:0:0:
448,192,67318,1,0,0:0:0:0:
64,192,67476,1,0,0:0:0:0:
192,192,67476,128,0,67634:0:0:0:0:
320,192,67634,1,0,0:0:0:0:
448,192,67634,128,0,67792:0:0:0:0:
64,192,67792,128,0,67950:0:0:0:0:
192,192,67792,1,0,0:0:0:0:
320,192,67950,128,0,68108:0:0:0:0:
448,192,67950,1,0,0:0:0:0:
64,192,68108,1,0,0:0:0:0:
192,192,68108,128,0,68266:0:0:0:0:
320,192,68266,1,0,0:0:0:0:
448,192,68266,128,0,68503:0:0:0:0:
192,192,68582,1,0,0:0:0:0:
320,192,68582,128,0,68818:0:0:0:0:
64,192,68897,1,0,0:0:0:0:
192,192,68897,128,0,69134:0:0:0:0:
448,192,69213,128,0,69371:0:0:0:0:
320,192,69371,128,0,69529:0:0:0:0:
64,192,69529,128,2,70160:0:0:0:0:
192,192,69529,128,4,69845:0:0:0:0:
448,192,69529,1,0,0:0:0:0:
320,192,70160,128,0,70792:0:0:0:0:
448,192,70160,128,0,70476:0:0:0:0:
64,192,70792,128,0,71108:0:0:0:0:
192,192,70792,128,0,71266:0:0:0:0:
320,192,71266,1,0,0:0:0:0:
448,192,71266,128,0,71345:0:0:0:0:
320,192,71424,1,0,0:0:0:0:
448,192,71424,128,0,71582:0:0:0:0:
320,192,71739,128,0,71897:0:0:0:0:
448,192,71739,1,0,0:0:0:0:
64,192,71897,128,0,72055:0:0:0:0:
192,192,71897,1,0,0:0:0:0:
320,192,72055,1,0,0:0:0:0:
448,192,72055,128,0,72371:0:0:0:0:
64,192,72371,1,0,0:0:0:0:
192,192,72371,128,0,72529:0:0:0:0:
320,192,72529,128,0,72687:0:0:0:0:
448,192,72529,1,0,0:0:0:0:
64,192,72687,128,0,72845:0:0:0:0:
192,192,72687,1,0,0:0:0:0:
320,192,72845,1,0,0:0:0:0:
448,192,72845,128,0,73003:0:0:0:0:
64,192,73003,1,0,0:0:0:0:
192,192,73003,128,0,73160:0:0:0:0:
320,192,73160,128,0,73318:0:0:0:0:
448,192,73160,1,0,0:0:0:0:
64,192,73318,128,0,73634:0:0:0:50:S3.wav
192,192,73318,1,0,0:0:0:0:
192,192,73634,1,0,0:0:0:0:
320,192,73713,1,0,0:0:0:50:S3.wav
448,192,73713,1,0,0:0:0:0:
64,192,73792,1,0,0:0:0:70:LR_Air Dart Snare.wav
192,192,73792,1,0,0:0:0:0:
320,192,73950,1,0,0:0:0:50:S3.wav
192,192,74003,1,0,0:0:0:50:S3.wav
320,192,74055,1,0,0:0:0:50:S3.wav
64,192,74108,1,0,0:0:0:50:S3.wav
192,192,74108,1,0,0:0:0:0:
320,192,74187,1,0,0:0:0:50:S3.wav
64,192,74266,1,0,0:0:0:70:LR_Air Dart Snare.wav
192,192,74266,1,0,0:0:0:0:
448,192,74266,1,0,0:0:0:0:
64,192,74582,128,4,75213:0:0:0:0:
320,192,74582,1,2,0:0:0:0:
448,192,74582,1,0,0:0:0:0:
192,192,74739,1,0,0:0:0:0:
320,192,74818,1,0,0:0:0:0:
192,192,74897,1,2,0:0:0:0:
448,192,74897,1,0,0:0:0:70:Clap.wav
448,192,75055,1,0,0:0:0:0:
320,192,75134,1,0,0:0:0:0:
192,192,75213,1,2,0:0:0:0:
448,192,75213,128,0,75371:0:0:0:0:
64,192,75371,1,0,0:0:0:0:
320,192,75450,1,0,0:0:0:0:
64,192,75529,1,2,0:0:0:0:
192,192,75529,128,0,75687:0:0:0:70:Clap.wav
448,192,75529,1,0,0:0:0:0:
320,192,75687,1,0,0:0:0:0:
64,192,75766,1,0,0:0:0:0:
320,192,75845,1,2,0:0:0:0:
448,192,75845,128,0,76003:0:0:0:0:
64,192,76003,1,0,0:0:0:0:
192,192,76003,1,0,0:0:0:0:
320,192,76160,1,2,0:0:0:0:
448,192,76160,1,0,0:0:0:70:Clap.wav
64,192,76239,1,0,0:0:0:0:
192,192,76239,1,0,0:0:0:0:
64,192,76397,1,0,0:0:0:0:
192,192,76397,1,0,0:0:0:0:
320,192,76476,1,2,0:0:0:0:
448,192,76476,1,0,0:0:0:0:
64,192,76634,1,0,0:0:0:0:
192,192,76634,1,0,0:0:0:0:
320,192,76713,1,0,0:0:0:0:
64,192,76792,128,2,76950:0:0:0:0:
192,192,76792,1,0,0:0:0:70:Clap.wav
448,192,76792,1,0,0:0:0:0:
320,192,76950,1,0,0:0:0:0:
192,192,77029,1,0,0:0:0:0:
64,192,77108,1,2,0:0:0:0:
448,192,77108,128,0,77266:0:0:0:0:
192,192,77266,1,0,0:0:0:0:
320,192,77345,1,0,0:0:0:0:
64,192,77424,1,2,0:0:0:0:
192,192,77424,128,0,77582:0:0:0:70:Clap.wav
448,192,77424,1,0,0:0:0:0:
320,192,77582,1,0,0:0:0:0:
448,192,77660,1,0,0:0:0:0:
64,192,77739,128,2,77897:0:0:0:0:
192,192,77739,1,0,0:0:0:0:
320,192,77897,1,0,0:0:0:0:
192,192,77976,1,0,0:0:0:0:
64,192,78055,1,2,0:0:0:0:
320,192,78055,128,0,78213:0:0:0:70:Clap.wav
448,192,78055,1,0,0:0:0:0:
192,192,78213,1,0,0:0:0:0:
320,192,78292,1,0,0:0:0:0:
64,192,78371,128,2,78687:0:0:0:0:
448,192,78371,1,0,0:0:0:0:
192,192,78529,1,0,0:0:0:0:
320,192,78608,1,0,0:0:0:0:
192,192,78687,1,2,0:0:0:0:
448,192,78687,1,0,0:0:0:70:Clap.wav
64,192,78845,1,0,0:0:0:0:
192,192,78924,1,0,0:0:0:0:
320,192,79003,128,2,79160:0:0:0:0:
448,192,79003,1,0,0:0:0:0:
64,192,79160,1,0,0:0:0:0:
192,192,79160,1,0,0:0:0:0:
448,192,79239,1,0,0:0:0:0:
64,192,79318,1,2,0:0:0:0:
192,192,79318,1,0,0:0:0:70:Clap.wav
320,192,79397,1,0,0:0:0:0:
448,192,79397,1,0,0:0:0:0:
64,192,79476,1,2,0:0:0:0:
192,192,79476,1,0,0:0:0:0:
64,192,79634,128,2,80266:0:0:0:0:
320,192,79634,1,0,0:0:0:0:
448,192,79634,1,0,0:0:0:0:
192,192,79792,1,0,0:0:0:0:
320,192,79871,1,0,0:0:0:0:
192,192,79950,1,2,0:0:0:0:
448,192,79950,1,0,0:0:0:70:Clap.wav
448,192,80108,1,0,0:0:0:0:
320,192,80187,1,0,0:0:0:0:
192,192,80266,1,2,0:0:0:0:
448,192,80266,128,0,80424:0:0:0:0:
64,192,80424,1,0,0:0:0:0:
320,192,80503,1,0,0:0:0:0:
64,192,80582,1,2,0:0:0:0:
192,192,80582,128,0,80739:0:0:0:70:Clap.wav
448,192,80582,1,0,0:0:0:0:
320,192,80739,1,0,0:0:0:0:
64,192,80818,1,0,0:0:0:0:
192,192,80897,1,2,0:0:0:0:
448,192,80897,128,0,81055:0:0:0:0:
320,192,81055,1,0,0:0:0:0:
64,192,81134,128,0,81292:0:0:0:0:
192,192,81134,1,0,0:0:0:0:
320,192,81213,1,2,0:0:0:0:
448,192,81213,1,0,0:0:0:70:Clap.wav
192,192,81371,1,0,0:0:0:0:
320,192,81371,128,0,81529:0:0:0:0:
64,192,81529,1,2,0:0:0:0:
192,192,81529,1,0,0:0:0:0:
320,192,81687,1,0,0:0:0:0:
192,192,81766,1,0,0:0:0:0:
64,192,81845,128,2,82003:0:0:0:0:
320,192,81845,1,0,0:0:0:70:Clap.wav
448,192,81845,1,0,0:0:0:0:
192,192,82003,1,0,0:0:0:0:
320,192,82082,1,0,0:0:0:0:
64,192,82160,1,2,0:0:0:0:
448,192,82160,128,0,82318:0:0:0:0:
192,192,82318,1,0,0:0:0:0:
320,192,82397,1,0,0:0:0:0:
64,192,82476,1,2,0:0:0:0:
192,192,82476,128,0,82634:0:0:0:70:Clap.wav
448,192,82476,1,0,0:0:0:0:
320,192,82634,1,0,0:0:0:0:
448,192,82713,1,0,0:0:0:0:
64,192,82792,128,2,82950:0:0:0:0:
192,192,82792,1,0,0:0:0:0:
320,192,82950,1,0,0:0:0:0:
192,192,83029,1,0,0:0:0:0:
64,192,83108,1,2,0:0:0:0:
320,192,83108,128,0,83266:0:0:0:70:Clap.wav
448,192,83108,1,0,0:0:0:0:
64,192,83266,1,2,0:0:0:0:
192,192,83266,1,0,0:0:0:0:
320,192,83345,1,0,0:0:0:0:
64,192,83424,1,2,0:0:0:0:
448,192,83424,1,0,0:0:0:0:
192,192,83503,1,0,0:0:0:0:
320,192,83582,1,0,0:0:0:0:
64,192,83660,1,0,0:0:0:0:
320,192,83739,1,2,0:0:0:0:
448,192,83739,1,0,0:0:0:70:Clap.wav
192,192,83818,1,0,0:0:0:0:
64,192,83897,1,2,0:0:0:0:
448,192,83897,1,0,0:0:0:0:
192,192,83976,1,2,0:0:0:0:
320,192,83976,1,0,0:0:0:0:
64,192,84055,128,2,84292:0:0:0:0:
448,192,84055,1,0,0:0:0:0:
192,192,84213,1,2,0:0:0:0:
320,192,84292,1,2,0:0:0:0:
448,192,84292,1,0,0:0:0:0:
64,192,84371,1,2,0:0:0:0:
192,192,84371,1,0,0:0:0:70:Clap.wav
320,192,84450,1,2,0:0:0:0:
64,192,84529,1,2,0:0:0:0:
448,192,84529,1,0,0:0:0:0:
192,192,84608,1,2,0:0:0:0:
64,192,84687,128,4,84845:0:0:0:0:
320,192,84687,1,2,0:0:0:0:
448,192,84687,128,0,84845:0:0:0:0:
192,192,84845,1,0,0:0:0:0:
320,192,84924,128,0,85082:0:0:0:0:
64,192,85003,1,2,0:0:0:0:
448,192,85003,1,0,0:0:0:70:Clap.wav
192,192,85082,1,0,0:0:0:0:
64,192,85160,128,0,85318:0:0:0:0:
320,192,85318,1,2,0:0:0:0:
448,192,85318,1,0,0:0:0:0:
64,192,85397,1,0,0:0:0:0:
320,192,85476,1,0,0:0:0:0:
192,192,85555,1,0,0:0:0:0:
64,192,85634,1,2,0:0:0:0:
448,192,85634,1,0,0:0:0:70:Clap.wav
320,192,85713,1,0,0:0:0:0:
192,192,85792,1,0,0:0:0:0:
320,192,85871,1,0,0:0:0:0:
64,192,85950,1,2,0:0:0:0:
448,192,85950,1,0,0:0:0:0:
192,192,86029,1,0,0:0:0:0:
448,192,86108,1,0,0:0:0:0:
320,192,86187,1,0,0:0:0:0:
64,192,86266,1,2,0:0:0:0:
192,192,86266,1,0,0:0:0:70:Clap.wav
448,192,86345,1,0,0:0:0:0:
192,192,86424,1,0,0:0:0:0:
320,192,86503,1,0,0:0:0:0:
64,192,86582,128,2,86739:0:0:0:0:
448,192,86582,128,0,86739:0:0:0:0:
320,192,86739,1,0,0:0:0:0:
64,192,86818,1,0,0:0:0:0:
192,192,86897,128,2,87055:0:0:0:0:
448,192,86897,128,0,87055:0:0:0:70:Clap.wav
64,192,87055,1,0,0:0:0:0:
192,192,87134,1,0,0:0:0:0:
320,192,87213,128,2,87371:0:0:0:0:
448,192,87213,128,0,87371:0:0:0:0:
192,192,87371,1,0,0:0:0:0:
64,192,87450,128,0,87608:0:0:0:0:
320,192,87529,1,2,0:0:0:0:
448,192,87529,1,0,0:0:0:70:Clap.wav
192,192,87608,1,0,0:0:0:0:
448,192,87687,128,0,87845:0:0:0:0:
64,192,87845,1,2,0:0:0:0:
192,192,87845,1,0,0:0:0:0:
320,192,87924,1,0,0:0:0:0:
64,192,88003,1,0,0:0:0:0:
192,192,88082,1,0,0:0:0:0:
320,192,88160,1,2,0:0:0:0:
448,192,88160,1,0,0:0:0:70:Clap.wav
192,192,88239,1,0,0:0:0:0:
448,192,88318,1,0,0:0:0:0:
320,192,88397,1,0,0:0:0:0:
64,192,88476,1,2,0:0:0:0:
192,192,88476,1,0,0:0:0:0:
448,192,88555,1,0,0:0:0:0:
192,192,88634,1,0,0:0:0:0:
320,192,88713,1,0,0:0:0:0:
64,192,88792,1,2,0:0:0:0:
448,192,88792,1,0,0:0:0:70:Clap.wav
192,192,88871,1,0,0:0:0:0:
320,192,88950,1,0,0:0:0:0:
64,192,89029,1,0,0:0:0:0:
192,192,89108,1,2,0:0:0:0:
448,192,89108,1,0,0:0:0:0:
320,192,89187,1,0,0:0:0:0:
192,192,89266,1,0,0:0:0:0:
448,192,89345,1,0,0:0:0:0:
64,192,89424,1,2,0:0:0:0:
320,192,89424,1,0,0:0:0:70:Clap.wav
192,192,89503,1,0,0:0:0:0:
64,192,89582,1,2,0:0:0:0:
448,192,89582,1,0,0:0:0:0:
320,192,89660,1,0,0:0:0:0:
64,192,89739,128,2,89897:0:0:0:0:
192,192,89739,1,0,0:0:0:0:
448,192,89739,128,0,89897:0:0:0:0:
320,192,89897,1,0,0:0:0:0:
192,192,89976,128,0,90134:0:0:0:0:
64,192,90055,1,2,0:0:0:0:
448,192,90055,1,0,0:0:0:70:Clap.wav
320,192,90134,1,0,0:0:0:0:
448,192,90213,128,0,90371:0:0:0:0:
64,192,90371,1,2,0:0:0:0:
192,192,90371,1,0,0:0:0:0:
448,192,90450,1,0,0:0:0:0:
192,192,90529,128,0,90687:0:0:0:0:
320,192,90608,128,0,90687:0:0:0:0:
64,192,90687,1,2,0:0:0:0:
448,192,90687,1,0,0:0:0:70:Clap.wav
192,192,90766,1,0,0:0:0:0:
320,192,90845,1,0,0:0:0:0:
192,192,90924,1,0,0:0:0:0:
64,192,91003,1,2,0:0:0:0:
448,192,91003,1,0,0:0:0:0:
320,192,91082,1,0,0:0:0:0:
64,192,91160,1,0,0:0:0:0:
192,192,91239,1,0,0:0:0:0:
320,192,91318,1,2,0:0:0:0:
448,192,91318,1,0,0:0:0:70:Clap.wav
64,192,91397,1,0,0:0:0:0:
320,192,91476,1,0,0:0:0:0:
192,192,91555,1,0,0:0:0:0:
64,192,91634,128,2,91792:0:0:0:0:
448,192,91634,128,0,91792:0:0:0:0:
192,192,91792,1,0,0:0:0:0:
448,192,91871,1,0,0:0:0:0:
64,192,91950,128,2,92108:0:0:0:0:
320,192,91950,128,0,92108:0:0:0:70:Clap.wav
448,192,92108,1,0,0:0:0:0:
320,192,92187,1,0,0:0:0:0:
64,192,92266,128,2,92424:0:0:0:0:
192,192,92266,128,0,92424:0:0:0:0:
320,192,92424,1,0,0:0:0:0:
448,192,92503,128,0,92660:0:0:0:0:
64,192,92582,1,2,0:0:0:0:
192,192,92582,1,0,0:0:0:70:Clap.wav
320,192,92660,1,0,0:0:0:0:
64,192,92739,128,0,92897:0:0:0:0:
320,192,92897,1,2,0:0:0:0:
448,192,92897,1,0,0:0:0:0:
192,192,92976,1,0,0:0:0:0:
448,192,93055,1,0,0:0:0:0:
320,192,93134,1,0,0:0:0:0:
64,192,93213,1,2,0:0:0:0:
192,192,93213,1,0,0:0:0:70:Clap.wav
320,192,93292,1,0,0:0:0:0:
64,192,93371,1,2,0:0:0:0:
448,192,93371,1,0,0:0:0:0:
192,192,93450,1,0,0:0:0:0:
320,192,93529,1,2,0:0:0:0:
448,192,93529,1,0,0:0:0:0:
64,192,93608,1,0,0:0:0:0:
320,192,93687,1,0,0:0:0:0:
192,192,93766,1,0,0:0:0:0:
448,192,93845,1,2,0:0:0:0:
64,192,93845,1,0,0:0:0:70:Clap.wav
320,192,93924,1,0,0:0:0:0:
64,192,94003,1,2,0:0:0:0:
192,192,94003,1,0,0:0:0:0:
320,192,94082,1,2,0:0:0:0:
448,192,94082,1,0,0:0:0:0:
64,192,94160,1,2,0:0:0:0:
192,192,94160,1,0,0:0:0:0:
320,192,94239,1,2,0:0:0:0:
64,192,94318,1,2,0:0:0:0:
448,192,94318,1,0,0:0:0:0:
320,192,94397,1,2,0:0:0:0:
192,192,94397,1,0,0:0:0:0:
64,192,94476,1,2,0:0:0:0:
448,192,94476,1,0,0:0:0:0:
192,192,94555,1,2,0:0:0:0:
448,192,94634,1,2,0:0:0:0:
320,192,94634,1,0,0:0:0:0:
192,192,94713,1,2,0:0:0:0:
64,192,94792,1,2,0:0:0:0:
448,192,94792,1,4,0:0:0:0:
320,192,94792,1,0,0:0:0:0:
448,192,94946,1,0,0:0:0:0:
320,192,95023,1,0,0:0:0:0:
64,192,95100,1,2,0:0:0:0:
192,192,95100,1,0,0:0:0:0:
448,192,95177,1,0,0:0:0:0:
320,192,95254,1,0,0:0:0:0:
192,192,95331,1,0,0:0:0:0:
64,192,95408,1,2,0:0:0:0:
448,192,95408,1,0,0:0:0:0:
320,192,95486,1,0,0:0:0:0:
192,192,95563,1,0,0:0:0:0:
320,192,95640,1,0,0:0:0:0:
64,192,95717,1,2,0:0:0:0:
192,192,95717,1,0,0:0:0:70:snare16.wav
448,192,95717,1,0,0:0:0:0:
320,192,95871,1,0,0:0:0:0:
192,192,95948,1,0,0:0:0:0:
64,192,96025,1,2,0:0:0:0:
448,192,96025,1,0,0:0:0:0:
320,192,96103,1,0,0:0:0:0:
64,192,96180,1,0,0:0:0:0:
192,192,96257,1,0,0:0:0:0:
320,192,96334,1,2,0:0:0:0:
448,192,96334,1,0,0:0:0:0:
64,192,96411,1,0,0:0:0:0:
192,192,96488,1,0,0:0:0:0:
320,192,96565,1,0,0:0:0:0:
64,192,96642,1,2,0:0:0:0:
448,192,96642,1,0,0:0:0:0:
192,192,96720,1,0,0:0:0:0:
320,192,96797,1,0,0:0:0:0:
192,192,96874,1,0,0:0:0:0:
64,192,96951,1,2,0:0:0:0:
320,192,96951,1,0,0:0:0:70:snare16.wav
448,192,96951,1,0,0:0:0:0:
192,192,97105,1,0,0:0:0:0:
320,192,97182,1,0,0:0:0:0:
64,192,97259,1,2,0:0:0:0:
448,192,97259,1,0,0:0:0:0:
192,192,97334,1,0,0:0:0:0:
448,192,97409,1,0,0:0:0:0:
320,192,97484,1,0,0:0:0:0:
64,192,97559,1,2,0:0:0:0:
192,192,97559,1,0,0:0:0:0:
448,192,97634,1,0,0:0:0:0:
320,192,97709,1,0,0:0:0:0:
64,192,97784,1,0,0:0:0:0:
192,192,97859,1,2,0:0:0:0:
320,192,97859,1,0,0:0:0:0:
448,192,97934,1,0,0:0:0:0:
64,192,98009,1,0,0:0:0:0:
192,192,98084,1,0,0:0:0:0:
320,192,98159,1,2,0:0:0:0:
448,192,98159,1,0,0:0:0:0:
64,192,98234,1,0,0:0:0:0:
320,192,98309,1,0,0:0:0:0:
192,192,98384,1,0,0:0:0:0:
64,192,98459,1,2,0:0:0:0:
448,192,98459,1,0,0:0:0:0:
320,192,98534,1,0,0:0:0:0:
64,192,98609,1,0,0:0:0:0:
192,192,98684,1,0,0:0:0:0:
320,192,98759,1,2,0:0:0:0:
448,192,98759,1,0,0:0:0:0:
64,192,98834,1,0,0:0:0:0:
192,192,98909,1,0,0:0:0:0:
448,192,98984,1,0,0:0:0:0:
192,192,99059,1,2,0:0:0:0:
320,192,99059,1,0,0:0:0:0:
64,192,99134,1,0,0:0:0:0:
448,192,99209,1,0,0:0:0:0:
320,192,99284,1,0,0:0:0:0:
64,192,99359,1,2,0:0:0:0:
192,192,99359,1,0,0:0:0:0:
448,192,99359,1,0,0:0:0:0:
192,192,99509,1,0,0:0:0:0:
320,192,99584,1,0,0:0:0:0:
64,192,99659,1,2,0:0:0:0:
192,192,99659,1,4,0:0:0:0:
448,192,99659,1,0,0:0:0:0:
64,192,99798,1,2,0:0:0:0:
320,192,99798,1,0,0:0:0:0:
192,192,99938,1,2,0:0:0:0:
320,192,99938,1,0,0:0:0:0:
448,192,99938,1,0,0:0:0:0:
64,192,100077,1,2,0:0:0:0:
448,192,100077,1,0,0:0:0:0:
64,192,100217,1,2,0:0:0:0:
192,192,100217,1,0,0:0:0:0:
320,192,100217,1,0,0:0:0:0:
192,192,100356,1,2,0:0:0:0:
448,192,100356,1,0,0:0:0:0:
64,192,100496,1,2,0:0:0:0:
320,192,100496,1,0,0:0:0:70:snare16.wav
448,192,100496,1,0,0:0:0:0:
192,192,100635,1,2,0:0:0:0:
320,192,100635,1,0,0:0:0:0:
64,192,100775,1,2,0:0:0:0:
192,192,100775,1,0,0:0:0:0:
448,192,100775,1,0,0:0:0:0:
64,192,100914,1,2,0:0:0:0:
320,192,100914,1,0,0:0:0:0:
192,192,101054,1,2,0:0:0:0:
320,192,101054,1,0,0:0:0:0:
448,192,101054,1,0,0:0:0:0:
64,192,101193,1,2,0:0:0:0:
448,192,101193,1,0,0:0:0:0:
64,192,101333,1,2,0:0:0:0:
192,192,101333,1,0,0:0:0:0:
320,192,101333,1,0,0:0:0:0:
192,192,101472,1,2,0:0:0:0:
448,192,101472,1,0,0:0:0:0:
64,192,101612,1,2,0:0:0:0:
320,192,101612,1,0,0:0:0:70:snare16.wav
448,192,101612,1,0,0:0:0:0:
192,192,101752,1,2,0:0:0:0:
320,192,101752,1,0,0:0:0:0:
64,192,101891,1,2,0:0:0:0:
192,192,101891,1,0,0:0:0:0:
320,192,101961,1,2,0:0:0:0:
448,192,101961,1,0,0:0:0:0:
64,192,102031,1,2,0:0:0:0:
192,192,102031,1,0,0:0:0:0:
320,192,102100,1,2,0:0:0:0:
448,192,102100,1,0,0:0:0:0:
64,192,102170,1,2,0:0:0:0:
192,192,102170,1,0,0:0:0:0:
320,192,102240,1,2,0:0:0:0:
448,192,102240,1,0,0:0:0:0:
64,192,102310,1,2,0:0:0:0:
192,192,102310,1,0,0:0:0:0:
320,192,102379,1,2,0:0:0:0:
448,192,102379,1,0,0:0:0:0:
64,192,102449,1,2,0:0:0:0:
192,192,102449,1,0,0:0:0:0:
320,192,102519,1,2,0:0:0:0:
448,192,102519,1,0,0:0:0:0:
64,192,102589,1,2,0:0:0:0:
192,192,102589,1,0,0:0:0:0:
320,192,102659,1,2,0:0:0:0:
448,192,102659,1,0,0:0:0:0:
64,192,102728,1,2,0:0:0:0:
192,192,102728,1,0,0:0:0:0:
320,192,102798,1,2,0:0:0:0:
448,192,102798,1,0,0:0:0:0:
64,192,102868,1,2,0:0:0:0:
192,192,102868,1,0,0:0:0:0:
320,192,102938,1,2,0:0:0:0:
64,192,103007,1,4,0:0:0:0:
192,192,103007,1,2,0:0:0:0:
448,192,103007,1,0,0:0:0:100:tick01.wav
320,192,103143,1,0,0:0:0:50:S3.wav
192,192,103211,1,0,0:0:0:50:S3.wav
64,192,103279,1,0,0:0:0:50:S3.wav
448,192,103279,1,0,0:0:0:100:tick01.wav
64,192,103416,1,0,0:0:0:50:S3.wav
192,192,103484,1,0,0:0:0:50:S3.wav
320,192,103552,1,0,0:0:0:50:S3.wav
448,192,103552,1,0,0:0:0:100:tick01.wav
192,192,103620,1,0,0:0:0:50:S3.wav
448,192,103688,1,0,0:0:0:50:S3.wav
192,192,103757,1,0,0:0:0:50:S3.wav
64,192,103825,1,8,0:0:0:0:
320,192,103825,1,0,0:0:0:100:hithit.wav
448,192,103825,1,0,0:0:0:0:
64,192,104097,1,2,0:0:0:0:
192,192,104097,1,4,0:0:0:0:
320,192,104097,1,0,0:0:0:0:
448,192,104097,1,0,0:0:0:0:
320,192,104234,1,0,0:0:0:0:
192,192,104302,1,0,0:0:0:0:
64,192,104370,1,8,0:0:0:0:
320,192,104370,1,2,0:0:0:0:
448,192,104370,1,0,0:0:0:0:
64,192,104507,1,0,0:0:0:0:
192,192,104575,1,0,0:0:0:0:
320,192,104643,1,2,0:0:0:0:
448,192,104643,1,0,0:0:0:0:
192,192,104779,1,0,0:0:0:0:
320,192,104847,1,0,0:0:0:0:
64,192,104916,1,2,0:0:0:0:
192,192,104916,1,8,0:0:0:0:
448,192,104916,1,0,0:0:0:0:
64,192,105052,1,2,0:0:0:0:
320,192,105052,1,0,0:0:0:0:
64,192,105188,1,2,0:0:0:0:
192,192,105188,1,0,0:0:0:0:
448,192,105188,1,0,0:0:0:0:
320,192,105325,1,0,0:0:0:0:
192,192,105393,1,0,0:0:0:0:
64,192,105461,1,8,0:0:0:0:
320,192,105461,1,2,0:0:0:0:
448,192,105461,1,0,0:0:0:0:
64,192,105597,1,0,0:0:0:0:
192,192,105666,1,0,0:0:0:0:
320,192,105734,1,2,0:0:0:0:
448,192,105734,1,0,0:0:0:0:
192,192,105870,1,2,0:0:0:0:
448,192,105870,1,0,0:0:0:0:
64,192,106007,1,2,0:0:0:0:
320,192,106007,1,8,0:0:0:0:
448,192,106007,1,0,0:0:0:0:
64,192,106143,1,2,0:0:0:0:
192,192,106143,1,0,0:0:0:0:
320,192,106211,1,2,0:0:0:0:
448,192,106211,1,0,0:0:0:0:
64,192,106279,1,2,0:0:0:0:
192,192,106279,1,0,0:0:0:0:
320,192,106416,1,2,0:0:0:0:
448,192,106416,1,0,0:0:0:0:
192,192,106484,1,0,0:0:0:0:
64,192,106552,1,2,0:0:0:0:
320,192,106552,1,8,0:0:0:0:
448,192,106552,1,0,0:0:0:0:
64,192,106688,1,0,0:0:0:0:
192,192,106757,1,0,0:0:0:0:
320,192,106825,1,2,0:0:0:0:
448,192,106825,1,0,0:0:0:0:
192,192,106961,1,0,0:0:0:0:
320,192,107029,1,0,0:0:0:0:
64,192,107097,1,8,0:0:0:0:
192,192,107097,1,2,0:0:0:0:
448,192,107097,1,0,0:0:0:0:
64,192,107234,1,2,0:0:0:0:
320,192,107234,1,0,0:0:0:0:
64,192,107370,1,2,0:0:0:0:
192,192,107370,1,0,0:0:0:0:
448,192,107370,1,0,0:0:0:0:
320,192,107507,1,0,0:0:0:0:
192,192,107575,1,0,0:0:0:0:
64,192,107643,1,2,0:0:0:0:
320,192,107643,1,8,0:0:0:0:
448,192,107643,1,0,0:0:0:0:
64,192,107779,1,0,0:0:0:0:
192,192,107847,1,0,0:0:0:0:
320,192,107916,1,2,0:0:0:0:
448,192,107916,1,0,0:0:0:0:
64,192,108052,1,2,0:0:0:0:
320,192,108052,1,0,0:0:0:0:
64,192,108188,1,8,0:0:0:0:
192,192,108188,1,2,0:0:0:0:
448,192,108188,1,0,0:0:0:0:
320,192,108325,1,2,0:0:0:0:
448,192,108325,1,0,0:0:0:0:
64,192,108393,1,2,0:0:0:0:
192,192,108393,1,0,0:0:0:0:
320,192,108461,1,2,0:0:0:0:
448,192,108461,1,0,0:0:0:0:
192,192,108597,1,0,0:0:0:0:
320,192,108666,1,0,0:0:0:0:
64,192,108734,1,2,0:0:0:0:
192,192,108734,1,8,0:0:0:0:
448,192,108734,1,0,0:0:0:0:
448,192,108870,1,0,0:0:0:0:
320,192,108938,1,0,0:0:0:0:
64,192,109007,1,2,0:0:0:0:
192,192,109007,1,0,0:0:0:0:
320,192,109143,1,0,0:0:0:0:
192,192,109211,1,0,0:0:0:0:
64,192,109279,1,8,0:0:0:0:
320,192,109279,1,2,0:0:0:0:
448,192,109279,1,0,0:0:0:0:
192,192,109416,1,2,0:0:0:0:
448,192,109416,1,0,0:0:0:0:
64,192,109552,1,2,0:0:0:0:
320,192,109552,1,0,0:0:0:0:
448,192,109552,1,0,0:0:0:0:
192,192,109688,1,0,0:0:0:0:
320,192,109757,1,0,0:0:0:0:
64,192,109825,1,2,0:0:0:0:
192,192,109825,1,8,0:0:0:0:
448,192,109825,1,0,0:0:0:0:
448,192,109961,1,0,0:0:0:0:
320,192,110029,1,0,0:0:0:0:
64,192,110097,1,2,0:0:0:0:
192,192,110097,1,0,0:0:0:0:
64,192,110234,1,2,0:0:0:0:
320,192,110234,1,0,0:0:0:0:
64,192,110370,1,8,0:0:0:0:
192,192,110370,1,2,0:0:0:0:
448,192,110370,1,0,0:0:0:0:
320,192,110507,1,2,0:0:0:0:
448,192,110507,1,0,0:0:0:0:
64,192,110575,1,2,0:0:0:0:
192,192,110575,1,0,0:0:0:0:
320,192,110643,1,2,0:0:0:0:
448,192,110643,1,0,0:0:0:0:
64,192,110779,1,2,0:0:0:0:
192,192,110779,1,0,0:0:0:0:
320,192,110847,1,0,0:0:0:0:
64,192,110916,1,8,0:0:0:0:
192,192,110916,1,2,0:0:0:0:
448,192,110916,1,0,0:0:0:0:
448,192,111052,1,0,0:0:0:0:
320,192,111120,1,0,0:0:0:0:
64,192,111188,1,2,0:0:0:0:
192,192,111188,1,0,0:0:0:0:
320,192,111325,1,0,0:0:0:0:
192,192,111393,1,0,0:0:0:0:
64,192,111461,1,2,0:0:0:0:
320,192,111461,1,8,0:0:0:0:
448,192,111461,1,0,0:0:0:0:
192,192,111597,1,2,0:0:0:0:
448,192,111597,1,0,0:0:0:0:
64,192,111734,1,2,0:0:0:0:
320,192,111734,1,0,0:0:0:0:
448,192,111734,1,0,0:0:0:0:
192,192,111870,1,2,0:0:0:0:
320,192,111870,1,0,0:0:0:0:
64,192,112007,1,8,0:0:0:0:
192,192,112007,1,2,0:0:0:0:
448,192,112007,1,4,0:0:0:0:
448,192,112143,1,0,0:0:0:0:
320,192,112211,1,0,0:0:0:0:
64,192,112279,1,2,0:0:0:0:
192,192,112279,1,0,0:0:0:0:
192,192,112416,1,2,0:0:0:0:
320,192,112416,1,0,0:0:0:0:
64,192,112552,1,2,0:0:0:0:
320,192,112552,1,8,0:0:0:0:
448,192,112552,1,4,0:0:0:0:
192,192,112688,1,0,0:0:0:0:
320,192,112757,1,0,0:0:0:0:
64,192,112825,1,2,0:0:0:0:
192,192,112825,1,4,0:0:0:0:
448,192,112825,1,0,0:0:0:0:
320,192,112961,1,0,0:0:0:0:
192,192,113029,1,0,0:0:0:0:
64,192,113097,1,8,0:0:0:0:
320,192,113097,1,2,0:0:0:0:
448,192,113097,1,0,0:0:0:0:
64,192,113234,1,0,0:0:0:0:
192,192,113302,1,0,0:0:0:0:
320,192,113370,1,2,0:0:0:0:
448,192,113370,1,0,0:0:0:0:
192,192,113507,1,0,0:0:0:0:
320,192,113575,1,0,0:0:0:0:
64,192,113643,1,2,0:0:0:0:
192,192,113643,1,8,0:0:0:0:
448,192,113643,1,0,0:0:0:0:
192,192,113779,1,2,0:0:0:0:
320,192,113779,1,0,0:0:0:0:
64,192,113916,1,2,0:0:0:0:
320,192,113916,1,0,0:0:0:0:
448,192,113916,1,0,0:0:0:0:
192,192,113984,1,0,0:0:0:0:
320,192,114052,1,0,0:0:0:0:
192,192,114120,1,0,0:0:0:0:
64,192,114188,1,8,0:0:0:0:
448,192,114188,1,2,0:0:0:0:
320,192,114257,1,0,0:0:0:0:
192,192,114325,1,0,0:0:0:0:
320,192,114393,1,0,0:0:0:0:
64,192,114461,1,2,0:0:0:0:
448,192,114461,1,0,0:0:0:0:
192,192,114597,1,2,0:0:0:0:
448,192,114597,1,0,0:0:0:0:
64,192,114734,1,2,0:0:0:0:
320,192,114734,1,8,0:0:0:0:
448,192,114734,1,0,0:0:0:0:
64,192,114870,1,2,0:0:0:0:
192,192,114870,1,0,0:0:0:0:
320,192,114938,1,2,0:0:0:0:
448,192,114938,1,0,0:0:0:0:
64,192,115007,1,2,0:0:0:0:
192,192,115007,1,0,0:0:0:0:
320,192,115143,1,2,0:0:0:0:
448,192,115143,1,0,0:0:0:0:
192,192,115211,1,0,0:0:0:0:
64,192,115279,1,2,0:0:0:0:
320,192,115279,1,8,0:0:0:0:
448,192,115279,1,0,0:0:0:0:
64,192,115416,1,0,0:0:0:0:
192,192,115484,1,0,0:0:0:0:
320,192,115552,1,2,0:0:0:0:
448,192,115552,1,0,0:0:0:0:
192,192,115688,1,0,0:0:0:0:
320,192,115757,1,0,0:0:0:0:
64,192,115825,1,8,0:0:0:0:
192,192,115825,1,2,0:0:0:0:
448,192,115825,1,0,0:0:0:0:
192,192,115961,1,2,0:0:0:0:
320,192,115961,1,0,0:0:0:0:
64,192,116097,1,2,0:0:0:0:
320,192,116097,1,0,0:0:0:0:
448,192,116097,1,0,0:0:0:0:
192,192,116166,1,0,0:0:0:0:
320,192,116234,1,0,0:0:0:0:
192,192,116302,1,0,0:0:0:0:
64,192,116370,1,2,0:0:0:0:
448,192,116370,1,8,0:0:0:0:
320,192,116438,1,0,0:0:0:0:
192,192,116507,1,0,0:0:0:0:
320,192,116575,1,0,0:0:0:0:
64,192,116643,1,2,0:0:0:0:
448,192,116643,1,0,0:0:0:0:
192,192,116779,1,2,0:0:0:0:
320,192,116779,1,0,0:0:0:0:
64,192,116916,1,8,0:0:0:0:
192,192,116916,1,2,0:0:0:0:
448,192,116916,1,0,0:0:0:0:
320,192,117052,1,2,0:0:0:0:
448,192,117052,1,0,0:0:0:0:
64,192,117120,1,2,0:0:0:0:
192,192,117120,1,0,0:0:0:0:
320,192,117188,1,2,0:0:0:0:
448,192,117188,1,0,0:0:0:0:
192,192,117325,1,0,0:0:0:0:
320,192,117393,1,0,0:0:0:0:
64,192,117461,1,2,0:0:0:0:
192,192,117461,1,8,0:0:0:0:
448,192,117461,1,0,0:0:0:0:
448,192,117597,1,0,0:0:0:0:
320,192,117666,1,0,0:0:0:0:
64,192,117734,1,2,0:0:0:0:
192,192,117734,1,0,0:0:0:0:
320,192,117870,1,0,0:0:0:0:
192,192,117938,1,0,0:0:0:0:
64,192,118007,1,8,0:0:0:0:
320,192,118007,1,2,0:0:0:0:
448,192,118007,1,0,0:0:0:0:
192,192,118143,1,2,0:0:0:0:
320,192,118143,1,0,0:0:0:0:
64,192,118279,1,2,0:0:0:0:
192,192,118279,1,0,0:0:0:0:
448,192,118279,1,0,0:0:0:0:
320,192,118347,1,0,0:0:0:0:
192,192,118416,1,0,0:0:0:0:
320,192,118484,1,0,0:0:0:0:
64,192,118552,1,2,0:0:0:0:
448,192,118552,1,8,0:0:0:0:
192,192,118620,1,0,0:0:0:0:
320,192,118688,1,0,0:0:0:0:
192,192,118757,1,0,0:0:0:0:
64,192,118825,1,2,0:0:0:0:
448,192,118825,1,0,0:0:0:0:
64,192,118961,1,2,0:0:0:0:
320,192,118961,1,0,0:0:0:0:
64,192,119097,1,8,0:0:0:0:
192,192,119097,1,2,0:0:0:0:
448,192,119097,1,0,0:0:0:0:
320,192,119234,1,2,0:0:0:0:
448,192,119234,1,0,0:0:0:0:
64,192,119302,1,2,0:0:0:0:
192,192,119302,1,0,0:0:0:0:
320,192,119370,1,2,0:0:0:0:
448,192,119370,1,0,0:0:0:0:
64,192,119507,1,2,0:0:0:0:
192,192,119507,1,0,0:0:0:0:
320,192,119575,1,0,0:0:0:0:
64,192,119643,1,8,0:0:0:0:
192,192,119643,1,2,0:0:0:0:
448,192,119643,1,0,0:0:0:0:
448,192,119779,1,0,0:0:0:0:
320,192,119847,1,0,0:0:0:0:
64,192,119916,1,2,0:0:0:0:
192,192,119916,1,0,0:0:0:0:
320,192,120052,1,0,0:0:0:0:
192,192,120120,1,0,0:0:0:0:
64,192,120188,1,2,0:0:0:0:
320,192,120188,1,8,0:0:0:0:
448,192,120188,1,0,0:0:0:0:
192,192,120325,1,2,0:0:0:0:
320,192,120325,1,0,0:0:0:0:
64,192,120461,1,2,0:0:0:0:
192,192,120461,1,0,0:0:0:0:
448,192,120461,1,0,0:0:0:0:
64,192,120597,1,2,0:0:0:0:
320,192,120597,1,0,0:0:0:0:
64,192,120734,1,8,0:0:0:0:
192,192,120734,1,2,0:0:0:0:
448,192,120734,1,4,0:0:0:0:
448,192,120870,1,0,0:0:0:0:
320,192,120938,1,0,0:0:0:0:
64,192,121007,1,2,0:0:0:0:
192,192,121007,1,0,0:0:0:0:
192,192,121143,1,2,0:0:0:0:
448,192,121143,1,0,0:0:0:0:
64,192,121279,1,2,0:0:0:0:
320,192,121279,1,8,0:0:0:0:
448,192,121279,1,4,0:0:0:0:
192,192,121416,1,0,0:0:0:0:
320,192,121484,1,0,0:0:0:0:
64,192,121552,1,2,0:0:0:0:
192,192,121552,1,4,0:0:0:0:
448,192,121552,1,0,0:0:0:0:
320,192,121688,1,0,0:0:0:50:S3.wav
192,192,121757,1,0,0:0:0:50:S3.wav
320,192,121825,1,0,0:0:0:50:S3.wav
448,192,121825,1,0,0:0:0:0:
64,192,121961,1,0,0:0:0:50:S3.wav
192,192,122029,1,0,0:0:0:50:S3.wav
320,192,122097,1,0,0:0:0:0:
448,192,122097,128,0,122166:0:0:0:50:S3.wav
64,192,122166,1,0,0:0:0:50:S3.wav
192,192,122234,1,0,0:0:0:50:S3.wav
320,192,122302,1,0,0:0:0:50:S3.wav
64,192,122370,1,0,0:0:0:50:S3.wav
192,192,122370,128,0,122438:0:0:0:0:
448,192,122438,1,0,0:0:0:50:S3.wav
320,192,122507,1,0,0:0:0:50:S3.wav
192,192,122575,1,0,0:0:0:50:S3.wav
64,192,122643,1,4,0:0:0:0:
320,192,122643,128,2,122916:0:0:0:0:
448,192,122643,128,0,123188:0:0:0:0:
192,192,123052,1,0,0:0:0:0:
64,192,123188,128,0,123461:0:0:0:0:
192,192,123188,128,0,123734:0:0:0:0:
64,192,123597,1,0,0:0:0:0:
320,192,123734,128,0,124143:0:0:0:0:
448,192,123734,128,0,124007:0:0:0:0:
64,192,124143,128,0,124279:0:0:0:0:
192,192,124143,1,0,0:0:0:0:
320,192,124279,128,0,124416:0:0:0:0:
448,192,124279,1,0,0:0:0:0:
192,192,124552,128,0,124688:0:0:0:0:
448,192,124688,128,0,124825:0:0:0:0:
64,192,124825,128,0,125097:0:0:0:0:
192,192,124825,1,0,0:0:0:0:
320,192,125097,128,0,125234:0:0:0:0:
448,192,125097,1,0,0:0:0:0:
64,192,125234,1,0,0:0:0:0:
192,192,125234,128,0,125370:0:0:0:0:
320,192,125370,1,0,0:0:0:0:
448,192,125370,128,0,125507:0:0:0:0:
64,192,125507,128,0,125643:0:0:0:0:
192,192,125507,1,0,0:0:0:0:
320,192,125643,128,0,125779:0:0:0:0:
448,192,125643,1,0,0:0:0:0:
64,192,125779,1,0,0:0:0:0:
192,192,125779,128,0,125916:0:0:0:0:
320,192,125916,1,0,0:0:0:0:
448,192,125916,128,0,126120:0:0:0:0:
192,192,126188,1,0,0:0:0:0:
320,192,126188,128,0,126393:0:0:0:0:
64,192,126461,1,0,0:0:0:0:
192,192,126461,128,0,126666:0:0:0:0:
448,192,126734,128,0,126870:0:0:0:0:
320,192,126870,128,0,127007:0:0:0:0:
64,192,127007,128,4,127552:0:0:0:0:
192,192,127007,128,2,127279:0:0:0:0:
448,192,127007,1,0,0:0:0:0:
320,192,127552,128,0,128097:0:0:0:0:
448,192,127552,128,0,127825:0:0:0:0:
64,192,128097,128,0,128370:0:0:0:0:
192,192,128097,128,0,128507:0:0:0:0:
320,192,128507,1,0,0:0:0:0:
448,192,128507,128,0,128643:0:0:0:0:
64,192,128643,128,0,128779:0:0:0:0:
192,192,128643,1,0,0:0:0:0:
320,192,128916,128,0,129052:0:0:0:0:
448,192,128916,1,0,0:0:0:0:
64,192,129052,128,0,129188:0:0:0:0:
192,192,129052,1,0,0:0:0:0:
320,192,129188,1,0,0:0:0:0:
448,192,129188,128,0,129461:0:0:0:0:
64,192,129461,1,0,0:0:0:0:
192,192,129461,128,0,129597:0:0:0:0:
320,192,129597,128,0,129734:0:0:0:0:
448,192,129597,1,0,0:0:0:0:
64,192,129734,128,0,129870:0:0:0:0:
192,192,129734,1,0,0:0:0:0:
320,192,129870,1,0,0:0:0:0:
448,192,129870,128,0,130007:0:0:0:0:
64,192,130007,1,0,0:0:0:0:
192,192,130007,128,0,130143:0:0:0:0:
320,192,130143,128,0,130279:0:0:0:0:
448,192,130143,1,0,0:0:0:0:
64,192,130279,128,0,130552:0:0:0:50:S3.wav
192,192,130279,1,0,0:0:0:0:
320,192,130552,1,0,0:0:0:0:
192,192,130620,1,0,0:0:0:50:S3.wav
64,192,130620,1,0,0:0:0:0:
448,192,130688,1,0,0:0:0:70:LR_Air Dart Snare.wav
320,192,130688,1,0,0:0:0:0:
64,192,130825,1,0,0:0:0:50:S3.wav
192,192,130870,1,0,0:0:0:50:S3.wav
320,192,130916,1,0,0:0:0:50:S3.wav
448,192,130961,1,0,0:0:0:50:S3.wav
64,192,130961,1,0,0:0:0:0:
192,192,131029,1,0,0:0:0:50:S3.wav
448,192,131097,1,0,0:0:0:70:LR_Air Dart Snare.wav
320,192,131097,1,0,0:0:0:0:
64,192,131097,1,0,0:0:0:0:
64,192,131370,128,2,131916:0:0:0:0:
320,192,131370,1,4,0:0:0:0:
448,192,131370,1,0,0:0:0:0:
192,192,131507,1,0,0:0:0:0:
320,192,131575,1,0,0:0:0:0:
192,192,131643,1,2,0:0:0:0:
448,192,131643,1,0,0:0:0:70:Clap.wav
448,192,131779,1,0,0:0:0:0:
320,192,131847,1,0,0:0:0:0:
192,192,131916,1,2,0:0:0:0:
448,192,131916,128,0,132052:0:0:0:0:
64,192,132052,1,0,0:0:0:0:
320,192,132120,1,0,0:0:0:0:
64,192,132188,1,2,0:0:0:0:
192,192,132188,128,0,132325:0:0:0:70:Clap.wav
448,192,132188,1,0,0:0:0:0:
320,192,132325,1,0,0:0:0:0:
64,192,132393,1,0,0:0:0:0:
320,192,132461,1,2,0:0:0:0:
448,192,132461,128,0,132597:0:0:0:0:
64,192,132597,1,0,0:0:0:0:
192,192,132597,1,0,0:0:0:0:
320,192,132734,1,2,0:0:0:0:
448,192,132734,1,0,0:0:0:70:Clap.wav
64,192,132802,1,0,0:0:0:0:
192,192,132802,1,0,0:0:0:0:
64,192,132938,1,0,0:0:0:0:
192,192,132938,1,0,0:0:0:0:
320,192,133007,1,2,0:0:0:0:
448,192,133007,1,0,0:0:0:0:
64,192,133143,1,0,0:0:0:0:
192,192,133143,1,0,0:0:0:0:
320,192,133211,1,0,0:0:0:0:
64,192,133279,128,2,133416:0:0:0:0:
192,192,133279,1,0,0:0:0:70:Clap.wav
448,192,133279,1,0,0:0:0:0:
320,192,133416,1,0,0:0:0:0:
192,192,133484,1,0,0:0:0:0:
64,192,133552,1,2,0:0:0:0:
448,192,133552,128,0,133688:0:0:0:0:
192,192,133688,1,0,0:0:0:0:
320,192,133757,1,0,0:0:0:0:
64,192,133825,1,2,0:0:0:0:
192,192,133825,128,0,133961:0:0:0:70:Clap.wav
448,192,133825,1,0,0:0:0:0:
320,192,133961,1,0,0:0:0:0:
448,192,134029,1,0,0:0:0:0:
64,192,134097,128,2,134234:0:0:0:0:
192,192,134097,1,0,0:0:0:0:
320,192,134234,1,0,0:0:0:0:
192,192,134302,1,0,0:0:0:0:
64,192,134370,1,2,0:0:0:0:
320,192,134370,128,0,134507:0:0:0:70:Clap.wav
448,192,134370,1,0,0:0:0:0:
192,192,134507,1,0,0:0:0:0:
320,192,134575,1,0,0:0:0:0:
64,192,134643,128,2,134916:0:0:0:0:
448,192,134643,1,0,0:0:0:0:
192,192,134779,1,0,0:0:0:0:
320,192,134847,1,0,0:0:0:0:
192,192,134916,1,2,0:0:0:0:
448,192,134916,1,0,0:0:0:70:Clap.wav
64,192,135052,1,0,0:0:0:0:
192,192,135120,1,0,0:0:0:0:
320,192,135188,128,2,135325:0:0:0:0:
448,192,135188,1,0,0:0:0:0:
64,192,135325,1,0,0:0:0:0:
192,192,135325,1,0,0:0:0:0:
448,192,135393,1,0,0:0:0:0:
64,192,135461,1,2,0:0:0:0:
192,192,135461,1,0,0:0:0:70:Clap.wav
320,192,135529,1,0,0:0:0:0:
448,192,135529,1,0,0:0:0:0:
64,192,135597,1,0,0:0:0:0:
192,192,135597,1,0,0:0:0:0:
64,192,135734,128,2,136279:0:0:0:0:
320,192,135734,1,0,0:0:0:0:
448,192,135734,1,0,0:0:0:0:
192,192,135870,1,0,0:0:0:0:
320,192,135938,1,0,0:0:0:0:
192,192,136007,1,2,0:0:0:0:
448,192,136007,1,0,0:0:0:70:Clap.wav
448,192,136143,1,0,0:0:0:0:
320,192,136211,1,0,0:0:0:0:
192,192,136279,1,2,0:0:0:0:
448,192,136279,128,0,136416:0:0:0:0:
64,192,136416,1,0,0:0:0:0:
320,192,136484,1,0,0:0:0:0:
64,192,136552,1,2,0:0:0:0:
192,192,136552,128,0,136688:0:0:0:70:Clap.wav
448,192,136552,1,0,0:0:0:0:
320,192,136688,1,0,0:0:0:0:
64,192,136757,1,0,0:0:0:0:
192,192,136825,1,2,0:0:0:0:
448,192,136825,128,0,136961:0:0:0:0:
320,192,136961,1,0,0:0:0:0:
64,192,137029,128,0,137166:0:0:0:0:
192,192,137029,1,0,0:0:0:0:
320,192,137097,1,2,0:0:0:0:
448,192,137097,1,0,0:0:0:70:Clap.wav
192,192,137234,1,0,0:0:0:0:
320,192,137234,128,0,137370:0:0:0:0:
64,192,137370,1,2,0:0:0:0:
192,192,137370,1,0,0:0:0:0:
320,192,137507,1,0,0:0:0:0:
192,192,137575,1,0,0:0:0:0:
64,192,137643,128,2,137779:0:0:0:0:
320,192,137643,1,0,0:0:0:70:Clap.wav
448,192,137643,1,0,0:0:0:0:
192,192,137779,1,0,0:0:0:0:
320,192,137847,1,0,0:0:0:0:
64,192,137916,1,2,0:0:0:0:
448,192,137916,128,0,138052:0:0:0:0:
192,192,138052,1,0,0:0:0:0:
320,192,138120,1,0,0:0:0:0:
64,192,138188,1,2,0:0:0:0:
192,192,138188,128,0,138325:0:0:0:70:Clap.wav
448,192,138188,1,0,0:0:0:0:
320,192,138325,1,0,0:0:0:0:
448,192,138393,1,0,0:0:0:0:
64,192,138461,128,2,138597:0:0:0:0:
192,192,138461,1,0,0:0:0:0:
320,192,138597,1,0,0:0:0:0:
192,192,138666,1,0,0:0:0:0:
64,192,138734,1,2,0:0:0:0:
320,192,138734,128,0,138870:0:0:0:70:Clap.wav
448,192,138734,1,0,0:0:0:0:
192,192,138870,1,0,0:0:0:0:
320,192,138938,1,0,0:0:0:0:
64,192,139007,1,2,0:0:0:0:
448,192,139007,1,0,0:0:0:0:
192,192,139075,1,0,0:0:0:50:S3.wav
320,192,139143,1,0,0:0:0:50:S3.wav
64,192,139211,1,0,0:0:0:50:S3.wav
320,192,139279,1,2,0:0:0:0:
448,192,139279,1,0,0:0:0:70:Clap.wav
192,192,139347,1,0,0:0:0:50:S3.wav
448,192,139416,1,0,0:0:0:50:S3.wav
64,192,139484,1,0,0:0:0:50:S3.wav
192,192,139552,1,2,0:0:0:0:
320,192,139552,1,0,0:0:0:0:
448,192,139620,1,0,0:0:0:50:S3.wav
64,192,139688,1,0,0:0:0:50:S3.wav
320,192,139757,1,0,0:0:0:50:S3.wav
64,192,139825,1,2,0:0:0:0:
192,192,139825,1,0,0:0:0:70:Clap.wav
448,192,139825,1,0,0:0:0:0:
320,192,139893,1,0,0:0:0:50:S3.wav
64,192,139961,1,0,0:0:0:50:S3.wav
192,192,139961,1,0,0:0:0:0:
320,192,140029,1,0,0:0:0:50:S3.wav
64,192,140097,128,4,140234:0:0:0:0:
192,192,140097,1,2,0:0:0:0:
448,192,140097,128,0,140234:0:0:0:0:
320,192,140234,1,0,0:0:0:0:
192,192,140302,128,0,140438:0:0:0:0:
64,192,140370,1,2,0:0:0:0:
448,192,140370,1,0,0:0:0:70:Clap.wav
320,192,140438,1,0,0:0:0:0:
448,192,140507,128,0,140643:0:0:0:0:
64,192,140643,1,2,0:0:0:0:
192,192,140643,1,0,0:0:0:0:
448,192,140711,1,0,0:0:0:0:
192,192,140779,1,0,0:0:0:0:
320,192,140847,1,0,0:0:0:0:
64,192,140916,1,2,0:0:0:0:
448,192,140916,1,0,0:0:0:70:Clap.wav
192,192,140984,1,0,0:0:0:0:
320,192,141052,1,0,0:0:0:0:
192,192,141120,1,0,0:0:0:0:
64,192,141188,1,2,0:0:0:0:
448,192,141188,1,0,0:0:0:0:
320,192,141257,1,0,0:0:0:0:
64,192,141325,1,0,0:0:0:0:
192,192,141393,1,0,0:0:0:0:
320,192,141461,1,2,0:0:0:0:
448,192,141461,1,0,0:0:0:70:Clap.wav
64,192,141529,1,0,0:0:0:0:
192,192,141597,1,0,0:0:0:0:
320,192,141666,1,0,0:0:0:0:
64,192,141734,128,2,141870:0:0:0:0:
448,192,141734,1,0,0:0:0:0:
192,192,141802,1,0,0:0:0:0:
320,192,141870,1,0,0:0:0:0:
448,192,141938,1,0,0:0:0:0:
64,192,142007,128,0,142143:0:0:0:70:Clap.wav
192,192,142007,1,2,0:0:0:0:
448,192,142143,1,0,0:0:0:0:
320,192,142211,1,0,0:0:0:0:
64,192,142279,128,2,142416:0:0:0:0:
192,192,142279,128,0,142416:0:0:0:0:
320,192,142416,1,0,0:0:0:0:
448,192,142484,128,0,142620:0:0:0:0:
64,192,142552,1,2,0:0:0:0:
192,192,142552,1,0,0:0:0:70:Clap.wav
320,192,142620,1,0,0:0:0:0:
64,192,142688,128,0,142825:0:0:0:0:
320,192,142825,1,2,0:0:0:0:
448,192,142825,1,0,0:0:0:0:
192,192,142893,1,0,0:0:0:0:
448,192,142961,1,0,0:0:0:0:
320,192,143029,1,0,0:0:0:0:
64,192,143097,1,2,0:0:0:0:
192,192,143097,1,0,0:0:0:70:Clap.wav
320,192,143166,1,0,0:0:0:0:
64,192,143234,1,0,0:0:0:0:
192,192,143302,1,0,0:0:0:0:
320,192,143370,1,2,0:0:0:0:
448,192,143370,1,0,0:0:0:0:
64,192,143438,1,0,0:0:0:0:
320,192,143507,1,0,0:0:0:0:
192,192,143575,1,0,0:0:0:0:
64,192,143643,1,2,0:0:0:0:
448,192,143643,1,0,0:0:0:70:Clap.wav
320,192,143711,1,0,0:0:0:0:
192,192,143779,1,0,0:0:0:0:
448,192,143847,1,0,0:0:0:0:
64,192,143916,1,2,0:0:0:0:
192,192,143916,1,0,0:0:0:0:
320,192,143984,1,0,0:0:0:0:
448,192,144052,1,0,0:0:0:0:
64,192,144120,1,0,0:0:0:0:
192,192,144188,1,2,0:0:0:0:
320,192,144188,1,0,0:0:0:70:Clap.wav
448,192,144257,1,0,0:0:0:0:
64,192,144325,1,0,0:0:0:0:
192,192,144393,1,0,0:0:0:0:
64,192,144461,128,2,144597:0:0:0:0:
320,192,144461,1,0,0:0:0:0:
448,192,144461,128,0,144597:0:0:0:0:
192,192,144597,1,0,0:0:0:0:
320,192,144666,128,0,144802:0:0:0:0:
64,192,144734,1,2,0:0:0:0:
448,192,144734,1,0,0:0:0:70:Clap.wav
192,192,144802,1,0,0:0:0:0:
64,192,144870,128,0,145007:0:0:0:0:
320,192,145007,1,2,0:0:0:0:
448,192,145007,1,0,0:0:0:0:
64,192,145075,1,0,0:0:0:0:
192,192,145143,128,0,145279:0:0:0:0:
64,192,145279,1,2,0:0:0:0:
448,192,145279,1,0,0:0:0:70:Clap.wav
320,192,145347,1,0,0:0:0:0:
192,192,145416,1,0,0:0:0:0:
320,192,145484,1,0,0:0:0:0:
64,192,145552,1,2,0:0:0:0:
448,192,145552,1,0,0:0:0:0:
192,192,145620,1,0,0:0:0:0:
448,192,145688,1,0,0:0:0:0:
320,192,145757,1,0,0:0:0:0:
64,192,145825,1,2,0:0:0:0:
192,192,145825,1,0,0:0:0:70:Clap.wav
448,192,145893,1,0,0:0:0:0:
320,192,145961,1,0,0:0:0:0:
192,192,146029,1,0,0:0:0:0:
64,192,146097,1,2,0:0:0:0:
448,192,146097,128,0,146234:0:0:0:0:
320,192,146166,1,0,0:0:0:0:
192,192,146234,1,0,0:0:0:0:
64,192,146302,1,0,0:0:0:0:
320,192,146370,1,2,0:0:0:0:
448,192,146370,128,0,146507:0:0:0:70:Clap.wav
64,192,146507,1,0,0:0:0:0:
192,192,146575,1,0,0:0:0:0:
320,192,146643,128,2,146779:0:0:0:0:
448,192,146643,128,0,146779:0:0:0:0:
192,192,146779,1,0,0:0:0:0:
64,192,146847,128,0,146984:0:0:0:0:
320,192,146916,1,2,0:0:0:0:
448,192,146916,1,0,0:0:0:70:Clap.wav
192,192,146984,1,0,0:0:0:0:
448,192,147052,128,0,147188:0:0:0:0:
64,192,147188,1,2,0:0:0:0:
192,192,147188,1,0,0:0:0:0:
320,192,147257,1,0,0:0:0:0:
64,192,147325,1,0,0:0:0:0:
192,192,147393,1,0,0:0:0:0:
320,192,147461,1,2,0:0:0:0:
448,192,147461,1,0,0:0:0:70:Clap.wav
192,192,147529,1,0,0:0:0:0:
64,192,147597,1,0,0:0:0:0:
448,192,147597,1,0,0:0:0:0:
320,192,147666,1,0,0:0:0:0:
64,192,147734,1,2,0:0:0:0:
192,192,147734,1,0,0:0:0:0:
448,192,147802,1,0,0:0:0:0:
192,192,147870,1,0,0:0:0:0:
320,192,147938,1,0,0:0:0:0:
64,192,148007,1,2,0:0:0:0:
448,192,148007,1,0,0:0:0:70:Clap.wav
192,192,148075,1,0,0:0:0:0:
320,192,148143,1,0,0:0:0:0:
64,192,148211,1,0,0:0:0:0:
320,192,148279,1,2,0:0:0:0:
448,192,148279,1,0,0:0:0:0:
192,192,148347,1,0,0:0:0:0:
64,192,148416,1,0,0:0:0:0:
448,192,148416,1,0,0:0:0:0:
320,192,148484,1,0,0:0:0:0:
64,192,148552,1,2,0:0:0:0:
192,192,148552,1,0,0:0:0:70:Clap.wav
320,192,148620,1,0,0:0:0:0:
448,192,148620,1,0,0:0:0:0:
64,192,148688,1,0,0:0:0:0:
192,192,148688,1,0,0:0:0:0:
320,192,148757,1,0,0:0:0:0:
64,192,148825,1,4,0:0:0:0:
192,192,148825,1,2,0:0:0:0:
448,192,148825,1,0,0:0:0:0:
320,192,148961,1,0,0:0:0:0:
192,192,149029,1,0,0:0:0:0:
64,192,149097,1,2,0:0:0:0:
320,192,149097,1,0,0:0:0:0:
448,192,149097,1,0,0:0:0:0:
448,192,149234,1,0,0:0:0:0:
320,192,149302,1,0,0:0:0:0:
64,192,149370,1,2,0:0:0:0:
192,192,149370,1,0,0:0:0:0:
448,192,149370,1,0,0:0:0:0:
64,192,149507,1,0,0:0:0:0:
192,192,149575,1,0,0:0:0:0:
64,192,149643,128,2,149847:0:0:0:0:
320,192,149643,1,0,0:0:0:70:snare16.wav
448,192,149643,128,0,149847:0:0:0:0:
64,192,149916,1,2,0:0:0:0:
320,192,149916,1,0,0:0:0:0:
448,192,149916,1,0,0:0:0:0:
192,192,150052,1,0,0:0:0:0:
320,192,150120,1,0,0:0:0:0:
64,192,150188,1,2,0:0:0:0:
192,192,150188,1,0,0:0:0:0:
448,192,150188,1,0,0:0:0:0:
64,192,150325,1,0,0:0:0:0:
192,192,150393,1,0,0:0:0:0:
64,192,150461,1,2,0:0:0:0:
320,192,150461,1,0,0:0:0:0:
448,192,150461,1,0,0:0:0:0:
448,192,150597,1,0,0:0:0:0:
320,192,150666,1,0,0:0:0:0:
64,192,150734,128,2,150938:0:0:0:0:
192,192,150734,1,0,0:0:0:70:snare16.wav
448,192,150734,128,0,150938:0:0:0:0:
64,192,151007,1,2,0:0:0:0:
192,192,151007,1,0,0:0:0:0:
448,192,151072,1,0,0:0:0:0:
320,192,151137,1,0,0:0:0:0:
192,192,151202,1,0,0:0:0:0:
64,192,151267,1,2,0:0:0:0:
448,192,151267,1,0,0:0:0:0:
320,192,151333,1,0,0:0:0:0:
64,192,151398,1,0,0:0:0:0:
192,192,151463,1,0,0:0:0:0:
320,192,151528,1,2,0:0:0:0:
448,192,151528,1,0,0:0:0:0:
192,192,151593,1,0,0:0:0:0:
448,192,151659,1,0,0:0:0:0:
320,192,151724,1,0,0:0:0:0:
64,192,151789,1,2,0:0:0:0:
192,192,151789,1,0,0:0:0:0:
448,192,151854,1,0,0:0:0:0:
64,192,151920,1,0,0:0:0:0:
192,192,151985,1,0,0:0:0:0:
64,192,152050,1,2,0:0:0:0:
320,192,152050,1,0,0:0:0:0:
448,192,152050,1,0,0:0:0:0:
192,192,152180,1,0,0:0:0:0:
320,192,152246,1,0,0:0:0:0:
64,192,152311,1,2,0:0:0:0:
192,192,152311,1,0,0:0:0:0:
448,192,152311,1,0,0:0:0:0:
448,192,152441,1,0,0:0:0:0:
320,192,152507,1,0,0:0:0:0:
64,192,152572,1,2,0:0:0:0:
192,192,152572,1,0,0:0:0:0:
448,192,152572,1,0,0:0:0:0:
192,192,152702,1,2,0:0:0:0:
64,192,152702,1,0,0:0:0:0:
64,192,152833,1,2,0:0:0:0:
320,192,152833,1,0,0:0:0:70:snare16.wav
448,192,152833,1,0,0:0:0:0:
192,192,152963,1,2,0:0:0:0:
320,192,152963,1,0,0:0:0:0:
64,192,153093,1,2,0:0:0:0:
192,192,153093,1,0,0:0:0:0:
448,192,153093,1,0,0:0:0:0:
320,192,153224,1,0,0:0:0:0:
192,192,153289,1,0,0:0:0:0:
64,192,153354,1,2,0:0:0:0:
320,192,153354,1,0,0:0:0:0:
448,192,153354,1,0,0:0:0:0:
448,192,153485,1,0,0:0:0:0:
320,192,153550,1,0,0:0:0:0:
64,192,153615,1,2,0:0:0:0:
192,192,153615,1,0,0:0:0:0:
448,192,153615,1,0,0:0:0:0:
64,192,153746,1,0,0:0:0:0:
192,192,153811,1,0,0:0:0:0:
64,192,153876,128,2,154072:0:0:0:0:
320,192,153876,1,0,0:0:0:70:snare16.wav
448,192,153876,128,0,154072:0:0:0:0:
64,192,154137,1,2,0:0:0:0:
320,192,154137,1,0,0:0:0:0:
448,192,154137,1,0,0:0:0:0:
192,192,154263,1,0,0:0:0:0:
320,192,154326,1,0,0:0:0:0:
64,192,154389,1,2,0:0:0:0:
192,192,154389,1,0,0:0:0:0:
448,192,154389,1,0,0:0:0:0:
64,192,154515,1,0,0:0:0:0:
192,192,154579,1,0,0:0:0:0:
64,192,154642,1,2,0:0:0:0:
320,192,154642,1,0,0:0:0:0:
448,192,154642,1,0,0:0:0:0:
448,192,154768,1,0,0:0:0:0:
320,192,154831,1,0,0:0:0:0:
64,192,154894,128,2,155084:0:0:0:0:
192,192,154894,1,0,0:0:0:70:snare16.wav
448,192,154894,128,0,155084:0:0:0:0:
64,192,155147,1,2,0:0:0:0:
192,192,155147,1,0,0:0:0:0:
448,192,155210,1,0,0:0:0:0:
320,192,155273,1,0,0:0:0:0:
192,192,155337,1,0,0:0:0:0:
64,192,155400,1,2,0:0:0:0:
448,192,155400,1,0,0:0:0:0:
320,192,155463,1,0,0:0:0:0:
64,192,155526,1,0,0:0:0:0:
192,192,155589,1,0,0:0:0:0:
320,192,155652,1,2,0:0:0:0:
448,192,155652,1,0,0:0:0:0:
192,192,155715,1,0,0:0:0:0:
448,192,155779,1,0,0:0:0:0:
320,192,155842,1,0,0:0:0:0:
64,192,155905,1,2,0:0:0:0:
192,192,155905,1,0,0:0:0:0:
448,192,155968,1,0,0:0:0:0:
64,192,156031,1,0,0:0:0:0:
192,192,156094,1,0,0:0:0:0:
64,192,156158,1,2,0:0:0:0:
320,192,156158,1,0,0:0:0:0:
448,192,156158,1,0,0:0:0:0:
192,192,156284,1,0,0:0:0:0:
320,192,156347,1,0,0:0:0:0:
64,192,156410,1,2,0:0:0:0:
192,192,156410,1,0,0:0:0:0:
448,192,156410,1,0,0:0:0:0:
448,192,156537,1,0,0:0:0:0:
320,192,156600,1,0,0:0:0:0:
64,192,156663,1,2,0:0:0:0:
192,192,156663,1,0,0:0:0:0:
448,192,156663,1,0,0:0:0:0:
192,192,156789,1,2,0:0:0:0:
64,192,156789,1,0,0:0:0:0:
64,192,156915,1,2,0:0:0:0:
320,192,156915,1,0,0:0:0:70:snare16.wav
448,192,156915,1,0,0:0:0:0:
192,192,157042,1,2,0:0:0:0:
320,192,157042,1,0,0:0:0:0:
64,192,157168,1,2,0:0:0:0:
192,192,157168,1,4,0:0:0:0:
448,192,157168,1,0,0:0:0:0:
320,192,157290,1,0,0:0:0:0:
192,192,157351,1,0,0:0:0:0:
64,192,157412,1,2,0:0:0:0:
320,192,157412,1,0,0:0:0:0:
448,192,157412,1,0,0:0:0:0:
448,192,157535,1,0,0:0:0:0:
320,192,157596,1,0,0:0:0:0:
64,192,157657,1,2,0:0:0:0:
192,192,157657,1,0,0:0:0:0:
448,192,157657,1,0,0:0:0:0:
64,192,157780,1,0,0:0:0:0:
192,192,157841,1,0,0:0:0:0:
64,192,157902,128,2,158086:0:0:0:0:
320,192,157902,1,0,0:0:0:70:snare16.wav
448,192,157902,128,0,158086:0:0:0:0:
64,192,158147,1,2,0:0:0:0:
320,192,158147,1,0,0:0:0:0:
448,192,158147,1,0,0:0:0:0:
192,192,158270,1,0,0:0:0:0:
320,192,158331,1,0,0:0:0:0:
64,192,158392,1,2,0:0:0:0:
192,192,158392,1,0,0:0:0:0:
448,192,158392,1,0,0:0:0:0:
64,192,158514,1,0,0:0:0:0:
192,192,158576,1,0,0:0:0:0:
64,192,158637,1,2,0:0:0:0:
320,192,158637,1,0,0:0:0:0:
448,192,158637,1,0,0:0:0:0:
192,192,158759,1,2,0:0:0:0:
320,192,158759,1,0,0:0:0:0:
64,192,158882,1,2,0:0:0:0:
192,192,158882,1,0,0:0:0:70:snare16.wav
448,192,158882,1,0,0:0:0:0:
320,192,159004,1,2,0:0:0:0:
448,192,159004,1,0,0:0:0:0:
64,192,159127,1,2,0:0:0:0:
192,192,159127,1,0,0:0:0:0:
448,192,159188,1,0,0:0:0:0:
320,192,159249,1,0,0:0:0:0:
192,192,159310,1,0,0:0:0:0:
64,192,159372,1,2,0:0:0:0:
448,192,159372,1,0,0:0:0:0:
320,192,159433,1,0,0:0:0:0:
64,192,159494,1,0,0:0:0:0:
192,192,159555,1,0,0:0:0:0:
320,192,159616,1,2,0:0:0:0:
448,192,159616,128,0,159861:0:0:0:0:
64,192,159678,1,0,0:0:0:0:
192,192,159739,1,0,0:0:0:0:
320,192,159800,1,0,0:0:0:0:
64,192,159861,1,2,0:0:0:0:
192,192,159861,1,0,0:0:0:0:
448,192,159923,1,0,0:0:0:0:
320,192,159984,1,0,0:0:0:0:
192,192,160045,1,0,0:0:0:0:
64,192,160106,1,2,0:0:0:0:
448,192,160106,1,0,0:0:0:0:
320,192,160165,1,0,0:0:0:0:
192,192,160224,1,0,0:0:0:0:
448,192,160283,1,0,0:0:0:0:
64,192,160342,1,2,0:0:0:0:
192,192,160342,1,0,0:0:0:0:
320,192,160401,1,0,0:0:0:0:
64,192,160461,1,0,0:0:0:0:
192,192,160520,1,0,0:0:0:0:
64,192,160579,1,2,0:0:0:0:
320,192,160579,1,0,0:0:0:0:
448,192,160579,1,0,0:0:0:0:
448,192,160697,1,2,0:0:0:0:
320,192,160697,1,0,0:0:0:0:
64,192,160816,1,2,0:0:0:0:
192,192,160816,1,0,0:0:0:0:
448,192,160816,1,0,0:0:0:0:
192,192,160934,1,2,0:0:0:0:
320,192,160934,1,0,0:0:0:0:
64,192,161052,1,2,0:0:0:0:
320,192,161052,1,4,0:0:0:0:
448,192,161052,1,0,0:0:0:0:
192,192,161171,1,2,0:0:0:0:
448,192,161171,1,0,0:0:0:0:
192,192,161289,1,2,0:0:0:0:
320,192,161289,1,0,0:0:0:0:
64,192,161407,1,2,0:0:0:0:
320,192,161407,1,0,0:0:0:0:
64,192,161526,1,2,0:0:0:0:
192,192,161526,1,0,0:0:0:0:
448,192,161526,1,0,0:0:0:0:
192,192,161644,1,2,0:0:0:0:
320,192,161644,1,0,0:0:0:0:
64,192,161762,1,2,0:0:0:0:
448,192,161762,1,0,0:0:0:70:snare16.wav
192,192,161881,1,2,0:0:0:0:
320,192,161881,1,0,0:0:0:0:
64,192,161999,1,2,0:0:0:0:
192,192,161999,1,0,0:0:0:0:
448,192,161999,1,0,0:0:0:0:
64,192,162117,1,2,0:0:0:0:
320,192,162117,1,0,0:0:0:0:
192,192,162236,1,2,0:0:0:0:
320,192,162236,1,0,0:0:0:0:
192,192,162354,1,2,0:0:0:0:
448,192,162354,1,0,0:0:0:0:
64,192,162472,1,2,0:0:0:0:
320,192,162472,1,0,0:0:0:0:
448,192,162472,1,0,0:0:0:0:
192,192,162591,1,2,0:0:0:0:
320,192,162591,1,0,0:0:0:0:
64,192,162709,1,2,0:0:0:0:
448,192,162709,1,0,0:0:0:70:snare16.wav
64,192,162827,1,2,0:0:0:0:
192,192,162827,1,0,0:0:0:0:
320,192,162946,1,2,0:0:0:0:
448,192,162946,1,0,0:0:0:0:
64,192,163003,1,2,0:0:0:0:
192,192,163003,1,0,0:0:0:0:
320,192,163061,1,2,0:0:0:0:
448,192,163061,1,0,0:0:0:0:
64,192,163119,1,2,0:0:0:0:
192,192,163119,1,0,0:0:0:0:
320,192,163176,1,2,0:0:0:0:
448,192,163176,1,0,0:0:0:0:
64,192,163234,1,2,0:0:0:0:
192,192,163234,1,0,0:0:0:0:
320,192,163292,1,2,0:0:0:0:
448,192,163292,1,0,0:0:0:0:
64,192,163349,1,2,0:0:0:0:
192,192,163349,1,0,0:0:0:0:
320,192,163407,1,2,0:0:0:0:
448,192,163407,1,0,0:0:0:0:
64,192,163465,1,2,0:0:0:0:
192,192,163465,1,0,0:0:0:0:
320,192,163522,1,2,0:0:0:0:
448,192,163522,1,0,0:0:0:0:
64,192,163580,1,2,0:0:0:0:
192,192,163580,1,0,0:0:0:0:
320,192,163638,1,2,0:0:0:0:
448,192,163638,1,0,0:0:0:0:
64,192,163696,1,2,0:0:0:0:
192,192,163696,1,0,0:0:0:0:
320,192,163753,1,2,0:0:0:0:
448,192,163753,1,0,0:0:0:0:
192,192,163811,1,2,0:0:0:0:
64,192,163869,1,2,0:0:0:0:
320,192,163869,128,4,164042:0:0:0:0:
448,192,163869,1,0,0:0:0:100:tick01.wav
320,192,164099,128,0,164272:0:0:0:100:tick01.wav
320,192,164330,1,0,0:0:0:100:tick01.wav
64,192,164388,1,0,0:0:0:0:
448,192,164446,1,0,0:0:0:0:
192,192,164503,1,0,0:0:0:0:
320,192,164561,1,0,0:0:0:100:tick01.wav
64,192,164619,1,0,0:0:0:0:
448,192,164676,1,0,0:0:0:0:
192,192,164734,1,0,0:0:0:0:
320,192,164792,1,0,0:0:0:100:tick01.wav
64,192,164849,1,0,0:0:0:0:
448,192,164907,1,0,0:0:0:0:
192,192,164965,1,0,0:0:0:0:
320,192,165022,1,0,0:0:0:100:tick01.wav
64,192,165080,1,0,0:0:0:0:
448,192,165138,1,0,0:0:0:0:
192,192,165196,1,0,0:0:0:0:
64,192,165253,1,8,0:0:0:0:
320,192,165253,1,0,0:0:0:100:hithit.wav
448,192,165253,1,0,0:0:0:0:
64,192,165484,1,8,0:0:0:0:
192,192,165484,1,0,0:0:0:0:
64,192,165599,1,8,0:0:0:0:
192,192,165599,1,0,0:0:0:0:
64,192,165715,1,4,0:0:0:0:
320,192,165715,1,2,0:0:0:0:
448,192,165715,1,0,0:0:0:0:
448,192,165830,1,0,0:0:0:0:
320,192,165888,1,0,0:0:0:0:
64,192,165946,128,0,166003:0:0:0:0:
192,192,165946,128,0,166003:0:0:0:0:
64,192,166061,128,0,166119:0:0:0:0:
192,192,166061,128,0,166119:0:0:0:0:
64,192,166176,128,8,166234:0:0:0:0:
192,192,166176,128,0,166234:0:0:0:0:
448,192,166176,1,0,0:0:0:0:
64,192,166292,128,0,166349:0:0:0:0:
192,192,166292,128,0,166349:0:0:0:0:
64,192,166407,128,0,166465:0:0:0:0:
448,192,166407,128,0,166465:0:0:0:0:
320,192,166522,128,0,166580:0:0:0:0:
448,192,166522,128,0,166580:0:0:0:0:
64,192,166638,1,2,0:0:0:0:
192,192,166638,1,0,0:0:0:0:
448,192,166753,128,0,166869:0:0:0:0:
320,192,166811,1,0,0:0:0:0:
64,192,166869,1,2,0:0:0:0:
192,192,166869,1,0,0:0:0:0:
320,192,166984,128,0,167099:0:0:0:0:
192,192,167042,1,0,0:0:0:0:
64,192,167099,128,8,167446:0:0:0:0:
448,192,167099,128,0,167561:0:0:0:0:
320,192,167215,128,0,167561:0:0:0:0:
192,192,167330,128,0,167446:0:0:0:0:
64,192,167561,1,2,0:0:0:0:
192,192,167561,1,0,0:0:0:0:
320,192,167676,128,0,167792:0:0:0:0:
448,192,167676,128,0,167792:0:0:0:0:
64,192,167792,128,0,167907:0:0:0:0:
192,192,167792,128,0,167907:0:0:0:0:
320,192,167907,128,0,168022:0:0:0:0:
64,192,168022,1,8,0:0:0:0:
192,192,168022,1,0,0:0:0:0:
448,192,168022,1,0,0:0:0:0:
320,192,168138,128,0,168484:0:0:0:0:
64,192,168253,128,0,168369:0:0:0:0:
192,192,168253,128,0,168369:0:0:0:0:
448,192,168369,128,0,168484:0:0:0:0:
64,192,168484,1,0,0:0:0:0:
192,192,168484,1,0,0:0:0:0:
320,192,168599,1,2,0:0:0:0:
64,192,168599,1,0,0:0:0:0:
448,192,168715,1,2,0:0:0:0:
192,192,168715,1,0,0:0:0:0:
320,192,168830,128,0,168945:0:0:0:0:
64,192,168945,1,8,0:0:0:0:
192,192,168945,128,0,169061:0:0:0:0:
448,192,168945,1,0,0:0:0:0:
448,192,169061,1,0,0:0:0:0:
320,192,169119,1,0,0:0:0:0:
64,192,169176,1,0,0:0:0:0:
192,192,169176,1,0,0:0:0:0:
448,192,169234,128,0,169349:0:0:0:0:
320,192,169292,1,0,0:0:0:0:
192,192,169349,1,0,0:0:0:0:
64,192,169407,1,2,0:0:0:0:
448,192,169407,1,0,0:0:0:0:
320,192,169465,1,0,0:0:0:0:
64,192,169522,1,0,0:0:0:0:
192,192,169580,1,0,0:0:0:0:
320,192,169638,128,0,169695:0:0:0:0:
448,192,169638,128,0,169695:0:0:0:0:
320,192,169753,128,0,169811:0:0:0:0:
448,192,169753,128,0,169811:0:0:0:0:
64,192,169869,1,8,0:0:0:0:
320,192,169869,128,0,169926:0:0:0:0:
448,192,169869,128,0,169926:0:0:0:0:
320,192,169984,128,0,170042:0:0:0:0:
448,192,169984,128,0,170042:0:0:0:0:
64,192,170099,128,0,170157:0:0:0:0:
448,192,170099,128,0,170157:0:0:0:0:
64,192,170215,128,0,170272:0:0:0:0:
192,192,170215,128,0,170272:0:0:0:0:
320,192,170330,1,2,0:0:0:0:
448,192,170330,1,0,0:0:0:0:
64,192,170445,128,0,170561:0:0:0:0:
192,192,170503,1,0,0:0:0:0:
320,192,170561,1,2,0:0:0:0:
448,192,170561,1,0,0:0:0:0:
192,192,170676,128,0,170792:0:0:0:0:
320,192,170734,1,0,0:0:0:0:
64,192,170792,128,8,171253:0:0:0:0:
448,192,170792,1,0,0:0:0:0:
320,192,170907,128,0,171138:0:0:0:0:
192,192,171022,128,0,171253:0:0:0:0:
320,192,171253,1,2,0:0:0:0:
448,192,171253,1,0,0:0:0:0:
64,192,171369,128,0,171484:0:0:0:0:
192,192,171369,1,0,0:0:0:0:
320,192,171484,1,0,0:0:0:0:
448,192,171484,128,0,171599:0:0:0:0:
192,192,171599,128,0,171715:0:0:0:0:
64,192,171715,1,8,0:0:0:0:
320,192,171715,1,0,0:0:0:0:
448,192,171715,1,0,0:0:0:0:
192,192,171830,128,0,172176:0:0:0:0:
320,192,171888,128,0,172061:0:0:0:0:
448,192,171945,128,0,172061:0:0:0:0:
64,192,172061,128,0,172176:0:0:0:0:
320,192,172176,1,2,0:0:0:0:
448,192,172176,1,0,0:0:0:0:
64,192,172292,1,2,0:0:0:0:
320,192,172292,1,0,0:0:0:0:
64,192,172407,128,8,172580:0:0:0:0:
192,192,172407,128,4,172580:0:0:0:0:
448,192,172407,128,0,172638:0:0:0:0:
320,192,172522,128,0,172638:0:0:0:0:
64,192,172638,1,2,0:0:0:0:
192,192,172638,1,0,0:0:0:0:
192,192,172753,1,2,0:0:0:0:
448,192,172753,1,0,0:0:0:0:
64,192,172869,128,4,173042:0:0:0:0:
320,192,172869,128,8,173042:0:0:0:0:
448,192,172869,128,0,173042:0:0:0:70:bass_growl #1.wav
192,192,172984,128,0,173099:0:0:0:0:
64,192,173099,1,2,0:0:0:0:
320,192,173099,1,4,0:0:0:0:
448,192,173099,1,0,0:0:0:0:
448,192,174022,1,0,0:0:0:100:tick01.wav
192,192,174253,1,0,0:0:0:100:tick01.wav
448,192,174484,1,0,0:0:0:100:tick01.wav
192,192,174715,1,0,0:0:0:100:tick01.wav
448,192,174945,1,0,0:0:0:100:tick01.wav
192,192,175176,1,0,0:0:0:100:tick01.wav
448,192,175407,1,0,0:0:0:100:tick01.wav
192,192,175638,1,0,0:0:0:100:tick01.wav
448,192,175869,128,0,176099:0:0:0:100:tick01.wav
192,192,175984,128,0,176099:0:0:0:0:
64,192,176099,128,0,176215:0:0:0:100:tick01.wav
320,192,176215,128,0,176330:0:0:0:0:
192,192,176330,128,8,176503:0:0:0:0:
448,192,176330,128,0,176503:0:0:0:0:
64,192,176330,128,0,176503:0:0:0:0:
64,192,176561,128,8,176734:0:0:0:0:
320,192,176561,128,0,176734:0:0:0:0:
448,192,176561,128,0,176734:0:0:0:0:
64,192,176792,1,4,0:0:0:0:
192,192,176792,1,2,0:0:0:0:
448,192,176792,1,0,0:0:0:0:
64,192,176907,1,0,0:0:0:0:
192,192,176965,1,0,0:0:0:0:
320,192,177022,128,0,177080:0:0:0:0:
448,192,177022,128,0,177080:0:0:0:0:
320,192,177138,128,0,177195:0:0:0:0:
448,192,177138,128,0,177195:0:0:0:0:
64,192,177253,1,8,0:0:0:0:
320,192,177253,128,0,177311:0:0:0:0:
448,192,177253,128,0,177311:0:0:0:0:
320,192,177369,128,0,177426:0:0:0:0:
448,192,177369,128,0,177426:0:0:0:0:
64,192,177484,128,0,177542:0:0:0:0:
320,192,177484,128,0,177542:0:0:0:0:
192,192,177599,128,0,177657:0:0:0:0:
448,192,177599,128,0,177657:0:0:0:0:
320,192,177715,1,2,0:0:0:0:
448,192,177715,1,0,0:0:0:0:
192,192,177830,128,0,177945:0:0:0:0:
320,192,177888,1,0,0:0:0:0:
64,192,177945,1,2,0:0:0:0:
448,192,177945,1,0,0:0:0:0:
320,192,178061,128,0,178176:0:0:0:0:
192,192,178119,1,0,0:0:0:0:
64,192,178176,1,0,0:0:0:0:
448,192,178176,128,8,178638:0:0:0:0:
192,192,178292,128,0,178522:0:0:0:0:
320,192,178407,128,0,178638:0:0:0:0:
192,192,178638,1,2,0:0:0:0:
64,192,178638,1,0,0:0:0:0:
192,192,178753,128,0,178869:0:0:0:0:
448,192,178753,1,0,0:0:0:0:
64,192,178869,1,0,0:0:0:0:
320,192,178869,128,0,178984:0:0:0:0:
192,192,178984,128,0,179099:0:0:0:0:
64,192,179099,1,8,0:0:0:0:
320,192,179099,1,0,0:0:0:0:
448,192,179099,1,0,0:0:0:0:
448,192,179215,128,0,179561:0:0:0:0:
320,192,179272,128,0,179561:0:0:0:0:
192,192,179330,128,0,179503:0:0:0:0:
64,192,179388,128,0,179503:0:0:0:0:
64,192,179561,1,2,0:0:0:0:
192,192,179561,1,0,0:0:0:0:
192,192,179676,1,2,0:0:0:0:
448,192,179676,1,0,0:0:0:0:
64,192,179792,128,8,180022:0:0:0:0:
320,192,179792,128,4,179965:0:0:0:0:
448,192,179792,128,0,179965:0:0:0:0:
192,192,179907,128,0,180022:0:0:0:0:
320,192,180022,1,2,0:0:0:0:
448,192,180022,1,0,0:0:0:0:
64,192,180138,1,2,0:0:0:0:
320,192,180138,1,0,0:0:0:0:
64,192,180253,128,4,180426:0:0:0:0:
192,192,180253,128,8,180426:0:0:0:0:
448,192,180253,128,0,180426:0:0:0:0:
320,192,180369,128,0,180484:0:0:0:0:
64,192,180484,1,2,0:0:0:0:
192,192,180484,1,4,0:0:0:0:
448,192,180484,1,0,0:0:0:0:
320,192,180599,1,0,0:0:0:0:
64,192,180715,1,0,0:0:0:50:S3.wav
448,192,180715,1,0,0:0:0:0:
192,192,180830,1,0,0:0:0:0:
320,192,180945,128,0,181003:0:0:0:50:S3.wav
448,192,180945,1,0,0:0:0:0:
64,192,181061,1,0,0:0:0:50:S3.wav
192,192,181176,128,0,181234:0:0:0:50:S3.wav
448,192,181176,1,0,0:0:0:0:
320,192,181292,1,0,0:0:0:50:S3.wav
64,192,181407,128,4,181869:0:0:0:0:
192,192,181407,128,2,181638:0:0:0:0:
448,192,181407,1,0,0:0:0:0:
320,192,181869,128,0,182330:0:0:0:0:
448,192,181869,128,0,182099:0:0:0:0:
64,192,182330,128,0,182561:0:0:0:0:
192,192,182330,128,0,182676:0:0:0:0:
320,192,182676,1,0,0:0:0:0:
448,192,182676,128,0,182792:0:0:0:0:
64,192,182792,1,0,0:0:0:0:
192,192,182792,128,0,182907:0:0:0:0:
320,192,183022,128,0,183138:0:0:0:0:
64,192,183138,128,0,183253:0:0:0:0:
320,192,183253,1,0,0:0:0:0:
448,192,183253,128,0,183484:0:0:0:0:
192,192,183484,128,0,183599:0:0:0:0:
320,192,183599,128,0,183715:0:0:0:0:
448,192,183599,1,0,0:0:0:0:
64,192,183715,1,0,0:0:0:0:
192,192,183715,128,0,183830:0:0:0:0:
320,192,183830,1,0,0:0:0:0:
448,192,183830,128,0,183945:0:0:0:0:
64,192,183945,128,0,184061:0:0:0:0:
192,192,183945,1,0,0:0:0:0:
320,192,184061,128,0,184176:0:0:0:0:
64,192,184176,1,0,0:0:0:0:
192,192,184176,128,0,184349:0:0:0:0:
320,192,184407,1,0,0:0:0:0:
448,192,184407,128,0,184580:0:0:0:0:
64,192,184638,128,0,184811:0:0:0:0:
192,192,184638,1,0,0:0:0:0:
448,192,184869,128,0,184984:0:0:0:0:
320,192,184984,128,0,185099:0:0:0:0:
64,192,185099,128,4,185561:0:0:0:0:
192,192,185099,128,2,185330:0:0:0:0:
448,192,185099,1,0,0:0:0:0:
320,192,185561,128,0,186022:0:0:0:0:
448,192,185561,128,0,185792:0:0:0:0:
64,192,186022,128,0,186253:0:0:0:0:
192,192,186022,128,0,186369:0:0:0:0:
320,192,186369,1,0,0:0:0:0:
448,192,186369,128,0,186484:0:0:0:0:
64,192,186484,128,0,186599:0:0:0:0:
192,192,186484,1,0,0:0:0:0:
320,192,186715,128,0,186830:0:0:0:0:
448,192,186715,1,0,0:0:0:0:
64,192,186830,128,0,186945:0:0:0:0:
192,192,186830,1,0,0:0:0:0:
320,192,186945,1,0,0:0:0:0:
448,192,186945,128,0,187176:0:0:0:0:
64,192,187176,1,0,0:0:0:0:
192,192,187176,128,0,187292:0:0:0:0:
320,192,187292,128,0,187407:0:0:0:0:
448,192,187292,1,0,0:0:0:0:
64,192,187407,128,0,187522:0:0:0:0:
192,192,187407,1,0,0:0:0:0:
320,192,187522,1,0,0:0:0:0:
448,192,187522,128,0,187638:0:0:0:0:
64,192,187638,1,0,0:0:0:0:
192,192,187638,128,0,187753:0:0:0:0:
320,192,187753,128,0,187869:0:0:0:0:
448,192,187753,1,0,0:0:0:0:
64,192,187869,128,0,188099:0:0:0:50:S3.wav
192,192,187869,1,0,0:0:0:0:
320,192,188099,1,0,0:0:0:50:S3.wav
448,192,188099,1,0,0:0:0:0:
64,192,188157,1,0,0:0:0:50:S3.wav
192,192,188215,1,0,0:0:0:50:S3.wav
320,192,188272,1,0,0:0:0:50:S3.wav
64,192,188330,1,0,0:0:0:50:S3.wav
448,192,188330,1,0,0:0:0:0:
192,192,188388,1,0,0:0:0:50:S3.wav
320,192,188445,1,0,0:0:0:50:S3.wav
64,192,188561,1,0,0:0:0:70:LR_Air Dart Snare.wav
192,192,188561,1,0,0:0:0:0:
448,192,188619,1,0,0:0:0:0:
320,192,188676,1,0,0:0:0:0:
192,192,188734,1,0,0:0:0:0:
64,192,188792,128,2,189022:0:0:0:0:
320,192,188792,1,4,0:0:0:0:
448,192,188792,1,0,0:0:0:0:
192,192,188907,1,0,0:0:0:0:
320,192,188965,1,0,0:0:0:0:
192,192,189022,1,2,0:0:0:0:
448,192,189022,1,0,0:0:0:70:Clap.wav
448,192,189138,1,0,0:0:0:0:
64,192,189253,1,2,0:0:0:0:
192,192,189253,1,0,0:0:0:0:
192,192,189369,1,0,0:0:0:0:
448,192,189369,1,0,0:0:0:0:
64,192,189484,1,2,0:0:0:0:
448,192,189484,1,0,0:0:0:70:Clap.wav
320,192,189599,1,0,0:0:0:0:
64,192,189715,1,2,0:0:0:0:
192,192,189715,1,0,0:0:0:0:
320,192,189830,1,0,0:0:0:0:
448,192,189830,1,0,0:0:0:0:
192,192,189888,1,0,0:0:0:0:
320,192,189945,1,2,0:0:0:0:
448,192,189945,1,0,0:0:0:70:Clap.wav
64,192,190003,1,0,0:0:0:0:
192,192,190003,1,0,0:0:0:0:
320,192,190119,1,0,0:0:0:0:
448,192,190119,1,0,0:0:0:0:
64,192,190176,1,2,0:0:0:0:
192,192,190176,1,0,0:0:0:0:
320,192,190292,1,0,0:0:0:0:
448,192,190292,1,0,0:0:0:0:
64,192,190407,1,2,0:0:0:0:
192,192,190407,128,0,190522:0:0:0:70:Clap.wav
448,192,190522,1,0,0:0:0:0:
320,192,190580,1,0,0:0:0:0:
64,192,190638,1,2,0:0:0:0:
192,192,190638,1,0,0:0:0:0:
320,192,190753,1,0,0:0:0:0:
192,192,190811,1,0,0:0:0:0:
64,192,190869,128,2,190984:0:0:0:0:
448,192,190869,1,0,0:0:0:70:Clap.wav
320,192,190984,1,0,0:0:0:0:
192,192,191042,1,0,0:0:0:0:
320,192,191099,1,2,0:0:0:0:
448,192,191099,1,0,0:0:0:0:
192,192,191215,1,0,0:0:0:0:
320,192,191272,1,0,0:0:0:0:
64,192,191330,1,2,0:0:0:0:
448,192,191330,128,0,191445:0:0:0:70:Clap.wav
192,192,191445,1,0,0:0:0:0:
320,192,191503,1,0,0:0:0:0:
64,192,191561,1,2,0:0:0:0:
192,192,191561,1,0,0:0:0:0:
320,192,191676,1,0,0:0:0:0:
192,192,191734,1,0,0:0:0:0:
64,192,191792,1,2,0:0:0:0:
448,192,191792,1,0,0:0:0:70:Clap.wav
320,192,191849,1,0,0:0:0:0:
192,192,191907,1,0,0:0:0:0:
64,192,191965,1,0,0:0:0:0:
320,192,192022,1,2,0:0:0:0:
448,192,192022,1,0,0:0:0:0:
64,192,192138,1,0,0:0:0:0:
192,192,192138,1,0,0:0:0:0:
448,192,192195,1,0,0:0:0:0:
64,192,192253,1,2,0:0:0:0:
192,192,192253,1,0,0:0:0:70:Clap.wav
320,192,192311,1,0,0:0:0:0:
448,192,192311,1,0,0:0:0:0:
192,192,192369,1,0,0:0:0:0:
320,192,192426,1,0,0:0:0:0:
64,192,192484,128,2,192715:0:0:0:0:
448,192,192484,1,0,0:0:0:0:
192,192,192599,1,0,0:0:0:0:
320,192,192657,1,0,0:0:0:0:
192,192,192715,1,2,0:0:0:0:
448,192,192715,1,0,0:0:0:70:Clap.wav
448,192,192830,1,0,0:0:0:0:
64,192,192945,1,2,0:0:0:0:
320,192,192945,1,0,0:0:0:0:
64,192,193061,1,0,0:0:0:0:
192,192,193061,1,0,0:0:0:0:
192,192,193176,1,2,0:0:0:0:
448,192,193176,1,0,0:0:0:70:Clap.wav
320,192,193292,1,0,0:0:0:0:
192,192,193407,128,2,193522:0:0:0:0:
448,192,193407,128,0,193522:0:0:0:0:
320,192,193580,128,0,193695:0:0:0:0:
448,192,193580,128,0,193695:0:0:0:0:
64,192,193638,1,2,0:0:0:0:
192,192,193638,1,0,0:0:0:70:Clap.wav
64,192,193753,128,0,193869:0:0:0:0:
320,192,193753,128,0,193869:0:0:0:0:
192,192,193869,1,2,0:0:0:0:
448,192,193869,1,0,0:0:0:0:
320,192,193984,1,0,0:0:0:0:
192,192,194042,1,0,0:0:0:0:
64,192,194099,1,2,0:0:0:0:
448,192,194099,1,0,0:0:0:70:Clap.wav
320,192,194157,1,0,0:0:0:0:
192,192,194215,1,0,0:0:0:0:
320,192,194272,1,0,0:0:0:0:
64,192,194330,1,2,0:0:0:0:
192,192,194330,1,0,0:0:0:0:
448,192,194445,1,0,0:0:0:0:
320,192,194503,1,0,0:0:0:0:
64,192,194561,128,2,194676:0:0:0:0:
192,192,194561,1,0,0:0:0:70:Clap.wav
320,192,194676,1,0,0:0:0:0:
192,192,194734,1,0,0:0:0:0:
320,192,194792,1,2,0:0:0:0:
448,192,194792,1,0,0:0:0:0:
64,192,194907,1,0,0:0:0:0:
192,192,194965,1,0,0:0:0:0:
320,192,195022,1,2,0:0:0:0:
448,192,195022,128,0,195138:0:0:0:70:Clap.wav
192,192,195138,1,0,0:0:0:0:
320,192,195195,1,0,0:0:0:0:
64,192,195253,1,2,0:0:0:0:
192,192,195253,1,0,0:0:0:0:
320,192,195369,1,0,0:0:0:50:S3.wav
448,192,195369,1,0,0:0:0:0:
192,192,195426,1,0,0:0:0:50:S3.wav
64,192,195484,1,2,0:0:0:0:
448,192,195484,1,0,0:0:0:70:Clap.wav
320,192,195542,1,0,0:0:0:50:S3.wav
64,192,195599,1,0,0:0:0:50:S3.wav
192,192,195657,1,0,0:0:0:50:S3.wav
320,192,195715,1,2,0:0:0:0:
448,192,195715,1,0,0:0:0:0:
64,192,195830,1,0,0:0:0:50:S3.wav
192,192,195830,1,0,0:0:0:0:
320,192,195888,1,0,0:0:0:50:S3.wav
64,192,195945,1,2,0:0:0:0:
448,192,195945,1,0,0:0:0:70:Clap.wav
192,192,196003,1,0,0:0:0:50:S3.wav
448,192,196061,1,0,0:0:0:50:S3.wav
320,192,196119,1,0,0:0:0:50:S3.wav
64,192,196176,1,2,0:0:0:0:
192,192,196176,1,4,0:0:0:0:
448,192,196176,128,0,196292:0:0:0:0:
320,192,196292,1,0,0:0:0:0:
192,192,196349,128,0,196465:0:0:0:0:
64,192,196407,1,2,0:0:0:0:
448,192,196407,1,0,0:0:0:70:Clap.wav
320,192,196522,128,0,196638:0:0:0:0:
64,192,196638,1,2,0:0:0:0:
192,192,196638,1,0,0:0:0:0:
448,192,196695,1,0,0:0:0:0:
320,192,196753,1,0,0:0:0:0:
192,192,196811,1,0,0:0:0:0:
64,192,196869,1,2,0:0:0:0:
448,192,196869,1,0,0:0:0:70:Clap.wav
320,192,196926,1,0,0:0:0:0:
64,192,196984,1,0,0:0:0:0:
192,192,197042,1,0,0:0:0:0:
320,192,197099,1,2,0:0:0:0:
448,192,197099,1,0,0:0:0:0:
64,192,197157,1,0,0:0:0:0:
192,192,197215,1,0,0:0:0:0:
320,192,197272,1,0,0:0:0:0:
64,192,197330,1,2,0:0:0:0:
448,192,197330,1,0,0:0:0:70:Clap.wav
192,192,197388,1,0,0:0:0:0:
448,192,197445,1,0,0:0:0:0:
320,192,197503,1,0,0:0:0:0:
64,192,197561,1,2,0:0:0:0:
192,192,197561,1,0,0:0:0:0:
448,192,197619,1,0,0:0:0:0:
64,192,197676,1,0,0:0:0:0:
192,192,197734,1,0,0:0:0:0:
448,192,197792,1,2,0:0:0:0:
320,192,197792,1,0,0:0:0:70:Clap.wav
64,192,197849,1,0,0:0:0:0:
320,192,197907,1,0,0:0:0:0:
192,192,197965,1,0,0:0:0:0:
64,192,198022,128,2,198138:0:0:0:0:
448,192,198022,1,0,0:0:0:0:
320,192,198138,1,0,0:0:0:0:
448,192,198195,128,0,198311:0:0:0:0:
64,192,198253,1,2,0:0:0:0:
192,192,198253,1,0,0:0:0:70:Clap.wav
320,192,198369,128,0,198484:0:0:0:0:
64,192,198484,1,2,0:0:0:0:
448,192,198484,1,0,0:0:0:0:
192,192,198542,1,0,0:0:0:0:
448,192,198599,1,0,0:0:0:0:
320,192,198657,1,0,0:0:0:0:
64,192,198715,1,2,0:0:0:0:
192,192,198715,1,0,0:0:0:70:Clap.wav
448,192,198772,1,0,0:0:0:0:
320,192,198830,1,0,0:0:0:0:
192,192,198888,1,0,0:0:0:0:
64,192,198945,1,2,0:0:0:0:
448,192,198945,1,0,0:0:0:0:
320,192,199003,1,0,0:0:0:0:
64,192,199061,1,0,0:0:0:0:
192,192,199119,1,0,0:0:0:0:
320,192,199176,1,2,0:0:0:0:
448,192,199176,1,0,0:0:0:70:Clap.wav
192,192,199234,1,0,0:0:0:0:
64,192,199292,1,0,0:0:0:0:
320,192,199349,1,0,0:0:0:0:
64,192,199407,1,2,0:0:0:0:
448,192,199407,1,0,0:0:0:0:
192,192,199465,1,0,0:0:0:0:
320,192,199522,1,0,0:0:0:0:
64,192,199580,1,0,0:0:0:0:
192,192,199638,1,2,0:0:0:0:
448,192,199638,1,0,0:0:0:70:Clap.wav
320,192,199695,1,0,0:0:0:0:
192,192,199753,1,0,0:0:0:0:
320,192,199811,1,0,0:0:0:0:
64,192,199869,128,2,199984:0:0:0:0:
448,192,199869,1,0,0:0:0:0:
192,192,199984,1,0,0:0:0:0:
320,192,200042,128,0,200157:0:0:0:0:
64,192,200099,1,2,0:0:0:0:
448,192,200099,1,0,0:0:0:70:Clap.wav
192,192,200215,128,0,200330:0:0:0:0:
320,192,200330,1,2,0:0:0:0:
448,192,200330,1,0,0:0:0:0:
64,192,200388,1,0,0:0:0:0:
192,192,200445,1,0,0:0:0:0:
320,192,200503,1,0,0:0:0:0:
64,192,200561,1,2,0:0:0:0:
448,192,200561,1,0,0:0:0:70:Clap.wav
192,192,200619,1,0,0:0:0:0:
448,192,200676,1,0,0:0:0:0:
320,192,200734,1,0,0:0:0:0:
64,192,200792,1,2,0:0:0:0:
192,192,200792,1,0,0:0:0:0:
448,192,200849,1,0,0:0:0:0:
320,192,200907,1,0,0:0:0:0:
192,192,200965,1,0,0:0:0:0:
64,192,201022,1,2,0:0:0:0:
448,192,201022,1,0,0:0:0:70:Clap.wav
320,192,201080,1,0,0:0:0:0:
64,192,201138,1,0,0:0:0:0:
192,192,201195,1,0,0:0:0:0:
320,192,201253,1,2,0:0:0:0:
448,192,201253,1,0,0:0:0:0:
64,192,201311,1,0,0:0:0:0:
448,192,201369,1,0,0:0:0:0:
320,192,201426,1,0,0:0:0:0:
64,192,201484,1,2,0:0:0:0:
192,192,201484,1,0,0:0:0:70:Clap.wav
448,192,201542,1,0,0:0:0:0:
192,192,201599,1,0,0:0:0:0:
320,192,201657,1,0,0:0:0:0:
64,192,201715,1,2,0:0:0:0:
448,192,201715,128,0,201830:0:0:0:0:
192,192,201830,1,0,0:0:0:0:
64,192,201888,128,0,202003:0:0:0:0:
320,192,201945,1,2,0:0:0:0:
448,192,201945,1,0,0:0:0:70:Clap.wav
192,192,202061,128,0,202176:0:0:0:0:
64,192,202176,1,2,0:0:0:0:
448,192,202176,1,0,0:0:0:0:
320,192,202234,1,0,0:0:0:0:
64,192,202292,1,0,0:0:0:0:
192,192,202349,1,0,0:0:0:0:
320,192,202407,1,2,0:0:0:0:
448,192,202407,1,0,0:0:0:70:Clap.wav
64,192,202465,1,0,0:0:0:0:
320,192,202522,1,0,0:0:0:0:
192,192,202580,1,0,0:0:0:0:
64,192,202638,1,2,0:0:0:0:
448,192,202638,1,0,0:0:0:0:
320,192,202695,1,0,0:0:0:0:
192,192,202753,1,0,0:0:0:0:
448,192,202811,1,0,0:0:0:0:
64,192,202869,1,2,0:0:0:0:
192,192,202869,1,0,0:0:0:70:Clap.wav
320,192,202926,1,0,0:0:0:0:
448,192,202984,1,0,0:0:0:0:
64,192,203042,1,0,0:0:0:0:
192,192,203099,1,2,0:0:0:0:
320,192,203099,1,0,0:0:0:0:
448,192,203157,1,0,0:0:0:0:
64,192,203215,1,0,0:0:0:0:
192,192,203215,1,0,0:0:0:0:
320,192,203272,1,0,0:0:0:0:
64,192,203330,1,2,0:0:0:0:
448,192,203330,1,0,0:0:0:70:Clap.wav
192,192,203388,1,0,0:0:0:0:
320,192,203445,1,0,0:0:0:0:
448,192,203445,1,0,0:0:0:0:
192,192,203503,1,0,0:0:0:0:
64,192,203561,128,2,203730:0:0:0:0:
320,192,203561,1,4,0:0:0:0:
448,192,203561,128,0,203730:0:0:0:0:
192,192,203787,128,0,203957:0:0:0:0:
448,192,203787,128,0,203957:0:0:0:0:
320,192,204013,128,0,204183:0:0:0:0:
448,192,204013,128,0,204183:0:0:0:0:
64,192,204240,128,2,204410:0:0:0:0:
192,192,204240,128,0,204410:0:0:0:0:
448,192,204240,128,0,204410:0:0:0:0:
64,192,204466,128,2,204632:0:0:0:0:
320,192,204466,1,4,0:0:0:0:
448,192,204466,128,0,204632:0:0:0:0:
192,192,204688,128,0,204854:0:0:0:0:
448,192,204688,128,0,204854:0:0:0:0:
320,192,204910,128,0,205077:0:0:0:0:
448,192,204910,128,0,205077:0:0:0:0:
64,192,205132,128,2,205299:0:0:0:0:
192,192,205132,128,0,205299:0:0:0:0:
448,192,205132,128,0,205299:0:0:0:0:
64,192,205354,1,4,0:0:0:0:
320,192,205354,1,2,0:0:0:0:
448,192,205354,1,0,0:0:0:0:
192,192,205408,1,0,0:0:0:0:
320,192,205463,1,0,0:0:0:0:
448,192,205517,1,0,0:0:0:0:
64,192,205572,1,0,0:0:0:0:
192,192,205626,1,0,0:0:0:0:
448,192,205681,1,0,0:0:0:0:
320,192,205735,1,0,0:0:0:0:
64,192,205790,1,0,0:0:0:0:
192,192,205844,1,0,0:0:0:0:
448,192,205899,1,0,0:0:0:0:
320,192,205954,1,0,0:0:0:0:
192,192,206008,1,0,0:0:0:0:
448,192,206063,1,0,0:0:0:0:
320,192,206117,1,0,0:0:0:0:
192,192,206172,1,0,0:0:0:0:
64,192,206226,128,2,206386:0:0:0:0:
320,192,206226,1,4,0:0:0:0:
448,192,206226,128,0,206386:0:0:0:0:
192,192,206440,128,0,206601:0:0:0:0:
448,192,206440,128,0,206601:0:0:0:0:
320,192,206654,128,0,206815:0:0:0:0:
448,192,206654,128,0,206815:0:0:0:0:
64,192,206868,128,2,207029:0:0:0:0:
192,192,206868,128,0,207029:0:0:0:0:
448,192,206868,128,0,207029:0:0:0:0:
64,192,207083,128,2,207240:0:0:0:0:
192,192,207083,1,4,0:0:0:0:
448,192,207083,128,0,207240:0:0:0:0:
64,192,207293,128,2,207451:0:0:0:0:
320,192,207293,128,0,207451:0:0:0:0:
64,192,207504,128,4,207661:0:0:0:0:
192,192,207504,128,2,207661:0:0:0:0:
448,192,207504,1,0,0:0:0:0:
64,192,207714,128,2,207872:0:0:0:0:
320,192,207714,128,0,207872:0:0:0:0:
448,192,207714,128,0,207872:0:0:0:0:
64,192,207925,128,2,208080:0:0:0:0:
192,192,207925,1,4,0:0:0:0:
448,192,207925,128,0,208080:0:0:0:0:
64,192,208131,128,2,208287:0:0:0:0:
320,192,208131,128,0,208287:0:0:0:0:
64,192,208338,128,2,208493:0:0:0:0:
192,192,208338,128,4,208493:0:0:0:0:
448,192,208338,1,0,0:0:0:0:
64,192,208545,128,2,208700:0:0:0:0:
320,192,208545,128,0,208700:0:0:0:0:
448,192,208545,128,0,208700:0:0:0:0:
64,192,208752,128,2,208904:0:0:0:0:
192,192,208752,1,4,0:0:0:0:
448,192,208752,128,0,208904:0:0:0:0:
64,192,208955,128,2,209107:0:0:0:0:
320,192,208955,128,4,209107:0:0:0:0:
448,192,208955,1,0,0:0:0:0:
64,192,209158,1,4,0:0:0:0:
192,192,209158,1,2,0:0:0:0:
192,192,209260,1,2,0:0:0:0:
448,192,209260,1,4,0:0:0:0:
320,192,209362,1,4,0:0:0:0:
448,192,209362,1,2,0:0:0:0:
64,192,209463,1,2,0:0:0:0:
192,192,209463,1,4,0:0:0:0:
320,192,209565,1,2,0:0:0:0:
448,192,209565,1,4,0:0:0:0:
192,192,209615,1,2,0:0:0:0:
64,192,209665,1,2,0:0:0:0:
320,192,209715,1,2,0:0:0:0:
64,192,209765,1,2,0:0:0:0:
448,192,209765,1,4,0:0:0:0:
192,192,209815,1,2,0:0:0:0:
320,192,209865,1,2,0:0:0:0:
448,192,209915,1,2,0:0:0:0:
64,192,209965,1,2,0:0:0:0:
192,192,209965,1,4,0:0:0:0:
320,192,210015,1,2,0:0:0:0:
448,192,210065,1,2,0:0:0:0:
64,192,210115,1,2,0:0:0:0:
448,192,210165,1,2,0:0:0:0:
192,192,210165,1,4,0:0:0:0:
320,192,210215,1,2,0:0:0:0:
64,192,210265,1,2,0:0:0:0:
192,192,210315,1,2,0:0:0:0:
64,192,210365,1,2,0:0:0:0:
320,192,210365,1,4,0:0:0:0:
448,192,210365,1,0,0:0:0:100:tick01.wav
192,192,210565,1,0,0:0:0:100:tick01.wav
448,192,210765,1,0,0:0:0:100:tick01.wav
192,192,210965,1,0,0:0:0:100:tick01.wav
448,192,211165,1,0,0:0:0:100:tick01.wav
192,192,211365,1,0,0:0:0:100:tick01.wav
64,192,211565,1,0,0:0:0:100:hithit.wav
448,192,211565,1,0,0:0:0:100:tick01.wav
320,192,211765,1,8,0:0:0:0:
448,192,211765,1,0,0:0:0:0:
320,192,211865,1,8,0:0:0:0:
448,192,211865,1,0,0:0:0:0:
64,192,211965,1,4,0:0:0:0:
192,192,211965,1,2,0:0:0:0:
320,192,212065,1,2,0:0:0:0:
448,192,212065,1,0,0:0:0:0:
64,192,212165,1,2,0:0:0:0:
448,192,212165,1,0,0:0:0:0:
64,192,212265,1,2,0:0:0:0:
192,192,212265,1,0,0:0:0:0:
320,192,212365,1,2,0:0:0:0:
448,192,212365,1,0,0:0:0:0:
64,192,212465,1,2,0:0:0:0:
192,192,212465,1,0,0:0:0:0:
64,192,212565,1,2,0:0:0:0:
320,192,212565,1,0,0:0:0:0:
448,192,212665,1,2,0:0:0:0:
192,192,212715,1,2,0:0:0:0:
64,192,212765,1,2,0:0:0:0:
448,192,212765,1,0,0:0:0:0:
192,192,212865,1,2,0:0:0:0:
320,192,212865,1,0,0:0:0:0:
320,192,212965,1,2,0:0:0:0:
448,192,212965,1,0,0:0:0:0:
64,192,213065,1,2,0:0:0:0:
192,192,213115,1,0,0:0:0:0:
320,192,213165,1,2,0:0:0:0:
448,192,213165,1,0,0:0:0:0:
64,192,213265,1,2,0:0:0:0:
320,192,213265,1,0,0:0:0:0:
64,192,213365,1,2,0:0:0:0:
192,192,213365,1,0,0:0:0:0:
448,192,213415,1,2,0:0:0:0:
320,192,213465,1,2,0:0:0:0:
192,192,213515,1,2,0:0:0:0:
320,192,213565,1,2,0:0:0:0:
448,192,213565,1,0,0:0:0:0:
64,192,213665,1,2,0:0:0:0:
192,192,213665,1,0,0:0:0:0:
64,192,213765,1,2,0:0:0:0:
448,192,213765,1,0,0:0:0:0:
448,192,213865,1,2,0:0:0:0:
320,192,213915,1,0,0:0:0:0:
64,192,213965,1,2,0:0:0:0:
192,192,213965,1,0,0:0:0:0:
320,192,214065,1,2,0:0:0:0:
448,192,214065,1,0,0:0:0:0:
192,192,214165,1,2,0:0:0:0:
448,192,214165,1,0,0:0:0:0:
64,192,214265,1,2,0:0:0:0:
320,192,214315,1,2,0:0:0:0:
64,192,214365,1,2,0:0:0:0:
448,192,214365,1,0,0:0:0:0:
192,192,214465,1,2,0:0:0:0:
320,192,214465,1,0,0:0:0:0:
64,192,214565,1,2,0:0:0:0:
192,192,214565,1,0,0:0:0:0:
64,192,214665,1,2,0:0:0:0:
448,192,214665,1,0,0:0:0:0:
192,192,214765,1,2,0:0:0:0:
320,192,214765,1,0,0:0:0:0:
64,192,214865,1,2,0:0:0:0:
448,192,214865,1,0,0:0:0:0:
320,192,214965,1,2,0:0:0:0:
448,192,214965,1,0,0:0:0:0:
64,192,215015,1,2,0:0:0:0:
192,192,215065,1,2,0:0:0:0:
320,192,215065,1,0,0:0:0:0:
448,192,215115,1,2,0:0:0:0:
64,192,215165,1,2,0:0:0:0:
192,192,215165,1,0,0:0:0:0:
320,192,215265,1,2,0:0:0:0:
448,192,215265,1,0,0:0:0:0:
192,192,215365,1,2,0:0:0:0:
448,192,215365,1,0,0:0:0:0:
64,192,215465,1,2,0:0:0:0:
192,192,215465,1,0,0:0:0:0:
320,192,215565,1,2,0:0:0:0:
448,192,215565,1,0,0:0:0:0:
64,192,215665,1,2,0:0:0:0:
192,192,215665,1,0,0:0:0:0:
64,192,215765,1,2,0:0:0:0:
448,192,215765,1,0,0:0:0:0:
320,192,215865,1,2,0:0:0:0:
192,192,215915,1,2,0:0:0:0:
320,192,215965,1,2,0:0:0:0:
448,192,215965,1,0,0:0:0:0:
64,192,216065,1,2,0:0:0:0:
192,192,216065,1,0,0:0:0:0:
192,192,216165,1,2,0:0:0:0:
448,192,216165,1,0,0:0:0:0:
64,192,216265,1,2,0:0:0:0:
192,192,216315,1,0,0:0:0:0:
320,192,216365,1,2,0:0:0:0:
448,192,216365,1,0,0:0:0:0:
64,192,216465,1,2,0:0:0:0:
448,192,216465,1,0,0:0:0:0:
64,192,216565,1,2,0:0:0:0:
192,192,216565,1,0,0:0:0:0:
320,192,216615,1,2,0:0:0:0:
448,192,216665,1,2,0:0:0:0:
192,192,216715,1,2,0:0:0:0:
320,192,216765,1,2,0:0:0:0:
448,192,216765,1,0,0:0:0:0:
64,192,216865,1,2,0:0:0:0:
192,192,216865,1,0,0:0:0:0:
64,192,216965,1,2,0:0:0:0:
448,192,216965,1,0,0:0:0:0:
448,192,217065,1,2,0:0:0:0:
320,192,217115,1,0,0:0:0:0:
64,192,217165,1,2,0:0:0:0:
192,192,217165,1,0,0:0:0:0:
64,192,217265,1,2,0:0:0:0:
448,192,217265,1,0,0:0:0:0:
192,192,217365,1,2,0:0:0:0:
320,192,217365,1,0,0:0:0:0:
448,192,217465,1,2,0:0:0:0:
320,192,217515,1,2,0:0:0:0:
64,192,217565,1,2,0:0:0:0:
192,192,217565,1,0,0:0:0:0:
320,192,217665,1,2,0:0:0:0:
192,192,217715,1,0,0:0:0:0:
64,192,217765,1,2,0:0:0:0:
320,192,217765,1,4,0:0:0:0:
448,192,217765,1,0,0:0:0:0:
448,192,217865,1,2,0:0:0:0:
192,192,217865,1,0,0:0:0:0:
192,192,217965,1,2,0:0:0:0:
64,192,217965,1,0,0:0:0:0:
448,192,218065,1,2,0:0:0:0:
320,192,218115,1,0,0:0:0:0:
64,192,218165,1,2,0:0:0:0:
192,192,218165,1,4,0:0:0:0:
320,192,218215,1,2,0:0:0:0:
448,192,218265,1,0,0:0:0:0:
64,192,218265,1,2,0:0:0:0:
192,192,218315,1,2,0:0:0:0:
320,192,218365,1,4,0:0:0:0:
448,192,218365,1,0,0:0:0:0:
64,192,218415,1,0,0:0:0:0:
320,192,218465,1,0,0:0:0:0:
192,192,218515,1,0,0:0:0:0:
64,192,218565,1,0,0:0:0:0:
448,192,218565,1,0,0:0:0:0:
320,192,218615,1,0,0:0:0:0:
64,192,218665,1,0,0:0:0:0:
192,192,218698,1,0,0:0:0:0:
320,192,218731,1,0,0:0:0:0:
448,192,218765,1,0,0:0:0:0:
64,192,218815,1,0,0:0:0:0:
192,192,218865,1,0,0:0:0:0:
320,192,218915,1,0,0:0:0:0:
64,192,218965,1,0,0:0:0:0:
448,192,218965,1,0,0:0:0:0:
192,192,219015,1,0,0:0:0:0:
448,192,219065,1,0,0:0:0:0:
320,192,219098,1,0,0:0:0:0:
192,192,219131,1,0,0:0:0:0:
64,192,219165,1,0,0:0:0:0:
448,192,219215,1,0,0:0:0:0:
320,192,219265,1,0,0:0:0:0:
192,192,219315,1,0,0:0:0:0:
448,192,219365,1,0,0:0:0:0:
64,192,219365,1,0,0:0:0:0:
320,192,219415,1,0,0:0:0:0:
64,192,219465,1,0,0:0:0:0:
192,192,219498,1,0,0:0:0:0:
320,192,219531,1,0,0:0:0:0:
448,192,219565,1,0,0:0:0:0:
64,192,219615,1,0,0:0:0:0:
192,192,219665,1,0,0:0:0:0:
320,192,219715,1,0,0:0:0:0:
448,192,219765,1,0,0:0:0:0:
64,192,219765,1,0,0:0:0:0:
192,192,219815,1,0,0:0:0:0:
448,192,219865,1,0,0:0:0:0:
320,192,219865,1,0,0:0:0:0:
64,192,219915,1,0,0:0:0:0:
320,192,219965,1,0,0:0:0:0:
192,192,219965,1,0,0:0:0:0:
448,192,220015,1,0,0:0:0:0:
192,192,220065,1,0,0:0:0:0:
64,192,220065,1,0,0:0:0:0:
320,192,220115,1,0,0:0:0:0:
448,192,220165,1,0,0:0:0:0:
64,192,220165,1,0,0:0:0:0:
192,192,220215,1,0,0:0:0:0:
448,192,220265,1,0,0:0:0:0:
320,192,220265,1,0,0:0:0:0:
64,192,220315,1,0,0:0:0:0:
320,192,220365,1,0,0:0:0:0:
192,192,220365,1,0,0:0:0:0:
448,192,220415,1,0,0:0:0:0:
192,192,220465,1,0,0:0:0:0:
64,192,220465,1,0,0:0:0:0:
320,192,220515,1,0,0:0:0:0:
448,192,220565,1,0,0:0:0:0:
64,192,220565,1,0,0:0:0:0:
192,192,220615,1,0,0:0:0:0:
448,192,220665,1,0,0:0:0:0:
320,192,220665,1,0,0:0:0:0:
64,192,220715,1,0,0:0:0:0:
320,192,220765,1,0,0:0:0:0:
192,192,220765,1,0,0:0:0:0:
448,192,220815,1,0,0:0:0:0:
192,192,220865,1,0,0:0:0:0:
64,192,220865,1,0,0:0:0:0:
320,192,220915,1,0,0:0:0:0:
448,192,220965,1,4,0:0:0:0:
64,192,220965,1,2,0:0:0:0:
192,192,221015,1,0,0:0:0:0:
448,192,221065,1,0,0:0:0:0:
320,192,221065,1,0,0:0:0:0:
64,192,221115,1,0,0:0:0:0:
320,192,221165,1,0,0:0:0:0:
192,192,221165,1,0,0:0:0:0:
448,192,221215,1,0,0:0:0:0:
192,192,221265,1,0,0:0:0:0:
64,192,221265,1,0,0:0:0:0:
320,192,221315,1,0,0:0:0:0:
448,192,221365,1,4,0:0:0:0:
64,192,221365,1,2,0:0:0:0:
192,192,221415,1,0,0:0:0:0:
448,192,221465,1,0,0:0:0:0:
320,192,221465,1,0,0:0:0:0:
192,192,221515,1,0,0:0:0:0:
448,192,221565,1,2,0:0:0:0:
64,192,221565,1,4,0:0:0:0:
320,192,221665,1,0,0:0:0:50:S3.wav
192,192,221765,1,0,0:0:0:50:S3.wav
64,192,221765,1,0,0:0:0:0:
320,192,221865,1,0,0:0:0:50:S3.wav
64,192,221965,1,0,0:0:0:50:S3.wav
448,192,221965,1,0,0:0:0:0:
192,192,222015,1,0,0:0:0:50:S3.wav
320,192,222065,1,0,0:0:0:50:S3.wav
192,192,222115,1,0,0:0:0:50:S3.wav
64,192,222165,1,0,0:0:0:50:S3.wav
448,192,222165,1,0,0:0:0:0:
320,192,222215,1,0,0:0:0:50:S3.wav
192,192,222265,1,0,0:0:0:50:S3.wav
320,192,222315,1,0,0:0:0:50:S3.wav
64,192,222365,128,4,222765:0:0:0:0:
192,192,222365,128,2,222565:0:0:0:0:
448,192,222365,1,0,0:0:0:0:
192,192,222665,1,0,0:0:0:0:
320,192,222765,128,0,223165:0:0:0:0:
448,192,222765,128,0,222965:0:0:0:0:
448,192,223065,1,0,0:0:0:0:
64,192,223165,128,0,223365:0:0:0:0:
192,192,223165,128,0,223465:0:0:0:0:
320,192,223465,1,0,0:0:0:0:
448,192,223465,128,0,223565:0:0:0:0:
64,192,223565,1,0,0:0:0:0:
192,192,223565,128,0,223665:0:0:0:0:
320,192,223765,128,0,223865:0:0:0:0:
64,192,223865,128,0,223965:0:0:0:0:
320,192,223965,1,0,0:0:0:0:
448,192,223965,128,0,224165:0:0:0:0:
64,192,224165,1,0,0:0:0:0:
192,192,224165,128,0,224265:0:0:0:0:
320,192,224265,128,0,224365:0:0:0:0:
448,192,224265,1,0,0:0:0:0:
64,192,224365,128,0,224465:0:0:0:0:
192,192,224365,1,0,0:0:0:0:
320,192,224465,1,0,0:0:0:0:
448,192,224465,128,0,224565:0:0:0:0:
64,192,224565,1,0,0:0:0:0:
192,192,224565,128,0,224665:0:0:0:0:
320,192,224665,128,0,224765:0:0:0:0:
448,192,224665,1,0,0:0:0:0:
64,192,224765,128,0,224915:0:0:0:0:
192,192,224765,1,0,0:0:0:0:
192,192,224965,128,0,225115:0:0:0:0:
320,192,224965,1,0,0:0:0:0:
320,192,225165,128,0,225315:0:0:0:0:
448,192,225165,1,0,0:0:0:0:
64,192,225365,128,0,225465:0:0:0:0:
448,192,225365,1,0,0:0:0:0:
192,192,225465,128,0,225565:0:0:0:0:
64,192,225565,1,4,0:0:0:0:
320,192,225565,128,2,225765:0:0:0:0:
448,192,225565,128,0,225965:0:0:0:0:
64,192,225965,128,0,226165:0:0:0:0:
192,192,225965,128,0,226365:0:0:0:0:
320,192,226365,128,0,226665:0:0:0:0:
448,192,226365,128,0,226565:0:0:0:0:
64,192,226665,128,0,226765:0:0:0:0:
192,192,226665,1,0,0:0:0:0:
320,192,226765,1,0,0:0:0:0:
448,192,226765,128,0,226898:0:0:0:0:
64,192,227031,1,0,0:0:0:0:
192,192,227031,128,0,227165:0:0:0:0:
320,192,227165,1,0,0:0:0:0:
448,192,227165,128,0,227298:0:0:0:0:
64,192,227298,128,0,227598:0:0:0:0:
192,192,227298,1,0,0:0:0:0:
320,192,227598,128,0,227769:0:0:0:0:
448,192,227598,1,0,0:0:0:0:
64,192,227769,1,0,0:0:0:0:
192,192,227769,128,0,227940:0:0:0:0:
320,192,227940,1,0,0:0:0:0:
448,192,227940,128,0,228140:0:0:0:0:
64,192,228140,128,0,228340:0:0:0:0:
192,192,228140,1,0,0:0:0:0:
320,192,228340,128,0,228580:0:0:0:0:
448,192,228340,1,0,0:0:0:0:
64,192,228580,1,0,0:0:0:0:
192,192,228580,128,0,228820:0:0:0:0:
320,192,228820,128,0,231248:0:0:0:0:
448,192,228820,1,0,0:0:0:0:
192,192,230153,128,0,231248:0:0:0:0:
64,192,231248,1,0,0:0:0:0:
448,192,231248,1,0,0:0:0:0:
64,192,232344,1,0,0:0:0:50:S3.wav
448,192,232344,128,0,232659:0:0:0:0:
320,192,232659,1,0,0:0:0:0:
64,192,232738,1,0,0:0:0:50:S3.wav
192,192,232738,1,0,0:0:0:0:
320,192,232817,1,0,0:0:0:70:LR_Air Dart Snare.wav
448,192,232817,1,0,0:0:0:0:
64,192,232896,1,0,0:0:0:50:S3.wav
192,192,232975,1,0,0:0:0:50:S3.wav
320,192,233028,1,0,0:0:0:0:
192,192,233080,1,0,0:0:0:0:
320,192,233133,1,0,0:0:0:50:S3.wav
448,192,233133,1,0,0:0:0:0:
192,192,233212,1,0,0:0:0:50:S3.wav
64,192,233291,1,0,0:0:0:70:LR_Air Dart Snare.wav
320,192,233291,1,0,0:0:0:0:
448,192,233291,1,0,0:0:0:0:
64,192,233607,1,4,0:0:0:0:
192,192,233607,1,2,0:0:0:0:
448,192,233607,128,0,234238:0:0:0:0:
320,192,233765,1,0,0:0:0:0:
192,192,233844,1,0,0:0:0:0:
64,192,233922,1,2,0:0:0:0:
320,192,233922,1,0,0:0:0:70:Clap.wav
64,192,234080,1,0,0:0:0:0:
192,192,234159,1,0,0:0:0:0:
64,192,234238,128,2,234396:0:0:0:0:
320,192,234238,1,0,0:0:0:0:
448,192,234396,1,0,0:0:0:0:
192,192,234475,1,0,0:0:0:0:
64,192,234554,1,2,0:0:0:0:
320,192,234554,128,0,234712:0:0:0:70:Clap.wav
448,192,234554,1,0,0:0:0:0:
192,192,234712,1,0,0:0:0:0:
448,192,234791,1,0,0:0:0:0:
64,192,234870,128,2,235028:0:0:0:0:
192,192,234870,1,0,0:0:0:0:
320,192,235028,1,0,0:0:0:0:
448,192,235028,1,0,0:0:0:0:
64,192,235186,1,2,0:0:0:0:
192,192,235186,1,0,0:0:0:70:Clap.wav
320,192,235265,1,0,0:0:0:0:
448,192,235265,1,0,0:0:0:0:
320,192,235422,1,0,0:0:0:0:
448,192,235422,1,0,0:0:0:0:
64,192,235501,1,2,0:0:0:0:
192,192,235501,1,0,0:0:0:0:
320,192,235659,1,0,0:0:0:0:
448,192,235659,1,0,0:0:0:0:
192,192,235738,1,0,0:0:0:0:
64,192,235817,1,2,0:0:0:0:
320,192,235817,1,0,0:0:0:70:Clap.wav
448,192,235817,128,0,235975:0:0:0:0:
192,192,235975,1,0,0:0:0:0:
320,192,236054,1,0,0:0:0:0:
64,192,236133,128,2,236291:0:0:0:0:
448,192,236133,1,0,0:0:0:0:
320,192,236291,1,0,0:0:0:0:
192,192,236370,1,0,0:0:0:0:
64,192,236449,1,2,0:0:0:0:
320,192,236449,128,0,236607:0:0:0:70:Clap.wav
448,192,236449,1,0,0:0:0:0:
192,192,236607,1,0,0:0:0:0:
64,192,236686,1,0,0:0:0:0:
320,192,236765,1,2,0:0:0:0:
448,192,236765,128,0,236922:0:0:0:0:
192,192,236922,1,0,0:0:0:0:
320,192,237001,1,0,0:0:0:0:
64,192,237080,1,2,0:0:0:0:
192,192,237080,128,0,237238:0:0:0:70:Clap.wav
448,192,237080,1,0,0:0:0:0:
320,192,237238,1,0,0:0:0:0:
192,192,237317,1,0,0:0:0:0:
64,192,237396,1,2,0:0:0:0:
448,192,237396,128,0,237712:0:0:0:0:
320,192,237554,1,0,0:0:0:0:
192,192,237633,1,0,0:0:0:0:
64,192,237712,1,2,0:0:0:0:
320,192,237712,1,0,0:0:0:70:Clap.wav
448,192,237870,1,0,0:0:0:0:
320,192,237949,1,0,0:0:0:0:
64,192,238028,1,2,0:0:0:0:
192,192,238028,128,0,238186:0:0:0:0:
320,192,238186,1,0,0:0:0:0:
448,192,238186,1,0,0:0:0:0:
64,192,238265,1,0,0:0:0:0:
320,192,238344,1,2,0:0:0:0:
448,192,238344,1,0,0:0:0:70:Clap.wav
64,192,238422,1,0,0:0:0:0:
192,192,238422,1,0,0:0:0:0:
320,192,238501,1,0,0:0:0:0:
448,192,238501,1,0,0:0:0:0:
64,192,238659,1,2,0:0:0:0:
192,192,238659,1,0,0:0:0:0:
448,192,238659,128,0,239291:0:0:0:0:
320,192,238817,1,0,0:0:0:0:
192,192,238896,1,0,0:0:0:0:
64,192,238975,1,2,0:0:0:0:
320,192,238975,1,0,0:0:0:70:Clap.wav
64,192,239133,1,0,0:0:0:0:
192,192,239212,1,0,0:0:0:0:
64,192,239291,128,2,239449:0:0:0:0:
320,192,239291,1,0,0:0:0:0:
448,192,239449,1,0,0:0:0:0:
192,192,239528,1,0,0:0:0:0:
64,192,239607,1,2,0:0:0:0:
320,192,239607,128,0,239765:0:0:0:70:Clap.wav
448,192,239607,1,0,0:0:0:0:
192,192,239765,1,0,0:0:0:0:
448,192,239844,1,0,0:0:0:0:
64,192,239922,128,2,240080:0:0:0:0:
320,192,239922,1,0,0:0:0:0:
192,192,240080,1,0,0:0:0:0:
320,192,240159,1,0,0:0:0:0:
448,192,240159,128,0,240317:0:0:0:0:
64,192,240238,1,2,0:0:0:0:
192,192,240238,1,0,0:0:0:70:Clap.wav
320,192,240396,1,0,0:0:0:0:
192,192,240396,128,0,240554:0:0:0:0:
320,192,240554,1,2,0:0:0:0:
448,192,240554,1,0,0:0:0:0:
192,192,240712,1,0,0:0:0:0:
320,192,240791,1,0,0:0:0:0:
64,192,240870,1,2,0:0:0:0:
192,192,240870,1,0,0:0:0:70:Clap.wav
448,192,240870,128,0,241028:0:0:0:0:
320,192,241028,1,0,0:0:0:0:
192,192,241107,1,0,0:0:0:0:
64,192,241186,128,2,241344:0:0:0:0:
448,192,241186,1,0,0:0:0:0:
320,192,241344,1,0,0:0:0:0:
192,192,241422,1,0,0:0:0:0:
64,192,241501,1,2,0:0:0:0:
320,192,241501,128,0,241659:0:0:0:70:Clap.wav
448,192,241501,1,0,0:0:0:0:
192,192,241659,1,0,0:0:0:0:
64,192,241738,1,0,0:0:0:0:
320,192,241817,1,2,0:0:0:0:
448,192,241817,128,0,241975:0:0:0:0:
192,192,241975,1,0,0:0:0:0:
320,192,242054,1,0,0:0:0:0:
64,192,242133,1,2,0:0:0:0:
192,192,242133,128,0,242291:0:0:0:70:Clap.wav
448,192,242133,1,0,0:0:0:0:
448,192,242291,1,0,0:0:0:0:
192,192,242370,1,0,0:0:0:0:
64,192,242449,1,2,0:0:0:0:
320,192,242449,128,0,242607:0:0:0:0:
448,192,242528,1,0,0:0:0:0:
192,192,242607,1,0,0:0:0:50:S3.wav
320,192,242686,1,0,0:0:0:50:S3.wav
64,192,242765,128,2,242922:0:0:0:0:
448,192,242765,1,0,0:0:0:70:Clap.wav
192,192,242844,1,0,0:0:0:0:
320,192,242922,1,0,0:0:0:50:S3.wav
64,192,243001,1,0,0:0:0:50:S3.wav
192,192,243080,1,2,0:0:0:0:
448,192,243080,128,0,243317:0:0:0:0:
320,192,243159,1,0,0:0:0:0:
64,192,243238,1,0,0:0:0:50:S3.wav
192,192,243317,1,0,0:0:0:50:S3.wav
320,192,243396,1,2,0:0:0:0:
448,192,243396,1,0,0:0:0:70:Clap.wav
192,192,243475,1,0,0:0:0:50:S3.wav
64,192,243554,1,0,0:0:0:50:S3.wav
448,192,243554,1,0,0:0:0:0:
320,192,243633,1,0,0:0:0:50:S3.wav
64,192,243712,128,4,243870:0:0:0:0:
192,192,243712,1,2,0:0:0:0:
448,192,243712,128,0,243870:0:0:0:0:
320,192,243870,1,0,0:0:0:0:
192,192,243949,128,0,244107:0:0:0:0:
64,192,244028,1,2,0:0:0:0:
448,192,244028,1,0,0:0:0:70:Clap.wav
320,192,244107,1,0,0:0:0:0:
448,192,244186,128,0,244344:0:0:0:0:
64,192,244344,1,2,0:0:0:0:
192,192,244344,1,0,0:0:0:0:
448,192,244422,1,0,0:0:0:0:
192,192,244501,1,0,0:0:0:0:
320,192,244580,1,0,0:0:0:0:
64,192,244659,1,2,0:0:0:0:
448,192,244659,1,0,0:0:0:70:Clap.wav
192,192,244738,1,0,0:0:0:0:
320,192,244817,1,0,0:0:0:0:
192,192,244896,1,0,0:0:0:0:
64,192,244975,1,2,0:0:0:0:
448,192,244975,1,0,0:0:0:0:
320,192,245054,1,0,0:0:0:0:
64,192,245133,1,0,0:0:0:0:
192,192,245212,1,0,0:0:0:0:
320,192,245291,1,2,0:0:0:0:
448,192,245291,1,0,0:0:0:70:Clap.wav
64,192,245370,1,0,0:0:0:0:
320,192,245449,1,0,0:0:0:0:
192,192,245528,1,0,0:0:0:0:
64,192,245607,128,2,245765:0:0:0:0:
448,192,245607,128,0,245765:0:0:0:0:
192,192,245765,1,0,0:0:0:0:
448,192,245844,1,0,0:0:0:0:
64,192,245922,128,2,246080:0:0:0:0:
320,192,245922,128,0,246080:0:0:0:70:Clap.wav
448,192,246080,1,0,0:0:0:0:
320,192,246159,1,0,0:0:0:0:
64,192,246238,128,2,246396:0:0:0:0:
192,192,246238,128,0,246396:0:0:0:0:
320,192,246396,1,0,0:0:0:0:
448,192,246475,128,0,246633:0:0:0:0:
64,192,246554,1,2,0:0:0:0:
192,192,246554,1,0,0:0:0:70:Clap.wav
320,192,246633,1,0,0:0:0:0:
64,192,246712,128,0,246870:0:0:0:0:
320,192,246870,1,2,0:0:0:0:
448,192,246870,1,0,0:0:0:0:
192,192,246949,1,0,0:0:0:0:
448,192,247028,1,0,0:0:0:0:
320,192,247107,1,0,0:0:0:0:
64,192,247186,1,2,0:0:0:0:
192,192,247186,1,0,0:0:0:70:Clap.wav
320,192,247265,1,0,0:0:0:0:
64,192,247344,1,0,0:0:0:0:
192,192,247422,1,0,0:0:0:0:
320,192,247501,1,2,0:0:0:0:
448,192,247501,1,0,0:0:0:0:
64,192,247580,1,0,0:0:0:0:
320,192,247659,1,0,0:0:0:0:
192,192,247738,1,0,0:0:0:0:
64,192,247817,1,2,0:0:0:0:
448,192,247817,1,0,0:0:0:70:Clap.wav
320,192,247896,1,0,0:0:0:0:
192,192,247975,1,0,0:0:0:0:
448,192,248054,1,0,0:0:0:0:
64,192,248133,1,2,0:0:0:0:
320,192,248133,1,0,0:0:0:0:
192,192,248212,1,0,0:0:0:0:
448,192,248291,1,0,0:0:0:0:
64,192,248370,1,0,0:0:0:0:
192,192,248449,1,2,0:0:0:0:
320,192,248449,1,0,0:0:0:70:Clap.wav
448,192,248528,1,0,0:0:0:0:
64,192,248607,1,0,0:0:0:0:
192,192,248686,1,0,0:0:0:0:
64,192,248765,128,2,248922:0:0:0:0:
320,192,248765,1,0,0:0:0:0:
448,192,248765,128,0,248922:0:0:0:0:
192,192,248922,1,0,0:0:0:0:
320,192,249001,128,0,249159:0:0:0:0:
64,192,249080,1,2,0:0:0:0:
448,192,249080,1,0,0:0:0:70:Clap.wav
192,192,249159,1,0,0:0:0:0:
64,192,249238,128,0,249396:0:0:0:0:
320,192,249396,1,2,0:0:0:0:
448,192,249396,1,0,0:0:0:0:
64,192,249475,1,0,0:0:0:0:
320,192,249554,1,0,0:0:0:0:
192,192,249633,1,0,0:0:0:0:
64,192,249712,1,2,0:0:0:0:
448,192,249712,1,0,0:0:0:70:Clap.wav
320,192,249791,1,0,0:0:0:0:
192,192,249870,1,0,0:0:0:0:
320,192,249949,1,0,0:0:0:0:
64,192,250028,1,2,0:0:0:0:
448,192,250028,1,0,0:0:0:0:
192,192,250107,1,0,0:0:0:0:
320,192,250186,1,0,0:0:0:0:
192,192,250265,128,0,250422:0:0:0:0:
64,192,250344,1,2,0:0:0:0:
448,192,250344,1,0,0:0:0:70:Clap.wav
320,192,250422,128,0,250659:0:0:0:0:
64,192,250501,1,0,0:0:0:0:
192,192,250580,1,0,0:0:0:0:
64,192,250659,128,2,250817:0:0:0:0:
448,192,250659,128,0,250817:0:0:0:0:
320,192,250817,1,0,0:0:0:0:
64,192,250896,1,0,0:0:0:0:
192,192,250975,128,2,251133:0:0:0:0:
448,192,250975,128,0,251133:0:0:0:70:Clap.wav
64,192,251133,1,0,0:0:0:0:
192,192,251212,1,0,0:0:0:0:
320,192,251291,128,2,251449:0:0:0:0:
448,192,251291,128,0,251449:0:0:0:0:
192,192,251449,1,0,0:0:0:0:
64,192,251528,128,0,251686:0:0:0:0:
320,192,251607,1,2,0:0:0:0:
448,192,251607,1,0,0:0:0:70:Clap.wav
192,192,251686,1,0,0:0:0:0:
448,192,251765,128,0,251922:0:0:0:0:
64,192,251922,1,2,0:0:0:0:
192,192,251922,1,0,0:0:0:0:
320,192,252001,1,0,0:0:0:0:
64,192,252080,1,0,0:0:0:0:
192,192,252159,1,0,0:0:0:0:
320,192,252238,1,2,0:0:0:0:
448,192,252238,1,0,0:0:0:70:Clap.wav
64,192,252317,1,0,0:0:0:0:
448,192,252396,1,0,0:0:0:0:
320,192,252475,1,0,0:0:0:0:
64,192,252554,1,2,0:0:0:0:
192,192,252554,1,0,0:0:0:0:
448,192,252633,1,0,0:0:0:0:
192,192,252712,1,0,0:0:0:0:
320,192,252791,1,0,0:0:0:0:
64,192,252870,1,2,0:0:0:0:
192,192,252870,1,0,0:0:0:70:Clap.wav
448,192,252949,1,0,0:0:0:50:S3.wav
64,192,253028,1,0,0:0:0:0:
320,192,253028,1,0,0:0:0:50:S3.wav
192,192,253107,1,0,0:0:0:50:S3.wav
320,192,253186,1,2,0:0:0:0:
448,192,253186,1,0,0:0:0:0:
64,192,253265,1,0,0:0:0:50:S3.wav
192,192,253344,1,0,0:0:0:50:S3.wav
320,192,253344,1,0,0:0:0:0:
448,192,253422,1,0,0:0:0:50:S3.wav
64,192,253501,1,2,0:0:0:0:
192,192,253501,1,0,0:0:0:70:Clap.wav
320,192,253580,1,0,0:0:0:50:S3.wav
64,192,253659,1,0,0:0:0:50:S3.wav
448,192,253659,1,0,0:0:0:0:
192,192,253738,1,0,0:0:0:50:S3.wav
320,192,253817,1,2,0:0:0:0:
448,192,253817,1,4,0:0:0:0:
64,192,253896,1,2,0:0:0:0:
192,192,253896,1,4,0:0:0:0:
320,192,253975,1,6,0:0:0:0:
64,192,254054,1,2,0:0:0:0:
192,192,254054,1,4,0:0:0:0:
448,192,254054,1,0,0:0:0:0:
64,192,254291,1,2,0:0:0:0:
192,192,254291,1,4,0:0:0:0:
320,192,254370,1,2,0:0:0:0:
448,192,254370,1,4,0:0:0:0:
192,192,254449,1,6,0:0:0:0:
64,192,254528,1,2,0:0:0:0:
320,192,254528,1,4,0:0:0:0:
448,192,254528,1,0,0:0:0:0:
320,192,254765,1,4,0:0:0:0:
448,192,254765,1,2,0:0:0:0:
64,192,254844,1,4,0:0:0:0:
192,192,254844,1,2,0:0:0:0:
320,192,254922,1,2,0:0:0:0:
448,192,254922,1,4,0:0:0:0:
64,192,255001,1,2,0:0:0:0:
192,192,255001,1,4,0:0:0:0:
320,192,255080,128,4,258554:0:0:0:0:
448,192,255080,128,0,258870:0:0:0:0:
