osu file format v14

[General]
AudioFilename: audio.mp3
AudioLeadIn: 0
PreviewTime: 155129
Countdown: 0
SampleSet: Soft
StackLeniency: 0.7
Mode: 0
LetterboxInBreaks: 0
WidescreenStoryboard: 0

[Editor]
DistanceSpacing: 1
BeatDivisor: 4
GridSize: 16
TimelineZoom: 1.7

[Metadata]
Title:Lunatic Red Eyes
TitleUnicode:ルナティックレッドアイズ
Artist:Innocent Key
ArtistUnicode:Innocent Key
Creator:Entry
Version:Extra
Source:東方永夜抄 ~ Imperishable Night.
Tags:touhou 東方project th08 reisen udongein inaba 鈴仙・優曇華院・イナバ 狂気の瞳 ~ invisible full moon ℃iel ciel yuma mizoguchi 溝口ゆうま tower orchid rouran 東方楼蘭 ~雅~ comiket 75 c75 japanese video game rock j-rock jrock zun fa featured artist
BeatmapID:3869998
BeatmapSetID:1879868

[Difficulty]
HPDrainRate:6
CircleSize:4
OverallDifficulty:8.7
ApproachRate:9.2
SliderMultiplier:2.3
SliderTickRate:1

[Events]
//Background and Video events
0,0,"udon.jpg",0,0
//Break Periods
//Storyboard Layer 0 (Background)
//Storyboard Layer 1 (Fail)
//Storyboard Layer 2 (Pass)
//Storyboard Layer 3 (Foreground)
//Storyboard Layer 4 (Overlay)
//Storyboard Sound Samples

[TimingPoints]
630,333.333333333333,4,2,1,60,1,0
630,-166.666666666667,4,2,1,60,0,0
4546,-166.666666666667,4,2,1,5,0,0
4630,-142.857142857143,4,2,1,60,0,0
5130,-166.666666666667,4,2,1,60,0,0
5296,-125,4,2,1,60,0,0
5546,-125,4,2,1,5,0,0
5630,-125,4,2,1,60,0,0
5963,-166.666666666667,4,2,1,60,0,0
9880,-166.666666666667,4,2,1,5,0,0
9963,-142.857142857143,4,2,1,60,0,0
10463,-166.666666666667,4,2,1,60,0,0
11296,-100,4,2,1,70,0,0
11546,-100,4,2,1,5,0,0
11630,-100,4,2,1,70,0,0
15296,-333.333333333333,4,2,1,45,0,0
16130,-333.333333333333,4,2,1,60,0,0
16630,-90.9090909090909,4,2,1,80,0,0
19213,-90.9090909090909,4,2,1,5,0,0
19296,-90.9090909090909,4,2,1,80,0,0
24546,-90.9090909090909,4,2,1,5,0,0
24630,-90.9090909090909,4,2,1,80,0,0
29880,-90.9090909090909,4,2,1,5,0,0
29963,-90.9090909090909,4,2,1,80,0,0
35213,-90.9090909090909,4,2,1,5,0,0
35296,-90.9090909090909,4,2,1,80,0,0
37963,-133.333333333333,4,2,1,65,0,0
40546,-133.333333333333,4,2,1,5,0,0
40630,-133.333333333333,4,2,1,65,0,0
45796,-83.3333333333333,4,2,1,75,0,0
46463,-100,4,2,1,75,0,0
47130,-83.3333333333333,4,2,1,75,0,0
48630,-111.111111111111,4,2,1,70,0,0
51213,-111.111111111111,4,2,1,5,0,0
51296,-111.111111111111,4,2,1,70,0,0
56463,-83.3333333333333,4,2,1,75,0,0
57130,-100,4,2,1,75,0,0
57796,-83.3333333333333,4,2,1,75,0,0
59296,-100,4,2,1,75,0,0
60796,-166.666666666667,4,2,1,75,0,0
61296,-125,4,2,1,75,0,0
61630,-111.111111111111,4,2,1,75,0,0
61963,-100,4,2,1,75,0,0
67796,-166.666666666667,4,2,1,75,0,0
68963,-100,4,2,1,75,0,0
71463,-166.666666666667,4,2,1,75,0,0
71963,-125,4,2,1,75,0,0
72296,-111.111111111111,4,2,1,75,0,0
72630,-100,4,2,1,75,0,0
79630,-83.3333333333333,4,2,1,75,0,0
79880,-83.3333333333333,4,2,1,5,0,0
79963,-83.3333333333333,4,2,1,75,0,0
80463,-80,4,2,1,85,0,1
82796,-166.666666666667,4,2,1,85,0,1
83130,-79.9999999999999,4,2,1,85,0,1
86213,-79.9999999999999,4,2,1,5,0,1
86296,-133.333333333333,4,2,1,85,0,1
86630,-79.9999999999999,4,2,1,85,0,1
88130,-166.666666666667,4,2,1,85,0,1
88463,-79.9999999999999,4,2,1,85,0,1
90546,-79.9999999999999,4,2,1,5,0,1
90630,-79.9999999999999,4,2,1,85,0,1
91630,-166.666666666667,4,2,1,85,0,1
91963,-80,4,2,1,85,0,1
93463,-166.666666666667,4,2,1,85,0,1
93796,-79.9999999999999,4,2,1,85,0,1
96880,-80,4,2,1,5,0,1
96963,-133.333333333333,4,2,1,85,0,1
97296,-80,4,2,1,85,0,1
98796,-166.666666666667,4,2,1,85,0,1
99130,-79.9999999999999,4,2,1,85,0,1
101213,-80,4,2,1,5,0,1
101296,-80,4,2,1,85,0,1
101963,-90.9090909090909,4,2,1,80,0,0
104546,-90.9090909090909,4,2,1,5,0,0
104630,-90.9090909090909,4,2,1,80,0,0
109880,-90.9090909090909,4,2,1,5,0,0
109963,-90.9090909090909,4,2,1,80,0,0
115213,-90.9090909090909,4,2,1,5,0,0
115296,-90.9090909090909,4,2,1,80,0,0
123296,-111.111111111111,4,2,1,70,0,0
125880,-111.111111111111,4,2,1,5,0,0
125963,-111.111111111111,4,2,1,70,0,0
131130,-83.3333333333333,4,2,1,75,0,0
131796,-100,4,2,1,75,0,0
132463,-83.3333333333333,4,2,1,75,0,0
133963,-100,4,2,1,75,0,0
135463,-166.666666666667,4,2,1,75,0,0
135963,-125,4,2,1,75,0,0
136296,-111.111111111111,4,2,1,75,0,0
136630,-100,4,2,1,75,0,0
142463,-166.666666666667,4,2,1,75,0,0
143630,-100,4,2,1,75,0,0
146130,-166.666666666667,4,2,1,75,0,0
146630,-125,4,2,1,75,0,0
146963,-111.111111111111,4,2,1,75,0,0
147296,-100,4,2,1,75,0,0
154296,-83.3333333333333,4,2,1,75,0,0
154546,-83.3333333333333,4,2,1,5,0,0
154630,-83.3333333333333,4,2,1,75,0,0
155129,-80,4,2,1,85,0,1
157463,-166.666666666667,4,2,1,85,0,1
157796,-79.9999999999999,4,2,1,85,0,1
160880,-80,4,2,1,5,0,1
160963,-133.333333333333,4,2,1,85,0,1
161296,-80,4,2,1,85,0,1
162796,-166.666666666667,4,2,1,85,0,1
163130,-79.9999999999999,4,2,1,85,0,1
165213,-80,4,2,1,5,0,1
165296,-80,4,2,1,85,0,1
166296,-166.666666666667,4,2,1,85,0,1
166630,-79.9999999999999,4,2,1,85,0,1
168130,-166.666666666667,4,2,1,85,0,1
168463,-79.9999999999999,4,2,1,85,0,1
171546,-79.9999999999999,4,2,1,5,0,1
171630,-133.333333333333,4,2,1,85,0,1
171963,-80,4,2,1,85,0,1
173463,-166.666666666667,4,2,1,85,0,1
173796,-79.9999999999999,4,2,1,85,0,1
175880,-79.9999999999999,4,2,1,5,0,1
175963,-79.9999999999999,4,2,1,85,0,1
176629,-166.666666666667,4,2,1,60,0,0
180546,-166.666666666667,4,2,1,5,0,0
180630,-142.857142857143,4,2,1,60,0,0
181130,-166.666666666667,4,2,1,60,0,0
181296,-125,4,2,1,60,0,0
181546,-125,4,2,1,5,0,0
181630,-125,4,2,1,60,0,0
181963,-166.666666666667,4,2,1,60,0,0
185880,-166.666666666667,4,2,1,5,0,0
185963,-142.857142857143,4,2,1,60,0,0
186463,-166.666666666667,4,2,1,60,0,0
187296,-100,4,2,1,70,0,0
187546,-100,4,2,1,5,0,0
187630,-100,4,2,1,70,0,0
191296,-166.666666666667,4,2,1,45,0,0
192130,-166.666666666667,4,2,1,60,0,0
192630,-90.9090909090909,4,2,1,80,0,0
192880,-90.9090909090909,4,2,1,5,0,0
192963,-90.9090909090909,4,2,1,80,0,0
193880,-90.9090909090909,4,2,1,5,0,0
193963,-90.9090909090909,4,2,1,80,0,0
195213,-90.9090909090909,4,2,1,5,0,0
195296,-90.9090909090909,4,2,1,80,0,0
198213,-90.9090909090909,4,2,1,5,0,0
198296,-90.9090909090909,4,2,1,80,0,0
200630,-83.3333333333333,4,2,1,80,0,0
201796,-90.9090909090909,4,2,1,80,0,0
205880,-90.9090909090909,4,2,1,5,0,0
205963,-90.9090909090909,4,2,1,80,0,0
207130,-83.3333333333333,4,2,1,80,0,0
210296,-90.9090909090909,4,2,1,80,0,0
212963,-83.3333333333333,4,2,1,80,0,0
213213,-83.3333333333333,4,2,1,5,0,0
213296,-83.3333333333333,4,2,1,80,0,0
213796,-79.9999999999999,4,2,1,85,0,1
216130,-166.666666666667,4,2,1,85,0,1
216463,-79.9999999999999,4,2,1,85,0,1
219546,-79.9999999999999,4,2,1,5,0,1
219630,-133.333333333333,4,2,1,85,0,1
219963,-79.9999999999999,4,2,1,85,0,1
221463,-166.666666666667,4,2,1,85,0,1
221796,-79.9999999999999,4,2,1,85,0,1
223880,-79.9999999999999,4,2,1,5,0,1
223963,-79.9999999999999,4,2,1,85,0,1
224963,-166.666666666667,4,2,1,85,0,1
225296,-79.9999999999999,4,2,1,85,0,1
226796,-166.666666666667,4,2,1,85,0,1
227130,-79.9999999999999,4,2,1,85,0,1
230213,-79.9999999999999,4,2,1,5,0,1
230296,-133.333333333333,4,2,1,85,0,1
230630,-80,4,2,1,85,0,1
232130,-166.666666666667,4,2,1,85,0,1
232463,-79.9999999999999,4,2,1,85,0,1
235296,-90.9090909090909,4,2,1,80,0,0
237880,-90.9090909090909,4,2,1,5,0,0
237963,-90.9090909090909,4,2,1,80,0,0
240630,-166.666666666667,4,2,1,65,0,0
241296,-90.9090909090909,4,2,1,80,0,0
248546,-90.9090909090909,4,2,1,5,0,0
248630,-90.9090909090909,4,2,1,80,0,0
256630,-166.666666666667,4,2,1,60,0,0
260546,-166.666666666667,4,2,1,5,0,0
260630,-142.857142857143,4,2,1,60,0,0
261130,-166.666666666667,4,2,1,60,0,0
261296,-125,4,2,1,60,0,0
261546,-125,4,2,1,5,0,0
261630,-125,4,2,1,60,0,0
261963,-166.666666666667,4,2,1,60,0,0
265880,-166.666666666667,4,2,1,5,0,0
265963,-142.857142857143,4,2,1,60,0,0
266463,-166.666666666667,4,2,1,60,0,0
267296,-100,4,2,1,70,0,0
267546,-100,4,2,1,5,0,0
267630,-100,4,2,1,70,0,0
270213,-100,4,2,1,5,0,0
270296,-100,4,2,1,70,0,0
272880,-100,4,2,1,5,0,0
272963,-100,4,2,1,70,0,0
275546,-100,4,2,1,5,0,0
275630,-100,4,2,1,70,0,0

[Colours]
Combo1 : 232,159,159
Combo2 : 214,205,158
Combo3 : 205,175,209
Combo4 : 152,103,165

[HitObjects]
485,252,630,6,0,B|511:311|470:361|412:388|339:353|339:353|231:304|231:304|191:321|199:368,1,413.999987365723,6|0,1:2|1:0,0:0:0:0:
108,382,1796,2,0,P|125:371|111:359,1,34.4999989471436,2|0,0:0|0:0,0:0:0:0:
72,188,1963,6,0,B|61:144|13:126|13:126|122:64|122:64|159:46|201:50|201:50|263:63|263:63|270:37|282:12,1,413.999987365723,2|0,1:2|1:0,0:0:0:0:
181,9,3130,2,0,P|200:24|179:33,1,34.4999989471436,2|0,0:0|0:0,0:0:0:0:
239,225,3296,6,0,B|318:176|318:176|330:135|362:107|362:107|369:190|404:270,1,344.999989471436,2|0,1:2|0:0,0:0:0:0:
457,153,4296,2,0,B|483:158|497:181|497:181|466:185|446:166,1,103.499996841431,2|0,1:2|0:0,0:0:0:0:
454,140,4630,6,0,P|503:93|483:9,1,160.99999508667,2|0,1:2|1:0,0:0:0:0:
408,2,5130,2,0,P|404:22|393:38,1,34.4999989471436,2|0,0:0|0:0,0:0:0:0:
248,106,5296,2,0,P|183:130|148:213,1,138,2|0,1:2|0:0,0:0:0:0:
148,208,5630,5,8,3:0:0:0:
197,351,5796,1,4,3:0:0:0:
105,94,5963,6,0,B|84:34|84:34|56:1|10:15|4:59|4:59|35:152|35:152|54:201|22:241|22:241|43:258|54:276,1,413.999987365723,6|0,1:2|1:0,0:0:0:0:
146,280,7130,2,0,P|130:270|143:255,1,34.4999989471436,2|0,0:0|0:0,0:0:0:0:
240,115,7296,6,0,B|220:74|261:42|261:42|309:7|309:7|415:27|415:27|426:53|426:53|484:94|493:172,1,413.999987365723,2|0,1:2|1:0,0:0:0:0:
499,259,8463,2,0,P|491:240|482:256,1,34.4999989471436,2|0,0:0|0:0,0:0:0:0:
339,353,8630,6,0,B|267:365|221:300|261:226|261:226|307:263|307:263|318:216|345:165,1,344.999989471436,2|0,1:2|0:0,0:0:0:0:
186,176,9630,2,0,B|160:181|146:204|146:204|177:208|197:189,1,103.499996841431,2|0,1:2|0:0,0:0:0:0:
185,211,9963,6,0,P|123:158|36:168,1,160.99999508667,2|0,1:2|1:0,0:0:0:0:
7,96,10463,2,0,P|27:89|49:74,1,34.4999989471436,2|0,0:0|0:0,0:0:0:0:
6,225,10630,5,2,1:2:0:0:
18,295,10796,1,0,1:0:0:0:
192,361,10963,1,8,0:0:0:0:
122,375,11130,1,0,1:0:0:0:
467,368,11296,6,0,P|413:321|367:233,1,172.5,6|0,1:2|0:0,0:0:0:0:
359,162,11630,1,8,0:0:0:0:
111,74,11796,2,0,P|157:16|310:26,1,230,6|2,1:2|1:2,0:0:0:0:
285,187,12296,1,8,0:0:0:0:
273,265,12463,1,2,1:2:0:0:
91,309,12630,5,4,1:2:0:0:
46,377,12796,1,8,3:0:0:0:
46,377,12880,1,8,3:0:0:0:
46,377,12963,1,4,3:0:0:0:
261,269,13130,2,0,B|261:333|220:379|220:379|227:319|186:265,1,230,6|0,1:2|1:0,0:0:0:0:
293,29,13630,2,0,P|274:78|228:132,1,115,10|0,0:0|1:0,0:0:0:0:
391,336,13963,5,10,0:0:0:0:
123,233,14130,1,2,1:2:0:0:
361,269,14296,5,8,0:0:0:0:
86,157,14463,1,2,1:2:0:0:
333,202,14630,5,10,0:0:0:0:
51,81,14797,1,2,1:2:0:0:
305,136,14963,5,8,0:0:0:0:
16,6,15130,1,2,1:2:0:0:
133,63,15296,6,0,B|143:68|151:75|151:75|134:93|134:93|144:98|153:104,2,68.9999978942872,2|2|2,0:0|0:0|0:0,0:0:0:0:
156,41,16130,5,0,1:0:0:0:
193,195,16296,1,10,0:0:0:0:
301,312,16463,1,8,0:0:0:0:
468,109,16630,6,0,B|380:66|380:66|407:23|407:23|462:8|462:8|490:7|499:28,1,253.000007720947,6|10,1:2|0:0,0:0:0:0:
420,202,17130,1,2,0:0:0:0:
467,293,17296,2,0,B|453:195|453:195|420:178,1,126.500003860474,2|0,1:2|1:0,0:0:0:0:
226,291,17630,1,10,0:0:0:0:
179,382,17796,2,0,B|193:284|193:284|226:267,1,126.500003860474,2|0,0:0|1:0,0:0:0:0:
292,218,18130,5,2,1:2:0:0:
331,300,18296,1,8,0:0:0:0:
118,183,18463,1,2,0:0:0:0:
40,230,18630,1,0,1:0:0:0:
137,171,18796,2,0,P|111:144|71:141,1,63.2500019302369,2|0,1:2|0:0,0:0:0:0:
281,199,18963,2,0,P|314:136|231:59,1,189.750005790711,10|0,0:0|0:0,0:0:0:0:
189,12,19296,6,0,B|120:30|120:30|114:27|114:27|11:55|11:55|37:37|65:13,1,253.000007720947,2|10,1:2|0:0,0:0:0:0:
313,60,19796,1,2,0:0:0:0:
412,59,19963,2,0,B|321:36|321:36|335:31|351:23,1,126.500003860474,2|0,1:2|1:0,0:0:0:0:
501,238,20296,1,10,0:0:0:0:
402,237,20463,2,0,B|493:214|493:214|479:209|462:201,1,126.500003860474,2|0,0:0|1:0,0:0:0:0:
275,278,20796,5,2,1:2:0:0:
259,188,20963,1,8,0:0:0:0:
225,103,21130,1,2,0:0:0:0:
15,367,21296,5,8,0:0:0:0:
58,380,21380,1,8,0:0:0:0:
73,375,21463,1,2,1:2:0:0:
233,197,21630,1,10,0:0:0:0:
248,287,21796,1,0,1:0:0:0:
498,362,21963,6,0,B|469:368|440:380|440:380|418:362|429:330|429:330|274:373,1,253.000007720947,6|10,1:2|0:0,0:0:0:0:
122,285,22463,1,2,0:0:0:0:
116,178,22630,2,0,P|106:237|147:289,1,126.500003860474,2|0,1:2|1:0,0:0:0:0:
329,125,22963,1,10,0:0:0:0:
362,23,23130,2,0,P|355:83|302:122,1,126.500003860474,2|0,0:0|1:0,0:0:0:0:
215,138,23463,5,2,1:2:0:0:
137,90,23630,1,8,0:0:0:0:
14,260,23796,1,2,0:0:0:0:
25,170,23963,1,0,1:0:0:0:
10,281,24130,2,0,P|46:275|85:261,1,63.2500019302369,2|0,1:2|0:0,0:0:0:0:
221,160,24296,2,0,P|281:222|384:269,1,189.750005790711,10|0,0:0|0:0,0:0:0:0:
428,220,24630,6,0,B|468:189|477:124|477:124|506:182|506:182|491:223|459:251,1,253.000007720947,2|10,1:2|0:0,0:0:0:0:
275,374,25130,1,2,0:0:0:0:
213,297,25296,2,0,B|245:375|245:375|256:325,1,126.500003860474,2|0,1:2|1:0,0:0:0:0:
338,116,25630,1,10,0:0:0:0:
400,39,25796,2,0,B|367:117|367:117|356:67,1,126.500003860474,2|0,0:0|1:0,0:0:0:0:
143,209,26130,5,2,1:2:0:0:
225,171,26296,1,8,0:0:0:0:
310,204,26463,1,2,0:0:0:0:
36,10,26630,5,8,0:0:0:0:
57,50,26714,1,8,0:0:0:0:
71,57,26797,1,2,1:2:0:0:
306,178,26963,1,10,0:0:0:0:
219,149,27130,1,0,1:0:0:0:
14,305,27296,5,6,1:2:0:0:
127,381,27463,1,0,0:0:0:0:
206,270,27630,1,10,0:0:0:0:
147,85,27796,1,2,0:0:0:0:
217,2,27963,2,0,B|157:20|157:20|178:85,1,126.500003860474,2|0,1:2|1:0,0:0:0:0:
28,258,28296,1,10,0:0:0:0:
98,341,28463,2,0,B|38:323|38:323|59:258,1,126.500003860474,2|0,0:0|1:0,0:0:0:0:
83,174,28796,5,2,1:2:0:0:
173,189,28963,1,8,0:0:0:0:
298,361,29130,1,2,0:0:0:0:
388,376,29297,1,0,1:0:0:0:
278,369,29463,2,0,P|268:330|247:295,1,63.2500019302369,2|0,1:2|0:0,0:0:0:0:
63,165,29630,2,0,B|103:155|151:153|151:153|157:145|157:145|254:106,1,189.750005790711,10|0,0:0|0:0,0:0:0:0:
295,66,29963,6,0,B|341:121|341:121|362:199|362:199|415:179|423:125,1,253.000007720947,2|10,1:2|0:0,0:0:0:0:
497,350,30463,1,2,0:0:0:0:
480,262,30630,2,0,P|487:322|436:348,1,126.500003860474,2|0,1:2|1:0,0:0:0:0:
220,208,30963,1,10,0:0:0:0:
237,296,31130,2,0,P|229:235|280:209,1,126.500003860474,2|0,0:0|1:0,0:0:0:0:
508,175,31463,5,2,1:2:0:0:
458,98,31630,1,8,0:0:0:0:
497,16,31796,1,2,0:0:0:0:
339,305,31963,5,8,0:0:0:0:
329,348,32046,1,8,0:0:0:0:
338,361,32130,1,2,1:2:0:0:
448,120,32296,1,10,0:0:0:0:
498,197,32463,1,0,1:0:0:0:
293,29,32630,5,6,1:2:0:0:
239,153,32796,1,0,0:0:0:0:
130,73,32963,1,10,0:0:0:0:
21,238,33130,1,2,0:0:0:0:
125,219,33296,2,0,B|45:250|45:250|43:270|62:286,1,126.500003860474,2|0,1:2|1:0,0:0:0:0:
135,40,33630,1,10,0:0:0:0:
31,21,33796,2,0,B|110:52|110:52|112:72|93:88,1,126.500003860474,2|0,0:0|1:0,0:0:0:0:
168,142,34130,5,2,1:2:0:0:
217,218,34296,1,8,0:0:0:0:
446,271,34463,1,2,0:0:0:0:
397,195,34629,1,0,1:0:0:0:
438,290,34796,2,0,P|398:306|373:331,1,63.2500019302369,2|0,1:2|0:0,0:0:0:0:
208,238,34963,2,0,B|244:373|244:373|249:345|256:324,1,189.750005790711,10|0,0:0|0:0,0:0:0:0:
289,262,35296,6,0,B|268:188|268:188|237:150|237:150|239:145|239:145|208:96|208:96|198:63|214:34,1,253.000007720947,2|10,1:2|0:0,0:0:0:0:
447,44,35796,1,2,0:0:0:0:
503,123,35963,2,0,P|480:61|411:13,1,126.500003860474,2|0,1:2|1:0,0:0:0:0:
300,240,36296,1,10,0:0:0:0:
356,161,36463,2,0,P|333:223|264:271,1,126.500003860474,2|0,0:0|1:0,0:0:0:0:
35,239,36796,5,2,1:2:0:0:
108,294,36963,1,8,0:0:0:0:
144,377,37129,1,2,0:0:0:0:
66,55,37296,5,8,0:0:0:0:
35,87,37380,1,8,0:0:0:0:
21,94,37463,1,2,1:2:0:0:
0,319,37630,5,10,0:0:0:0:
13,277,37713,1,8,0:0:0:0:
36,239,37796,1,8,0:0:0:0:
69,209,37880,1,8,0:0:0:0:
58,198,37963,5,4,1:2:0:0:
116,134,38130,1,0,0:0:0:0:
252,55,38296,2,0,L|350:33,1,86.2500032901765,2|0,1:2|0:0,0:0:0:0:
333,19,38630,1,2,1:2:0:0:
201,130,38796,2,0,L|285:148,1,86.2500032901765,2|0,0:0|1:0,0:0:0:0:
482,240,39130,6,0,B|507:203|507:203|365:240,1,172.500006580353,2|2,0:0|0:0,0:0:0:0:
386,252,39630,1,2,1:2:0:0:
315,300,39796,2,0,P|285:331|270:374,2,86.2500032901765,0|0|0,0:0|1:0|0:0,0:0:0:0:
395,266,40296,2,0,P|420:186|434:124,1,129.375004935265,2|0,1:2|0:0,0:0:0:0:
430,141,40630,5,2,1:2:0:0:
401,66,40796,1,0,0:0:0:0:
484,42,40963,1,0,1:0:0:0:
324,27,41130,2,0,P|272:20|240:60,1,86.2500032901765,2|0,0:0|1:0,0:0:0:0:
165,17,41463,2,0,P|122:48|127:99,1,86.2500032901765,2|0,0:0|1:0,0:0:0:0:
106,90,41796,1,2,0:0:0:0:
162,310,41963,6,0,B|144:284|133:248|133:248|107:265|107:265|84:235|73:200,1,172.500006580353,0|0,1:0|1:0,0:0:0:0:
27,128,42463,1,0,0:0:0:0:
243,54,42630,5,0,1:0:0:0:
258,90,42796,5,0,1:0:0:0:
284,177,42963,5,0,1:0:0:0:
300,301,43130,5,4,3:0:0:0:
17,333,43296,5,4,1:2:0:0:
96,367,43463,1,0,0:0:0:0:
253,384,43630,2,0,P|280:345|329:303,1,86.2500032901765,2|0,1:2|0:0,0:0:0:0:
321,330,43963,1,2,1:2:0:0:
431,200,44130,2,0,P|404:239|355:281,1,86.2500032901765,2|0,0:0|1:0,0:0:0:0:
144,120,44463,6,0,B|148:83|128:49|128:49|85:16|38:9,1,172.500006580353,2|2,0:0|0:0,0:0:0:0:
133,133,44963,1,2,1:2:0:0:
196,192,45130,2,0,P|212:232|220:294,2,86.2500032901765,0|0|0,0:0|1:0|0:0,0:0:0:0:
122,147,45630,1,2,1:2:0:0:
414,9,45796,6,0,B|445:44|445:44|498:57|498:57|512:139|512:139|480:176|460:223,1,275.999991577149,6|2,1:2|1:2,0:0:0:0:
176,361,46296,1,10,0:0:0:0:
92,384,46463,6,0,B|171:328|171:328|266:364|266:364|272:349|281:336,1,230,6|2,1:2|1:2,0:0:0:0:
359,83,46963,1,10,0:0:0:0:
377,357,47130,6,0,P|350:272|267:97,1,275.999991577149,6|0,0:0|1:0,0:0:0:0:
61,137,47630,5,8,0:0:0:0:
261,18,47796,1,0,1:0:0:0:
190,69,47963,5,8,0:0:0:0:
82,277,48130,1,0,1:0:0:0:
21,215,48296,5,8,0:0:0:0:
139,0,48463,1,8,0:0:0:0:
113,15,48546,1,8,0:0:0:0:
91,18,48630,5,4,1:2:0:0:
16,63,48796,1,0,0:0:0:0:
126,200,48963,2,0,P|242:221|347:262,1,206.999993682861,10|2,0:0|1:2,0:0:0:0:
485,268,49463,2,0,P|442:308|394:291,1,103.499996841431,2|8,1:2|0:0,0:0:0:0:
303,146,49796,6,0,B|391:114|391:114|401:103|401:103|450:88|488:58,1,206.999993682861,2|2,0:0|1:2,0:0:0:0:
512,144,50296,1,10,0:0:0:0:
427,122,50463,2,0,P|402:64|361:18,2,103.499996841431,0|0|0,0:0|1:0|1:0,0:0:0:0:
234,101,50963,2,0,L|196:268,1,155.249995262146,10|0,0:0|0:0,0:0:0:0:
199,252,51296,6,0,P|248:282|262:332,1,103.499996841431,2|0,1:2|0:0,0:0:0:0:
57,361,51630,1,8,0:0:0:0:
11,286,51796,2,0,P|67:268|123:258,1,103.499996841431,2|0,0:0|1:0,0:0:0:0:
103,59,52130,1,2,1:2:0:0:
186,87,52296,1,10,0:0:0:0:
246,23,52463,1,2,0:0:0:0:
0,72,52630,6,0,B|14:107|14:107|122:172|122:172|101:173|79:181,1,206.999993682861,0|8,1:0|0:0,0:0:0:0:
19,244,53130,1,0,0:0:0:0:
137,384,53296,5,8,0:0:0:0:
176,362,53380,1,8,0:0:0:0:
183,348,53463,1,0,1:0:0:0:
25,257,53630,1,8,0:0:0:0:
86,194,53796,1,0,1:0:0:0:
303,146,53963,5,4,1:2:0:0:
387,174,54130,1,0,0:0:0:0:
490,314,54296,1,10,0:0:0:0:
494,310,54463,1,2,0:0:0:0:
498,313,54630,1,2,1:2:0:0:
408,263,54796,2,0,P|399:318|382:380,1,103.499996841431,2|8,1:2|0:0,0:0:0:0:
228,223,55130,6,0,P|187:223|183:157,1,103.499996841431,2|0,0:0|1:0,0:0:0:0:
228,101,55463,1,2,1:2:0:0:
237,314,55630,2,0,P|284:319|302:274,1,103.499996841431,10|0,0:0|0:0,0:0:0:0:
473,201,55963,1,0,1:0:0:0:
498,76,56130,1,0,1:0:0:0:
485,204,56296,1,8,0:0:0:0:
243,71,56463,6,0,B|148:78|75:15|75:15|125:-1|125:-1|138:15|157:24,1,275.999991577149,6|2,1:2|1:2,0:0:0:0:
389,242,56963,1,10,0:0:0:0:
449,308,57130,6,0,B|359:356|359:356|354:373|354:373|294:360|279:290,1,230,6|2,0:0|1:2,0:0:0:0:
55,169,57630,1,8,0:0:0:0:
322,118,57796,6,0,B|274:157|233:218|233:218|189:270|160:339,1,275.999991577149,6|0,1:2|1:0,0:0:0:0:
122,114,58296,5,8,0:0:0:0:
342,34,58463,1,0,1:0:0:0:
261,9,58630,5,10,0:0:0:0:
471,109,58796,1,0,1:0:0:0:
509,32,58963,5,10,0:0:0:0:
347,215,59130,1,0,1:0:0:0:
361,210,59213,1,0,1:0:0:0:
373,201,59296,6,0,B|435:361|435:361|455:337|477:321,1,230,6|8,1:2|0:0,0:0:0:0:
512,246,59796,1,2,0:0:0:0:
386,108,59963,1,2,1:2:0:0:
310,142,60130,2,0,P|263:92|204:69,1,115,2|8,1:2|0:0,0:0:0:0:
139,85,60463,2,0,B|126:63|104:40|104:40|132:31|158:19,1,115,2|0,0:0|1:0,0:0:0:0:
16,187,60796,6,0,P|4:175|28:183,2,68.9999978942872,0|8|0,1:0|0:0|0:0,0:0:0:0:
114,164,61296,6,0,P|138:235|154:260,1,92,2|0,1:2|1:0,0:0:0:0:
289,371,61630,6,0,P|248:330|190:307,1,103.499996841431,10|0,0:0|0:0,0:0:0:0:
25,323,61963,6,0,B|54:304|54:304|94:303|94:303|290:248,1,230,2|8,1:2|0:0,0:0:0:0:
477,321,62463,1,2,0:0:0:0:
421,382,62630,1,2,1:2:0:0:
359,328,62796,2,0,P|358:266|409:239,1,115,2|8,1:2|0:0,0:0:0:0:
376,16,63130,2,0,P|439:27|508:52,1,115,2|0,0:0|1:0,0:0:0:0:
512,122,63463,1,2,1:2:0:0:
501,40,63630,2,0,P|447:60|397:89,1,115,10|0,0:0|0:0,0:0:0:0:
272,339,63963,6,0,L|244:346,2,28.75,10|8|8,0:0|0:0|0:0,0:0:0:0:
179,166,64213,5,8,0:0:0:0:
207,173,64296,1,10,0:0:0:0:
300,0,64463,5,8,0:0:0:0:
272,7,64546,1,8,0:0:0:0:
249,25,64630,6,0,B|293:108|293:108|309:161|309:161|318:167|318:167|351:234,1,230,6|8,1:2|0:0,0:0:0:0:
352,313,65130,1,2,0:0:0:0:
171,383,65296,1,2,1:2:0:0:
110,327,65463,2,0,B|57:343|57:343|17:300,1,115,2|8,1:2|0:0,0:0:0:0:
0,79,65796,1,2,0:0:0:0:
51,14,65963,6,0,B|65:13|65:13|76:21|76:21|188:58|188:58|141:66|112:95,1,230,0|8,1:0|0:0,0:0:0:0:
48,145,66463,1,2,0:0:0:0:
203,262,66630,1,2,1:2:0:0:
240,336,66796,2,0,P|289:367|353:383,1,115,2|8,1:2|0:0,0:0:0:0:
350,366,67130,1,2,0:0:0:0:
490,201,67296,6,0,B|450:91|450:91|333:129,1,230,2|8,1:2|0:0,0:0:0:0:
435,358,67796,6,0,B|468:370|468:370|484:341,1,68.9999978942872,2|0,0:0|1:0,0:0:0:0:
369,267,68129,2,0,B|402:279|402:279|418:250,1,68.9999978942872,2|8,1:2|0:0,0:0:0:0:
315,205,68463,2,0,P|339:115|377:53,1,137.999995788574,2|2,0:0|0:0,0:0:0:0:
58,227,68963,6,0,P|113:208|188:176,1,115,12|2,0:0|0:0,0:0:0:0:
283,36,69296,1,10,0:0:0:0:
293,9,69380,1,8,0:0:0:0:
115,84,69546,1,10,0:0:0:0:
125,111,69630,1,8,0:0:0:0:
148,95,69713,1,8,0:0:0:0:
162,70,69796,1,8,0:0:0:0:
162,42,69879,1,8,0:0:0:0:
149,17,69963,6,0,P|84:3|56:143,1,230,6|8,1:2|0:0,0:0:0:0:
101,190,70463,1,2,0:0:0:0:
279,132,70630,1,2,1:2:0:0:
306,210,70796,2,0,P|292:268|272:324,1,115,2|8,1:2|0:0,0:0:0:0:
211,375,71130,2,0,P|157:351|160:298,1,115,2|0,0:0|1:0,0:0:0:0:
376,281,71463,6,0,P|397:279|377:301,2,68.9999978942872,0|8|0,1:0|0:0|0:0,0:0:0:0:
485,294,71963,6,0,P|492:339|505:384,1,92,2|0,1:2|1:0,0:0:0:0:
452,217,72296,6,2,P|410:186|365:161,1,103.499996841431,10|0,0:0|0:0,0:0:0:0:
182,173,72630,6,0,P|243:157|323:4,1,230,2|8,1:2|0:0,0:0:0:0:
510,156,73130,1,2,0:0:0:0:
477,81,73296,1,2,1:2:0:0:
408,35,73463,2,0,P|360:66|284:73,1,115,2|8,1:2|0:0,0:0:0:0:
160,254,73796,2,0,P|112:218|61:190,1,115,2|0,0:0|1:0,0:0:0:0:
12,126,74130,1,2,1:2:0:0:
51,199,74296,2,0,P|35:254|27:311,1,115,10|0,0:0|0:0,0:0:0:0:
195,73,74630,6,0,L|223:66,2,28.75,10|8|8,0:0|0:0|0:0,0:0:0:0:
348,196,74880,5,8,0:0:0:0:
320,189,74963,1,10,0:0:0:0:
196,341,75130,5,8,0:0:0:0:
224,334,75213,1,8,0:0:0:0:
247,316,75297,6,0,B|402:379|402:379|413:372|413:372|444:380|444:380|463:373,1,230,6|8,1:2|0:0,0:0:0:0:
502,303,75796,1,2,0:0:0:0:
408,137,75963,1,2,1:2:0:0:
487,112,76130,2,0,B|512:163|512:163|506:188|504:220,1,115,2|8,1:2|0:0,0:0:0:0:
334,101,76463,2,0,P|305:52|241:14,2,115,2|0|0,0:0|1:0|1:0,0:0:0:0:
174,360,76963,6,0,L|32:386,1,115,10|0,0:0|0:0,0:0:0:0:
243,110,77296,2,0,P|264:162|262:219,1,115,2|0,1:2|1:0,0:0:0:0:
27,361,77630,2,0,L|169:387,1,115,10|0,0:0|0:0,0:0:0:0:
15,127,77963,6,0,B|148:91|148:91|185:37|185:37|218:29,2,230,2|8|0,1:2|0:0|1:0,0:0:0:0:
0,45,78796,1,0,1:0:0:0:
80,24,78963,1,8,0:0:0:0:
142,62,79074,6,0,P|153:89|160:136,1,76.6666666666667,2|2,0:0|0:0,0:0:0:0:
130,202,79296,6,0,P|113:264|67:315,1,115,2|0,1:2|0:0,0:0:0:0:
413,55,79630,6,0,P|428:161|514:245,1,206.999993682861,12|0,0:0|0:0,0:0:0:0:
492,233,79963,1,8,0:0:0:0:
420,283,80130,1,4,3:0:0:0:
407,294,80213,1,8,3:0:0:0:
399,309,80296,1,0,1:0:0:0:
270,0,80463,6,0,B|339:51|322:141|322:141|341:202|341:202|318:228|306:267,1,287.5,6|0,1:2|0:0,0:0:0:0:
72,121,80963,2,0,B|43:82|-2:101|-2:101|15:132|53:136,1,143.75,10|0,0:0|0:0,0:0:0:0:
194,372,81296,2,0,P|218:297|227:220,1,143.75,2|0,1:2|1:0,0:0:0:0:
147,90,81630,1,10,0:0:0:0:
193,158,81796,1,2,0:0:0:0:
321,340,81962,5,2,1:2:0:0:
100,363,82130,2,0,L|239:326,1,143.75,2|8,1:2|0:0,0:0:0:0:
393,384,82463,1,2,0:0:0:0:
317,355,82629,1,2,1:2:0:0:
446,320,82796,6,0,P|455:287|473:319,1,68.9999978942872,0|8,1:0|0:0,0:0:0:0:
139,267,83130,6,0,B|5:205|5:205|27:174|35:120|35:120|48:143|41:170,1,287.5,2|2,0:0|0:0,0:0:0:0:
51,259,83630,1,10,0:0:0:0:
188,12,83796,1,2,0:0:0:0:
302,192,83963,1,2,1:2:0:0:
403,221,84130,1,0,1:0:0:0:
254,110,84296,1,10,0:0:0:0:
187,158,84463,1,0,0:0:0:0:
432,33,84630,5,2,1:2:0:0:
504,238,84796,2,0,L|485:96,1,143.75,2|8,1:2|0:0,0:0:0:0:
357,3,85130,1,2,0:0:0:0:
109,141,85296,5,10,0:0:0:0:
68,127,85380,1,8,0:0:0:0:
62,118,85463,1,0,1:0:0:0:
341,24,85630,1,8,0:0:0:0:
416,54,85796,1,0,1:0:0:0:
174,316,85963,6,0,P|247:376|373:370,1,215.625,6|0,1:2|0:0,0:0:0:0:
372,381,86296,2,0,P|328:373|290:340,1,86.2500032901765,10|0,0:0|0:0,0:0:0:0:
252,26,86630,2,0,B|185:43|185:43|204:116,1,143.75,2|0,1:2|1:0,0:0:0:0:
250,277,86963,1,10,0:0:0:0:
230,196,87130,1,2,0:0:0:0:
430,306,87296,6,0,P|497:330|470:382,1,143.75,2|0,1:2|1:0,0:0:0:0:
484,95,87630,2,0,P|413:97|364:158,1,143.75,10|0,0:0|0:0,0:0:0:0:
387,231,87963,1,2,1:2:0:0:
494,216,88130,6,0,P|485:183|467:215,1,68.9999978942872,0|8,1:0|0:0,0:0:0:0:
230,87,88463,6,0,B|203:67|181:36|181:36|33:74|33:74|48:45|54:13,1,287.5,2|2,0:0|0:0,0:0:0:0:
117,84,88963,1,10,0:0:0:0:
417,10,89130,1,2,0:0:0:0:
334,169,89296,2,0,B|310:127|313:63|313:63|345:42,1,143.75,2|0,1:2|1:0,0:0:0:0:
257,200,89630,1,10,0:0:0:0:
237,280,89796,1,0,0:0:0:0:
330,24,89963,6,0,B|306:66|309:130|309:130|341:151,1,143.75,2|0,1:2|0:0,0:0:0:0:
28,377,90296,6,0,P|80:289|124:153,1,215.625,12|0,0:0|0:0,0:0:0:0:
121,164,90630,1,8,0:0:0:0:
15,111,90796,1,4,3:0:0:0:
18,129,90880,1,8,3:0:0:0:
26,145,90963,1,0,1:0:0:0:
346,304,91130,6,0,B|448:250|448:250|453:244|453:244|497:220|497:220|490:196|486:172|486:172|461:141|428:154,1,287.5,6|0,1:2|0:0,0:0:0:0:
466,269,91630,2,0,L|378:236,1,68.9999978942872,10|0,0:0|0:0,0:0:0:0:
136,361,91963,2,0,P|109:275|68:235,1,143.75,2|0,1:2|1:0,0:0:0:0:
228,179,92296,1,10,0:0:0:0:
145,188,92463,1,2,0:0:0:0:
17,7,92630,5,2,1:2:0:0:
221,96,92796,2,0,L|83:58,1,143.75,2|8,1:2|0:0,0:0:0:0:
6,89,93130,1,2,0:0:0:0:
2,4,93296,1,2,1:2:0:0:
6,184,93463,6,0,P|39:192|20:161,1,68.9999978942872,0|8,1:0|0:0,0:0:0:0:
335,7,93796,6,0,B|303:23|299:61|299:61|445:36|445:36|440:74|404:90,1,287.5,2|2,0:0|0:0,0:0:0:0:
337,139,94296,1,10,0:0:0:0:
489,376,94463,1,2,0:0:0:0:
279,351,94630,1,2,1:2:0:0:
206,277,94796,1,0,1:0:0:0:
380,209,94963,1,10,0:0:0:0:
371,292,95130,1,0,0:0:0:0:
114,357,95296,5,2,1:2:0:0:
36,384,95463,1,0,1:0:0:0:
147,220,95630,1,10,0:0:0:0:
131,244,95796,1,0,0:0:0:0:
366,381,95963,5,10,0:0:0:0:
407,367,96047,1,8,0:0:0:0:
413,358,96130,1,0,1:0:0:0:
115,383,96296,1,8,0:0:0:0:
37,356,96463,1,0,1:0:0:0:
256,132,96630,6,0,P|188:25|72:16,1,215.625,6|0,1:2|0:0,0:0:0:0:
98,13,96963,2,0,B|42:37|42:37|56:16,1,86.2500032901765,10|0,0:0|0:0,0:0:0:0:
284,211,97296,2,0,P|336:270|405:309,1,143.75,2|0,1:2|1:0,0:0:0:0:
507,255,97630,1,10,0:0:0:0:
454,362,97796,1,2,0:0:0:0:
256,384,97963,5,2,1:2:0:0:
24,226,98130,1,0,1:0:0:0:
129,162,98296,1,10,0:0:0:0:
196,213,98463,1,0,0:0:0:0:
137,150,98630,1,2,1:2:0:0:
100,288,98796,6,0,P|109:255|127:287,1,68.9999978942872,0|8,1:0|0:0,0:0:0:0:
435,320,99130,6,0,B|423:329|411:343|411:343|393:337|372:336|372:336|312:377|312:377|282:309|326:230,1,287.5,2|0,0:0|0:0,0:0:0:0:
354,164,99630,1,10,0:0:0:0:
46,146,99796,1,2,0:0:0:0:
104,85,99963,1,2,1:2:0:0:
263,33,100130,2,0,B|230:27|230:27|209:39|209:39|174:19|125:4,1,143.75,2|8,1:2|0:0,0:0:0:0:
346,83,100463,1,2,0:0:0:0:
143,0,100630,6,0,B|174:10|174:10|197:1|197:1|229:26|275:47,1,143.75,2|0,1:2|0:0,0:0:0:0:
223,373,100963,6,0,P|158:346|10:303,1,215.625,12|0,0:0|0:0,0:0:0:0:
1,302,101296,1,8,0:0:0:0:
72,354,101463,1,0,1:0:0:0:
294,328,101630,5,8,0:0:0:0:
308,287,101714,1,8,0:0:0:0:
338,257,101797,1,8,0:0:0:0:
378,241,101880,1,8,0:0:0:0:
420,244,101963,5,10,0:0:0:0:
431,218,102046,1,8,0:0:0:0:
436,190,102130,1,0,1:0:0:0:
23,65,102296,5,14,0:0:0:0:
189,164,102463,1,2,0:0:0:0:
289,165,102630,2,0,P|245:129|174:140,1,126.500003860474,2|0,1:2|1:0,0:0:0:0:
333,318,102963,1,10,0:0:0:0:
245,367,103130,2,0,P|301:376|357:331,1,126.500003860474,2|0,0:0|1:0,0:0:0:0:
397,256,103463,5,2,1:2:0:0:
469,312,103630,1,8,0:0:0:0:
506,93,103796,1,2,0:0:0:0:
427,45,103963,1,0,1:0:0:0:
512,71,104130,2,0,P|495:93|484:134,1,63.2500019302369,2|0,1:2|0:0,0:0:0:0:
472,334,104296,2,0,B|506:260|506:260|434:228|434:228|418:203,1,189.750005790711,10|0,0:0|0:0,0:0:0:0:
413,132,104630,6,0,B|321:113|243:179|243:179|219:141|264:127,1,253.000007720947,2|10,1:2|0:0,0:0:0:0:
26,199,105130,1,2,0:0:0:0:
104,260,105296,2,0,B|49:180|49:180|87:158,1,126.500003860474,2|0,1:2|1:0,0:0:0:0:
300,61,105630,1,10,0:0:0:0:
222,0,105796,2,0,B|276:79|276:79|238:101,1,126.500003860474,2|0,0:0|1:0,0:0:0:0:
193,294,106130,5,2,1:2:0:0:
282,312,106296,1,8,0:0:0:0:
360,360,106463,1,2,0:0:0:0:
161,93,106630,5,8,0:0:0:0:
118,80,106714,1,8,0:0:0:0:
103,85,106797,1,2,1:2:0:0:
290,286,106963,1,10,0:0:0:0:
200,267,107129,1,0,1:0:0:0:
5,94,107296,5,6,1:2:0:0:
25,228,107463,1,0,0:0:0:0:
154,186,107630,1,10,0:0:0:0:
61,359,107796,1,2,0:0:0:0:
168,372,107963,2,0,P|103:362|47:328,1,126.500003860474,2|0,1:2|1:0,0:0:0:0:
267,217,108296,1,10,0:0:0:0:
351,150,108463,2,0,P|297:188|234:204,1,126.500003860474,2|0,0:0|1:0,0:0:0:0:
214,116,108796,5,2,1:2:0:0:
143,58,108963,1,8,0:0:0:0:
3,221,109130,1,2,0:0:0:0:
74,163,109297,1,0,1:0:0:0:
22,236,109463,2,0,P|49:258|78:268,1,63.2500019302369,2|0,1:2|0:0,0:0:0:0:
195,129,109630,2,0,P|192:52|291:9,1,189.750005790711,10|2,0:0|0:0,0:0:0:0:
336,54,109963,6,0,B|335:89|358:113|358:113|493:44|493:44|495:26|495:26|503:9,1,253.000007720947,2|10,1:2|0:0,0:0:0:0:
420,237,110463,1,2,0:0:0:0:
490,317,110630,2,0,B|473:259|473:259|446:235|431:208,1,126.500003860474,2|0,1:2|1:0,0:0:0:0:
228,340,110963,1,10,0:0:0:0:
322,292,111130,2,0,B|285:338|285:338|250:351|227:370,1,126.500003860474,2|0,0:0|1:0,0:0:0:0:
0,331,111463,5,2,1:2:0:0:
42,250,111630,1,8,0:0:0:0:
95,177,111796,1,2,0:0:0:0:
363,379,111963,5,8,0:0:0:0:
392,345,112047,1,8,0:0:0:0:
408,341,112130,1,2,1:2:0:0:
119,189,112296,1,10,0:0:0:0:
66,262,112462,1,0,1:0:0:0:
341,213,112630,6,0,B|261:267|173:305|173:305|189:333|189:333|183:361,1,253.000007720947,6|8,1:2|0:0,0:0:0:0:
195,374,113130,1,0,0:0:0:0:
37,123,113296,6,0,B|107:95|107:95|85:2|85:2|49:20|7:29,1,253.000007720947,2|8,1:2|0:0,0:0:0:0:
2,12,113796,1,0,0:0:0:0:
277,126,113963,6,0,P|409:118|509:218,1,253.000007720947,2|8,1:2|0:0,0:0:0:0:
493,209,114463,1,0,0:0:0:0:
278,21,114630,5,2,1:2:0:0:
185,17,114796,2,0,P|188:47|207:91,1,63.2500019302369,0|0,1:0|0:0,0:0:0:0:
416,88,114963,2,0,P|397:167|428:289,1,189.750005790711,8|0,0:0|0:0,0:0:0:0:
464,326,115296,6,0,B|489:335|496:358|496:358|397:378|397:378|346:344|294:332,1,253.000007720947,2|10,1:2|0:0,0:0:0:0:
189,131,115796,1,2,0:0:0:0:
238,214,115963,2,0,B|205:177|157:153|157:153|195:146,1,126.500003860474,2|0,1:2|1:0,0:0:0:0:
52,363,116296,1,10,0:0:0:0:
101,280,116463,2,0,B|68:317|20:341|20:341|58:348,1,126.500003860474,2|0,0:0|1:0,0:0:0:0:
24,102,116796,5,2,1:2:0:0:
77,27,116963,1,8,0:0:0:0:
167,13,117130,1,2,0:0:0:0:
433,205,117296,5,8,0:0:0:0:
473,187,117380,1,8,0:0:0:0:
483,174,117463,1,2,1:2:0:0:
181,36,117630,1,10,0:0:0:0:
91,50,117797,1,0,1:0:0:0:
375,56,117963,6,0,B|400:21|462:15|462:15|506:3|506:3|511:61|445:88,1,253.000007720947,6|8,1:2|0:0,0:0:0:0:
445,103,118463,1,0,0:0:0:0:
256,334,118630,6,0,P|328:364|502:386,1,253.000007720947,2|8,1:2|0:0,0:0:0:0:
512,373,119129,1,0,0:0:0:0:
244,243,119296,6,0,B|190:229|136:261|136:261|31:292|31:292|47:323,1,253.000007720947,2|8,1:2|0:0,0:0:0:0:
42,337,119796,1,0,0:0:0:0:
199,47,119963,6,0,B|266:82|266:82|284:122|284:122|317:148|342:185|342:185|384:206,1,253.000007720947,2|8,1:2|0:0,0:0:0:0:
206,31,120463,1,2,0:0:0:0:
50,188,120630,5,2,1:2:0:0:
0,265,120796,2,0,B|43:241|43:241|75:214|82:174,1,126.500003860474,2|8,0:0|0:0,0:0:0:0:
263,285,121130,1,2,0:0:0:0:
263,376,121296,2,0,B|285:332|285:332|298:292|282:255,1,126.500003860474,2|0,1:2|1:0,0:0:0:0:
456,136,121630,1,10,0:0:0:0:
505,212,121796,2,0,B|500:162|500:162|488:122|455:100,1,126.500003860474,2|0,0:0|1:0,0:0:0:0:
236,178,122130,5,2,1:2:0:0:
271,94,122296,1,8,0:0:0:0:
287,4,122463,1,2,0:0:0:0:
341,333,122630,5,8,0:0:0:0:
372,365,122714,1,8,0:0:0:0:
386,372,122797,1,2,1:2:0:0:
188,384,122963,5,10,0:0:0:0:
175,342,123046,1,8,0:0:0:0:
152,304,123129,1,8,0:0:0:0:
119,274,123213,1,8,0:0:0:0:
130,263,123296,5,4,1:2:0:0:
212,232,123463,1,0,0:0:0:0:
174,69,123630,2,0,L|54:31,1,103.499996841431,10|0,0:0|0:0,0:0:0:0:
81,18,123963,1,2,1:2:0:0:
223,145,124130,2,0,L|343:107,1,103.499996841431,2|8,1:2|0:0,0:0:0:0:
34,130,124463,6,0,P|10:246|53:363,1,206.999993682861,2|2,0:0|1:2,0:0:0:0:
108,283,124963,1,10,0:0:0:0:
122,370,125130,2,0,P|171:348|194:291,2,103.499996841431,0|0|0,0:0|1:0|1:0,0:0:0:0:
278,363,125630,2,0,P|293:288|315:205,1,155.249995262146,10|0,0:0|0:0,0:0:0:0:
312,211,125963,6,0,B|341:247|341:247|325:301,1,103.499996841431,2|0,1:2|0:0,0:0:0:0:
490,156,126296,1,8,0:0:0:0:
458,74,126463,2,0,B|431:24|431:24|385:19,1,103.499996841431,2|0,0:0|1:0,0:0:0:0:
431,237,126796,1,2,1:2:0:0:
503,288,126963,2,0,B|474:324|474:324|490:378,1,103.499996841431,8|0,0:0|0:0,0:0:0:0:
468,163,127296,6,0,B|372:134|372:134|369:131|369:131|340:122|340:122|330:113|330:113|298:109|270:94,1,206.999993682861,0|8,1:0|0:0,0:0:0:0:
245,13,127796,1,0,0:0:0:0:
80,119,127963,5,8,0:0:0:0:
57,80,128047,1,8,0:0:0:0:
58,64,128130,1,0,1:0:0:0:
233,17,128296,1,8,0:0:0:0:
262,100,128463,1,0,1:0:0:0:
376,285,128630,5,4,1:2:0:0:
455,322,128796,1,0,0:0:0:0:
291,271,128963,2,0,P|251:225|243:177,1,103.499996841431,10|0,0:0|0:0,0:0:0:0:
327,160,129296,1,2,1:2:0:0:
227,181,129463,2,0,P|207:222|158:254,1,103.499996841431,2|8,1:2|0:0,0:0:0:0:
6,6,129796,6,0,P|13:56|34:124,1,103.499996841431,2|0,0:0|1:0,0:0:0:0:
0,191,130130,1,2,1:2:0:0:
138,37,130296,2,0,P|123:86|116:137,1,103.499996841431,10|0,0:0|0:0,0:0:0:0:
76,341,130630,1,0,1:0:0:0:
18,275,130796,1,0,1:0:0:0:
161,366,130963,1,10,0:0:0:0:
387,210,131130,6,0,B|509:255|509:255|413:299|413:299|394:289|372:283,1,275.999991577149,6|2,1:2|1:2,0:0:0:0:
224,11,131630,1,10,0:0:0:0:
310,29,131796,6,0,P|297:122|238:266,1,230,6|2,0:0|1:2,0:0:0:0:
483,130,132296,1,10,0:0:0:0:
295,330,132463,6,0,B|246:365|246:365|106:313|106:313|72:321|72:321|84:331|93:344,1,275.999991577149,6|0,1:2|1:0,0:0:0:0:
195,142,132963,5,8,0:0:0:0:
0,13,133130,1,0,1:0:0:0:
53,81,133296,5,10,0:0:0:0:
24,313,133463,1,0,1:0:0:0:
106,284,133630,5,10,0:0:0:0:
281,115,133796,1,0,1:0:0:0:
279,100,133880,1,0,1:0:0:0:
272,87,133963,6,0,P|388:27|505:5,1,230,6|8,1:2|0:0,0:0:0:0:
504,87,134463,1,2,0:0:0:0:
393,237,134630,1,2,1:2:0:0:
313,257,134796,2,0,P|331:313|369:369,1,115,2|8,1:2|0:0,0:0:0:0:
444,367,135130,2,0,B|482:325|482:325|495:354|489:383,1,115,2|0,0:0|1:0,0:0:0:0:
463,188,135463,6,0,P|450:176|474:183,2,68.9999978942872,0|8|0,1:0|0:0|0:0,0:0:0:0:
370,148,135963,6,0,P|325:169|270:182,1,92,2|0,1:2|1:0,0:0:0:0:
118,251,136296,6,0,P|162:225|200:190,1,103.499996841431,10|0,0:0|0:0,0:0:0:0:
67,361,136630,6,0,B|32:333|33:281|33:281|27:268|27:268|57:132,1,230,2|8,1:2|0:0,0:0:0:0:
233,8,137130,1,2,0:0:0:0:
153,28,137296,1,2,1:2:0:0:
73,11,137463,2,0,B|41:10|17:26|17:26|41:41|57:65,1,115,2|8,1:2|0:0,0:0:0:0:
243,189,137796,2,0,P|263:243|278:304,1,115,2|0,0:0|1:0,0:0:0:0:
253,378,138129,1,2,1:2:0:0:
290,303,138296,2,0,P|310:249|325:188,1,115,10|0,0:0|0:0,0:0:0:0:
77,57,138630,6,0,L|42:42,2,28.75,10|8|8,0:0|0:0|0:0,0:0:0:0:
268,16,138880,5,8,0:0:0:0:
287,35,138963,1,10,0:0:0:0:
478,79,139130,5,8,0:0:0:0:
488,103,139213,1,8,0:0:0:0:
503,127,139296,6,0,B|487:195|487:195|460:234|408:217|408:217|404:222|404:222|368:214|339:193,1,230,6|8,1:2|0:0,0:0:0:0:
285,139,139796,1,2,0:0:0:0:
360,320,139963,1,2,1:2:0:0:
418,380,140130,2,0,P|469:357|509:311,1,115,2|8,1:2|0:0,0:0:0:0:
264,357,140463,1,2,0:0:0:0:
186,384,140630,6,0,B|156:286|156:286|178:203|178:203|163:217|145:228,1,230,0|8,1:0|0:0,0:0:0:0:
75,272,141130,1,2,0:0:0:0:
153,95,141296,1,2,1:2:0:0:
89,34,141463,2,0,P|64:85|50:154,1,115,2|8,1:2|0:0,0:0:0:0:
35,148,141796,1,2,0:0:0:0:
208,2,141963,6,0,P|326:29|355:143,1,230,2|8,1:2|0:0,0:0:0:0:
507,313,142463,6,0,P|466:325|467:373,1,68.9999978942872,2|0,0:0|1:0,0:0:0:0:
449,236,142796,2,0,P|408:248|409:296,1,68.9999978942872,2|8,1:2|0:0,0:0:0:0:
341,384,143130,2,0,P|323:307|300:253,1,137.999995788574,2|2,0:0|0:0,0:0:0:0:
506,0,143630,6,0,P|473:42|421:91,1,115,12|2,0:0|0:0,0:0:0:0:
249,152,143963,1,10,0:0:0:0:
220,143,144046,1,8,0:0:0:0:
193,133,144129,1,8,0:0:0:0:
169,119,144213,1,8,0:0:0:0:
159,145,144296,1,10,0:0:0:0:
188,154,144379,1,8,0:0:0:0:
215,164,144462,1,8,0:0:0:0:
239,178,144546,1,8,0:0:0:0:
249,152,144630,6,0,B|117:90|117:90|68:90|38:124,1,230,6|8,1:2|0:0,0:0:0:0:
0,49,145130,1,2,0:0:0:0:
31,240,145296,1,2,1:2:0:0:
110,216,145463,2,0,P|169:242|194:303,1,115,2|8,1:2|0:0,0:0:0:0:
235,356,145796,2,0,B|292:306|292:306|316:337,1,115,2|0,0:0|1:0,0:0:0:0:
92,299,146130,6,0,P|105:311|81:304,2,68.9999978942872,0|8|0,1:0|0:0|0:0,0:0:0:0:
15,248,146630,6,0,P|29:193|25:135,1,92,2|0,1:2|1:0,0:0:0:0:
79,13,146963,6,0,P|88:74|105:119,1,103.499996841431,10|0,0:0|0:0,0:0:0:0:
268,29,147296,6,0,B|253:36|253:36|236:39|236:39|224:49|224:49|39:140,1,230,2|8,1:2|0:0,0:0:0:0:
260,231,147796,1,2,0:0:0:0:
342,241,147963,1,2,1:2:0:0:
419,272,148130,2,0,P|402:335|366:399,1,115,2|8,1:2|0:0,0:0:0:0:
512,174,148463,2,0,P|461:141|421:84,1,115,2|0,0:0|1:0,0:0:0:0:
484,37,148796,1,2,1:2:0:0:
415,94,148963,2,0,P|366:63|331:18,1,115,10|0,0:0|0:0,0:0:0:0:
183,256,149296,6,0,L|197:293,2,28.75,10|8|8,0:0|0:0|0:0,0:0:0:0:
266,78,149546,5,8,0:0:0:0:
239,74,149630,1,10,0:0:0:0:
56,8,149796,5,8,0:0:0:0:
40,30,149880,1,8,0:0:0:0:
19,49,149963,6,0,B|2:102|2:102|38:143|38:143|38:146|38:146|74:183|74:183|79:216|79:216|101:241,1,230,6|8,1:2|0:0,0:0:0:0:
119,321,150463,1,2,0:0:0:0:
299,384,150630,1,2,1:2:0:0:
275,305,150796,2,0,P|296:242|309:176,1,115,2|8,1:2|0:0,0:0:0:0:
485,355,151130,1,2,0:0:0:0:
506,275,151296,6,0,P|479:170|361:145,1,230,0|8,1:0|0:0,0:0:0:0:
359,129,151796,1,2,0:0:0:0:
143,9,151963,2,0,B|201:64|201:64|204:48|214:30,1,115,2|0,1:2|1:0,0:0:0:0:
50,217,152296,2,0,P|0:254|21:306,1,115,10|0,0:0|0:0,0:0:0:0:
247,137,152630,6,0,B|263:267|263:267|266:270|266:270|278:372,2,230,2|8|0,1:2|0:0|1:0,0:0:0:0:
167,160,153463,1,0,1:0:0:0:
140,238,153630,1,8,0:0:0:0:
169,304,153741,6,0,P|201:316|242:318,1,76.6666666666667,2|2,0:0|0:0,0:0:0:0:
311,344,153963,6,0,P|366:323|427:280,1,115,2|0,1:2|0:0,0:0:0:0:
143,9,154296,6,0,P|256:17|359:67,1,206.999993682861,12|0,0:0|0:0,0:0:0:0:
340,54,154630,1,8,0:0:0:0:
412,6,154796,1,4,3:0:0:0:
426,16,154880,1,8,3:0:0:0:
435,30,154963,1,0,1:0:0:0:
105,88,155129,6,0,B|53:96|25:149|51:202|51:202|68:209|68:209|30:287|30:287|22:270|6:252,1,287.5,6|0,1:2|0:0,0:0:0:0:
257,108,155629,2,0,B|317:138|317:138|305:161|299:185|299:185|285:153,1,143.75,10|0,0:0|0:0,0:0:0:0:
503,335,155963,2,0,B|442:358|442:358|436:355|436:355|369:381,1,143.75,2|0,1:2|1:0,0:0:0:0:
483,257,156297,1,10,0:0:0:0:
411,220,156463,1,2,0:0:0:0:
197,164,156629,5,2,1:2:0:0:
173,384,156796,2,0,L|163:241,1,143.75,2|8,1:2|0:0,0:0:0:0:
273,132,157129,1,2,0:0:0:0:
190,152,157296,1,2,1:2:0:0:
55,186,157463,6,0,P|64:219|82:187,1,68.9999978942872,0|8,1:0|0:0,0:0:0:0:
399,142,157796,6,0,B|487:132|512:54|512:54|488:6|436:16|436:16|430:38|416:52,1,287.5,2|2,0:0|0:0,0:0:0:0:
339,82,158297,1,10,0:0:0:0:
258,347,158463,1,2,0:0:0:0:
177,150,158630,1,2,1:2:0:0:
91,83,158797,1,0,1:0:0:0:
261,0,158963,1,10,0:0:0:0:
182,23,159130,1,0,0:0:0:0:
21,204,159297,5,2,1:2:0:0:
213,305,159463,2,0,L|74:268,1,143.75,2|8,1:2|0:0,0:0:0:0:
21,125,159797,1,2,0:0:0:0:
230,384,159963,5,10,0:0:0:0:
271,370,160047,1,8,0:0:0:0:
277,361,160130,1,0,1:0:0:0:
47,116,160296,1,8,0:0:0:0:
47,195,160463,1,0,1:0:0:0:
331,47,160630,6,0,P|377:155|473:216,1,215.625,6|0,1:2|0:0,0:0:0:0:
447,218,160963,2,0,P|459:170|502:149,1,86.2500032901765,10|0,0:0|0:0,0:0:0:0:
246,381,161296,2,0,P|313:348|303:252,1,143.75,2|0,1:2|1:0,0:0:0:0:
278,159,161630,1,10,0:0:0:0:
163,204,161796,1,2,0:0:0:0:
57,38,161963,5,2,1:2:0:0:
256,237,162130,1,0,1:0:0:0:
356,307,162296,1,10,0:0:0:0:
391,382,162463,1,0,0:0:0:0:
367,299,162630,1,2,1:2:0:0:
472,376,162796,6,0,P|503:362|469:349,1,68.9999978942872,0|8,1:0|0:0,0:0:0:0:
184,360,163130,6,0,B|141:336|92:331|92:331|50:288|50:288|9:325|1:374|1:374|35:385,1,287.5,2|2,0:0|0:0,0:0:0:0:
3,295,163630,1,10,0:0:0:0:
148,22,163797,1,2,0:0:0:0:
188,165,163963,2,0,B|166:158|166:158|99:90|99:90|85:113,1,143.75,2|0,1:2|1:0,0:0:0:0:
249,107,164297,1,10,0:0:0:0:
330,86,164463,1,0,0:0:0:0:
72,92,164630,6,0,B|94:99|94:99|161:167|161:167|175:144,1,143.75,2|0,1:2|0:0,0:0:0:0:
506,282,164963,6,0,P|410:324|298:398,1,215.625,12|0,0:0|0:0,0:0:0:0:
299,379,165296,1,8,0:0:0:0:
237,280,165463,1,4,3:0:0:0:
229,296,165546,1,8,3:0:0:0:
226,314,165630,1,0,1:0:0:0:
440,6,165796,6,0,B|441:54|461:100|461:100|454:110|454:110|468:171|468:171|506:231|506:231|480:233|461:243,1,287.5,6|0,1:2|0:0,0:0:0:0:
427,123,166296,2,0,L|495:92,1,68.9999978942872,10|0,0:0|0:0,0:0:0:0:
198,40,166630,2,0,P|128:35|61:4,1,143.75,2|0,1:2|1:0,0:0:0:0:
22,158,166963,1,10,0:0:0:0:
90,111,167130,1,2,0:0:0:0:
300,44,167296,5,2,1:2:0:0:
322,264,167463,2,0,L|332:121,1,143.75,2|8,1:2|0:0,0:0:0:0:
371,2,167796,1,2,0:0:0:0:
287,38,167962,1,2,1:2:0:0:
232,152,168130,6,0,P|225:118|255:138,1,68.9999978942872,0|8,1:0|0:0,0:0:0:0:
60,355,168463,6,0,B|122:311|112:224|44:212|44:212|11:198|11:198|0:229|0:229|30:240,1,287.5,2|2,0:0|0:0,0:0:0:0:
123,238,168963,1,10,0:0:0:0:
369,383,169130,1,2,0:0:0:0:
490,211,169296,1,2,1:2:0:0:
466,313,169462,1,0,1:0:0:0:
281,337,169629,1,10,0:0:0:0:
214,384,169796,1,0,0:0:0:0:
350,157,169962,5,2,1:2:0:0:
280,113,170129,1,0,1:0:0:0:
83,99,170296,1,10,0:0:0:0:
98,123,170462,1,0,0:0:0:0:
193,380,170630,5,10,0:0:0:0:
180,338,170714,1,8,0:0:0:0:
184,328,170797,1,0,1:0:0:0:
290,91,170963,1,8,0:0:0:0:
360,135,171130,1,0,1:0:0:0:
511,383,171296,6,0,P|420:359|350:240,1,215.625,6|0,1:2|0:0,0:0:0:0:
349,253,171630,2,0,P|331:294|382:301,1,86.2500032901765,10|0,0:0|0:0,0:0:0:0:
170,81,171963,2,0,P|114:47|36:19,1,143.75,2|0,1:2|1:0,0:0:0:0:
67,143,172296,1,10,0:0:0:0:
0,94,172462,1,2,0:0:0:0:
111,289,172629,5,2,1:2:0:0:
366,172,172796,1,0,1:0:0:0:
365,51,172962,1,10,0:0:0:0:
421,113,173129,1,0,0:0:0:0:
356,61,173296,1,2,1:2:0:0:
494,74,173463,6,0,P|501:40|471:60,1,68.9999978942872,0|8,1:0|0:0,0:0:0:0:
213,224,173796,6,0,B|226:265|251:299|251:299|256:341|238:383|238:383|281:349|281:349|286:352|286:352|303:329|302:298,1,287.5,2|0,0:0|0:0,0:0:0:0:
299,217,174296,1,10,0:0:0:0:
32,375,174463,1,2,0:0:0:0:
94,175,174630,2,0,B|85:213|85:213|96:274|96:274|88:316,1,143.75,2|0,1:2|1:0,0:0:0:0:
173,150,174963,1,10,0:0:0:0:
189,69,175130,1,2,0:0:0:0:
94,292,175296,6,0,B|85:250|85:250|96:189|96:189|88:150,1,143.75,2|0,1:2|0:0,0:0:0:0:
438,13,175630,6,0,P|463:115|511:231,1,215.625,12|0,0:0|0:0,0:0:0:0:
496,234,175963,1,8,0:0:0:0:
512,149,176130,1,0,1:0:0:0:
343,229,176296,2,0,B|368:212|368:212|371:206|371:206|403:194,1,71.875,8|0,0:0|0:0,0:0:0:0:
478,340,176463,1,0,1:0:0:0:
473,323,176546,1,0,1:0:0:0:
462,309,176629,6,0,B|422:365|324:373|324:373|202:381|202:381|175:332|113:343|113:343|109:357|100:370,1,413.999987365723,6|0,1:2|1:0,0:0:0:0:
55,292,177796,2,0,P|38:281|52:269,1,34.4999989471436,2|0,0:0|0:0,0:0:0:0:
158,130,177963,6,0,B|141:61|68:29|68:29|110:10|110:10|168:21|193:78|193:78|218:142|218:142|194:146|172:159,1,413.999987365723,2|0,1:2|1:0,0:0:0:0:
252,212,179130,2,0,P|238:226|228:210,1,34.4999989471436,2|0,0:0|0:0,0:0:0:0:
436,168,179296,6,0,B|446:124|486:105|486:105|491:107|491:107|481:16|481:16|385:19|353:103,1,344.999989471436,2|0,1:2|0:0,0:0:0:0:
370,238,180296,2,0,B|349:220|349:193|349:193|378:205|386:232,1,103.499996841431,2|0,1:2|0:0,0:0:0:0:
388,254,180630,6,0,P|453:287|490:374,1,160.99999508667,2|0,1:2|1:0,0:0:0:0:
416,384,181130,2,0,P|411:371|405:339,1,34.4999989471436,2|0,0:0|0:0,0:0:0:0:
255,285,181296,2,0,P|215:237|129:204,1,138,2|0,1:2|0:0,0:0:0:0:
127,204,181630,5,8,3:0:0:0:
68,343,181796,1,4,3:0:0:0:
234,124,181963,6,0,B|245:108|250:83|250:83|307:114|324:185|324:185|345:275|345:275|379:248|425:259|425:259|486:275,1,413.999987365723,6|0,1:2|1:0,0:0:0:0:
505,178,183130,2,0,P|508:193|492:198,1,34.4999989471436,2|0,0:0|0:0,0:0:0:0:
375,66,183296,6,0,B|354:134|354:134|327:215|219:235|219:235|207:278|236:319|236:319|242:315|242:315|262:345|300:359,1,413.999987365723,2|0,1:2|1:0,0:0:0:0:
188,384,184463,2,0,P|174:370|164:386,1,34.4999989471436,2|0,0:0|0:0,0:0:0:0:
34,244,184630,6,0,B|18:237|18:237|52:145|52:145|51:141|51:141|97:16|97:16|79:8|79:8|6:41,1,344.999989471436,2|0,1:2|0:0,0:0:0:0:
144,134,185630,2,0,B|165:152|165:179|165:179|136:167|128:140,1,103.499996841431,2|0,1:2|0:0,0:0:0:0:
138,123,185963,6,0,P|169:67|266:29,1,160.99999508667,2|0,1:2|1:0,0:0:0:0:
330,12,186463,2,0,P|351:10|368:4,1,34.4999989471436,2|0,0:0|0:0,0:0:0:0:
410,132,186630,5,2,1:2:0:0:
342,112,186796,1,0,1:0:0:0:
295,357,186963,1,8,0:0:0:0:
509,3,187296,6,0,P|497:101|479:187,1,172.5,6|0,1:2|0:0,0:0:0:0:
465,241,187630,1,8,0:0:0:0:
202,274,187796,2,0,B|180:278|157:289|157:289|222:232|222:232|265:248|265:248|270:256|270:256|306:281,1,230,6|2,1:2|1:2,0:0:0:0:
501,379,188296,1,8,0:0:0:0:
449,317,188463,1,2,1:2:0:0:
365,147,188630,5,4,1:2:0:0:
387,233,188796,1,8,3:0:0:0:
387,233,188880,1,8,3:0:0:0:
387,233,188963,1,4,3:0:0:0:
258,18,189130,2,0,P|171:38|173:168,1,230,6|0,1:2|1:0,0:0:0:0:
323,375,189630,2,0,P|321:314|306:260,1,115,10|0,0:0|1:0,0:0:0:0:
381,10,189963,5,10,0:0:0:0:
114,117,190130,1,2,1:2:0:0:
352,77,190296,5,8,0:0:0:0:
79,194,190463,1,2,1:2:0:0:
325,144,190630,5,10,0:0:0:0:
45,270,190797,1,2,1:2:0:0:
298,211,190963,5,8,0:0:0:0:
11,346,191130,1,2,1:2:0:0:
127,263,191296,6,0,B|178:286|178:286|143:314|143:314|130:277,2,137.999995788574,2|2|2,0:0|0:0|0:0,0:0:0:0:
166,244,192130,5,0,1:0:0:0:
196,88,192296,1,10,0:0:0:0:
56,11,192463,1,8,0:0:0:0:
14,273,192630,6,0,B|24:330|72:353|72:353|77:359|77:359|120:356|149:383,1,189.750005790711,6|0,1:2|0:0,0:0:0:0:
149,383,192963,2,0,B|214:369|214:369|202:385,2,84.3333359069825,10|2|2,0:0|0:0|0:0,0:0:0:0:
349,380,193296,1,2,1:2:0:0:
436,353,193463,1,2,1:2:0:0:
502,290,193630,6,0,B|464:331|409:302|409:302|398:241|398:241|391:231|391:231|392:218,1,189.750005790711,10|0,0:0|0:0,0:0:0:0:
392,217,193963,2,0,B|416:185|416:185|416:163|425:142,2,84.3333359069825,2|2|2,1:2|0:0|0:0,0:0:0:0:
310,35,194296,1,10,0:0:0:0:
401,27,194463,1,2,0:0:0:0:
483,68,194630,5,2,1:2:0:0:
388,45,194796,2,0,P|352:46|313:54,1,63.2500019302369,0|0,1:0|0:0,0:0:0:0:
255,225,194963,2,0,P|190:167|91:126,1,189.750005790711,10|0,0:0|0:0,0:0:0:0:
27,117,195296,6,0,B|14:88|14:88|42:73,2,63.2500019302369,2|0|0,1:2|0:0|0:0,0:0:0:0:
370,322,195630,2,0,B|400:315|400:315|395:284,2,63.2500019302369,10|0|0,0:0|0:0|0:0,0:0:0:0:
18,126,195963,2,0,B|5:97|5:97|33:82,2,63.2500019302369,2|0|0,1:2|0:0|1:0,0:0:0:0:
361,331,196297,2,0,B|391:324|391:324|386:293,2,63.2500019302369,10|0|0,0:0|0:0|0:0,0:0:0:0:
465,250,196630,5,2,1:2:0:0:
349,186,196796,5,2,1:2:0:0:
179,204,196963,5,10,0:0:0:0:
29,350,197130,5,2,0:0:0:0:
241,110,197296,5,10,0:0:0:0:
202,86,197380,1,8,0:0:0:0:
187,87,197463,1,0,1:0:0:0:
438,256,197630,1,8,0:0:0:0:
358,212,197796,1,0,1:0:0:0:
510,3,197963,6,0,B|497:21|473:24|473:24|397:66|397:66|409:94|409:94|438:99,1,189.750005790711,6|0,1:2|0:0,0:0:0:0:
492,144,198296,1,10,0:0:0:0:
506,160,198380,1,0,3:0:0:0:
511,190,198463,1,0,3:0:0:0:
491,224,198546,1,0,3:0:0:0:
468,257,198630,1,2,1:2:0:0:
459,286,198713,1,0,3:0:0:0:
464,306,198796,2,0,L|479:387,1,63.2500019302369,0|0,1:0|3:0,0:0:0:0:
252,383,198963,5,10,0:0:0:0:
220,336,199046,1,0,3:0:0:0:
170,326,199130,1,0,3:0:0:0:
130,344,199213,1,0,3:0:0:0:
89,362,199296,5,2,1:2:0:0:
107,372,199380,1,0,3:0:0:0:
127,376,199463,1,0,1:0:0:0:
147,376,199546,1,0,3:0:0:0:
166,369,199630,1,10,0:0:0:0:
197,338,199713,1,0,3:0:0:0:
231,323,199796,1,0,3:0:0:0:
262,321,199880,1,0,3:0:0:0:
292,327,199963,5,2,1:2:0:0:
306,312,200046,1,0,3:0:0:0:
318,283,200130,2,0,P|285:284|249:273,1,63.2500019302369,0|0,1:0|3:0,0:0:0:0:
23,184,200296,5,10,0:0:0:0:
79,174,200380,1,0,3:0:0:0:
126,156,200463,2,0,P|111:187|98:227,1,63.2500019302369,0|0,3:0|3:0,0:0:0:0:
180,0,200630,6,0,B|189:97|251:182|251:182|323:185|352:125|352:125|331:87|331:87|293:111|293:111|244:44|304:-19|384:-2|394:50|412:82|412:82|453:157|453:157|397:169|384:221,1,827.999974731446,2|8,1:2|0:0,0:0:0:0:
128,245,201796,5,2,0:0:0:0:
15,88,201963,1,2,1:2:0:0:
103,64,202130,1,0,1:0:0:0:
135,268,202296,1,10,0:0:0:0:
47,292,202463,1,2,0:0:0:0:
353,146,202630,5,10,0:0:0:0:
365,190,202714,1,8,0:0:0:0:
360,204,202797,1,0,1:0:0:0:
103,88,202963,1,10,0:0:0:0:
15,64,203130,1,0,1:0:0:0:
141,293,203296,5,6,1:2:0:0:
249,210,203463,1,2,0:0:0:0:
323,323,203630,1,10,0:0:0:0:
512,365,203796,2,0,P|448:368|418:302,1,126.500003860474,2|0,0:0|1:0,0:0:0:0:
441,74,204130,2,0,B|472:87|472:87|489:70|511:67|511:67|504:48|504:48|489:46|475:60,1,126.500003860474,2|8,1:2|0:0,0:0:0:0:
391,0,204463,1,2,0:0:0:0:
201,132,204630,5,2,1:2:0:0:
183,43,204796,1,0,1:0:0:0:
270,14,204963,1,8,0:0:0:0:
411,229,205130,1,0,0:0:0:0:
497,258,205296,1,2,1:2:0:0:
392,217,205463,2,0,P|405:183|447:159,1,63.2500019302369,0|0,1:0|0:0,0:0:0:0:
263,254,205630,2,0,P|220:318|96:373,1,189.750005790711,10|0,0:0|0:0,0:0:0:0:
52,361,205963,6,0,B|8:293|81:239|81:239|101:201|101:201|64:199|36:183,1,253.000007720947,2|8,1:2|0:0,0:0:0:0:
5,97,206463,1,2,0:0:0:0:
199,189,206630,1,2,1:2:0:0:
195,185,206797,1,2,1:2:0:0:
191,188,206964,1,8,0:0:0:0:
426,0,207130,6,0,B|433:59|433:59|430:67|430:67|438:137,1,137.999995788574,2|0,0:0|1:0,0:0:0:0:
450,149,207463,1,0,1:0:0:0:
484,375,207630,2,0,B|491:316|491:316|488:308|488:308|496:238,1,137.999995788574,10|0,0:0|0:0,0:0:0:0:
140,332,207963,5,8,0:0:0:0:
179,356,208047,1,8,0:0:0:0:
194,355,208130,1,2,1:2:0:0:
426,156,208296,1,8,0:0:0:0:
471,245,208463,1,0,1:0:0:0:
260,27,208630,6,0,B|147:73|147:73|138:71|138:71|4:125,1,275.999991577149,6|8,1:2|0:0,0:0:0:0:
365,51,209130,2,0,B|277:135|277:135|268:137|268:137|164:237,1,275.999991577149,2|0,0:0|1:0,0:0:0:0:
472,33,209630,2,0,B|422:144|422:144|414:149|414:149|355:281,1,275.999991577149,10|0,0:0|1:0,0:0:0:0:
338,286,210130,1,0,1:0:0:0:
88,270,210296,5,10,0:0:0:0:
68,262,210380,1,0,3:0:0:0:
52,247,210463,1,0,3:0:0:0:
42,228,210546,1,0,3:0:0:0:
39,207,210630,1,2,1:2:0:0:
70,192,210713,1,0,3:0:0:0:
99,163,210796,1,0,1:0:0:0:
122,121,210880,1,0,3:0:0:0:
129,101,210963,2,0,P|61:93|23:22,1,126.500003860474,10|0,0:0|3:0,0:0:0:0:
85,8,211213,1,0,3:0:0:0:
85,8,211296,5,2,1:2:0:0:
116,11,211380,1,0,3:0:0:0:
147,14,211463,1,0,3:0:0:0:
178,17,211546,1,0,3:0:0:0:
209,20,211630,2,0,P|251:85|280:147,1,126.500003860474,10|0,0:0|3:0,0:0:0:0:
345,152,211880,1,0,3:0:0:0:
345,152,211963,5,2,1:2:0:0:
360,107,212046,1,0,3:0:0:0:
385,78,212130,1,0,1:0:0:0:
409,63,212213,1,0,3:0:0:0:
429,57,212296,2,0,L|507:32,1,63.2500019302369,10|0,0:0|3:0,0:0:0:0:
510,259,212463,6,0,B|475:313|475:313|438:334|406:367|406:367|398:366|398:366|352:388|293:382,1,253.000007720947,2|2,0:0|0:0,0:0:0:0:
19,174,212963,6,0,P|88:222|164:344,1,206.999993682861,14|0,0:0|0:0,0:0:0:0:
156,322,213296,1,10,0:0:0:0:
91,381,213463,1,4,3:0:0:0:
76,371,213546,1,8,3:0:0:0:
66,356,213630,1,2,1:2:0:0:
373,227,213796,6,0,B|328:157|328:157|322:157|322:157|285:124|232:116|232:116|208:121|181:117|181:117|166:143|194:162,1,287.5,6|0,1:2|0:0,0:0:0:0:
469,158,214296,2,0,B|475:118|500:96|500:96|470:77|470:77|482:60|506:65,1,143.75,10|0,0:0|0:0,0:0:0:0:
224,0,214630,2,0,P|150:6|66:41,1,143.75,2|0,1:2|1:0,0:0:0:0:
16,170,214963,1,10,0:0:0:0:
28,89,215130,1,2,0:0:0:0:
196,234,215296,5,2,1:2:0:0:
396,327,215463,2,0,L|257:290,1,143.75,2|8,1:2|0:0,0:0:0:0:
121,201,215796,1,2,0:0:0:0:
204,221,215963,1,2,1:2:0:0:
386,215,216130,6,0,P|352:206|371:237,1,68.9999978942872,0|8,1:0|0:0,0:0:0:0:
32,283,216463,6,0,B|41:293|39:306|39:306|90:388|196:350|196:350|230:381|281:379,1,287.5,2|2,0:0|0:0,0:0:0:0:
190,384,216963,1,10,0:0:0:0:
453,267,217130,1,2,0:0:0:0:
492,58,217296,1,2,1:2:0:0:
512,161,217463,1,0,1:0:0:0:
350,67,217630,1,10,0:0:0:0:
298,4,217796,1,0,0:0:0:0:
114,214,217963,5,2,1:2:0:0:
41,6,218130,2,0,L|65:147,1,143.75,2|8,1:2|0:0,0:0:0:0:
149,289,218463,1,2,0:0:0:0:
420,128,218630,5,10,0:0:0:0:
379,142,218714,1,8,0:0:0:0:
373,151,218797,1,0,1:0:0:0:
173,281,218963,1,8,0:0:0:0:
138,206,219130,1,0,1:0:0:0:
439,375,219296,6,0,P|491:319|469:171,1,215.625,6|0,1:2|0:0,0:0:0:0:
498,180,219630,2,0,P|463:230|461:283,1,86.2500032901765,10|0,0:0|0:0,0:0:0:0:
187,140,219963,2,0,B|174:159|174:159|82:181|82:181|59:169,1,143.75,2|0,1:2|1:0,0:0:0:0:
7,36,220296,1,10,0:0:0:0:
72,87,220463,1,2,0:0:0:0:
277,10,220630,6,0,P|322:49|338:146,1,143.75,2|0,1:2|1:0,0:0:0:0:
211,354,220963,2,0,P|288:376|335:310,1,143.75,10|0,0:0|0:0,0:0:0:0:
349,255,221296,1,2,1:2:0:0:
259,215,221463,6,0,P|261:184|289:194,1,68.9999978942872,0|8,1:0|0:0,0:0:0:0:
499,13,221796,6,0,B|469:57|446:121|446:121|366:21|366:21|383:8|405:9,1,287.5,2|2,0:0|0:0,0:0:0:0:
394,102,222296,1,10,0:0:0:0:
149,289,222463,1,2,0:0:0:0:
66,90,222630,2,0,B|64:124|76:156|76:156|73:196|93:229,1,143.75,2|0,1:2|1:0,0:0:0:0:
208,59,222963,1,10,0:0:0:0:
135,21,223130,1,0,0:0:0:0:
72,228,223296,6,0,B|88:193|82:154|82:154|91:121|87:86,1,143.75,2|0,1:2|0:0,0:0:0:0:
355,369,223630,6,0,P|299:297|255:171,1,215.625,12|0,0:0|0:0,0:0:0:0:
254,163,223963,1,8,0:0:0:0:
292,53,224130,1,4,3:0:0:0:
300,68,224213,1,8,3:0:0:0:
312,81,224296,1,0,1:0:0:0:
14,285,224463,6,0,B|13:300|19:315|19:315|156:380|156:380|165:345|181:312|181:312|143:329,1,287.5,6|0,1:2|0:0,0:0:0:0:
38,277,224963,2,0,L|11:343,1,68.9999978942872,10|0,0:0|0:0,0:0:0:0:
293,238,225296,2,0,P|363:204|453:198,1,143.75,2|0,1:2|1:0,0:0:0:0:
466,335,225630,1,10,0:0:0:0:
484,256,225796,1,2,0:0:0:0:
266,320,225963,5,2,1:2:0:0:
92,185,226130,2,0,L|188:291,1,143.75,2|8,1:2|0:0,0:0:0:0:
322,381,226463,1,2,0:0:0:0:
258,333,226630,1,2,1:2:0:0:
220,201,226796,6,0,P|214:167|244:187,1,68.9999978942872,0|8,1:0|0:0,0:0:0:0:
509,15,227130,6,0,B|467:24|467:24|464:29|464:29|417:41|417:41|366:1|291:2|291:2|323:11|344:34,1,287.5,2|2,0:0|0:0,0:0:0:0:
367,108,227630,1,10,0:0:0:0:
95,166,227796,1,2,0:0:0:0:
160,369,227963,1,2,1:2:0:0:
62,330,228130,1,0,1:0:0:0:
13,151,228296,1,10,0:0:0:0:
67,89,228463,1,0,0:0:0:0:
319,174,228630,5,2,1:2:0:0:
285,100,228796,1,0,1:0:0:0:
106,17,228963,1,10,0:0:0:0:
79,9,229130,1,0,0:0:0:0:
10,262,229296,5,10,0:0:0:0:
51,248,229380,1,8,0:0:0:0:
57,239,229463,1,0,1:0:0:0:
261,110,229630,1,8,0:0:0:0:
295,184,229796,1,0,1:0:0:0:
20,70,229963,6,0,P|90:124|143:253,1,215.625,6|0,1:2|0:0,0:0:0:0:
152,251,230296,2,0,P|188:244|153:225,1,86.2500032901765,10|0,0:0|0:0,0:0:0:0:
417,384,230630,2,0,P|463:324|499:243,1,143.75,2|0,1:2|1:0,0:0:0:0:
374,223,230963,1,10,0:0:0:0:
485,178,231130,1,2,0:0:0:0:
401,1,231296,5,2,1:2:0:0:
208,208,231463,1,0,1:0:0:0:
282,307,231630,1,10,0:0:0:0:
254,383,231796,1,0,0:0:0:0:
268,302,231963,1,2,1:2:0:0:
151,316,232130,6,0,P|163:283|177:316,1,68.9999978942872,0|8,1:0|0:0,0:0:0:0:
463,182,232463,6,0,B|392:221|331:152|331:152|287:147|266:111|266:111|291:96|291:96|306:122,1,287.5,2|0,0:0|0:0,0:0:0:0:
380,85,232963,1,10,0:0:0:0:
79,9,233130,1,2,0:0:0:0:
145,58,233296,1,2,1:2:0:0:
63,205,233463,2,0,B|76:219|82:236|82:236|118:135,1,143.75,2|8,1:2|0:0,0:0:0:0:
53,85,233796,1,2,0:0:0:0:
5,306,233963,5,10,0:0:0:0:
47,312,234046,1,8,0:0:0:0:
90,319,234129,1,8,0:0:0:0:
132,326,234213,1,8,0:0:0:0:
175,334,234296,1,8,0:0:0:0:
217,341,234379,1,8,0:0:0:0:
260,349,234463,1,8,0:0:0:0:
302,356,234546,1,8,0:0:0:0:
344,364,234630,6,0,P|379:349|423:335,1,71.875,8|0,0:0|0:0,0:0:0:0:
489,147,234796,2,0,P|453:161|410:176,1,71.875,8|0,0:0|0:0,0:0:0:0:
296,272,234963,1,8,0:0:0:0:
338,263,235046,1,8,0:0:0:0:
351,221,235130,1,8,0:0:0:0:
205,2,235296,6,0,B|189:55|248:79|248:79|405:31,1,253.000007720947,6|8,1:2|0:0,0:0:0:0:
404,50,235796,1,0,0:0:0:0:
143,195,235963,6,0,B|107:204|107:204|153:276|153:276|151:281|151:281|200:354|200:354|163:366,1,253.000007720947,2|8,1:2|0:0,0:0:0:0:
156,381,236463,1,0,0:0:0:0:
449,330,236630,6,0,P|493:270|371:191,1,253.000007720947,2|8,1:2|0:0,0:0:0:0:
364,199,237130,1,0,0:0:0:0:
102,88,237296,5,2,1:2:0:0:
31,27,237463,2,0,B|4:39|4:39|13:71,1,63.2500019302369,0|0,1:0|0:0,0:0:0:0:
228,98,237630,2,0,P|188:180|136:263,1,189.750005790711,8|0,0:0|0:0,0:0:0:0:
115,330,237963,6,0,B|73:339|54:378|54:378|31:333|22:284|22:284|2:254|2:254|22:223,1,253.000007720947,2|10,1:2|0:0,0:0:0:0:
257,271,238463,1,2,0:0:0:0:
315,370,238630,2,0,B|311:354|311:354|296:346|296:346|277:254,1,126.500003860474,2|0,1:2|1:0,0:0:0:0:
474,104,238963,1,10,0:0:0:0:
416,5,239130,2,0,B|420:21|420:21|435:29|435:29|454:121,1,126.500003860474,2|0,0:0|1:0,0:0:0:0:
400,334,239463,5,2,1:2:0:0:
481,291,239630,1,8,0:0:0:0:
494,201,239796,1,2,0:0:0:0:
256,7,239963,5,8,0:0:0:0:
291,32,240047,1,8,0:0:0:0:
299,46,240130,1,2,1:2:0:0:
458,277,240296,1,10,0:0:0:0:
471,187,240462,1,0,1:0:0:0:
241,108,240630,6,0,P|218:136|179:136,1,68.9999978942872,10|0,0:0|1:0,0:0:0:0:
107,174,240963,1,8,0:0:0:0:
98,155,241046,1,0,1:0:0:0:
88,137,241129,1,0,1:0:0:0:
76,120,241213,1,0,1:0:0:0:
54,94,241296,6,0,B|41:68|15:52|15:52|157:2|157:2|141:18|132:38,1,253.000007720947,6|8,1:2|0:0,0:0:0:0:
133,56,241796,1,0,0:0:0:0:
35,337,241963,6,0,P|111:371|251:250,1,253.000007720947,2|8,1:2|0:0,0:0:0:0:
257,277,242463,1,0,0:0:0:0:
487,44,242630,6,0,B|376:78|376:78|352:75|337:56|337:56|298:94|336:135,1,253.000007720947,2|8,1:2|0:0,0:0:0:0:
499,31,243130,1,2,0:0:0:0:
452,248,243296,5,2,1:2:0:0:
471,345,243463,2,0,B|496:299|496:299|502:295|502:295|483:230,1,126.500003860474,2|8,0:0|0:0,0:0:0:0:
264,175,243796,1,2,0:0:0:0:
245,272,243963,2,0,B|285:238|285:238|292:237|292:237|299:170,1,126.500003860474,2|0,1:2|1:0,0:0:0:0:
91,84,244296,1,10,0:0:0:0:
37,166,244463,2,0,B|86:150|86:150|94:151|94:151|125:92,1,126.500003860474,2|0,0:0|1:0,0:0:0:0:
170,323,244796,5,2,1:2:0:0:
86,358,244963,1,8,0:0:0:0:
0,384,245130,1,2,0:0:0:0:
308,351,245296,5,8,0:0:0:0:
342,324,245380,1,8,0:0:0:0:
357,321,245463,1,2,1:2:0:0:
92,383,245630,1,10,0:0:0:0:
176,348,245797,1,0,1:0:0:0:
373,189,245963,6,0,B|340:110|326:15|326:15|373:24|373:24|404:20,1,253.000007720947,6|8,1:2|0:0,0:0:0:0:
413,12,246463,1,0,0:0:0:0:
242,256,246630,6,0,B|224:208|165:174|102:189|102:189|79:150|79:150|57:153|52:179,1,253.000007720947,2|8,1:2|0:0,0:0:0:0:
40,189,247130,1,0,0:0:0:0:
266,379,247296,6,0,P|376:343|509:275,1,253.000007720947,2|8,1:2|0:0,0:0:0:0:
503,299,247796,1,0,0:0:0:0:
263,144,247963,5,2,1:2:0:0:
343,94,248130,2,0,P|330:65|303:48,1,63.2500019302369,0|0,1:0|0:0,0:0:0:0:
140,186,248296,2,0,P|113:94|93:-9,1,189.750005790711,8|0,0:0|0:0,0:0:0:0:
167,5,248630,6,0,B|58:119|58:119|24:126|24:126|21:154|21:154|52:170,1,253.000007720947,2|10,1:2|0:0,0:0:0:0:
127,381,249130,1,2,0:0:0:0:
204,327,249296,2,0,B|168:356|105:355|105:355|121:340,1,126.500003860474,2|0,1:2|1:0,0:0:0:0:
354,259,249630,1,10,0:0:0:0:
446,275,249796,2,0,B|400:270|356:224|356:224|378:225,1,126.500003860474,2|0,0:0|1:0,0:0:0:0:
508,15,250130,5,2,1:2:0:0:
419,35,250296,1,8,0:0:0:0:
330,56,250463,1,2,0:0:0:0:
296,364,250630,5,8,0:0:0:0:
284,320,250714,1,8,0:0:0:0:
289,306,250796,1,2,1:2:0:0:
333,30,250963,1,10,0:0:0:0:
422,51,251130,1,0,1:0:0:0:
220,217,251296,6,0,P|118:256|46:383,1,253.000007720947,6|8,1:2|0:0,0:0:0:0:
31,369,251796,1,0,0:0:0:0:
11,71,251963,6,0,B|43:54|83:47|83:47|106:10|106:10|145:47|163:88|163:88|208:99,1,253.000007720947,2|8,1:2|0:0,0:0:0:0:
213,87,252463,1,0,0:0:0:0:
392,325,252630,6,0,B|446:380|446:380|501:329|501:329|485:303|458:281|458:281|497:263,1,253.000007720947,2|8,1:2|0:0,0:0:0:0:
500,251,253130,1,0,0:0:0:0:
279,9,253296,6,0,P|241:129|225:255,1,253.000007720947,2|8,1:2|0:0,0:0:0:0:
263,2,253796,1,2,0:0:0:0:
489,87,253963,5,2,1:2:0:0:
406,175,254130,2,0,B|414:163|414:163|497:117|497:117|506:104,1,126.500003860474,2|8,0:0|0:0,0:0:0:0:
317,254,254463,1,2,0:0:0:0:
196,257,254630,2,0,B|210:254|210:254|300:280|300:280|317:278,1,126.500003860474,2|0,1:2|1:0,0:0:0:0:
95,189,254963,1,10,0:0:0:0:
7,105,255130,2,0,B|18:113|18:113|64:196|64:196|77:205,1,126.500003860474,2|0,0:0|1:0,0:0:0:0:
288,80,255463,5,2,1:2:0:0:
354,17,255630,1,8,0:0:0:0:
445,10,255796,1,2,0:0:0:0:
385,335,255963,5,8,0:0:0:0:
354,367,256047,1,8,0:0:0:0:
340,374,256130,1,2,1:2:0:0:
498,254,256296,5,10,0:0:0:0:
455,244,256379,1,8,0:0:0:0:
415,225,256462,1,8,0:0:0:0:
382,194,256546,1,8,0:0:0:0:
393,183,256630,6,0,B|458:162|458:162|433:104|433:104|347:117|294:61|294:61|248:11|248:11|285:0|311:24,1,413.999987365723,6|0,1:2|1:0,0:0:0:0:
382,10,257796,2,0,P|399:21|385:33,1,34.4999989471436,2|0,0:0|0:0,0:0:0:0:
271,163,257963,6,0,B|170:137|125:232|125:232|81:330|81:330|141:378|199:305,1,413.999987365723,2|0,1:2|1:0,0:0:0:0:
266,368,259130,2,0,P|270:348|251:349,1,34.4999989471436,2|0,0:0|0:0,0:0:0:0:
467,323,259296,6,0,B|499:329|504:373|504:373|439:371|403:312|434:246|496:224|496:224|511:195|505:166,1,344.999989471436,2|0,1:2|0:0,0:0:0:0:
351,208,260296,2,0,B|372:193|399:199|399:199|379:224|352:224,1,103.499996841431,2|0,1:2|0:0,0:0:0:0:
348,237,260630,6,0,P|268:229|196:165,1,160.99999508667,2|0,1:2|1:0,0:0:0:0:
138,146,261130,2,0,P|142:124|153:100,1,34.4999989471436,2|0,0:0|0:0,0:0:0:0:
267,0,261296,2,0,P|329:49|355:119,1,138,2|0,1:2|0:0,0:0:0:0:
357,122,261630,5,8,3:0:0:0:
499,68,261796,1,4,3:0:0:0:
226,78,261963,6,0,B|133:68|52:2|52:2|0:36|17:77|17:77|33:115|33:115|9:154|17:210,1,413.999987365723,6|0,1:2|1:0,0:0:0:0:
85,239,263130,2,0,P|96:222|108:235,1,34.4999989471436,2|0,0:0|0:0,0:0:0:0:
286,227,263296,6,0,B|284:252|305:276|305:276|319:346|385:381|385:381|444:360|421:299|421:299|399:244|399:244|371:222|373:186,1,413.999987365723,2|0,1:2|1:0,0:0:0:0:
463,166,264463,2,0,P|447:169|442:153,1,34.4999989471436,2|0,0:0|0:0,0:0:0:0:
301,8,264630,6,0,B|275:48|271:103|271:103|237:76|237:76|236:69|236:69|200:36|200:36|206:112|169:178,1,344.999989471436,2|0,1:2|0:0,0:0:0:0:
125,66,265630,2,0,B|117:41|88:29|88:29|89:56|109:73,1,103.499996841431,2|0,1:2|0:0,0:0:0:0:
104,87,265963,6,0,P|45:138|21:224,1,160.99999508667,2|0,1:2|1:0,0:0:0:0:
0,289,266463,2,0,P|17:291|36:300,1,34.4999989471436,2|0,0:0|0:0,0:0:0:0:
153,377,266630,5,2,1:2:0:0:
223,367,266796,1,0,1:0:0:0:
368,158,266963,1,8,0:0:0:0:
11,382,267296,6,0,P|90:321|163:298,1,172.5,6|0,1:2|0:0,0:0:0:0:
227,286,267630,1,8,0:0:0:0:
347,52,267796,2,0,B|415:107|493:117|493:117|489:82|480:50,1,230,6|2,1:2|1:2,0:0:0:0:
418,219,268296,1,8,0:0:0:0:
438,296,268463,1,2,1:2:0:0:
266,216,268630,5,6,1:2:0:0:
233,143,268796,1,8,3:0:0:0:
233,143,268880,1,8,3:0:0:0:
233,143,268963,1,4,3:0:0:0:
426,299,269130,2,0,B|398:378|398:378|307:366|321:273,1,230,6|0,1:2|1:0,0:0:0:0:
92,143,269630,2,0,P|49:95|3:72,1,115,10|0,0:0|1:0,0:0:0:0:
307,16,269963,6,0,B|223:32|223:32|216:74|196:120,1,172.5,6|0,1:2|0:0,0:0:0:0:
170,179,270296,1,8,0:0:0:0:
429,217,270463,2,0,P|494:179|386:147,1,230,6|2,1:2|1:2,0:0:0:0:
305,308,270963,1,8,0:0:0:0:
229,331,271130,1,2,1:2:0:0:
45,384,271296,5,6,1:2:0:0:
112,337,271463,1,8,3:0:0:0:
112,337,271546,1,8,3:0:0:0:
112,337,271630,1,4,3:0:0:0:
323,231,271796,2,0,B|308:144|308:144|311:137|311:137|291:4,1,230,6|0,1:2|1:0,0:0:0:0:
205,255,272296,2,0,P|202:317|181:381,1,115,10|0,0:0|1:0,0:0:0:0:
448,383,272630,6,0,B|454:360|460:333|460:333|491:307|491:307|468:276|448:240,1,172.5,6|0,1:2|0:0,0:0:0:0:
498,192,272963,1,8,0:0:0:0:
257,81,273130,2,0,P|144:103|26:158,1,230,6|2,1:2|1:2,0:0:0:0:
129,20,273630,1,8,0:0:0:0:
237,301,273796,6,0,P|124:279|6:224,1,230,14|2,0:0|1:2,0:0:0:0:
299,164,274296,2,0,B|325:213|325:213|296:208|266:214,1,115,12|2,0:0|0:0,0:0:0:0:
497,19,274630,5,8,0:0:0:0:
475,58,274713,1,8,0:0:0:0:
455,101,274796,1,8,0:0:0:0:
440,144,274879,1,8,0:0:0:0:
426,187,274963,1,8,0:0:0:0:
414,232,275046,1,8,0:0:0:0:
405,277,275129,1,8,1:2:0:0:
448,261,275213,1,8,0:0:0:0:
490,244,275296,6,0,P|471:148|417:102,1,172.5,6|0,1:2|0:0,0:0:0:0:
353,73,275630,1,8,0:0:0:0:
120,196,275796,2,0,B|52:351|52:351|14:368|14:368|8:344,1,230,6|2,1:2|1:2,0:0:0:0:
178,129,276296,1,8,0:0:0:0:
425,3,276463,1,14,0:0:0:0:
