osu file format v14

[General]
AudioFilename: Initial D - Running in The 90s.mp3
AudioLeadIn: 0
PreviewTime: -1
Countdown: 1
SampleSet: None
StackLeniency: 0.7
Mode: 0
LetterboxInBreaks: 0
WidescreenStoryboard: 1

[Editor]
DistanceSpacing: 1.1
BeatDivisor: 4
GridSize: 16
TimelineZoom: 1.7

[Metadata]
Title:Running in the 90s
TitleUnicode:Running in the 90s
Artist:Initial D
ArtistUnicode:Initial D
Creator:Makan1
Version:Normal
Source:
Tags:
BeatmapID:875769
BeatmapSetID:402747

[Difficulty]
HPDrainRate:5.5
CircleSize:3
OverallDifficulty:7.5
ApproachRate:5
SliderMultiplier:0.999999999999999
SliderTickRate:1

[Events]
//Background and Video events
//Break Periods
2,13124,17780
//Storyboard Layer 0 (Background)
//Storyboard Layer 1 (Fail)
//Storyboard Layer 2 (Pass)
//Storyboard Layer 3 (Foreground)
//Storyboard Sound Samples

[TimingPoints]
432,378.548895899054,4,1,0,60,1,0
25037,-83.3333333333333,4,1,0,60,0,1
37151,-133.333333333333,4,1,0,60,0,0
53807,-200,4,1,0,60,0,0
55321,-133.333333333333,4,1,0,60,0,0

[HitObjects]
256,192,12924,5,0,0:0:0:0:
64,192,18980,6,0,L|176:192,1,99.9999999999999
144,288,19737,2,0,L|256:288,1,99.9999999999999
352,288,20495,1,0,0:0:0:0:
352,208,20873,1,0,0:0:0:0:
352,128,21252,1,0,0:0:0:0:
352,48,21630,1,0,0:0:0:0:
448,192,22009,6,0,L|336:192,1,99.9999999999999
368,288,22766,2,0,L|256:288,1,99.9999999999999
160,288,23524,1,0,0:0:0:0:
160,208,23902,1,0,0:0:0:0:
160,128,24281,1,0,0:0:0:0:
160,48,24659,1,0,0:0:0:0:
256,192,25037,6,0,P|192:176|160:128,3,119.999996337891
160,192,26551,1,0,0:0:0:0:
240,192,26930,1,0,0:0:0:0:
320,192,27308,1,0,0:0:0:0:
400,192,27687,1,0,0:0:0:0:
432,288,28066,2,0,P|384:256|320:256,3,119.999996337891
240,256,29580,5,0,0:0:0:0:
160,256,29958,1,0,0:0:0:0:
80,256,30337,1,0,0:0:0:0:
80,176,30715,1,0,0:0:0:0:
160,176,31094,2,0,L|288:176,3,119.999996337891
384,272,32608,1,0,0:0:0:0:
304,272,32987,1,0,0:0:0:0:
224,272,33365,5,0,0:0:0:0:
144,272,33744,1,0,0:0:0:0:
64,272,34122,2,0,L|64:144,3,119.999996337891
256,192,35637,12,0,36961,0:0:0:0:
256,192,37151,6,0,B|368:192|368:192|368:64,1,225.000008583069
288,80,38665,2,0,B|176:80|176:80|176:208,1,225.000008583069
176,272,40179,1,0,0:0:0:0:
256,272,40558,1,0,0:0:0:0:
336,272,40936,1,0,0:0:0:0:
416,272,41315,1,0,0:0:0:0:
416,144,41693,5,0,0:0:0:0:
336,144,42072,1,0,0:0:0:0:
256,144,42450,1,0,0:0:0:0:
256,144,42640,1,0,0:0:0:0:
96,144,43208,2,0,P|128:256|224:256,1,225.000008583069
192,176,44722,2,0,P|288:144|352:240,1,225.000008583069
256,240,46236,2,0,P|352:320|432:272,1,225.000008583069
432,192,47750,5,0,0:0:0:0:
432,112,48129,1,0,0:0:0:0:
432,32,48507,1,0,0:0:0:0:
432,32,48696,1,0,0:0:0:0:
320,80,49264,2,0,P|304:160|240:176,1,150.000005722046
160,176,50400,1,0,0:0:0:0:
240,96,50779,2,0,P|256:176|320:192,1,150.000005722046
400,240,52293,6,0,P|432:176|384:112,1,150.000005722046
390,114,53428,1,0,0:0:0:0:
288,112,53807,2,0,L|288:272,1,150
208,192,55321,2,0,L|128:192,1,75.000002861023
128,272,56078,1,0,0:0:0:0:
128,352,56457,1,0,0:0:0:0:
208,352,56835,6,0,L|448:352,1,225.000008583069
432,272,58349,1,0,0:0:0:0:
432,192,58728,1,0,0:0:0:0:
432,112,59107,1,0,0:0:0:0:
432,32,59485,1,0,0:0:0:0:
352,80,59864,1,0,0:0:0:0:
352,80,60242,1,0,0:0:0:0:
176,80,60621,1,0,0:0:0:0:
176,80,60999,1,0,0:0:0:0:
