osu file format v14

[General]
AudioFilename: Initial D - Running in The 90s.mp3
AudioLeadIn: 0
PreviewTime: -1
Countdown: 1
SampleSet: None
StackLeniency: 0.7
Mode: 0
LetterboxInBreaks: 0
WidescreenStoryboard: 0

[Editor]
DistanceSpacing: 1.1
BeatDivisor: 4
GridSize: 16
TimelineZoom: 1.7

[Metadata]
Title:Running in the 90s
TitleUnicode:Running in the 90s
Artist:Initial D
ArtistUnicode:Initial D
Creator:Makan1
Version:Expert
Source:
Tags:
BeatmapID:875768
BeatmapSetID:402747

[Difficulty]
HPDrainRate:5.5
CircleSize:5
OverallDifficulty:8
ApproachRate:8.2
SliderMultiplier:1.9
SliderTickRate:1

[Events]
//Background and Video events
//Break Periods
2,13124,18260
//Storyboard Layer 0 (Background)
//Storyboard Layer 1 (Fail)
//Storyboard Layer 2 (Pass)
//Storyboard Layer 3 (Foreground)
//Storyboard Sound Samples

[TimingPoints]
432,378.548895899054,4,1,0,60,1,0
23523,-133.333333333333,4,1,0,60,0,0
28066,-83.3333333333333,4,1,0,60,0,0
31094,-66.6666666666667,4,1,0,60,0,0
32608,-100,4,1,0,60,0,0
34122,-83.3333333333333,4,1,0,60,0,0
35637,-100,4,1,0,60,0,0
53807,-66.6666666666667,4,1,0,60,0,0
55321,-100,4,1,0,60,0,0
58349,-86.9565217391304,4,1,0,60,0,0
59864,-133.333333333333,4,1,0,60,0,0
61378,-52.6315789473684,4,1,0,60,0,0
62703,-83.3333333333333,4,1,0,60,0,0
67435,-52.6315789473684,4,1,0,60,0,0
68760,-83.3333333333333,4,1,0,60,0,0
73491,-66.6666666666667,4,1,0,60,0,0
74627,-90.9090909090909,4,1,0,60,0,0
79548,-66.6666666666667,4,1,0,60,0,0
80873,-83.3333333333333,4,1,0,60,0,0
91662,-74.0740740740741,4,1,0,60,0,0
97719,-100,4,1,0,60,0,0
112861,-86.9565217391304,4,1,0,60,0,0
114375,-66.6666666666667,4,1,0,60,0,0
115889,-100,4,1,0,60,0,0
120432,-125,4,1,0,60,0,0
121946,-55.5555555555556,4,1,0,60,0,0
123081,-83.3333333333333,4,1,0,60,0,0
128002,-52.6315789473684,4,1,0,60,0,0
129327,-83.3333333333333,4,1,0,60,0,0
134059,-52.6315789473684,4,1,0,60,0,0
135384,-83.3333333333333,4,1,0,60,0,0
138602,-76.9230769230769,4,1,0,60,0,0
140116,-54.054054054054,4,1,0,60,0,0
141441,-83.3333333333333,4,1,0,60,0,0
146173,-80,4,1,0,60,0,0
149201,-90.9090909090909,4,1,0,60,0,0
155258,-71.4285714285714,4,1,0,60,0,0

[HitObjects]
255,192,12924,5,0,0:0:0:0:
388,82,18980,5,0,0:0:0:0:
357,169,19170,1,0,0:0:0:0:
263,68,19359,1,0,0:0:0:0:
229,125,19454,1,0,0:0:0:0:
193,181,19548,1,0,0:0:0:0:
77,175,19737,5,0,0:0:0:0:
142,265,19927,1,0,0:0:0:0:
168,140,20116,1,0,0:0:0:0:
208,191,20211,1,0,0:0:0:0:
246,244,20305,1,0,0:0:0:0:
386,266,20495,1,0,0:0:0:0:
409,202,20589,1,0,0:0:0:0:
430,140,20684,1,0,0:0:0:0:
343,205,20873,5,0,0:0:0:0:
323,145,20968,1,0,0:0:0:0:
299,84,21062,1,0,0:0:0:0:
254,214,21252,1,0,0:0:0:0:
169,118,21441,1,0,0:0:0:0:
127,242,21630,1,0,0:0:0:0:
223,323,21820,1,0,0:0:0:0:
381,229,22009,5,0,0:0:0:0:
297,125,22198,1,0,0:0:0:0:
281,213,22387,1,0,0:0:0:0:
234,158,22482,1,0,0:0:0:0:
189,102,22577,1,0,0:0:0:0:
88,91,22766,1,0,0:0:0:0:
126,147,22861,1,0,0:0:0:0:
167,201,22955,1,0,0:0:0:0:
209,253,23050,1,0,0:0:0:0:
255,301,23144,1,0,0:0:0:0:
255,301,23334,1,0,0:0:0:0:
256,192,23523,12,0,24848,0:0:0:0:
389,75,25037,5,0,0:0:0:0:
350,101,25132,1,0,0:0:0:0:
322,136,25226,1,0,0:0:0:0:
310,180,25321,1,0,0:0:0:0:
312,228,25416,1,0,0:0:0:0:
329,271,25510,1,0,0:0:0:0:
357,305,25605,1,0,0:0:0:0:
123,75,25794,5,0,0:0:0:0:
160,96,25889,1,0,0:0:0:0:
190,136,25983,1,0,0:0:0:0:
202,180,26078,1,0,0:0:0:0:
200,228,26173,1,0,0:0:0:0:
183,271,26267,1,0,0:0:0:0:
155,305,26362,1,0,0:0:0:0:
272,304,26551,5,0,0:0:0:0:
272,304,26646,1,0,0:0:0:0:
272,304,26741,1,0,0:0:0:0:
352,304,26930,1,0,0:0:0:0:
432,304,27119,1,0,0:0:0:0:
432,224,27308,1,0,0:0:0:0:
432,224,27403,1,0,0:0:0:0:
432,224,27498,1,0,0:0:0:0:
432,144,27687,5,0,0:0:0:0:
432,64,27876,1,0,0:0:0:0:
352,64,28066,1,0,0:0:0:0:
295,64,28160,1,0,0:0:0:0:
238,64,28255,1,0,0:0:0:0:
181,64,28349,1,0,0:0:0:0:
124,64,28444,1,0,0:0:0:0:
67,64,28539,1,0,0:0:0:0:
10,64,28633,1,0,0:0:0:0:
16,176,28823,5,0,0:0:0:0:
73,176,28917,1,0,0:0:0:0:
130,176,29012,1,0,0:0:0:0:
187,176,29106,1,0,0:0:0:0:
244,176,29201,1,0,0:0:0:0:
301,176,29296,1,0,0:0:0:0:
358,176,29390,1,0,0:0:0:0:
384,320,29580,5,0,0:0:0:0:
384,320,29674,1,0,0:0:0:0:
304,320,29864,1,0,0:0:0:0:
304,320,29958,1,0,0:0:0:0:
208,320,30148,1,0,0:0:0:0:
128,320,30337,1,0,0:0:0:0:
128,320,30432,1,0,0:0:0:0:
48,320,30621,1,0,0:0:0:0:
48,320,30715,1,0,0:0:0:0:
44,320,30905,1,0,0:0:0:0:
42,193,31094,5,0,0:0:0:0:
113,193,31188,1,0,0:0:0:0:
184,193,31283,1,0,0:0:0:0:
255,193,31377,1,0,0:0:0:0:
326,193,31472,1,0,0:0:0:0:
398,193,31567,1,0,0:0:0:0:
469,193,31661,1,0,0:0:0:0:
469,114,31851,5,0,0:0:0:0:
398,114,31945,1,0,0:0:0:0:
326,114,32040,1,0,0:0:0:0:
255,114,32135,1,0,0:0:0:0:
184,114,32229,1,0,0:0:0:0:
113,114,32324,1,0,0:0:0:0:
42,114,32418,1,0,0:0:0:0:
41,204,32608,5,0,0:0:0:0:
75,251,32703,1,0,0:0:0:0:
110,294,32797,1,0,0:0:0:0:
138,198,32987,1,0,0:0:0:0:
192,273,33176,1,0,0:0:0:0:
237,184,33365,1,0,0:0:0:0:
271,231,33460,1,0,0:0:0:0:
306,274,33554,1,0,0:0:0:0:
334,178,33744,1,0,0:0:0:0:
388,253,33933,1,0,0:0:0:0:
50,58,34122,5,0,0:0:0:0:
79,106,34216,1,0,0:0:0:0:
109,155,34311,1,0,0:0:0:0:
139,203,34405,1,0,0:0:0:0:
169,252,34500,1,0,0:0:0:0:
198,300,34595,1,0,0:0:0:0:
228,349,34689,1,0,0:0:0:0:
228,349,34879,5,0,0:0:0:0:
258,301,34973,1,0,0:0:0:0:
288,252,35068,1,0,0:0:0:0:
318,204,35162,1,0,0:0:0:0:
348,155,35257,1,0,0:0:0:0:
384,112,35352,1,0,0:0:0:0:
407,58,35446,1,0,0:0:0:0:
256,192,35637,12,0,36962,0:0:0:0:
64,88,37151,6,0,P|80:152|124:164,1,95
216,216,37529,1,0,0:0:0:0:
336,160,37719,1,0,0:0:0:0:
381,276,37908,2,0,P|421:236|425:184,1,95
427,199,38286,1,0,0:0:0:0:
263,67,38476,1,0,0:0:0:0:
129,115,38665,6,0,P|102:153|45:153,1,95
368,163,39043,2,0,P|395:125|452:125,1,95
161,171,39422,1,0,0:0:0:0:
367,91,39611,1,0,0:0:0:0:
94,78,39801,1,0,0:0:0:0:
246,250,39990,1,0,0:0:0:0:
348,295,40179,1,0,0:0:0:0:
440,264,40368,5,0,0:0:0:0:
379,182,40558,1,0,0:0:0:0:
480,136,40747,1,0,0:0:0:0:
377,91,40936,1,0,0:0:0:0:
278,87,41126,1,0,0:0:0:0:
215,157,41315,1,0,0:0:0:0:
99,75,41504,1,0,0:0:0:0:
64,320,41693,5,0,0:0:0:0:
448,320,42072,1,0,0:0:0:0:
64,320,42450,1,0,0:0:0:0:
448,320,42640,1,0,0:0:0:0:
52,58,43208,6,0,P|112:66|146:121,1,95
88,326,43586,1,0,0:0:0:0:
199,256,43775,1,0,0:0:0:0:
460,58,43965,2,0,P|400:66|366:121,1,95
424,326,44343,1,0,0:0:0:0:
313,256,44532,1,0,0:0:0:0:
199,141,44722,2,0,P|150:149|122:191,1,95
212,302,45100,1,0,0:0:0:0:
354,175,45290,1,0,0:0:0:0:
313,141,45479,2,0,P|362:149|390:191,1,95
300,302,45857,1,0,0:0:0:0:
158,175,46047,1,0,0:0:0:0:
190,69,46236,5,0,0:0:0:0:
336,112,46425,1,0,0:0:0:0:
180,171,46614,1,0,0:0:0:0:
336,224,46804,1,0,0:0:0:0:
175,270,46993,1,0,0:0:0:0:
336,304,47182,1,0,0:0:0:0:
175,351,47372,1,0,0:0:0:0:
336,352,47561,1,0,0:0:0:0:
111,65,47750,5,0,0:0:0:0:
390,66,48129,1,0,0:0:0:0:
390,66,48507,1,0,0:0:0:0:
111,65,48696,1,0,0:0:0:0:
115,162,49264,6,0,B|115:260|115:260|214:260,1,190
310,171,50021,1,0,0:0:0:0:
393,268,50211,1,0,0:0:0:0:
488,171,50400,1,0,0:0:0:0:
399,59,50589,1,0,0:0:0:0:
319,220,50779,1,0,0:0:0:0:
112,96,50968,1,0,0:0:0:0:
160,272,51157,1,0,0:0:0:0:
352,96,51346,1,0,0:0:0:0:
304,240,51536,1,0,0:0:0:0:
224,320,51725,1,0,0:0:0:0:
384,320,51914,1,0,0:0:0:0:
455,54,52293,6,0,L|350:54,1,95
45,150,52671,2,0,L|150:150,1,95
477,216,53050,2,0,L|372:216,1,95
75,228,53428,1,0,0:0:0:0:
237,287,53807,2,0,P|366:178|168:241,1,570.000021743775
159,222,54943,1,0,0:0:0:0:
352,64,55321,5,0,0:0:0:0:
464,64,55510,1,0,0:0:0:0:
160,160,55700,1,0,0:0:0:0:
48,160,55889,1,0,0:0:0:0:
416,160,56078,1,0,0:0:0:0:
416,256,56267,1,0,0:0:0:0:
416,352,56457,1,0,0:0:0:0:
112,80,56835,5,0,0:0:0:0:
112,224,57025,1,0,0:0:0:0:
256,224,57214,1,0,0:0:0:0:
256,80,57403,1,0,0:0:0:0:
176,144,57592,1,0,0:0:0:0:
176,288,57782,1,0,0:0:0:0:
320,288,57971,1,0,0:0:0:0:
432,48,58349,6,0,P|352:80|336:112,1,109.250002083778
80,48,58728,2,0,P|160:80|176:112,1,109.250002083778
80,192,59107,1,0,0:0:0:0:
256,256,59296,1,0,0:0:0:0:
432,192,59485,1,0,0:0:0:0:
128,32,59864,6,0,L|144:64,1,35.625001358986
464,96,60242,2,0,L|480:128,1,35.625001358986
48,192,60621,2,0,L|64:224,1,35.625001358986
288,240,60999,2,0,L|304:272,1,35.625001358986
400,208,61378,2,0,P|304:112|128:208,2,360.99999036026
352,304,62324,1,0,0:0:0:0:
272,208,62514,1,0,0:0:0:0:
160,304,62703,6,0,B|48:304|48:304|48:160,1,227.999993041992
144,80,63460,1,0,0:0:0:0:
192,128,63555,1,0,0:0:0:0:
240,176,63649,1,0,0:0:0:0:
80,224,63838,1,0,0:0:0:0:
304,32,64028,1,0,0:0:0:0:
352,288,64217,1,0,0:0:0:0:
400,112,64406,5,0,0:0:0:0:
400,208,64596,1,0,0:0:0:0:
400,304,64785,1,0,0:0:0:0:
304,304,64974,1,0,0:0:0:0:
208,304,65163,1,0,0:0:0:0:
112,304,65353,1,0,0:0:0:0:
112,192,65542,1,0,0:0:0:0:
112,96,65731,1,0,0:0:0:0:
256,160,66678,5,0,0:0:0:0:
256,160,67056,1,0,0:0:0:0:
400,176,67435,2,0,P|304:272|128:176,2,360.99999036026
352,80,68381,1,0,0:0:0:0:
272,176,68571,1,0,0:0:0:0:
160,80,68760,2,0,B|48:80|48:80|48:224,1,227.999993041992
80,240,69516,5,0,0:0:0:0:
128,272,69611,1,0,0:0:0:0:
176,304,69706,1,0,0:0:0:0:
272,304,69895,1,0,0:0:0:0:
368,304,70084,1,0,0:0:0:0:
464,304,70273,1,0,0:0:0:0:
464,48,70463,5,0,0:0:0:0:
368,144,70652,1,0,0:0:0:0:
288,48,70842,1,0,0:0:0:0:
208,144,71031,1,0,0:0:0:0:
304,240,71220,1,0,0:0:0:0:
208,320,71410,1,0,0:0:0:0:
112,240,71599,1,0,0:0:0:0:
93,186,71693,1,0,0:0:0:0:
99,130,71788,5,0,0:0:0:0:
129,82,71882,1,0,0:0:0:0:
176,51,71977,1,0,0:0:0:0:
232,43,72072,1,0,0:0:0:0:
286,59,72166,1,0,0:0:0:0:
328,97,72261,1,0,0:0:0:0:
350,150,72356,1,0,0:0:0:0:
208,160,72545,1,0,0:0:0:0:
214,216,72639,1,0,0:0:0:0:
246,262,72734,5,0,0:0:0:0:
297,286,72828,1,0,0:0:0:0:
353,283,72923,1,0,0:0:0:0:
401,254,73018,1,0,0:0:0:0:
429,205,73112,1,0,0:0:0:0:
445,159,73208,1,0,0:0:0:0:
448,110,73302,1,0,0:0:0:0:
320,64,73491,2,0,P|304:144|112:160,2,285.000010871888
416,160,74438,1,0,0:0:0:0:
256,272,74627,5,0,0:0:0:0:
96,160,74816,2,0,B|208:160|208:160|208:32,1,209.000006378174
336,64,75573,1,0,0:0:0:0:
336,128,75668,1,0,0:0:0:0:
336,192,75763,1,0,0:0:0:0:
368,272,75952,1,0,0:0:0:0:
272,208,76141,1,0,0:0:0:0:
368,64,76331,1,0,0:0:0:0:
64,64,76520,6,0,P|144:80|176:112,1,104.500003189087
400,144,76898,2,0,L|400:272,1,104.500003189087
64,176,77277,2,0,P|144:192|176:224,1,104.500003189087
400,224,77655,2,0,L|400:352,1,104.500003189087
304,336,78034,1,0,0:0:0:0:
253,348,78128,1,0,0:0:0:0:
202,340,78223,1,0,0:0:0:0:
158,312,78317,5,0,0:0:0:0:
128,270,78412,1,0,0:0:0:0:
118,219,78507,1,0,0:0:0:0:
128,168,78601,1,0,0:0:0:0:
158,125,78696,1,0,0:0:0:0:
202,98,78791,1,0,0:0:0:0:
202,98,79170,1,0,0:0:0:0:
320,96,79548,6,0,B|400:96|400:96|400:224|400:224|304:224,2,285.000010871888
240,96,80495,1,0,0:0:0:0:
176,224,80684,1,0,0:0:0:0:
336,224,80873,2,0,B|448:224|448:224|448:352,1,227.999993041992
336,336,81630,1,0,0:0:0:0:
288,336,81725,1,0,0:0:0:0:
240,336,81820,1,0,0:0:0:0:
144,320,82009,5,0,0:0:0:0:
80,224,82198,1,0,0:0:0:0:
176,64,82387,2,0,L|320:64,1,118.75
176,128,82766,2,0,L|320:128,1,118.75
176,192,83144,2,0,L|320:192,1,118.75
176,256,83523,2,0,L|320:256,1,118.75
288,64,83902,2,0,L|144:64,1,118.75
288,128,84281,2,0,L|144:128,1,118.75
288,192,84659,2,0,L|144:192,1,118.75
288,256,85038,2,0,L|144:256,1,118.75
96,64,85605,5,0,0:0:0:0:
152,48,85699,1,0,0:0:0:0:
211,56,85794,1,0,0:0:0:0:
262,85,85888,1,0,0:0:0:0:
298,132,85983,1,0,0:0:0:0:
314,189,86078,1,0,0:0:0:0:
307,247,86172,1,0,0:0:0:0:
416,64,86362,5,0,0:0:0:0:
359,48,86456,1,0,0:0:0:0:
300,56,86551,1,0,0:0:0:0:
249,85,86645,1,0,0:0:0:0:
213,132,86740,1,0,0:0:0:0:
197,189,86835,1,0,0:0:0:0:
204,247,86929,1,0,0:0:0:0:
80,320,87119,1,0,0:0:0:0:
80,320,87214,5,0,0:0:0:0:
80,320,87308,1,0,0:0:0:0:
160,320,87498,1,0,0:0:0:0:
240,320,87687,1,0,0:0:0:0:
320,320,87876,1,0,0:0:0:0:
320,320,87971,1,0,0:0:0:0:
320,320,88066,1,0,0:0:0:0:
400,320,88255,1,0,0:0:0:0:
480,320,88444,1,0,0:0:0:0:
480,240,88633,5,0,0:0:0:0:
420,240,88727,1,0,0:0:0:0:
361,240,88822,1,0,0:0:0:0:
301,240,88916,1,0,0:0:0:0:
242,240,89011,1,0,0:0:0:0:
183,240,89106,1,0,0:0:0:0:
123,240,89200,1,0,0:0:0:0:
480,160,89390,5,0,0:0:0:0:
420,160,89484,1,0,0:0:0:0:
361,160,89579,1,0,0:0:0:0:
301,160,89673,1,0,0:0:0:0:
242,160,89768,1,0,0:0:0:0:
183,160,89863,1,0,0:0:0:0:
123,160,89957,1,0,0:0:0:0:
464,80,90148,5,0,0:0:0:0:
464,80,90242,1,0,0:0:0:0:
368,80,90432,1,0,0:0:0:0:
368,80,90526,1,0,0:0:0:0:
256,80,90715,1,0,0:0:0:0:
160,80,90905,1,0,0:0:0:0:
103,92,90999,1,0,0:0:0:0:
66,137,91094,1,0,0:0:0:0:
64,195,91188,1,0,0:0:0:0:
64,195,91283,1,0,0:0:0:0:
176,192,91473,1,0,0:0:0:0:
304,32,91662,5,0,0:0:0:0:
359,63,91756,1,0,0:0:0:0:
399,113,91851,1,0,0:0:0:0:
418,174,91945,1,0,0:0:0:0:
414,238,92040,1,0,0:0:0:0:
387,295,92135,1,0,0:0:0:0:
341,340,92229,1,0,0:0:0:0:
208,352,92419,5,0,0:0:0:0:
152,320,92513,1,0,0:0:0:0:
112,270,92608,1,0,0:0:0:0:
93,209,92702,1,0,0:0:0:0:
97,145,92797,1,0,0:0:0:0:
124,88,92892,1,0,0:0:0:0:
170,43,92986,1,0,0:0:0:0:
272,48,93176,5,0,0:0:0:0:
304,96,93271,1,0,0:0:0:0:
336,144,93365,1,0,0:0:0:0:
400,48,93555,1,0,0:0:0:0:
448,144,93744,1,0,0:0:0:0:
240,48,93933,5,0,0:0:0:0:
208,96,94028,1,0,0:0:0:0:
176,144,94122,1,0,0:0:0:0:
112,48,94312,1,0,0:0:0:0:
64,144,94501,1,0,0:0:0:0:
416,240,94690,5,0,0:0:0:0:
385,295,94784,1,0,0:0:0:0:
335,335,94879,1,0,0:0:0:0:
274,354,94973,1,0,0:0:0:0:
210,350,95068,1,0,0:0:0:0:
153,323,95163,1,0,0:0:0:0:
108,277,95257,1,0,0:0:0:0:
96,144,95447,5,0,0:0:0:0:
128,88,95541,1,0,0:0:0:0:
178,48,95636,1,0,0:0:0:0:
239,29,95730,1,0,0:0:0:0:
303,33,95825,1,0,0:0:0:0:
360,60,95920,1,0,0:0:0:0:
405,106,96014,1,0,0:0:0:0:
96,64,97719,6,0,P|160:64|208:112,1,95
128,160,98097,1,0,0:0:0:0:
288,208,98286,1,0,0:0:0:0:
160,304,98476,2,0,P|128:256|96:240,1,95
224,160,98854,1,0,0:0:0:0:
368,240,99043,1,0,0:0:0:0:
448,48,99233,1,0,0:0:0:0:
448,160,99422,1,0,0:0:0:0:
336,160,99611,1,0,0:0:0:0:
336,288,99801,1,0,0:0:0:0:
192,272,99990,5,0,0:0:0:0:
96,192,100179,1,0,0:0:0:0:
240,144,100368,1,0,0:0:0:0:
128,48,100558,1,0,0:0:0:0:
256,48,100747,1,0,0:0:0:0:
368,112,100936,1,0,0:0:0:0:
400,240,101126,1,0,0:0:0:0:
320,336,101315,1,0,0:0:0:0:
192,336,101504,1,0,0:0:0:0:
96,272,101693,1,0,0:0:0:0:
96,160,101883,1,0,0:0:0:0:
96,160,102072,1,0,0:0:0:0:
384,48,102261,5,0,0:0:0:0:
384,336,102640,1,0,0:0:0:0:
288,128,103018,1,0,0:0:0:0:
288,256,103208,1,0,0:0:0:0:
80,96,103775,2,0,L|208:96,1,95
176,208,104154,1,0,0:0:0:0:
304,208,104343,1,0,0:0:0:0:
464,64,104532,2,0,L|464:192,1,95
352,160,104911,1,0,0:0:0:0:
208,160,105100,1,0,0:0:0:0:
112,304,105290,6,0,P|176:288|192:256,1,95
128,192,105668,1,0,0:0:0:0:
256,144,105857,1,0,0:0:0:0:
400,304,106047,2,0,P|336:288|320:256,1,95
384,192,106425,1,0,0:0:0:0:
256,144,106614,1,0,0:0:0:0:
176,64,106804,1,0,0:0:0:0:
64,64,106993,1,0,0:0:0:0:
288,160,107182,5,0,0:0:0:0:
400,160,107371,1,0,0:0:0:0:
176,240,107561,1,0,0:0:0:0:
64,240,107750,1,0,0:0:0:0:
288,288,107939,1,0,0:0:0:0:
400,288,108128,1,0,0:0:0:0:
400,48,108318,1,0,0:0:0:0:
128,48,108507,1,0,0:0:0:0:
400,48,108696,1,0,0:0:0:0:
128,48,109075,5,0,0:0:0:0:
400,48,109264,1,0,0:0:0:0:
160,48,109832,6,0,B|62:48|62:48|62:147,1,190
128,256,110589,1,0,0:0:0:0:
256,256,110779,1,0,0:0:0:0:
336,144,110968,1,0,0:0:0:0:
448,304,111346,2,0,P|384:256|384:224,1,95
64,80,111725,2,0,P|128:128|128:160,1,95
112,256,112103,2,0,P|176:272|224:240,1,95
200,262,112482,1,0,0:0:0:0:
432,336,112861,6,0,P|352:304|336:272,1,109.250002083778
80,336,113240,2,0,P|160:304|176:272,1,109.250002083778
400,160,113618,1,0,0:0:0:0:
256,112,113807,1,0,0:0:0:0:
112,160,113996,1,0,0:0:0:0:
271,291,114375,2,0,P|142:182|340:245,1,570.000021743775
352,224,115510,1,0,0:0:0:0:
64,64,115889,5,0,0:0:0:0:
256,192,116078,1,0,0:0:0:0:
448,64,116267,5,0,0:0:0:0:
256,112,116457,1,0,0:0:0:0:
112,224,116646,1,0,0:0:0:0:
256,272,116835,1,0,0:0:0:0:
400,224,117025,1,0,0:0:0:0:
64,64,117403,2,0,P|128:80|160:112,1,95
144,192,117782,1,0,0:0:0:0:
256,192,117971,1,0,0:0:0:0:
448,64,118160,2,0,P|384:80|352:112,1,95
368,192,118539,1,0,0:0:0:0:
256,192,118728,1,0,0:0:0:0:
96,96,118917,6,0,L|192:96,1,95
400,96,119296,2,0,L|400:208,1,95
272,304,119674,1,0,0:0:0:0:
128,224,119864,1,0,0:0:0:0:
128,64,120053,1,0,0:0:0:0:
304,128,120242,1,0,0:0:0:0:
368,64,120432,2,0,L|416:96,1,38
352,240,120810,2,0,L|304:208,1,38
112,160,121189,2,0,L|160:192,1,38
176,336,121567,2,0,L|128:304,1,38
288,112,121946,6,0,P|288:240|256:192,2,341.999989562989
192,160,122892,1,0,0:0:0:0:
192,272,123081,1,0,0:0:0:0:
352,208,123271,2,0,B|432:128|432:128|320:32,1,227.999993041992
240,64,124028,1,0,0:0:0:0:
208,112,124122,1,0,0:0:0:0:
176,160,124217,1,0,0:0:0:0:
288,160,124406,5,0,0:0:0:0:
208,256,124596,1,0,0:0:0:0:
384,208,124785,1,0,0:0:0:0:
80,128,124974,1,0,0:0:0:0:
192,80,125163,1,0,0:0:0:0:
320,80,125353,1,0,0:0:0:0:
448,144,125542,1,0,0:0:0:0:
432,256,125731,1,0,0:0:0:0:
320,304,125920,5,0,0:0:0:0:
192,304,126110,1,0,0:0:0:0:
64,240,126299,1,0,0:0:0:0:
256,192,127245,1,0,0:0:0:0:
256,192,127624,1,0,0:0:0:0:
240,48,128002,2,0,P|176:112|256:336,2,360.99999036026
256,192,128949,1,0,0:0:0:0:
368,288,129138,1,0,0:0:0:0:
224,96,129327,2,0,B|112:96|112:96|112:224,1,227.999993041992
192,288,130084,5,0,0:0:0:0:
224,288,130179,1,0,0:0:0:0:
256,288,130274,1,0,0:0:0:0:
352,256,130463,1,0,0:0:0:0:
400,160,130652,1,0,0:0:0:0:
352,64,130842,1,0,0:0:0:0:
192,64,131031,1,0,0:0:0:0:
80,64,131220,1,0,0:0:0:0:
304,144,131409,5,0,0:0:0:0:
416,144,131599,1,0,0:0:0:0:
192,224,131788,1,0,0:0:0:0:
80,224,131977,1,0,0:0:0:0:
320,304,132167,1,0,0:0:0:0:
376,304,132261,1,0,0:0:0:0:
427,279,132356,1,0,0:0:0:0:
462,235,132450,1,0,0:0:0:0:
474,180,132545,1,0,0:0:0:0:
461,125,132640,5,0,0:0:0:0:
425,81,132734,1,0,0:0:0:0:
374,58,132829,1,0,0:0:0:0:
317,59,132924,1,0,0:0:0:0:
32,176,133113,1,0,0:0:0:0:
54,227,133207,1,0,0:0:0:0:
97,265,133302,1,0,0:0:0:0:
151,280,133396,1,0,0:0:0:0:
207,272,133491,1,0,0:0:0:0:
254,240,133586,1,0,0:0:0:0:
283,192,133680,1,0,0:0:0:0:
128,208,134059,6,0,P|256:96|368:240,2,360.99999036026
256,192,135006,1,0,0:0:0:0:
128,288,135195,1,0,0:0:0:0:
384,288,135384,2,0,B|384:176|384:176|256:176,1,227.999993041992
128,64,136141,1,0,0:0:0:0:
176,96,136236,1,0,0:0:0:0:
224,128,136331,1,0,0:0:0:0:
96,224,136520,5,0,0:0:0:0:
256,288,136709,1,0,0:0:0:0:
416,224,136898,1,0,0:0:0:0:
416,48,137088,1,0,0:0:0:0:
384,160,137277,1,0,0:0:0:0:
304,48,137466,1,0,0:0:0:0:
272,160,137655,1,0,0:0:0:0:
192,48,137845,5,0,0:0:0:0:
160,160,138034,1,0,0:0:0:0:
64,48,138223,1,0,0:0:0:0:
32,160,138413,1,0,0:0:0:0:
112,272,138602,1,0,0:0:0:0:
157,313,138696,1,0,0:0:0:0:
215,333,138791,1,0,0:0:0:0:
276,329,138885,1,0,0:0:0:0:
331,302,138980,1,0,0:0:0:0:
370,255,139075,1,0,0:0:0:0:
389,196,139169,1,0,0:0:0:0:
383,135,139264,1,0,0:0:0:0:
353,81,139359,1,0,0:0:0:0:
256,192,139737,5,0,0:0:0:0:
256,320,140116,2,0,P|352:208|240:64,2,351.499998659134
128,320,141062,1,0,0:0:0:0:
80,224,141252,1,0,0:0:0:0:
432,224,141441,2,0,B|432:112|432:112|304:112,1,227.999993041992
96,64,142198,1,0,0:0:0:0:
96,64,142293,1,0,0:0:0:0:
96,64,142387,1,0,0:0:0:0:
192,64,142577,5,0,0:0:0:0:
288,64,142766,1,0,0:0:0:0:
384,176,142955,2,0,P|320:176|272:224,1,113.999996520996
176,208,143334,1,0,0:0:0:0:
64,208,143523,1,0,0:0:0:0:
400,288,143712,2,0,P|336:288|288:336,1,113.999996520996
176,320,144091,1,0,0:0:0:0:
64,320,144280,1,0,0:0:0:0:
320,144,144469,5,0,0:0:0:0:
192,240,144659,1,0,0:0:0:0:
384,80,144848,1,0,0:0:0:0:
128,304,145037,1,0,0:0:0:0:
432,32,145226,1,0,0:0:0:0:
336,128,145416,1,0,0:0:0:0:
240,208,145605,1,0,0:0:0:0:
144,288,145794,1,0,0:0:0:0:
176,48,146173,5,0,0:0:0:0:
137,93,146267,1,0,0:0:0:0:
116,148,146362,1,0,0:0:0:0:
114,207,146456,1,0,0:0:0:0:
132,263,146551,1,0,0:0:0:0:
168,310,146646,1,0,0:0:0:0:
217,343,146740,1,0,0:0:0:0:
336,48,146930,5,0,0:0:0:0:
374,93,147024,1,0,0:0:0:0:
395,148,147119,1,0,0:0:0:0:
397,207,147213,1,0,0:0:0:0:
379,263,147308,1,0,0:0:0:0:
343,310,147403,1,0,0:0:0:0:
294,343,147497,1,0,0:0:0:0:
256,80,147687,5,0,0:0:0:0:
208,112,147782,1,0,0:0:0:0:
160,144,147876,1,0,0:0:0:0:
256,176,148066,1,0,0:0:0:0:
256,176,148255,1,0,0:0:0:0:
256,256,148444,5,0,0:0:0:0:
304,288,148539,1,0,0:0:0:0:
352,320,148633,1,0,0:0:0:0:
256,352,148823,1,0,0:0:0:0:
256,352,149012,1,0,0:0:0:0:
112,352,149201,5,0,0:0:0:0:
112,299,149295,1,0,0:0:0:0:
112,247,149390,1,0,0:0:0:0:
112,195,149484,1,0,0:0:0:0:
112,143,149579,1,0,0:0:0:0:
112,90,149674,1,0,0:0:0:0:
112,38,149768,1,0,0:0:0:0:
400,32,149958,5,0,0:0:0:0:
400,84,150052,1,0,0:0:0:0:
400,136,150147,1,0,0:0:0:0:
400,188,150241,1,0,0:0:0:0:
400,241,150336,1,0,0:0:0:0:
400,293,150431,1,0,0:0:0:0:
400,345,150525,1,0,0:0:0:0:
80,48,150715,5,0,0:0:0:0:
80,48,150810,1,0,0:0:0:0:
176,48,150999,1,0,0:0:0:0:
176,48,151094,1,0,0:0:0:0:
272,48,151283,1,0,0:0:0:0:
352,48,151473,1,0,0:0:0:0:
403,44,151567,1,0,0:0:0:0:
450,67,151662,1,0,0:0:0:0:
479,109,151756,1,0,0:0:0:0:
483,161,151851,1,0,0:0:0:0:
483,161,152040,1,0,0:0:0:0:
96,320,152230,5,0,0:0:0:0:
148,316,152324,1,0,0:0:0:0:
197,300,152419,1,0,0:0:0:0:
240,271,152513,1,0,0:0:0:0:
274,231,152608,1,0,0:0:0:0:
296,184,152703,1,0,0:0:0:0:
305,133,152797,1,0,0:0:0:0:
416,320,152987,5,0,0:0:0:0:
363,316,153081,1,0,0:0:0:0:
314,300,153176,1,0,0:0:0:0:
271,271,153270,1,0,0:0:0:0:
237,231,153365,1,0,0:0:0:0:
215,184,153460,1,0,0:0:0:0:
206,133,153554,1,0,0:0:0:0:
336,48,153744,5,0,0:0:0:0:
384,96,153839,1,0,0:0:0:0:
432,144,153934,1,0,0:0:0:0:
288,128,154122,1,0,0:0:0:0:
352,192,154312,1,0,0:0:0:0:
176,48,154501,1,0,0:0:0:0:
128,96,154596,1,0,0:0:0:0:
80,144,154691,1,0,0:0:0:0:
224,128,154879,1,0,0:0:0:0:
160,192,155069,1,0,0:0:0:0:
64,240,155258,5,0,0:0:0:0:
114,283,155352,1,0,0:0:0:0:
174,311,155447,1,0,0:0:0:0:
239,320,155541,1,0,0:0:0:0:
305,311,155636,1,0,0:0:0:0:
365,283,155731,1,0,0:0:0:0:
415,240,155825,1,0,0:0:0:0:
416,144,156015,5,0,0:0:0:0:
365,100,156109,1,0,0:0:0:0:
305,72,156204,1,0,0:0:0:0:
240,63,156298,1,0,0:0:0:0:
174,72,156393,1,0,0:0:0:0:
114,100,156488,1,0,0:0:0:0:
64,143,156582,1,0,0:0:0:0:
256,192,156772,12,0,158097,0:0:0:0:
