osu file format v14

[General]
AudioFilename: audio.mp3
AudioLeadIn: 0
PreviewTime: 58556
Countdown: 0
SampleSet: Soft
StackLeniency: 0.7
Mode: 0
LetterboxInBreaks: 0
WidescreenStoryboard: 1

[Editor]
Bookmarks: 8470,16817,25165,58556,59600,75252,83600,100296,116991,125339,144122,148296,152470,160817,178035
DistanceSpacing: 1
BeatDivisor: 3
GridSize: 4
TimelineZoom: 1.5

[Metadata]
Title:Jan Jan
TitleUnicode:Ջան Ջան
Artist:Inga & Anush
ArtistUnicode:Ինգա և Անուշ
Creator:_Erra_
Version:Easy
Source:Eurovision Song Contest 2009
Tags:armenia armenian kirinokirino
BeatmapID:1265900
BeatmapSetID:598895

[Difficulty]
HPDrainRate:3
CircleSize:3
OverallDifficulty:3
ApproachRate:4
SliderMultiplier:1
SliderTickRate:1

[Events]
//Background and Video events
0,0,"bg.jpg",0,0
//Break Periods
2,8670,15426
2,75451,82209
2,117191,123948
//Storyboard Layer 0 (Background)
//Storyboard Layer 1 (Fail)
//Storyboard Layer 2 (Pass)
//Storyboard Layer 3 (Foreground)
//Storyboard Sound Samples

[TimingPoints]
113,521.739130434783,4,2,0,100,1,0
8470,521.739130434783,4,2,0,100,1,0
58556,-100,4,2,0,100,0,1
66383,-100,4,2,0,100,0,0
66904,-100,4,2,0,100,0,1
75252,-100,4,2,0,100,0,0
99774,-100,4,2,0,80,0,0
99948,-100,4,2,0,100,0,0
100296,-100,4,2,0,100,0,1
108122,-100,4,2,0,100,0,0
108643,-100,4,2,0,100,0,1
116991,-100,4,2,0,100,0,0
144122,-100,4,2,0,90,0,0
144643,-100,4,2,0,70,0,0
145165,-100,4,2,0,90,0,0
145687,-100,4,2,0,100,0,0
160817,-100,4,2,0,100,0,1
169165,-100,4,2,0,100,0,0
175426,-100,4,2,0,45,0,0
176470,-100,4,2,0,50,0,0
177513,-100,4,2,0,80,0,0
178035,-100,4,2,0,100,0,0
178296,-100,4,2,0,100,0,0

[HitObjects]
256,192,1156,12,4,8470,0:0:0:0:
260,88,16817,6,0,P|328:104|364:140,2,100,4|0|0,0:0|0:0|0:0,0:0:0:0:
204,172,18383,1,0,0:0:0:0:
164,264,18904,6,0,P|96:248|60:212,2,100,4|0|0,0:0|0:0|0:0,0:0:0:0:
357,222,20991,6,0,L|349:114,2,100,4|0|0,0:0|0:0|0:0,0:0:0:0:
260,196,22556,1,0,0:0:0:0:
256,96,23078,6,0,L|124:104,1,100
124,264,24470,2,0,L|156:320,1,33.3333333333333,2|0,0:0|0:0,0:0:0:0:
236,324,25165,5,0,0:0:0:0:
324,272,25687,2,0,P|368:224|388:164,2,100
276,184,27252,5,0,0:0:0:0:
232,92,27774,2,0,P|188:140|168:200,2,100
260,188,29339,6,0,B|268:256|216:316|216:316|260:392|376:380,1,300
356,280,31426,6,0,L|364:176,1,100
264,160,32470,2,0,L|244:32,1,100
148,48,33513,5,0,0:0:0:0:
160,148,34035,2,0,B|152:196|112:232|112:232|160:260|180:308,1,200
260,248,35600,6,0,P|308:232|384:244,2,100
320,328,37165,1,0,0:0:0:0:
424,300,37687,6,0,P|444:224|356:144,1,200
264,132,39252,6,0,P|168:160|64:136,2,200
260,232,41861,5,2,0:0:0:0:
188,304,42383,1,0,0:0:0:0:
284,336,42904,6,0,P|332:312|360:264,1,100
340,172,43948,1,0,0:0:0:0:
264,236,44470,1,0,0:0:0:0:
248,136,44991,6,0,P|200:160|172:208,2,100
340,172,46556,1,0,0:0:0:0:
432,208,47078,6,0,L|396:328,2,100
440,104,48643,2,0,P|336:60|244:108,1,200
236,188,50209,5,0,0:0:0:0:
308,256,50730,1,0,0:0:0:0:
368,336,51252,6,0,P|312:352|260:336,1,100
204,268,52296,1,0,0:0:0:0:
116,220,52817,1,0,0:0:0:0:
100,320,53339,6,0,P|44:308|-4:316,2,100
116,220,54904,2,0,P|172:108|248:84,1,200
376,148,56470,5,0,0:0:0:0:
256,384,57861,6,0,L|256:320,1,33.3333333333333,2|8,0:0|0:0,0:0:0:0:
200,228,58556,6,0,P|148:212|120:156,1,100,4|0,0:0|0:0,0:0:0:0:
124,76,59600,2,0,P|153:36|200:23,1,100
256,108,60643,5,0,0:0:0:0:
311,23,61165,2,0,P|358:36|388:76,1,100
388,176,62209,1,0,0:0:0:0:
304,232,62730,5,0,0:0:0:0:
204,228,63252,2,0,P|156:240|127:280,2,100
252,316,64817,5,0,0:0:0:0:
344,276,65339,2,0,L|364:172,2,100
256,232,66904,5,6,0:0:0:0:
180,168,67426,2,0,L|160:64,2,100
256,104,68991,5,0,0:0:0:0:
352,72,69513,1,0,0:0:0:0:
320,168,70035,2,0,P|312:232|320:276,1,100
412,232,71078,5,0,0:0:0:0:
392,328,71600,2,0,P|332:360|272:348,1,100
212,316,72643,1,0,0:0:0:0:
136,252,73165,6,0,P|180:224|260:232,1,100
256,124,74209,1,0,0:0:0:0:
256,28,74730,2,0,P|320:44|360:56,1,100,0|4,0:0|0:0,0:0:0:0:
120,308,83600,5,0,0:0:0:0:
100,208,84122,2,0,L|84:104,2,100
188,164,85687,5,0,0:0:0:0:
276,116,86209,2,0,L|280:0,2,100
372,140,87774,6,0,B|352:192|360:256|412:284|412:284|392:344|304:352,1,300
220,296,89861,5,0,0:0:0:0:
248,200,90383,1,0,0:0:0:0:
156,168,90904,2,0,P|184:127|228:104,1,100
172,20,91948,5,0,0:0:0:0:
272,28,92470,2,0,P|309:66|300:140,1,100
420,128,93513,1,0,0:0:0:0:
484,212,94035,6,0,B|526:257|468:352|468:352|404:312|340:320|300:348,1,300
232,264,96122,6,0,L|280:172,1,100
248,76,97165,1,0,0:0:0:0:
176,8,97687,6,0,B|92:48|84:104|116:152|116:152|100:192|28:236,1,300
120,280,99774,1,8,0:0:0:0:
212,320,100296,6,0,P|212:244|176:196,1,100,4|0,0:0|0:0,0:0:0:0:
128,160,101339,2,0,P|121:110|137:64,1,100
236,60,102383,5,0,0:0:0:0:
312,124,102904,1,0,0:0:0:0:
332,224,103426,2,0,P|288:264|276:308,1,100
376,308,104470,5,0,0:0:0:0:
432,224,104991,2,0,P|432:176|440:120,2,100
344,184,106556,6,0,P|260:176|216:184,1,100
204,268,107600,2,0,P|154:270|104:261,1,100
104,160,108643,5,6,0:0:0:0:
204,148,109165,2,0,P|248:180|272:224,1,100
368,192,110209,1,0,0:0:0:0:
342,283,110730,6,0,P|290:251|266:207,1,100
256,124,111774,2,0,P|248:60|256:8,1,100
340,72,112817,5,0,0:0:0:0:
360,172,113339,2,0,P|324:216|308:264,1,100
212,240,114383,1,0,0:0:0:0:
208,140,114904,6,0,P|244:96|260:48,1,100
352,88,115948,1,0,0:0:0:0:
300,172,116470,2,0,P|296:255|302:294,1,100,0|4,0:0|0:0,0:0:0:0:
300,172,125339,6,0,B|312:104|312:104|340:60,2,100
340,264,126904,1,0,0:0:0:0:
240,284,127426,2,0,B|172:272|172:272|145:255,3,100
188,164,129513,6,0,P|224:96|228:56,2,100
104,108,131078,1,0,0:0:0:0:
92,208,131600,2,0,L|108:276,2,50
192,200,132643,2,0,P|240:184|292:200,1,100
376,244,133687,6,0,B|372:284|392:324|392:324|276:280|180:320,1,300
188,220,135774,2,0,B|156:212|156:212|128:192|128:192|64:180,3,100
176,124,137861,6,0,P|264:96|280:72,1,100
296,188,138904,2,0,P|316:264|440:308,1,200
400,212,140470,1,0,0:0:0:0:
456,128,140991,5,0,0:0:0:0:
356,112,141513,1,0,0:0:0:0:
280,176,142035,2,0,B|244:108|284:56|284:56|200:32|104:80,1,300
140,172,144122,5,2,0:0:0:0:
84,256,144643,1,0,0:0:0:0:
184,260,145165,1,0,0:0:0:0:
256,328,145687,1,0,0:0:0:0:
376,316,146209,6,0,P|336:264|340:200,2,100
432,232,147774,1,0,0:0:0:0:
372,152,148296,6,0,P|316:124|272:120,1,100
240,212,149339,2,0,P|176:232|140:236,1,100
140,136,150383,1,0,0:0:0:0:
264,296,151426,6,0,P|252:224|268:176,1,100
252,100,152470,5,4,0:0:0:0:
300,12,152991,2,0,P|248:-4|200:24,1,100,8|0,0:0|0:0,0:0:0:0:
156,100,154035,1,8,0:0:0:0:
140,204,154556,2,0,B|132:272|132:272|140:308,3,100,0|8|0|8,0:0|0:0|0:0|0:0,0:0:0:0:
240,308,156643,5,0,0:0:0:0:
300,228,157165,1,8,0:0:0:0:
372,296,157687,2,0,P|392:212|376:180,1,100,0|8,0:0|0:0,0:0:0:0:
448,124,158730,2,0,B|372:84|312:148|312:148|256:136|188:44,1,300,0|4,0:0|0:0,0:0:0:0:
124,124,160817,6,0,P|144:200|128:244,1,100,4|0,0:0|0:0,0:0:0:0:
52,268,161861,2,0,P|32:313|36:363,2,100
132,324,163426,5,0,0:0:0:0:
196,248,163948,1,2,0:0:0:0:
268,320,164470,1,2,0:0:0:0:
284,216,164991,6,0,P|240:164|192:156,2,100
332,128,166556,1,0,0:0:0:0:
284,40,167078,6,0,P|236:56|180:36,1,100
232,136,168122,1,2,0:0:0:0:
208,232,168643,1,2,0:0:0:0:
276,304,169165,6,0,B|304:276|308:252|308:252|348:236|396:248|396:248|360:188|348:84,1,300
264,156,171252,2,0,P|248:104|260:52,2,100,0|0|2,0:0|0:0|0:0,0:0:0:0:
164,140,172817,1,2,0:0:0:0:
128,232,173339,6,0,P|204:244|244:236,1,100
264,156,174383,2,0,P|313:153|362:164,1,100
136,324,176470,6,0,P|168:260|180:212,1,100,2|0,0:0|0:0,0:0:0:0:
120,148,177513,1,4,0:0:0:0:
68,232,178035,1,4,1:0:0:0:
