osu file format v14

[General]
AudioFilename: audio.mp3
AudioLeadIn: 0
PreviewTime: 58662
Countdown: 0
SampleSet: Drum
StackLeniency: 0.7
Mode: 3
LetterboxInBreaks: 0
SpecialStyle: 0
WidescreenStoryboard: 1

[Editor]
Bookmarks: 13745,25912,46578,52578
DistanceSpacing: 1
BeatDivisor: 4
GridSize: 8
TimelineZoom: 2.100001

[Metadata]
Title:BEAUTIFUL SKY (TV Size)
TitleUnicode:BEAUTIFUL SKY (TV Size)
Artist:Infinite Stratos Cast
ArtistUnicode:Infinite Stratos Cast
Creator:FerdiXIA-
Version:Normal
Source:Infinite Stratos 2
Tags:KotoriPana Stelar [_GoGoN-_] GoGoN- IS〈インフィニット・ストラトス〉 Original Soundtrack OST ed ending anime japanese pop jpop j-pop female vocals 篠ノ之箒 Shinonono Houki 日笠陽子 Hikasa Yoko シャルロット・デュノア Charlotte Dunois 花澤香菜 Hanazawa Kana セシリア・オルコット Cecilia Alcott ゆかな Yukana 凰鈴音 Huang Lingyin 下田麻美 Shimoda Asami ラウラ・ボーデヴィッヒ Laura Bodewig 井上麻里奈 Inoue Marina 更識楯無 Sarashiki Tatenashi 斎藤千和 Saitou Chiwa 更識簪 Sarashiki Kanzashi 三森すずこ Mimori Suzuko 山口朗彦 Yamaguchi Akihiko こだまさおり Saori Kodama
BeatmapID:4193461
BeatmapSetID:1936188

[Difficulty]
HPDrainRate:7
CircleSize:4
OverallDifficulty:7
ApproachRate:5
SliderMultiplier:1.4
SliderTickRate:1

[Events]
//Background and Video events
0,0,"best girl charlotte.jpg",0,0
Video,-500,"ending.mp4"
//Break Periods
//Storyboard Layer 0 (Background)
//Storyboard Layer 1 (Fail)
//Storyboard Layer 2 (Pass)
//Storyboard Layer 3 (Foreground)
//Storyboard Layer 4 (Overlay)
//Storyboard Sound Samples
Sample,11578,0,"tom0.wav",40
Sample,11912,0,"tom1.wav",40
Sample,12078,0,"tom2.wav",40
Sample,18078,0,"tom1.wav",40
Sample,18578,0,"tom2.wav",40
Sample,18745,0,"tom2.wav",40
Sample,46078,0,"tom1.wav",40
Sample,46412,0,"tom2.wav",40
Sample,46745,0,"tom2.wav",40
Sample,47078,0,"tom3.wav",40
Sample,78578,0,"tom1.wav",40
Sample,78745,0,"tom2.wav",40
Sample,85412,0,"tom2.wav",40

[TimingPoints]
579,333.333333333333,4,3,1,40,1,0
59245,-100,4,3,1,40,0,1
68578,-100,4,3,1,40,0,0
69912,-100,4,3,1,40,0,1
80412,-100,4,3,1,40,0,0

[HitObjects]
64,192,579,128,0,1912:0:0:0:0:
320,192,1912,1,0,0:0:0:40:tom22.wav
448,192,1912,1,0,0:0:0:0:
192,192,2078,1,0,0:0:0:40:tom33.wav
64,192,2245,1,0,0:0:0:40:snare.wav
448,192,2245,1,0,0:0:0:0:
192,192,2412,1,0,0:0:0:40:snare.wav
320,192,2412,1,0,0:0:0:0:
448,192,2578,1,0,0:0:0:40:tom33.wav
64,192,2745,128,0,2912:0:0:0:40:tom33.wav
320,192,2912,128,0,3078:0:0:0:40:snare.wav
192,192,3078,128,0,3245:0:0:0:0:
64,192,3245,1,2,0:0:0:40:
448,192,3245,128,4,3412:0:0:0:40:
320,192,3578,1,0,0:0:0:0:
64,192,3912,128,0,4078:0:0:0:0:
192,192,4245,1,0,0:0:0:0:
320,192,4412,128,2,4745:0:0:0:40:
448,192,4412,1,4,0:0:0:40:
64,192,4745,1,2,0:0:0:40:
192,192,4745,128,4,4912:0:0:0:40:
448,192,4912,128,0,5078:0:0:0:0:
64,192,5078,128,0,5245:0:0:0:0:
320,192,5245,128,0,5412:0:0:0:0:
64,192,5412,1,2,0:0:0:40:
192,192,5412,1,4,0:0:0:40:
448,192,5578,1,0,0:0:0:0:
64,192,5745,1,2,0:0:0:40:
192,192,5912,1,2,0:0:0:40:
320,192,5912,1,4,0:0:0:40:
448,192,6078,1,6,0:0:0:40:
64,192,6245,1,2,0:0:0:40:
192,192,6245,1,4,0:0:0:40:
320,192,6412,1,0,0:0:0:40:tom0.wav
64,192,6578,1,0,0:0:0:40:tom1.wav
448,192,6745,1,0,0:0:0:40:tom2.wav
192,192,6912,1,0,0:0:0:40:tom3.wav
64,192,7078,1,2,0:0:0:40:
448,192,7078,128,4,7412:0:0:0:40:
64,192,7412,128,2,7578:0:0:0:40:
192,192,7412,1,4,0:0:0:40:
320,192,7578,128,0,7745:0:0:0:0:
64,192,7745,1,2,0:0:0:40:
192,192,7745,128,0,7912:0:0:0:0:
448,192,7912,1,2,0:0:0:40:
320,192,8078,1,2,0:0:0:40:
64,192,8245,1,2,0:0:0:40:
192,192,8245,1,8,0:0:0:40:
320,192,8412,1,2,0:0:0:40:
64,192,8578,1,2,0:0:0:40:
448,192,8578,1,4,0:0:0:40:
192,192,8912,1,2,0:0:0:40:
320,192,8912,1,8,0:0:0:40:
448,192,9245,1,2,0:0:0:40:
320,192,9412,1,2,0:0:0:40:
64,192,9578,1,8,0:0:0:40:
192,192,9578,1,0,0:0:0:0:
320,192,9745,1,2,0:0:0:40:
448,192,9745,1,4,0:0:0:40:
192,192,10078,1,2,0:0:0:40:
64,192,10245,1,8,0:0:0:40:
448,192,10245,1,0,0:0:0:0:
320,192,10578,1,2,0:0:0:40:
192,192,10745,1,2,0:0:0:40:
320,192,10912,1,8,0:0:0:40:
448,192,10912,1,0,0:0:0:0:
64,192,11078,1,2,0:0:0:40:
192,192,11078,1,4,0:0:0:40:
320,192,11412,1,2,0:0:0:0:
64,192,11578,1,8,0:0:0:0:
192,192,11745,1,0,0:0:0:40:tom1.wav
448,192,11912,1,2,0:0:0:40:
320,192,12078,1,2,0:0:0:40:
64,192,12245,1,8,0:0:0:40:
192,192,12245,1,0,0:0:0:40:tom3.wav
320,192,12412,1,2,0:0:0:40:
448,192,12412,1,4,0:0:0:40:
64,192,12578,1,2,0:0:0:40:
192,192,12828,1,2,0:0:0:40:
320,192,12912,1,8,0:0:0:40:
448,192,12912,1,0,0:0:0:0:
320,192,13162,1,8,0:0:0:40:
448,192,13162,1,0,0:0:0:0:
64,192,13245,1,2,0:0:0:40:
192,192,13412,1,2,0:0:0:40:
320,192,13578,1,0,0:0:0:40:clap add.wav
448,192,13578,1,0,0:0:0:0:
64,192,13745,128,2,14078:0:0:0:40:
192,192,13745,1,4,0:0:0:40:
448,192,14078,1,2,0:0:0:40:
64,192,14245,1,8,0:0:0:40:
320,192,14245,1,0,0:0:0:0:
192,192,14578,1,2,0:0:0:40:
320,192,14745,1,2,0:0:0:40:
64,192,14912,1,8,0:0:0:40:
192,192,14912,1,0,0:0:0:0:
320,192,15078,128,2,15412:0:0:0:40:
448,192,15078,1,4,0:0:0:40:
192,192,15412,1,2,0:0:0:40:
64,192,15578,1,8,0:0:0:40:
448,192,15578,1,0,0:0:0:0:
320,192,15912,1,2,0:0:0:40:
192,192,16078,1,2,0:0:0:40:
320,192,16245,1,8,0:0:0:40:
448,192,16245,1,0,0:0:0:0:
64,192,16412,128,2,16745:0:0:0:40:
192,192,16412,1,4,0:0:0:40:
320,192,16745,1,2,0:0:0:40:
64,192,16912,1,8,0:0:0:40:
448,192,16912,1,0,0:0:0:0:
192,192,17245,1,2,0:0:0:40:
320,192,17412,1,2,0:0:0:40:
64,192,17578,1,8,0:0:0:40:
448,192,17578,1,0,0:0:0:0:
192,192,17745,128,2,18078:0:0:0:40:
320,192,17745,1,4,0:0:0:40:
64,192,18078,1,2,0:0:0:40:
320,192,18245,1,8,0:0:0:40:
448,192,18245,1,0,0:0:0:40:tom1.wav
192,192,18412,1,0,0:0:0:40:tom2.wav
64,192,18578,1,2,0:0:0:40:
448,192,18745,1,2,0:0:0:40:
192,192,18912,1,8,0:0:0:40:
320,192,18912,1,0,0:0:0:40:tom3.wav
64,192,19078,1,6,0:0:0:40:
448,192,19078,128,0,19412:0:0:0:40:tom3.wav
320,192,19412,1,2,0:0:0:40:
64,192,19578,1,8,0:0:0:40:
192,192,19578,1,0,0:0:0:0:
320,192,19912,1,2,0:0:0:40:
448,192,20078,1,0,0:0:0:0:
64,192,20245,1,8,0:0:0:40:
192,192,20245,1,0,0:0:0:0:
320,192,20412,128,2,20745:0:0:0:40:
448,192,20412,1,4,0:0:0:40:
64,192,20745,1,2,0:0:0:40:
192,192,20912,1,8,0:0:0:40:
448,192,20912,1,0,0:0:0:0:
320,192,21245,1,2,0:0:0:40:
64,192,21412,1,0,0:0:0:0:
320,192,21578,1,8,0:0:0:40:
448,192,21578,1,0,0:0:0:0:
64,192,21745,128,2,22078:0:0:0:40:
192,192,21745,1,4,0:0:0:40:
448,192,22078,1,2,0:0:0:40:
64,192,22245,1,8,0:0:0:40:
320,192,22245,1,0,0:0:0:0:
192,192,22412,1,0,0:0:0:0:
320,192,22495,1,0,0:0:0:0:
448,192,22578,1,2,0:0:0:40:
64,192,22745,1,2,0:0:0:40:
320,192,22912,1,8,0:0:0:40:
448,192,22912,1,0,0:0:0:0:
64,192,23078,128,4,24578:0:0:0:40:
192,192,23078,1,2,0:0:0:40:
448,192,23578,1,8,0:0:0:40:
320,192,23912,1,8,0:0:0:40:
192,192,24245,1,8,0:0:0:40:
320,192,24578,128,2,24912:0:0:0:40:
448,192,24578,1,4,0:0:0:40:
64,192,24912,1,0,0:0:0:0:
192,192,25078,1,0,0:0:0:0:
320,192,25245,1,0,0:0:0:0:
448,192,25412,1,0,0:0:0:0:
64,192,25578,1,0,0:0:0:0:
320,192,25745,1,0,0:0:0:0:
64,192,25912,128,2,26245:0:0:0:40:
192,192,25912,1,4,0:0:0:40:
448,192,26245,128,2,26578:0:0:0:40:
192,192,26578,128,2,26912:0:0:0:40:
448,192,26912,1,2,0:0:0:40:
64,192,27078,128,0,27412:0:0:0:0:
192,192,27245,1,2,0:0:0:40:
320,192,27412,128,0,27745:0:0:0:0:
448,192,27578,1,2,0:0:0:40:
192,192,27745,128,0,28245:0:0:0:0:
64,192,27912,1,2,0:0:0:40:
448,192,28245,1,2,0:0:0:40:
320,192,28412,1,0,0:0:0:0:
64,192,28578,128,2,28912:0:0:0:40:
192,192,28912,128,2,29245:0:0:0:40:
448,192,29245,128,2,29578:0:0:0:40:
192,192,29578,1,2,0:0:0:40:
320,192,29745,128,0,30078:0:0:0:0:
64,192,29912,1,2,0:0:0:40:
192,192,30078,128,0,30245:0:0:0:0:
448,192,30245,1,2,0:0:0:40:
64,192,30412,128,0,30912:0:0:0:0:
320,192,30578,1,2,0:0:0:40:
192,192,30912,1,2,0:0:0:40:
320,192,31078,1,0,0:0:0:0:
448,192,31245,128,2,31578:0:0:0:40:
192,192,31578,128,2,31912:0:0:0:40:
320,192,31912,128,2,32245:0:0:0:40:
448,192,32245,128,2,32412:0:0:0:40:
64,192,32412,128,0,32578:0:0:0:0:
192,192,32578,1,2,0:0:0:40:
320,192,32745,128,0,33078:0:0:0:0:
448,192,32912,1,2,0:0:0:40:
64,192,33078,128,0,33412:0:0:0:0:
192,192,33245,1,2,0:0:0:40:
448,192,33412,128,0,33745:0:0:0:0:
320,192,33578,1,2,0:0:0:40:
64,192,33745,128,0,35078:0:0:0:0:
192,192,33912,1,2,0:0:0:40:
448,192,34245,1,2,0:0:0:40:
320,192,34578,1,2,0:0:0:40:
192,192,34912,1,2,0:0:0:40:
448,192,35078,1,2,0:0:0:40:
320,192,35162,1,2,0:0:0:40:
64,192,35245,1,2,0:0:0:40:
192,192,35245,1,4,0:0:0:40:
320,192,35412,1,2,0:0:0:40:
64,192,35578,1,8,0:0:0:40:
448,192,35578,1,0,0:0:0:0:
192,192,35745,128,2,35912:0:0:0:40:
320,192,35745,1,4,0:0:0:40:
64,192,36078,1,2,0:0:0:40:
448,192,36078,128,4,36412:0:0:0:40:
64,192,36412,1,2,0:0:0:40:
192,192,36495,1,2,0:0:0:40:
320,192,36578,128,2,36912:0:0:0:40:
448,192,36578,1,4,0:0:0:40:
64,192,36912,128,2,37245:0:0:0:40:
192,192,36912,1,8,0:0:0:40:
448,192,37245,128,2,37578:0:0:0:40:
64,192,37578,128,2,37745:0:0:0:40:
192,192,37578,1,8,0:0:0:40:
320,192,37745,128,0,37912:0:0:0:0:
448,192,37912,1,2,0:0:0:40:
192,192,38078,128,0,38245:0:0:0:0:
64,192,38245,1,2,0:0:0:40:
320,192,38245,1,8,0:0:0:40:
448,192,38412,128,0,38912:0:0:0:0:
192,192,38578,1,2,0:0:0:40:
64,192,38912,1,2,0:0:0:40:
320,192,38912,1,8,0:0:0:40:
192,192,39245,128,2,39578:0:0:0:40:
320,192,39578,128,2,39912:0:0:0:40:
448,192,39578,1,8,0:0:0:40:
64,192,39912,128,2,40245:0:0:0:40:
320,192,40245,1,2,0:0:0:40:
448,192,40245,128,8,40412:0:0:0:40:
192,192,40412,128,0,40578:0:0:0:0:
64,192,40578,1,2,0:0:0:40:
320,192,40745,128,0,40912:0:0:0:0:
192,192,40912,1,2,0:0:0:40:
448,192,40912,1,8,0:0:0:40:
64,192,41078,128,0,41578:0:0:0:0:
448,192,41245,1,2,0:0:0:40:
192,192,41578,1,2,0:0:0:40:
320,192,41578,1,8,0:0:0:40:
448,192,41912,128,2,42245:0:0:0:40:
64,192,42245,1,2,0:0:0:40:
320,192,42245,128,8,42578:0:0:0:40:
192,192,42578,128,2,42912:0:0:0:40:
64,192,42912,128,2,43078:0:0:0:40:
320,192,42912,1,8,0:0:0:40:
448,192,43078,128,0,43245:0:0:0:0:
192,192,43245,1,2,0:0:0:40:
320,192,43412,1,0,0:0:0:0:
64,192,43578,1,2,0:0:0:40:
448,192,43578,1,8,0:0:0:40:
192,192,43745,1,0,0:0:0:0:
320,192,43912,1,2,0:0:0:40:
64,192,44078,1,0,0:0:0:0:
320,192,44245,1,2,0:0:0:40:
448,192,44245,1,8,0:0:0:40:
64,192,44412,128,2,44745:0:0:0:40:
192,192,44412,1,4,0:0:0:40:
320,192,44745,1,2,0:0:0:40:
64,192,44912,1,8,0:0:0:40:
192,192,44912,1,0,0:0:0:0:
448,192,45245,1,2,0:0:0:40:
320,192,45412,1,0,0:0:0:0:
64,192,45578,1,8,0:0:0:40:
192,192,45578,1,0,0:0:0:0:
320,192,45745,1,2,0:0:0:40:
448,192,45745,128,4,46078:0:0:0:40:
64,192,46078,1,2,0:0:0:40:
192,192,46245,1,8,0:0:0:40:
320,192,46245,1,0,0:0:0:40:tom1.wav
448,192,46412,1,2,0:0:0:40:
64,192,46578,1,8,0:0:0:40:
192,192,46578,1,0,0:0:0:40:tom2.wav
320,192,46745,1,2,0:0:0:40:
64,192,46912,1,8,0:0:0:40:
448,192,46912,1,0,0:0:0:40:tom3.wav
192,192,47078,1,2,0:0:0:40:
320,192,47245,1,2,0:0:0:40:
448,192,47245,128,4,47745:0:0:0:40:
64,192,47745,1,2,0:0:0:0:
320,192,47912,1,8,0:0:0:0:
448,192,47912,1,0,0:0:0:0:
192,192,48078,128,2,48412:0:0:0:0:
320,192,48412,1,2,0:0:0:0:
448,192,48412,1,4,0:0:0:0:
64,192,48745,128,2,49078:0:0:0:0:
192,192,48745,1,4,0:0:0:0:
448,192,49078,1,2,0:0:0:0:
320,192,49162,1,2,0:0:0:0:
64,192,49245,1,10,0:0:0:0:
192,192,49245,1,4,0:0:0:0:
448,192,49412,1,2,0:0:0:0:
64,192,49578,1,6,0:0:0:0:
320,192,49578,1,8,0:0:0:0:
192,192,49745,1,0,0:0:0:0:
320,192,49912,1,2,0:0:0:0:
448,192,49912,128,4,50412:0:0:0:0:
192,192,50412,1,2,0:0:0:0:
320,192,50578,1,8,0:0:0:0:
448,192,50578,1,0,0:0:0:0:
64,192,50745,128,2,51078:0:0:0:0:
192,192,51078,1,4,0:0:0:0:
320,192,51078,1,2,0:0:0:0:
64,192,51412,1,2,0:0:0:0:
448,192,51412,128,4,51745:0:0:0:0:
64,192,51745,1,2,0:0:0:0:
192,192,51828,1,2,0:0:0:0:
320,192,51912,1,8,0:0:0:0:
448,192,51912,1,4,0:0:0:0:
192,192,52078,1,2,0:0:0:0:
64,192,52245,128,4,52578:0:0:0:0:
448,192,52245,1,8,0:0:0:0:
192,192,52578,1,2,0:0:0:0:
320,192,52578,1,4,0:0:0:0:
448,192,52912,1,2,0:0:0:0:
192,192,53245,1,2,0:0:0:0:
64,192,53578,1,6,0:0:0:0:
448,192,53578,1,8,0:0:0:0:
192,192,53912,1,2,0:0:0:0:
320,192,53912,1,4,0:0:0:0:
64,192,54245,1,2,0:0:0:0:
192,192,54578,1,2,0:0:0:0:
320,192,54912,1,6,0:0:0:0:
448,192,54912,1,8,0:0:0:0:
64,192,55245,128,2,55912:0:0:0:0:
192,192,55245,1,4,0:0:0:0:
320,192,55578,1,2,0:0:0:0:
448,192,55912,1,2,0:0:0:0:
320,192,56078,1,0,0:0:0:0:
64,192,56245,1,8,0:0:0:0:
192,192,56245,1,0,0:0:0:0:
320,192,56412,1,2,0:0:0:0:
448,192,56412,128,4,56745:0:0:0:0:
64,192,56745,1,2,0:0:0:0:
192,192,56912,1,8,0:0:0:0:
448,192,56912,1,0,0:0:0:0:
320,192,57078,1,2,0:0:0:0:
64,192,57245,1,8,0:0:0:0:
192,192,57245,1,0,0:0:0:0:
448,192,57412,1,2,0:0:0:0:
64,192,57578,1,8,0:0:0:0:
320,192,57578,1,0,0:0:0:0:
192,192,57745,1,2,0:0:0:0:
448,192,57745,1,4,0:0:0:0:
64,192,58078,1,2,0:0:0:0:
192,192,58078,1,4,0:0:0:0:
320,192,58412,1,2,0:0:0:0:
448,192,58412,1,4,0:0:0:0:
64,192,58745,1,0,0:0:0:0:
192,192,58912,1,0,0:0:0:40:clap add.wav
320,192,58912,1,0,0:0:0:0:
448,192,59078,1,0,0:0:0:0:
64,192,59245,128,2,59578:0:0:0:0:
192,192,59245,1,4,0:0:0:0:
320,192,59578,1,8,0:0:0:0:
448,192,59578,1,0,0:0:0:0:
192,192,59912,128,2,60245:0:0:0:0:
64,192,60245,1,8,0:0:0:0:
320,192,60245,1,0,0:0:0:0:
448,192,60412,128,0,60745:0:0:0:0:
64,192,60578,1,2,0:0:0:0:
192,192,60745,1,0,0:0:0:0:
320,192,60912,1,8,0:0:0:0:
448,192,60912,1,0,0:0:0:0:
192,192,61078,1,0,0:0:0:0:
64,192,61245,128,2,61578:0:0:0:0:
320,192,61578,1,8,0:0:0:0:
448,192,61578,1,0,0:0:0:0:
192,192,61745,1,0,0:0:0:0:
320,192,61912,128,2,62245:0:0:0:0:
64,192,62245,1,8,0:0:0:0:
192,192,62245,128,0,62578:0:0:0:0:
448,192,62578,128,2,62912:0:0:0:0:
64,192,62912,1,8,0:0:0:0:
192,192,62912,1,0,0:0:0:0:
320,192,63078,128,0,63412:0:0:0:0:
448,192,63245,1,2,0:0:0:0:
64,192,63412,1,0,0:0:0:0:
192,192,63578,1,8,0:0:0:0:
448,192,63578,1,0,0:0:0:0:
320,192,63745,1,0,0:0:0:0:
64,192,63912,128,2,64245:0:0:0:0:
192,192,64245,1,8,0:0:0:0:
320,192,64245,1,0,0:0:0:0:
64,192,64578,1,2,0:0:0:0:
448,192,64578,1,4,0:0:0:0:
192,192,64745,1,0,0:0:0:0:
320,192,64912,1,8,0:0:0:0:
448,192,64912,1,0,0:0:0:0:
64,192,65078,128,0,65412:0:0:0:0:
192,192,65245,1,2,0:0:0:0:
448,192,65412,1,0,0:0:0:0:
192,192,65578,1,8,0:0:0:0:
320,192,65578,1,0,0:0:0:0:
64,192,65745,1,0,0:0:0:0:
448,192,65912,128,2,66245:0:0:0:0:
64,192,66245,1,8,0:0:0:0:
192,192,66245,128,0,66578:0:0:0:0:
320,192,66578,128,2,66912:0:0:0:0:
64,192,66912,128,8,67245:0:0:0:0:
448,192,66912,1,0,0:0:0:0:
192,192,67245,128,4,67578:0:0:0:0:
320,192,67245,1,2,0:0:0:0:
64,192,67578,1,8,0:0:0:0:
448,192,67578,1,0,0:0:0:0:
320,192,67745,1,0,0:0:0:0:
64,192,67912,128,2,68578:0:0:0:0:
448,192,68245,1,8,0:0:0:0:
192,192,68578,1,2,0:0:0:0:
320,192,68578,1,4,0:0:0:0:
64,192,68745,1,2,0:0:0:0:
448,192,68745,1,0,0:0:0:0:
64,192,69078,128,2,69412:0:0:0:0:
192,192,69078,1,0,0:0:0:0:
448,192,69412,1,2,0:0:0:0:
192,192,69578,1,8,0:0:0:0:
320,192,69578,1,0,0:0:0:0:
64,192,69745,1,2,0:0:0:0:
320,192,69912,1,2,0:0:0:0:
448,192,69912,128,4,70245:0:0:0:0:
64,192,70245,1,8,0:0:0:0:
192,192,70245,1,0,0:0:0:0:
320,192,70578,128,2,70912:0:0:0:0:
192,192,70912,1,8,0:0:0:0:
448,192,70912,1,0,0:0:0:0:
64,192,71078,128,0,71412:0:0:0:0:
448,192,71245,1,2,0:0:0:0:
320,192,71412,1,0,0:0:0:0:
64,192,71578,1,8,0:0:0:0:
192,192,71578,1,0,0:0:0:0:
320,192,71745,1,0,0:0:0:0:
448,192,71912,128,2,72245:0:0:0:0:
64,192,72245,1,8,0:0:0:0:
192,192,72245,1,0,0:0:0:0:
320,192,72412,1,0,0:0:0:0:
192,192,72578,128,2,72912:0:0:0:0:
320,192,72912,128,8,73245:0:0:0:0:
448,192,72912,1,0,0:0:0:0:
64,192,73245,128,2,73578:0:0:0:0:
320,192,73578,1,8,0:0:0:0:
448,192,73578,1,0,0:0:0:0:
192,192,73745,128,0,74078:0:0:0:0:
64,192,73912,1,2,0:0:0:0:
448,192,74078,1,0,0:0:0:0:
64,192,74245,1,8,0:0:0:0:
320,192,74245,1,0,0:0:0:0:
192,192,74412,1,0,0:0:0:0:
448,192,74578,128,2,74912:0:0:0:0:
64,192,74912,1,8,0:0:0:0:
192,192,74912,1,0,0:0:0:0:
64,192,75245,1,2,0:0:0:0:
448,192,75245,1,4,0:0:0:0:
192,192,75578,1,2,0:0:0:40:
320,192,75578,1,8,0:0:0:40:
64,192,75912,1,2,0:0:0:40:
192,192,76078,1,2,0:0:0:40:
320,192,76245,1,8,0:0:0:40:
448,192,76245,1,0,0:0:0:0:
64,192,76412,1,2,0:0:0:40:
192,192,76412,1,4,0:0:0:40:
320,192,76745,1,2,0:0:0:40:
64,192,76912,1,8,0:0:0:40:
448,192,76912,1,0,0:0:0:0:
192,192,77245,1,2,0:0:0:40:
320,192,77412,1,2,0:0:0:40:
64,192,77578,1,8,0:0:0:40:
192,192,77578,1,0,0:0:0:0:
320,192,77745,1,2,0:0:0:40:
448,192,77745,1,4,0:0:0:40:
192,192,78078,1,2,0:0:0:0:
64,192,78245,1,8,0:0:0:0:
448,192,78245,1,0,0:0:0:40:tom0.wav
320,192,78412,1,0,0:0:0:40:tom1.wav
64,192,78578,1,2,0:0:0:40:
192,192,78745,1,2,0:0:0:40:
320,192,78912,1,8,0:0:0:40:
448,192,78912,1,0,0:0:0:40:tom3.wav
64,192,79078,1,2,0:0:0:40:
192,192,79078,1,4,0:0:0:40:
448,192,79245,1,2,0:0:0:40:
320,192,79495,1,0,0:0:0:0:
64,192,79578,1,2,0:0:0:40:
192,192,79578,1,0,0:0:0:0:
64,192,79828,1,0,0:0:0:0:
192,192,79828,1,0,0:0:0:0:
448,192,79912,1,8,0:0:0:40:
320,192,80078,1,0,0:0:0:0:
64,192,80245,1,0,0:0:0:0:
192,192,80245,1,0,0:0:0:0:
320,192,80412,1,0,0:0:0:0:
448,192,80412,128,0,80745:0:0:0:0:
64,192,80745,1,0,0:0:0:0:
192,192,80912,1,8,0:0:0:40:
320,192,80912,1,0,0:0:0:0:
64,192,81245,1,2,0:0:0:40:
192,192,81412,1,2,0:0:0:40:
320,192,81578,1,8,0:0:0:40:
448,192,81578,1,0,0:0:0:0:
64,192,81745,1,2,0:0:0:40:
192,192,81745,128,4,82078:0:0:0:40:
320,192,82078,1,2,0:0:0:40:
64,192,82245,1,8,0:0:0:40:
448,192,82245,1,0,0:0:0:0:
192,192,82578,1,2,0:0:0:40:
320,192,82745,1,2,0:0:0:40:
64,192,82912,1,8,0:0:0:40:
192,192,82912,1,0,0:0:0:0:
320,192,83078,1,2,0:0:0:40:
448,192,83078,128,4,83412:0:0:0:40:
192,192,83412,1,2,0:0:0:40:
64,192,83578,1,8,0:0:0:40:
448,192,83578,1,0,0:0:0:0:
320,192,83912,1,2,0:0:0:40:
192,192,84078,1,2,0:0:0:40:
64,192,84245,1,8,0:0:0:40:
448,192,84245,1,0,0:0:0:0:
192,192,84412,1,2,0:0:0:40:
320,192,84412,128,4,84745:0:0:0:40:
448,192,84745,1,2,0:0:0:40:
64,192,84912,1,8,0:0:0:40:
192,192,84912,1,0,0:0:0:0:
320,192,85078,1,0,0:0:0:0:
448,192,85245,1,2,0:0:0:40:
64,192,85412,1,2,0:0:0:40:
192,192,85578,1,8,0:0:0:40:
320,192,85578,1,0,0:0:0:40:tom3.wav
64,192,85745,128,6,86078:0:0:0:40:
448,192,85745,1,0,0:0:0:40:tom3.wav
320,192,86078,1,2,0:0:0:40:
64,192,86245,1,8,0:0:0:40:
448,192,86245,1,0,0:0:0:0:
192,192,86412,1,2,0:0:0:0:
320,192,86578,1,2,0:0:0:40:
448,192,86578,1,4,0:0:0:0:
64,192,86745,1,2,0:0:0:0:
192,192,86745,1,4,0:0:0:0:
64,192,87078,1,2,0:0:0:0:
448,192,87078,1,0,0:0:0:0:
320,192,87245,1,2,0:0:0:0:
64,192,87412,128,0,87578:0:0:0:0:
448,192,87578,128,8,87745:0:0:0:0:
192,192,87745,128,0,87912:0:0:0:0:
320,192,87912,128,2,88078:0:0:0:0:
64,192,88078,128,2,88245:0:0:0:0:
192,192,88245,128,0,88412:0:0:0:40:clap add.wav
320,192,88245,1,0,0:0:0:0:
64,192,88412,1,2,0:0:0:0:
448,192,88412,128,4,89912:0:0:0:0:
