osu file format v14

[General]
AudioFilename: audio.mp3
AudioLeadIn: 0
PreviewTime: 39204
Countdown: 0
SampleSet: Normal
StackLeniency: 0.7
Mode: 1
LetterboxInBreaks: 0
WidescreenStoryboard: 1

[Editor]
Bookmarks: 51204,78704,84704,91454,106954,205454,227954,229454
DistanceSpacing: 0.3
BeatDivisor: 4
GridSize: 32
TimelineZoom: 4.099999

[Metadata]
Title:Wrath of the Fallen One
TitleUnicode:Wrath of the Fallen One
Artist:Inferi
ArtistUnicode:Inferi
Creator:Raiden
Version:Inner Oni
Source:osu!
Tags:technical melodeath melodic death metal fa featured artist english path apotheosis wotfo
BeatmapID:2439255
BeatmapSetID:1168660

[Difficulty]
HPDrainRate:5
CircleSize:2
OverallDifficulty:6.5
ApproachRate:10
SliderMultiplier:1.4
SliderTickRate:1

[Events]
//Background and Video events
0,0,"everyoung_by_chriscold_d4ur1qe.jpg",0,50
//Break Periods
//Storyboard Layer 0 (Background)
//Storyboard Layer 1 (Fail)
//Storyboard Layer 2 (Pass)
//Storyboard Layer 3 (Foreground)
//Storyboard Layer 4 (Overlay)
//Storyboard Sound Samples

[TimingPoints]
466,250,3,1,0,80,1,0
1966,250,4,1,0,80,1,0
12966,250,7,1,0,80,1,0
14716,250,4,1,0,80,1,0
17716,250,6,1,0,80,1,0
19216,250,4,1,0,80,1,0
39216,250,6,1,0,80,1,1
39216,-100,4,1,0,80,0,1
49684,-100,4,1,0,40,0,1
49716,-100,4,1,0,40,0,0
50903,-100,4,1,0,30,0,0
51028,-100,4,1,0,80,0,0
63216,250,4,1,0,80,1,0
65216,250,3,1,0,80,1,0
78716,250,3,1,0,80,1,8
98966,250,4,1,0,80,1,0
114966,-95.2380952380952,4,1,0,80,0,1
146966,250,6,1,0,80,1,0
152966,-100,6,1,0,80,0,1
157466,250,3,1,0,80,1,0
180278,-71.4285714285714,3,1,0,80,0,0
181403,-125,3,1,0,60,0,0
193466,-100,3,1,0,80,0,1
217466,-100,3,1,0,80,0,0
229466,-100,3,1,0,80,0,1
241216,-100,3,1,0,80,0,0

[HitObjects]
256,192,466,5,8,0:0:0:0:
256,192,528,5,8,0:0:0:0:
256,192,591,5,8,0:0:0:0:
256,192,653,5,8,0:0:0:0:
256,192,716,5,0,0:0:0:0:
256,192,841,5,0,0:0:0:0:
256,192,966,5,8,0:0:0:0:
256,192,1028,5,8,0:0:0:0:
256,192,1091,5,8,0:0:0:0:
256,192,1153,5,8,0:0:0:0:
256,192,1216,5,0,0:0:0:0:
256,192,1966,5,12,0:0:0:0:
256,192,2216,5,0,0:0:0:0:
256,192,2278,5,0,0:0:0:0:
256,192,2341,5,0,0:0:0:0:
256,192,2403,5,0,0:0:0:0:
256,192,2466,5,0,0:0:0:0:
256,192,2591,5,0,0:0:0:0:
256,192,2716,5,12,0:0:0:0:
256,192,2966,5,8,0:0:0:0:
256,192,3028,5,8,0:0:0:0:
256,192,3091,5,0,0:0:0:0:
256,192,3216,5,0,0:0:0:0:
256,192,3341,5,0,0:0:0:0:
256,192,3466,5,8,0:0:0:0:
256,192,3528,5,8,0:0:0:0:
256,192,3591,5,8,0:0:0:0:
256,192,3653,5,8,0:0:0:0:
256,192,3716,5,0,0:0:0:0:
256,192,3841,5,0,0:0:0:0:
256,192,3966,5,8,0:0:0:0:
256,192,4216,5,8,0:0:0:0:
256,192,4278,5,0,0:0:0:0:
256,192,4341,5,8,0:0:0:0:
256,192,4403,5,8,0:0:0:0:
256,192,4466,5,0,0:0:0:0:
256,192,4591,5,0,0:0:0:0:
256,192,4716,5,8,0:0:0:0:
256,192,4778,5,8,0:0:0:0:
256,192,4841,5,0,0:0:0:0:
256,192,4903,5,0,0:0:0:0:
256,192,4966,5,8,0:0:0:0:
256,192,5091,5,8,0:0:0:0:
256,192,5216,5,0,0:0:0:0:
256,192,5278,5,0,0:0:0:0:
256,192,5341,5,0,0:0:0:0:
256,192,5403,5,0,0:0:0:0:
256,192,5466,5,8,0:0:0:0:
256,192,5528,5,8,0:0:0:0:
256,192,5591,5,8,0:0:0:0:
256,192,5653,5,8,0:0:0:0:
256,192,5716,5,0,0:0:0:0:
256,192,5841,5,0,0:0:0:0:
256,192,5966,5,12,0:0:0:0:
256,192,6091,5,4,0:0:0:0:
256,192,6216,5,4,0:0:0:0:
256,192,6341,5,12,0:0:0:0:
256,192,6591,5,0,0:0:0:0:
256,192,6716,5,8,0:0:0:0:
256,192,6778,5,8,0:0:0:0:
256,192,6841,5,0,0:0:0:0:
256,192,6903,5,0,0:0:0:0:
256,192,6966,5,8,0:0:0:0:
256,192,7091,5,0,0:0:0:0:
256,192,7216,5,8,0:0:0:0:
256,192,7341,5,0,0:0:0:0:
256,192,7403,5,0,0:0:0:0:
256,192,7466,5,8,0:0:0:0:
256,192,7528,5,0,0:0:0:0:
256,192,7591,5,8,0:0:0:0:
256,192,7653,5,8,0:0:0:0:
256,192,7716,5,0,0:0:0:0:
256,192,7778,5,0,0:0:0:0:
256,192,7841,5,8,0:0:0:0:
256,192,7966,5,8,0:0:0:0:
256,192,8091,5,0,0:0:0:0:
256,192,8216,5,8,0:0:0:0:
256,192,8278,5,8,0:0:0:0:
256,192,8341,5,0,0:0:0:0:
256,192,8403,5,0,0:0:0:0:
256,192,8466,5,8,0:0:0:0:
256,192,8591,5,8,0:0:0:0:
256,192,8716,5,0,0:0:0:0:
256,192,8778,5,0,0:0:0:0:
256,192,8841,5,8,0:0:0:0:
256,192,8903,5,0,0:0:0:0:
256,192,8966,5,8,0:0:0:0:
256,192,9091,5,0,0:0:0:0:
256,192,9216,5,8,0:0:0:0:
256,192,9278,5,8,0:0:0:0:
256,192,9341,5,8,0:0:0:0:
256,192,9403,5,8,0:0:0:0:
256,192,9466,5,0,0:0:0:0:
256,192,9591,5,0,0:0:0:0:
256,192,9716,5,8,0:0:0:0:
256,192,9778,5,8,0:0:0:0:
256,192,9841,5,0,0:0:0:0:
256,192,9966,5,8,0:0:0:0:
256,192,10028,5,8,0:0:0:0:
256,192,10091,5,8,0:0:0:0:
256,192,10153,5,8,0:0:0:0:
256,192,10216,5,0,0:0:0:0:
256,192,10278,5,0,0:0:0:0:
256,192,10341,5,0,0:0:0:0:
256,192,10403,5,0,0:0:0:0:
256,192,10466,5,8,0:0:0:0:
256,192,10591,5,8,0:0:0:0:
256,192,10716,5,0,0:0:0:0:
256,192,10841,5,0,0:0:0:0:
256,192,10966,5,8,0:0:0:0:
256,192,11028,5,8,0:0:0:0:
256,192,11091,5,0,0:0:0:0:
256,192,11153,5,0,0:0:0:0:
256,192,11216,5,8,0:0:0:0:
256,192,11278,5,0,0:0:0:0:
256,192,11341,5,8,0:0:0:0:
256,192,11403,5,0,0:0:0:0:
256,192,11466,5,8,0:0:0:0:
256,192,11528,5,8,0:0:0:0:
256,192,11591,5,0,0:0:0:0:
256,192,11716,5,8,0:0:0:0:
256,192,11841,5,0,0:0:0:0:
256,192,11966,5,0,0:0:0:0:
256,192,12028,5,0,0:0:0:0:
256,192,12091,5,8,0:0:0:0:
256,192,12153,5,8,0:0:0:0:
256,192,12216,5,0,0:0:0:0:
256,192,12278,5,0,0:0:0:0:
256,192,12341,5,8,0:0:0:0:
256,192,12466,5,8,0:0:0:0:
256,192,12591,5,0,0:0:0:0:
256,192,12653,5,0,0:0:0:0:
256,192,12716,5,8,0:0:0:0:
256,192,12778,5,8,0:0:0:0:
256,192,12841,5,0,0:0:0:0:
256,192,12966,5,8,0:0:0:0:
256,192,13028,5,8,0:0:0:0:
256,192,13091,5,8,0:0:0:0:
256,192,13153,5,8,0:0:0:0:
256,192,13216,5,0,0:0:0:0:
256,192,14466,5,0,0:0:0:0:
256,192,14528,5,0,0:0:0:0:
256,192,14591,5,0,0:0:0:0:
256,192,14653,5,0,0:0:0:0:
256,192,14716,5,8,0:0:0:0:
256,192,14841,5,0,0:0:0:0:
256,192,14966,5,0,0:0:0:0:
256,192,15091,5,8,0:0:0:0:
256,192,15341,5,0,0:0:0:0:
256,192,15403,5,0,0:0:0:0:
256,192,15466,5,8,0:0:0:0:
256,192,15528,5,0,0:0:0:0:
256,192,15591,5,0,0:0:0:0:
256,192,15653,5,0,0:0:0:0:
256,192,15716,5,8,0:0:0:0:
256,192,15841,5,0,0:0:0:0:
256,192,15966,5,8,0:0:0:0:
256,192,16028,5,0,0:0:0:0:
256,192,16091,5,0,0:0:0:0:
256,192,16153,5,0,0:0:0:0:
256,192,16216,5,8,0:0:0:0:
256,192,16278,5,8,0:0:0:0:
256,192,16341,5,0,0:0:0:0:
256,192,16403,5,0,0:0:0:0:
256,192,16466,5,8,0:0:0:0:
256,192,16591,5,0,0:0:0:0:
256,192,16716,5,8,0:0:0:0:
256,192,16778,5,0,0:0:0:0:
256,192,16841,5,8,0:0:0:0:
256,192,16903,5,8,0:0:0:0:
256,192,16966,5,0,0:0:0:0:
256,192,17028,5,0,0:0:0:0:
256,192,17091,5,8,0:0:0:0:
256,192,17216,5,8,0:0:0:0:
256,192,17341,5,0,0:0:0:0:
256,192,17403,5,0,0:0:0:0:
256,192,17466,5,8,0:0:0:0:
256,192,17528,5,0,0:0:0:0:
256,192,17591,5,0,0:0:0:0:
256,192,17653,5,0,0:0:0:0:
256,192,17716,5,8,0:0:0:0:
256,192,17841,5,0,0:0:0:0:
256,192,17966,5,8,0:0:0:0:
256,192,18028,5,0,0:0:0:0:
256,192,18091,5,0,0:0:0:0:
256,192,18153,5,0,0:0:0:0:
256,192,18216,5,8,0:0:0:0:
256,192,18278,5,8,0:0:0:0:
256,192,18341,5,0,0:0:0:0:
256,192,18466,5,0,0:0:0:0:
256,192,18591,5,8,0:0:0:0:
256,192,18653,5,0,0:0:0:0:
256,192,18716,5,8,0:0:0:0:
256,192,18778,5,8,0:0:0:0:
256,192,18841,5,0,0:0:0:0:
256,192,18903,5,0,0:0:0:0:
256,192,18966,5,0,0:0:0:0:
256,192,19028,5,0,0:0:0:0:
256,192,19091,5,8,0:0:0:0:
256,192,19216,5,0,0:0:0:0:
256,192,19278,5,8,0:0:0:0:
256,192,19341,5,8,0:0:0:0:
256,192,19403,5,8,0:0:0:0:
256,192,19466,5,0,0:0:0:0:
256,192,19591,5,0,0:0:0:0:
256,192,19716,5,8,0:0:0:0:
256,192,19778,5,0,0:0:0:0:
256,192,19841,5,0,0:0:0:0:
256,192,19903,5,0,0:0:0:0:
256,192,19966,5,8,0:0:0:0:
256,192,20028,5,8,0:0:0:0:
256,192,20091,5,0,0:0:0:0:
256,192,20153,5,0,0:0:0:0:
256,192,20216,5,8,0:0:0:0:
256,192,20341,5,0,0:0:0:0:
256,192,20466,5,8,0:0:0:0:
256,192,20591,5,0,0:0:0:0:
256,192,20716,5,8,0:0:0:0:
256,192,20778,5,0,0:0:0:0:
256,192,20841,5,8,0:0:0:0:
256,192,20903,5,0,0:0:0:0:
256,192,20966,5,8,0:0:0:0:
256,192,21028,5,0,0:0:0:0:
256,192,21091,5,8,0:0:0:0:
256,192,21216,5,0,0:0:0:0:
256,192,21341,5,8,0:0:0:0:
256,192,21403,5,8,0:0:0:0:
256,192,21466,5,0,0:0:0:0:
256,192,21528,5,0,0:0:0:0:
256,192,21591,5,0,0:0:0:0:
256,192,21653,5,0,0:0:0:0:
256,192,21716,5,8,0:0:0:0:
256,192,21841,5,0,0:0:0:0:
256,192,21966,5,8,0:0:0:0:
256,192,22028,5,8,0:0:0:0:
256,192,22091,5,8,0:0:0:0:
256,192,22153,5,0,0:0:0:0:
256,192,22216,5,8,0:0:0:0:
256,192,22341,5,0,0:0:0:0:
256,192,22466,5,8,0:0:0:0:
256,192,22528,5,8,0:0:0:0:
256,192,22591,5,0,0:0:0:0:
256,192,22653,5,0,0:0:0:0:
256,192,22716,5,8,0:0:0:0:
256,192,22841,5,8,0:0:0:0:
256,192,22966,5,8,0:0:0:0:
256,192,23028,5,8,0:0:0:0:
256,192,23091,5,0,0:0:0:0:
256,192,23216,5,8,0:0:0:0:
256,192,23341,5,0,0:0:0:0:
256,192,23403,5,0,0:0:0:0:
256,192,23466,5,8,0:0:0:0:
256,192,23528,5,0,0:0:0:0:
256,192,23591,5,8,0:0:0:0:
256,192,23716,5,0,0:0:0:0:
256,192,23778,5,0,0:0:0:0:
256,192,23841,5,8,0:0:0:0:
256,192,23903,5,8,0:0:0:0:
256,192,23966,5,0,0:0:0:0:
256,192,24091,5,8,0:0:0:0:
256,192,24216,5,8,0:0:0:0:
256,192,24278,5,8,0:0:0:0:
256,192,24341,5,0,0:0:0:0:
256,192,24403,5,0,0:0:0:0:
256,192,24466,5,8,0:0:0:0:
256,192,24528,5,0,0:0:0:0:
256,192,24591,5,8,0:0:0:0:
256,192,24716,5,0,0:0:0:0:
256,192,24841,5,8,0:0:0:0:
256,192,24966,5,8,0:0:0:0:
256,192,25091,5,0,0:0:0:0:
256,192,25216,5,8,0:0:0:0:
256,192,25278,5,8,0:0:0:0:
256,192,25341,5,0,0:0:0:0:
256,192,25403,5,0,0:0:0:0:
256,192,25466,5,8,0:0:0:0:
256,192,25528,5,0,0:0:0:0:
256,192,25591,5,8,0:0:0:0:
256,192,25653,5,8,0:0:0:0:
256,192,25716,5,0,0:0:0:0:
256,192,25841,5,8,0:0:0:0:
256,192,25966,5,8,0:0:0:0:
256,192,26028,5,0,0:0:0:0:
256,192,26091,5,8,0:0:0:0:
256,192,26153,5,8,0:0:0:0:
256,192,26216,5,0,0:0:0:0:
256,192,26466,5,0,0:0:0:0:
256,192,26716,5,8,0:0:0:0:
256,192,26966,5,0,0:0:0:0:
256,192,27216,5,0,0:0:0:0:
256,192,27278,5,0,0:0:0:0:
256,192,27341,5,0,0:0:0:0:
256,192,27403,5,0,0:0:0:0:
256,192,27466,5,0,0:0:0:0:
256,192,27716,5,8,0:0:0:0:
256,192,28216,5,8,0:0:0:0:
256,192,28466,5,0,0:0:0:0:
256,192,28528,5,0,0:0:0:0:
256,192,28591,5,0,0:0:0:0:
256,192,28653,5,0,0:0:0:0:
256,192,28716,5,0,0:0:0:0:
256,192,28966,5,0,0:0:0:0:
256,192,29216,5,0,0:0:0:0:
256,192,29341,5,0,0:0:0:0:
256,192,29466,5,0,0:0:0:0:
256,192,29591,5,0,0:0:0:0:
256,192,29716,5,8,0:0:0:0:
256,192,29778,5,8,0:0:0:0:
256,192,29841,5,0,0:0:0:0:
256,192,29903,5,0,0:0:0:0:
256,192,29966,5,0,0:0:0:0:
256,192,30028,5,0,0:0:0:0:
256,192,30091,5,0,0:0:0:0:
256,192,30216,5,8,0:0:0:0:
256,192,30466,5,0,0:0:0:0:
256,192,30716,5,8,0:0:0:0:
256,192,31216,5,8,0:0:0:0:
256,192,31466,5,0,0:0:0:0:
256,192,31528,5,0,0:0:0:0:
256,192,31591,5,0,0:0:0:0:
256,192,31653,5,0,0:0:0:0:
256,192,31716,5,0,0:0:0:0:
256,192,31841,5,0,0:0:0:0:
256,192,31966,5,0,0:0:0:0:
256,192,32028,5,0,0:0:0:0:
256,192,32091,5,0,0:0:0:0:
256,192,32153,5,0,0:0:0:0:
256,192,32216,5,8,0:0:0:0:
256,192,32341,5,8,0:0:0:0:
256,192,32466,5,0,0:0:0:0:
256,192,32591,5,0,0:0:0:0:
256,192,32716,5,8,0:0:0:0:
256,192,32778,5,8,0:0:0:0:
256,192,32841,5,8,0:0:0:0:
256,192,32903,5,8,0:0:0:0:
256,192,32966,5,0,0:0:0:0:
256,192,33028,5,0,0:0:0:0:
256,192,33091,5,0,0:0:0:0:
256,192,33153,5,0,0:0:0:0:
256,192,33216,5,8,0:0:0:0:
256,192,33466,5,0,0:0:0:0:
256,192,33716,5,8,0:0:0:0:
256,192,34216,5,8,0:0:0:0:
256,192,34466,5,0,0:0:0:0:
256,192,34528,5,0,0:0:0:0:
256,192,34591,5,0,0:0:0:0:
256,192,34653,5,0,0:0:0:0:
256,192,34716,5,0,0:0:0:0:
256,192,34966,5,0,0:0:0:0:
256,192,35216,5,0,0:0:0:0:
256,192,35341,5,0,0:0:0:0:
256,192,35403,5,0,0:0:0:0:
256,192,35466,5,0,0:0:0:0:
256,192,35528,5,0,0:0:0:0:
256,192,35591,5,0,0:0:0:0:
256,192,35653,5,0,0:0:0:0:
256,192,35716,5,8,0:0:0:0:
256,192,35841,5,0,0:0:0:0:
256,192,35966,5,0,0:0:0:0:
256,192,36028,5,0,0:0:0:0:
256,192,36091,5,0,0:0:0:0:
256,192,36153,5,0,0:0:0:0:
256,192,36216,5,0,0:0:0:0:
256,192,36466,5,0,0:0:0:0:
256,192,36716,5,8,0:0:0:0:
256,192,37216,5,8,0:0:0:0:
256,192,37466,5,0,0:0:0:0:
256,192,37528,5,0,0:0:0:0:
256,192,37591,5,0,0:0:0:0:
256,192,37653,5,0,0:0:0:0:
256,192,37716,5,0,0:0:0:0:
256,192,37841,5,0,0:0:0:0:
256,192,37966,5,0,0:0:0:0:
256,192,38091,5,0,0:0:0:0:
256,192,38216,5,8,0:0:0:0:
256,192,38278,5,8,0:0:0:0:
256,192,38341,5,8,0:0:0:0:
256,192,38403,5,8,0:0:0:0:
256,192,38466,5,0,0:0:0:0:
256,192,38591,5,0,0:0:0:0:
256,192,38716,5,8,0:0:0:0:
256,192,38778,5,8,0:0:0:0:
256,192,38841,5,8,0:0:0:0:
256,192,38903,5,8,0:0:0:0:
256,192,38966,5,0,0:0:0:0:
256,192,39216,5,8,0:0:0:0:
256,192,39278,5,8,0:0:0:0:
256,192,39341,5,0,0:0:0:0:
256,192,39403,5,0,0:0:0:0:
256,192,39466,5,0,0:0:0:0:
256,192,39528,5,0,0:0:0:0:
256,192,39591,5,0,0:0:0:0:
256,192,39653,5,0,0:0:0:0:
256,192,39716,5,8,0:0:0:0:
256,192,39841,5,0,0:0:0:0:
256,192,39966,5,8,0:0:0:0:
256,192,40028,5,8,0:0:0:0:
256,192,40091,5,0,0:0:0:0:
256,192,40153,5,0,0:0:0:0:
256,192,40216,5,8,0:0:0:0:
256,192,40341,5,8,0:0:0:0:
256,192,40466,5,8,0:0:0:0:
256,192,40591,5,0,0:0:0:0:
256,192,40653,5,0,0:0:0:0:
256,192,40716,5,8,0:0:0:0:
256,192,40841,5,8,0:0:0:0:
256,192,40903,5,8,0:0:0:0:
256,192,40966,5,0,0:0:0:0:
256,192,41028,5,0,0:0:0:0:
256,192,41091,5,0,0:0:0:0:
256,192,41153,5,0,0:0:0:0:
256,192,41216,5,8,0:0:0:0:
256,192,41341,5,0,0:0:0:0:
256,192,41466,5,8,0:0:0:0:
256,192,41591,5,0,0:0:0:0:
256,192,41716,5,8,0:0:0:0:
256,192,41778,5,8,0:0:0:0:
256,192,41841,5,8,0:0:0:0:
256,192,41903,5,0,0:0:0:0:
256,192,41966,5,8,0:0:0:0:
256,192,42091,5,0,0:0:0:0:
256,192,42153,5,0,0:0:0:0:
256,192,42216,5,8,0:0:0:0:
256,192,42278,5,8,0:0:0:0:
256,192,42341,5,8,0:0:0:0:
256,192,42403,5,8,0:0:0:0:
256,192,42466,5,0,0:0:0:0:
256,192,42591,5,0,0:0:0:0:
256,192,42716,5,8,0:0:0:0:
256,192,42778,5,0,0:0:0:0:
256,192,42841,5,0,0:0:0:0:
256,192,42903,5,0,0:0:0:0:
256,192,42966,5,8,0:0:0:0:
256,192,43028,5,8,0:0:0:0:
256,192,43091,5,0,0:0:0:0:
256,192,43153,5,0,0:0:0:0:
256,192,43216,5,8,0:0:0:0:
256,192,43341,5,8,0:0:0:0:
256,192,43466,5,8,0:0:0:0:
256,192,43528,5,8,0:0:0:0:
256,192,43591,5,0,0:0:0:0:
256,192,43653,5,0,0:0:0:0:
256,192,43716,5,8,0:0:0:0:
256,192,43841,5,0,0:0:0:0:
256,192,43966,5,8,0:0:0:0:
256,192,44028,5,0,0:0:0:0:
256,192,44091,5,8,0:0:0:0:
256,192,44153,5,0,0:0:0:0:
256,192,44216,5,8,0:0:0:0:
256,192,44278,5,0,0:0:0:0:
256,192,44341,5,8,0:0:0:0:
256,192,44403,5,0,0:0:0:0:
256,192,44466,5,8,0:0:0:0:
256,192,44591,5,0,0:0:0:0:
256,192,44716,5,8,0:0:0:0:
256,192,44778,5,8,0:0:0:0:
256,192,44841,5,8,0:0:0:0:
256,192,44903,5,8,0:0:0:0:
256,192,44966,5,0,0:0:0:0:
256,192,45216,5,8,0:0:0:0:
256,192,45278,5,8,0:0:0:0:
256,192,45341,5,8,0:0:0:0:
256,192,45403,5,8,0:0:0:0:
256,192,45466,5,0,0:0:0:0:
256,192,45528,5,0,0:0:0:0:
256,192,45591,5,0,0:0:0:0:
256,192,45653,5,0,0:0:0:0:
256,192,45716,5,8,0:0:0:0:
256,192,45841,5,0,0:0:0:0:
256,192,45966,5,8,0:0:0:0:
256,192,46028,5,8,0:0:0:0:
256,192,46091,5,0,0:0:0:0:
256,192,46153,5,0,0:0:0:0:
256,192,46216,5,8,0:0:0:0:
256,192,46341,5,0,0:0:0:0:
256,192,46466,5,8,0:0:0:0:
256,192,46528,5,8,0:0:0:0:
256,192,46591,5,0,0:0:0:0:
256,192,46716,5,8,0:0:0:0:
256,192,46778,5,8,0:0:0:0:
256,192,46841,5,8,0:0:0:0:
256,192,46903,5,8,0:0:0:0:
256,192,46966,5,0,0:0:0:0:
256,192,47028,5,0,0:0:0:0:
256,192,47091,5,0,0:0:0:0:
256,192,47153,5,0,0:0:0:0:
256,192,47216,5,8,0:0:0:0:
256,192,47341,5,0,0:0:0:0:
256,192,47466,5,8,0:0:0:0:
256,192,47528,5,8,0:0:0:0:
256,192,47591,5,8,0:0:0:0:
256,192,47653,5,0,0:0:0:0:
256,192,47716,5,8,0:0:0:0:
256,192,47841,5,0,0:0:0:0:
256,192,47966,5,8,0:0:0:0:
256,192,48028,5,8,0:0:0:0:
256,192,48091,5,0,0:0:0:0:
256,192,48153,5,0,0:0:0:0:
256,192,48216,5,8,0:0:0:0:
256,192,48278,5,8,0:0:0:0:
256,192,48341,5,8,0:0:0:0:
256,192,48403,5,8,0:0:0:0:
256,192,48466,5,0,0:0:0:0:
256,192,48591,5,0,0:0:0:0:
256,192,48716,5,8,0:0:0:0:
256,192,48778,5,0,0:0:0:0:
256,192,48841,5,0,0:0:0:0:
256,192,48903,5,0,0:0:0:0:
256,192,48966,5,8,0:0:0:0:
256,192,49028,5,8,0:0:0:0:
256,192,49091,5,0,0:0:0:0:
256,192,49153,5,0,0:0:0:0:
256,192,49216,5,8,0:0:0:0:
256,192,49341,5,0,0:0:0:0:
256,192,49466,5,8,0:0:0:0:
256,192,49528,5,8,0:0:0:0:
256,192,49591,5,8,0:0:0:0:
256,192,49653,5,8,0:0:0:0:
256,192,49716,5,4,0:0:0:0:
256,192,50966,5,8,0:0:0:0:
256,192,51216,5,8,0:0:0:0:
256,192,51341,5,8,0:0:0:0:
256,192,51466,5,0,0:0:0:0:
256,192,51591,5,8,0:0:0:0:
256,192,51716,5,8,0:0:0:0:
256,192,51841,5,0,0:0:0:0:
256,192,51903,5,0,0:0:0:0:
256,192,51966,5,8,0:0:0:0:
256,192,52091,5,0,0:0:0:0:
256,192,52216,5,0,0:0:0:0:
256,192,52341,5,8,0:0:0:0:
256,192,52466,5,0,0:0:0:0:
256,192,52591,5,0,0:0:0:0:
256,192,52716,5,8,0:0:0:0:
256,192,52841,5,0,0:0:0:0:
256,192,52966,5,8,0:0:0:0:
256,192,53091,5,8,0:0:0:0:
256,192,53153,5,8,0:0:0:0:
256,192,53216,5,8,0:0:0:0:
256,192,53341,5,0,0:0:0:0:
256,192,53466,5,8,0:0:0:0:
256,192,53591,5,0,0:0:0:0:
256,192,53716,5,8,0:0:0:0:
256,192,53778,5,0,0:0:0:0:
256,192,53841,5,8,0:0:0:0:
256,192,53903,5,8,0:0:0:0:
256,192,53966,5,0,0:0:0:0:
256,192,54028,5,0,0:0:0:0:
256,192,54091,5,8,0:0:0:0:
256,192,54153,5,0,0:0:0:0:
256,192,54216,5,8,0:0:0:0:
256,192,54341,5,8,0:0:0:0:
256,192,54466,5,0,0:0:0:0:
256,192,54591,5,8,0:0:0:0:
256,192,54653,5,8,0:0:0:0:
256,192,54716,5,0,0:0:0:0:
256,192,54841,5,8,0:0:0:0:
256,192,54966,5,0,0:0:0:0:
256,192,55091,5,0,0:0:0:0:
256,192,55216,5,8,0:0:0:0:
256,192,55341,5,0,0:0:0:0:
256,192,55403,1,0,0:0:0:0:
256,192,55466,5,0,0:0:0:0:
256,192,55591,5,8,0:0:0:0:
256,192,55716,5,8,0:0:0:0:
256,192,55778,5,8,0:0:0:0:
256,192,55841,5,0,0:0:0:0:
256,192,55903,5,0,0:0:0:0:
256,192,55966,5,0,0:0:0:0:
256,192,56091,5,8,0:0:0:0:
256,192,56153,5,8,0:0:0:0:
256,192,56216,5,0,0:0:0:0:
256,192,56278,5,0,0:0:0:0:
256,192,56341,5,0,0:0:0:0:
256,192,56466,5,8,0:0:0:0:
256,192,56528,5,8,0:0:0:0:
256,192,56591,5,0,0:0:0:0:
256,192,56653,5,0,0:0:0:0:
256,192,56716,5,8,0:0:0:0:
256,192,56841,5,8,0:0:0:0:
256,192,56903,5,8,0:0:0:0:
256,192,56966,5,0,0:0:0:0:
256,192,57028,5,0,0:0:0:0:
256,192,57091,5,0,0:0:0:0:
256,192,57153,5,0,0:0:0:0:
256,192,57216,5,8,0:0:0:0:
256,192,57341,5,8,0:0:0:0:
256,192,57466,5,0,0:0:0:0:
256,192,57591,5,8,0:0:0:0:
256,192,57716,5,0,0:0:0:0:
256,192,57799,5,8,0:0:0:0:
256,192,57882,5,8,0:0:0:0:
256,192,57966,5,0,0:0:0:0:
256,192,58049,5,8,0:0:0:0:
256,192,58132,5,8,0:0:0:0:
256,192,58216,5,0,0:0:0:0:
256,192,58299,5,0,0:0:0:0:
256,192,58382,5,8,0:0:0:0:
256,192,58466,5,8,0:0:0:0:
256,192,58549,5,8,0:0:0:0:
256,192,58632,5,0,0:0:0:0:
256,192,58716,5,8,0:0:0:0:
256,192,58841,5,0,0:0:0:0:
256,192,58966,5,8,0:0:0:0:
256,192,59091,5,8,0:0:0:0:
256,192,59216,5,0,0:0:0:0:
256,192,59341,5,8,0:0:0:0:
256,192,59466,5,0,0:0:0:0:
256,192,59591,5,8,0:0:0:0:
256,192,59716,5,0,0:0:0:0:
256,192,59778,5,0,0:0:0:0:
256,192,59841,5,8,0:0:0:0:
256,192,59903,5,8,0:0:0:0:
256,192,59966,5,0,0:0:0:0:
256,192,60028,5,0,0:0:0:0:
256,192,60091,5,0,0:0:0:0:
256,192,60153,5,0,0:0:0:0:
256,192,60216,5,8,0:0:0:0:
256,192,60341,5,8,0:0:0:0:
256,192,60466,5,0,0:0:0:0:
256,192,60591,5,8,0:0:0:0:
256,192,60716,5,0,0:0:0:0:
256,192,60841,5,8,0:0:0:0:
256,192,60903,5,8,0:0:0:0:
256,192,60966,5,0,0:0:0:0:
256,192,61091,5,8,0:0:0:0:
256,192,61216,5,0,0:0:0:0:
256,192,61278,5,0,0:0:0:0:
256,192,61341,5,8,0:0:0:0:
256,192,61403,5,8,0:0:0:0:
256,192,61466,5,0,0:0:0:0:
256,192,61528,5,0,0:0:0:0:
256,192,61591,5,8,0:0:0:0:
256,192,61716,5,8,0:0:0:0:
256,192,61799,5,0,0:0:0:0:
256,192,61882,5,0,0:0:0:0:
256,192,61966,5,8,0:0:0:0:
256,192,62049,5,0,0:0:0:0:
256,192,62132,5,8,0:0:0:0:
256,192,62216,5,8,0:0:0:0:
256,192,62299,5,0,0:0:0:0:
256,192,62382,1,0,0:0:0:0:
256,192,62466,5,8,0:0:0:0:
256,192,62591,5,0,0:0:0:0:
256,192,62653,5,0,0:0:0:0:
256,192,62716,5,8,0:0:0:0:
256,192,62778,5,8,0:0:0:0:
256,192,62841,5,8,0:0:0:0:
256,192,62903,5,8,0:0:0:0:
256,192,62966,5,0,0:0:0:0:
256,192,63091,5,8,0:0:0:0:
256,192,63153,5,8,0:0:0:0:
256,192,63216,5,0,0:0:0:0:
256,192,63341,5,0,0:0:0:0:
256,192,63466,5,8,0:0:0:0:
256,192,63591,5,0,0:0:0:0:
256,192,63716,5,8,0:0:0:0:
256,192,63841,5,8,0:0:0:0:
256,192,63966,5,8,0:0:0:0:
256,192,64091,5,0,0:0:0:0:
256,192,64216,5,0,0:0:0:0:
256,192,64341,5,8,0:0:0:0:
256,192,64466,5,8,0:0:0:0:
256,192,64591,5,0,0:0:0:0:
256,192,64653,5,0,0:0:0:0:
256,192,64716,5,8,0:0:0:0:
256,192,64841,5,0,0:0:0:0:
256,192,64966,5,8,0:0:0:0:
256,192,65091,5,0,0:0:0:0:
256,192,65216,5,8,0:0:0:0:
256,192,65341,5,8,0:0:0:0:
256,192,65403,5,8,0:0:0:0:
256,192,65466,5,0,0:0:0:0:
256,192,65528,5,0,0:0:0:0:
256,192,65591,5,0,0:0:0:0:
256,192,65653,5,0,0:0:0:0:
256,192,65716,5,8,0:0:0:0:
256,192,65841,5,8,0:0:0:0:
256,192,65966,5,8,0:0:0:0:
256,192,66028,5,8,0:0:0:0:
256,192,66091,5,0,0:0:0:0:
256,192,66153,5,0,0:0:0:0:
256,192,66216,5,0,0:0:0:0:
256,192,66278,5,0,0:0:0:0:
256,192,66341,5,0,0:0:0:0:
256,192,66403,5,0,0:0:0:0:
256,192,66466,5,8,0:0:0:0:
256,192,66591,5,0,0:0:0:0:
256,192,66716,5,8,0:0:0:0:
256,192,66778,5,0,0:0:0:0:
256,192,66841,5,8,0:0:0:0:
256,192,66903,5,0,0:0:0:0:
256,192,66966,5,8,0:0:0:0:
256,192,67091,5,0,0:0:0:0:
256,192,67153,5,0,0:0:0:0:
256,192,67216,5,8,0:0:0:0:
256,192,67278,5,0,0:0:0:0:
256,192,67341,5,8,0:0:0:0:
256,192,67466,5,8,0:0:0:0:
256,192,67591,5,0,0:0:0:0:
256,192,67653,5,0,0:0:0:0:
256,192,67716,5,8,0:0:0:0:
256,192,67778,5,0,0:0:0:0:
256,192,67841,5,8,0:0:0:0:
256,192,67966,5,8,0:0:0:0:
256,192,68091,5,0,0:0:0:0:
256,192,68216,5,8,0:0:0:0:
256,192,68278,5,8,0:0:0:0:
256,192,68341,5,8,0:0:0:0:
256,192,68403,5,8,0:0:0:0:
256,192,68466,5,0,0:0:0:0:
256,192,68528,5,0,0:0:0:0:
256,192,68591,5,0,0:0:0:0:
256,192,68653,5,0,0:0:0:0:
256,192,68716,5,8,0:0:0:0:
256,192,68841,5,0,0:0:0:0:
256,192,68966,5,8,0:0:0:0:
256,192,69028,5,0,0:0:0:0:
256,192,69091,5,8,0:0:0:0:
256,192,69153,5,0,0:0:0:0:
256,192,69216,5,8,0:0:0:0:
256,192,69341,5,0,0:0:0:0:
256,192,69403,5,0,0:0:0:0:
256,192,69466,5,8,0:0:0:0:
256,192,69528,5,8,0:0:0:0:
256,192,69591,5,0,0:0:0:0:
256,192,69716,5,8,0:0:0:0:
256,192,69841,5,8,0:0:0:0:
256,192,69903,5,8,0:0:0:0:
256,192,69966,5,0,0:0:0:0:
256,192,70028,5,0,0:0:0:0:
256,192,70091,5,0,0:0:0:0:
256,192,70153,5,0,0:0:0:0:
256,192,70216,5,8,0:0:0:0:
256,192,70341,5,0,0:0:0:0:
256,192,70403,5,0,0:0:0:0:
256,192,70466,5,8,0:0:0:0:
256,192,70528,5,0,0:0:0:0:
256,192,70591,5,8,0:0:0:0:
256,192,70653,5,8,0:0:0:0:
256,192,70716,5,0,0:0:0:0:
256,192,70841,5,8,0:0:0:0:
256,192,70966,5,8,0:0:0:0:
256,192,71028,5,8,0:0:0:0:
256,192,71091,5,0,0:0:0:0:
480,352,71216,5,8,0:0:0:0:
256,192,71278,5,8,0:0:0:0:
256,192,71341,5,8,0:0:0:0:
256,192,71403,5,8,0:0:0:0:
256,192,71466,5,0,0:0:0:0:
256,192,71528,5,0,0:0:0:0:
256,192,71591,5,0,0:0:0:0:
256,192,71653,5,0,0:0:0:0:
256,192,71716,5,8,0:0:0:0:
256,192,71841,5,0,0:0:0:0:
256,192,71966,5,8,0:0:0:0:
256,192,72091,5,0,0:0:0:0:
256,192,72153,5,0,0:0:0:0:
256,192,72216,5,8,0:0:0:0:
256,192,72278,5,0,0:0:0:0:
256,192,72341,5,8,0:0:0:0:
256,192,72466,5,8,0:0:0:0:
256,192,72591,5,0,0:0:0:0:
256,192,72716,5,8,0:0:0:0:
256,192,72778,5,8,0:0:0:0:
256,192,72841,5,0,0:0:0:0:
256,192,72903,5,8,0:0:0:0:
256,192,72966,5,0,0:0:0:0:
256,192,73028,5,0,0:0:0:0:
256,192,73091,5,8,0:0:0:0:
256,192,73216,5,0,0:0:0:0:
256,192,73341,5,8,0:0:0:0:
256,192,73466,5,8,0:0:0:0:
256,192,73528,5,8,0:0:0:0:
256,192,73591,5,8,0:0:0:0:
256,192,73653,5,0,0:0:0:0:
256,192,73716,5,8,0:0:0:0:
256,192,73778,5,8,0:0:0:0:
256,192,73841,5,0,0:0:0:0:
256,192,73966,5,8,0:0:0:0:
256,192,74091,5,0,0:0:0:0:
256,192,74216,5,8,0:0:0:0:
256,192,74278,5,8,0:0:0:0:
256,192,74341,5,8,0:0:0:0:
256,192,74403,5,8,0:0:0:0:
256,192,74466,5,0,0:0:0:0:
256,192,74528,5,0,0:0:0:0:
256,192,74591,5,0,0:0:0:0:
256,192,74653,5,0,0:0:0:0:
256,192,74716,5,8,0:0:0:0:
256,192,74841,5,0,0:0:0:0:
256,192,74966,5,8,0:0:0:0:
256,192,75028,5,0,0:0:0:0:
256,192,75091,5,8,0:0:0:0:
256,192,75153,5,0,0:0:0:0:
256,192,75216,5,8,0:0:0:0:
256,192,75341,5,0,0:0:0:0:
256,192,75403,5,0,0:0:0:0:
256,192,75466,5,8,0:0:0:0:
256,192,75528,5,0,0:0:0:0:
256,192,75591,5,8,0:0:0:0:
256,192,75716,5,8,0:0:0:0:
256,192,75841,5,0,0:0:0:0:
256,192,75903,5,0,0:0:0:0:
256,192,75966,5,8,0:0:0:0:
256,192,76028,5,0,0:0:0:0:
256,192,76091,5,0,0:0:0:0:
256,192,76153,5,0,0:0:0:0:
256,192,76216,5,8,0:0:0:0:
256,192,76341,5,0,0:0:0:0:
256,192,76403,5,0,0:0:0:0:
256,192,76466,5,8,0:0:0:0:
256,192,76528,5,0,0:0:0:0:
256,192,76591,5,8,0:0:0:0:
256,192,76653,5,8,0:0:0:0:
256,192,76716,5,0,0:0:0:0:
256,192,76841,5,8,0:0:0:0:
256,192,76966,5,0,0:0:0:0:
256,192,77028,5,0,0:0:0:0:
256,192,77091,5,8,0:0:0:0:
256,192,77216,5,8,0:0:0:0:
256,192,77278,5,8,0:0:0:0:
256,192,77341,5,0,0:0:0:0:
256,192,77403,5,0,0:0:0:0:
256,192,77466,5,8,0:0:0:0:
256,192,77528,5,0,0:0:0:0:
256,192,77591,5,8,0:0:0:0:
256,192,77653,5,0,0:0:0:0:
256,192,77716,5,8,0:0:0:0:
256,192,77841,5,0,0:0:0:0:
256,192,77903,5,0,0:0:0:0:
256,192,77966,5,8,0:0:0:0:
256,192,78028,5,0,0:0:0:0:
256,192,78091,5,8,0:0:0:0:
256,192,78216,5,8,0:0:0:0:
256,192,78278,5,8,0:0:0:0:
256,192,78341,5,0,0:0:0:0:
256,192,78466,5,12,0:0:0:0:
256,192,78716,5,8,0:0:0:0:
256,192,78841,5,0,0:0:0:0:
256,192,78903,5,0,0:0:0:0:
256,192,78966,5,8,0:0:0:0:
256,192,79028,5,0,0:0:0:0:
256,192,79091,5,8,0:0:0:0:
256,192,79153,5,0,0:0:0:0:
256,192,79216,5,8,0:0:0:0:
256,192,79278,5,8,0:0:0:0:
256,192,79341,5,0,0:0:0:0:
256,192,79466,5,8,0:0:0:0:
256,192,79591,5,0,0:0:0:0:
256,192,79653,5,8,0:0:0:0:
256,192,79716,5,0,0:0:0:0:
256,192,79778,5,0,0:0:0:0:
256,192,79841,5,8,0:0:0:0:
256,192,79903,5,0,0:0:0:0:
256,192,79966,5,8,0:0:0:0:
256,192,80028,5,8,0:0:0:0:
256,192,80091,5,0,0:0:0:0:
256,192,80216,5,8,0:0:0:0:
256,192,80341,5,0,0:0:0:0:
256,192,80403,5,0,0:0:0:0:
256,192,80466,5,8,0:0:0:0:
256,192,80528,5,0,0:0:0:0:
256,192,80591,5,8,0:0:0:0:
256,192,80653,5,0,0:0:0:0:
256,192,80716,5,8,0:0:0:0:
256,192,80778,5,8,0:0:0:0:
256,192,80841,5,0,0:0:0:0:
256,192,80966,5,0,0:0:0:0:
256,192,81091,5,0,0:0:0:0:
256,192,81153,5,0,0:0:0:0:
256,192,81216,5,8,0:0:0:0:
256,192,81278,5,8,0:0:0:0:
256,192,81341,5,0,0:0:0:0:
256,192,81403,5,0,0:0:0:0:
256,192,81466,5,8,0:0:0:0:
256,192,81528,5,8,0:0:0:0:
256,192,81591,5,8,0:0:0:0:
256,192,81653,5,0,0:0:0:0:
256,192,81716,5,8,0:0:0:0:
256,192,81841,5,0,0:0:0:0:
256,192,81966,5,0,0:0:0:0:
256,192,82028,1,0,0:0:0:0:
256,192,82091,5,8,0:0:0:0:
256,192,82153,5,0,0:0:0:0:
256,192,82216,5,8,0:0:0:0:
256,192,82341,5,0,0:0:0:0:
256,192,82466,5,8,0:0:0:0:
256,192,82528,5,0,0:0:0:0:
256,192,82591,5,8,0:0:0:0:
256,192,82653,5,0,0:0:0:0:
256,192,82716,5,8,0:0:0:0:
256,192,82778,5,8,0:0:0:0:
256,192,82841,5,0,0:0:0:0:
256,192,82966,5,0,0:0:0:0:
256,192,83091,5,8,0:0:0:0:
256,192,83216,5,8,0:0:0:0:
256,192,83278,5,8,0:0:0:0:
256,192,83341,5,8,0:0:0:0:
256,192,83403,5,8,0:0:0:0:
256,192,83466,5,0,0:0:0:0:
256,192,83528,5,0,0:0:0:0:
256,192,83591,5,8,0:0:0:0:
256,192,83653,5,0,0:0:0:0:
256,192,83716,5,8,0:0:0:0:
256,192,83778,5,8,0:0:0:0:
256,192,83841,5,0,0:0:0:0:
256,192,83966,5,0,0:0:0:0:
256,192,84091,5,8,0:0:0:0:
256,192,84153,5,0,0:0:0:0:
256,192,84216,5,8,0:0:0:0:
256,192,84466,5,8,0:0:0:0:
256,192,84716,5,8,0:0:0:0:
256,192,84778,5,8,0:0:0:0:
256,192,84841,5,0,0:0:0:0:
256,192,84903,5,0,0:0:0:0:
256,192,84966,5,0,0:0:0:0:
256,192,85091,5,8,0:0:0:0:
256,192,85153,5,0,0:0:0:0:
256,192,85216,5,8,0:0:0:0:
256,192,85278,5,8,0:0:0:0:
256,192,85341,5,0,0:0:0:0:
256,192,85403,5,0,0:0:0:0:
256,192,85466,5,8,0:0:0:0:
256,192,85591,5,8,0:0:0:0:
256,192,85653,5,0,0:0:0:0:
256,192,85716,5,8,0:0:0:0:
256,192,85778,5,8,0:0:0:0:
256,192,85841,5,0,0:0:0:0:
256,192,85903,5,8,0:0:0:0:
256,192,85966,5,0,0:0:0:0:
256,192,86028,5,0,0:0:0:0:
256,192,86091,5,8,0:0:0:0:
256,192,86216,5,8,0:0:0:0:
256,192,86278,5,8,0:0:0:0:
256,192,86341,5,8,0:0:0:0:
256,192,86403,5,8,0:0:0:0:
256,192,86466,5,0,0:0:0:0:
256,192,86591,5,0,0:0:0:0:
256,192,86653,5,0,0:0:0:0:
256,192,86716,5,8,0:0:0:0:
256,192,86778,5,8,0:0:0:0:
256,192,86841,5,0,0:0:0:0:
256,192,86903,5,0,0:0:0:0:
256,192,86966,5,0,0:0:0:0:
256,192,87091,5,8,0:0:0:0:
256,192,87153,5,0,0:0:0:0:
256,192,87216,5,8,0:0:0:0:
256,192,87278,5,8,0:0:0:0:
256,192,87341,5,0,0:0:0:0:
256,192,87403,5,0,0:0:0:0:
256,192,87466,5,8,0:0:0:0:
256,192,87528,5,8,0:0:0:0:
256,192,87591,5,0,0:0:0:0:
256,192,87716,5,8,0:0:0:0:
256,192,87778,5,8,0:0:0:0:
256,192,87841,5,8,0:0:0:0:
256,192,87903,5,8,0:0:0:0:
256,192,87966,5,0,0:0:0:0:
256,192,88028,5,0,0:0:0:0:
256,192,88091,5,0,0:0:0:0:
256,192,88153,5,0,0:0:0:0:
256,192,88216,5,8,0:0:0:0:
256,192,88341,5,0,0:0:0:0:
256,192,88466,5,8,0:0:0:0:
256,192,88528,5,0,0:0:0:0:
256,192,88591,5,8,0:0:0:0:
256,192,88653,5,0,0:0:0:0:
256,192,88716,5,8,0:0:0:0:
256,192,88841,5,0,0:0:0:0:
256,192,88903,5,0,0:0:0:0:
256,192,88966,5,8,0:0:0:0:
256,192,89028,5,8,0:0:0:0:
256,192,89091,5,0,0:0:0:0:
256,192,89153,5,0,0:0:0:0:
256,192,89216,5,8,0:0:0:0:
256,192,89278,5,8,0:0:0:0:
256,192,89341,5,0,0:0:0:0:
256,192,89403,5,0,0:0:0:0:
256,192,89466,5,0,0:0:0:0:
256,192,89591,5,8,0:0:0:0:
256,192,89716,5,8,0:0:0:0:
256,192,89778,5,8,0:0:0:0:
256,192,89841,5,0,0:0:0:0:
256,192,89903,5,0,0:0:0:0:
256,192,89966,5,8,0:0:0:0:
256,192,90028,5,8,0:0:0:0:
256,192,90091,5,8,0:0:0:0:
256,192,90153,5,8,0:0:0:0:
256,192,90216,5,0,0:0:0:0:
256,192,90466,5,8,0:0:0:0:
256,192,90716,5,8,0:0:0:0:
256,192,90778,5,0,0:0:0:0:
256,192,90841,5,0,0:0:0:0:
256,192,90903,5,0,0:0:0:0:
256,192,90966,5,8,0:0:0:0:
256,192,91216,5,8,0:0:0:0:
256,192,91466,5,8,0:0:0:0:
256,192,91591,5,0,0:0:0:0:
256,192,91653,5,0,0:0:0:0:
256,192,91716,5,0,0:0:0:0:
256,192,91841,5,0,0:0:0:0:
256,192,91966,5,8,0:0:0:0:
256,192,92091,5,0,0:0:0:0:
256,192,92153,5,0,0:0:0:0:
256,192,92216,5,8,0:0:0:0:
256,192,92341,5,8,0:0:0:0:
256,192,92466,5,8,0:0:0:0:
256,192,92591,5,0,0:0:0:0:
256,192,92716,5,8,0:0:0:0:
256,192,92841,5,0,0:0:0:0:
256,192,92903,5,0,0:0:0:0:
256,192,92966,5,8,0:0:0:0:
256,192,93091,5,8,0:0:0:0:
256,192,93216,5,0,0:0:0:0:
256,192,93278,5,0,0:0:0:0:
256,192,93341,5,0,0:0:0:0:
256,192,93466,5,8,0:0:0:0:
256,192,93591,5,0,0:0:0:0:
256,192,93716,5,8,0:0:0:0:
256,192,93778,5,8,0:0:0:0:
256,192,93841,5,0,0:0:0:0:
256,192,93966,5,8,0:0:0:0:
256,192,94091,5,8,0:0:0:0:
256,192,94216,5,0,0:0:0:0:
256,192,94341,5,0,0:0:0:0:
256,192,94466,5,8,0:0:0:0:
256,192,94591,5,8,0:0:0:0:
256,192,94716,5,0,0:0:0:0:
256,192,94778,5,0,0:0:0:0:
256,192,94841,5,0,0:0:0:0:
256,192,94903,5,0,0:0:0:0:
256,192,94966,5,8,0:0:0:0:
256,192,95091,5,0,0:0:0:0:
256,192,95216,5,8,0:0:0:0:
256,192,95278,5,8,0:0:0:0:
256,192,95341,5,0,0:0:0:0:
256,192,95403,5,0,0:0:0:0:
256,192,95466,5,8,0:0:0:0:
256,192,95591,5,0,0:0:0:0:
256,192,95653,5,0,0:0:0:0:
256,192,95716,5,8,0:0:0:0:
256,192,95778,5,8,0:0:0:0:
256,192,95841,5,8,0:0:0:0:
256,192,95903,5,8,0:0:0:0:
256,192,95966,5,0,0:0:0:0:
256,192,96091,5,0,0:0:0:0:
256,192,96216,5,8,0:0:0:0:
256,192,96341,5,8,0:0:0:0:
256,192,96403,5,0,0:0:0:0:
256,192,96466,5,8,0:0:0:0:
256,192,96528,5,8,0:0:0:0:
256,192,96591,5,0,0:0:0:0:
256,192,96716,5,8,0:0:0:0:
256,192,96841,5,0,0:0:0:0:
256,192,96903,5,0,0:0:0:0:
256,192,96966,5,8,0:0:0:0:
256,192,97091,5,0,0:0:0:0:
256,192,97153,5,0,0:0:0:0:
256,192,97216,5,8,0:0:0:0:
256,192,97341,5,0,0:0:0:0:
256,192,97403,5,0,0:0:0:0:
256,192,97466,5,8,0:0:0:0:
256,192,97528,5,8,0:0:0:0:
256,192,97591,5,8,0:0:0:0:
256,192,97653,5,0,0:0:0:0:
256,192,97716,5,8,0:0:0:0:
256,192,97841,5,0,0:0:0:0:
256,192,97966,5,8,0:0:0:0:
256,192,98091,5,0,0:0:0:0:
256,192,98216,5,8,0:0:0:0:
256,192,98278,5,0,0:0:0:0:
256,192,98341,5,0,0:0:0:0:
256,192,98403,5,0,0:0:0:0:
256,192,98466,5,8,0:0:0:0:
256,192,98528,5,8,0:0:0:0:
256,192,98591,5,8,0:0:0:0:
256,192,98653,5,8,0:0:0:0:
256,192,98716,5,0,0:0:0:0:
256,192,98841,5,0,0:0:0:0:
256,192,98966,5,8,0:0:0:0:
256,192,99028,5,8,0:0:0:0:
256,192,99091,5,0,0:0:0:0:
256,192,99153,5,0,0:0:0:0:
256,192,99216,5,0,0:0:0:0:
256,192,99278,5,0,0:0:0:0:
256,192,99341,5,0,0:0:0:0:
256,192,99403,5,0,0:0:0:0:
256,192,99466,5,8,0:0:0:0:
256,192,99591,5,0,0:0:0:0:
256,192,99716,5,8,0:0:0:0:
256,192,99778,5,8,0:0:0:0:
256,192,99841,5,8,0:0:0:0:
256,192,99903,5,8,0:0:0:0:
256,192,99966,5,0,0:0:0:0:
256,192,100028,5,0,0:0:0:0:
256,192,100091,5,0,0:0:0:0:
256,192,100153,5,0,0:0:0:0:
256,192,100216,5,8,0:0:0:0:
256,192,100341,5,0,0:0:0:0:
256,192,100466,5,8,0:0:0:0:
256,192,100528,5,8,0:0:0:0:
256,192,100591,5,0,0:0:0:0:
256,192,100653,5,0,0:0:0:0:
256,192,100716,5,0,0:0:0:0:
256,192,100778,5,0,0:0:0:0:
256,192,100841,5,0,0:0:0:0:
256,192,100903,5,0,0:0:0:0:
256,192,100966,5,8,0:0:0:0:
256,192,101091,5,0,0:0:0:0:
256,192,101153,5,0,0:0:0:0:
256,192,101216,5,0,0:0:0:0:
256,192,101278,5,0,0:0:0:0:
256,192,101341,5,0,0:0:0:0:
256,192,101403,5,0,0:0:0:0:
256,192,101466,5,8,0:0:0:0:
256,192,101591,5,0,0:0:0:0:
256,192,101716,5,8,0:0:0:0:
256,192,101778,5,0,0:0:0:0:
256,192,101841,5,8,0:0:0:0:
256,192,101903,5,0,0:0:0:0:
256,192,101966,5,8,0:0:0:0:
256,192,102091,5,0,0:0:0:0:
256,192,102216,5,8,0:0:0:0:
256,192,102341,5,8,0:0:0:0:
256,192,102403,5,8,0:0:0:0:
256,192,102466,5,8,0:0:0:0:
256,192,102528,5,8,0:0:0:0:
256,192,102591,5,0,0:0:0:0:
256,192,102716,5,8,0:0:0:0:
256,192,102841,5,0,0:0:0:0:
256,192,102966,5,8,0:0:0:0:
256,192,103028,5,8,0:0:0:0:
256,192,103091,5,0,0:0:0:0:
256,192,103153,5,0,0:0:0:0:
256,192,103216,5,0,0:0:0:0:
256,192,103278,5,0,0:0:0:0:
256,192,103341,5,0,0:0:0:0:
256,192,103403,5,0,0:0:0:0:
256,192,103466,5,8,0:0:0:0:
256,192,103591,5,0,0:0:0:0:
256,192,103716,5,8,0:0:0:0:
256,192,103778,5,8,0:0:0:0:
256,192,103841,5,8,0:0:0:0:
256,192,103903,5,8,0:0:0:0:
256,192,103966,5,0,0:0:0:0:
256,192,104028,5,0,0:0:0:0:
256,192,104091,5,0,0:0:0:0:
256,192,104153,5,0,0:0:0:0:
256,192,104216,5,8,0:0:0:0:
256,192,104341,5,0,0:0:0:0:
256,192,104466,5,8,0:0:0:0:
256,192,104528,5,8,0:0:0:0:
256,192,104591,5,0,0:0:0:0:
256,192,104653,5,0,0:0:0:0:
256,192,104716,5,0,0:0:0:0:
256,192,104778,5,0,0:0:0:0:
256,192,104841,5,0,0:0:0:0:
256,192,104903,5,0,0:0:0:0:
256,192,104966,5,8,0:0:0:0:
256,192,105091,5,0,0:0:0:0:
256,192,105216,5,0,0:0:0:0:
256,192,105278,5,0,0:0:0:0:
256,192,105341,5,0,0:0:0:0:
256,192,105403,5,0,0:0:0:0:
256,192,105466,5,8,0:0:0:0:
256,192,105591,5,0,0:0:0:0:
256,192,105716,5,8,0:0:0:0:
256,192,105841,5,0,0:0:0:0:
256,192,105966,5,8,0:0:0:0:
256,192,106028,5,0,0:0:0:0:
256,192,106091,5,0,0:0:0:0:
256,192,106153,5,0,0:0:0:0:
256,192,106216,5,8,0:0:0:0:
256,192,106341,5,0,0:0:0:0:
256,192,106466,5,0,0:0:0:0:
256,192,106528,5,0,0:0:0:0:
256,192,106591,5,0,0:0:0:0:
256,192,106653,5,0,0:0:0:0:
256,192,106716,5,8,0:0:0:0:
256,192,106841,5,0,0:0:0:0:
256,192,106966,5,8,0:0:0:0:
256,192,107028,5,8,0:0:0:0:
256,192,107091,5,0,0:0:0:0:
256,192,107153,5,0,0:0:0:0:
256,192,107216,5,0,0:0:0:0:
256,192,107278,5,0,0:0:0:0:
256,192,107341,5,0,0:0:0:0:
256,192,107403,5,0,0:0:0:0:
256,192,107466,5,8,0:0:0:0:
256,192,107591,5,0,0:0:0:0:
256,192,107716,5,8,0:0:0:0:
256,192,107778,5,8,0:0:0:0:
256,192,107841,5,8,0:0:0:0:
256,192,107903,5,8,0:0:0:0:
256,192,107966,5,0,0:0:0:0:
256,192,108091,5,0,0:0:0:0:
256,192,108216,5,8,0:0:0:0:
256,192,108341,5,0,0:0:0:0:
256,192,108403,5,0,0:0:0:0:
256,192,108466,5,8,0:0:0:0:
256,192,108528,5,8,0:0:0:0:
256,192,108591,5,0,0:0:0:0:
256,192,108653,5,0,0:0:0:0:
256,192,108716,5,0,0:0:0:0:
256,192,108778,5,0,0:0:0:0:
256,192,108841,5,0,0:0:0:0:
256,192,108903,5,0,0:0:0:0:
256,192,108966,5,8,0:0:0:0:
256,192,109091,5,0,0:0:0:0:
256,192,109216,5,0,0:0:0:0:
256,192,109278,5,0,0:0:0:0:
256,192,109341,5,0,0:0:0:0:
256,192,109403,5,0,0:0:0:0:
256,192,109466,5,8,0:0:0:0:
256,192,109591,5,0,0:0:0:0:
256,192,109716,5,8,0:0:0:0:
256,192,109778,5,0,0:0:0:0:
256,192,109841,5,8,0:0:0:0:
256,192,109903,5,8,0:0:0:0:
256,192,109966,5,0,0:0:0:0:
256,192,110091,5,8,0:0:0:0:
256,192,110153,5,8,0:0:0:0:
256,192,110216,5,8,0:0:0:0:
256,192,110278,5,8,0:0:0:0:
256,192,110341,5,0,0:0:0:0:
256,192,110403,5,0,0:0:0:0:
256,192,110466,5,8,0:0:0:0:
256,192,110591,5,0,0:0:0:0:
256,192,110716,5,8,0:0:0:0:
256,192,110778,5,8,0:0:0:0:
256,192,110841,5,0,0:0:0:0:
256,192,110903,5,0,0:0:0:0:
256,192,110966,5,8,0:0:0:0:
256,192,111028,5,8,0:0:0:0:
256,192,111091,5,0,0:0:0:0:
256,192,111153,5,0,0:0:0:0:
256,192,111216,5,0,0:0:0:0:
256,192,111278,5,0,0:0:0:0:
256,192,111341,5,0,0:0:0:0:
256,192,111403,5,0,0:0:0:0:
256,192,111466,5,8,0:0:0:0:
256,192,111591,5,0,0:0:0:0:
256,192,111716,5,8,0:0:0:0:
256,192,111778,5,8,0:0:0:0:
256,192,111841,5,8,0:0:0:0:
256,192,111903,5,8,0:0:0:0:
256,192,111966,5,0,0:0:0:0:
256,192,112028,5,0,0:0:0:0:
256,192,112091,5,0,0:0:0:0:
256,192,112153,5,0,0:0:0:0:
256,192,112216,5,8,0:0:0:0:
256,192,112341,5,0,0:0:0:0:
256,192,112466,5,8,0:0:0:0:
256,192,112528,5,8,0:0:0:0:
256,192,112591,5,0,0:0:0:0:
256,192,112653,5,0,0:0:0:0:
256,192,112716,5,0,0:0:0:0:
256,192,112778,5,0,0:0:0:0:
256,192,112841,5,0,0:0:0:0:
256,192,112903,5,0,0:0:0:0:
256,192,112966,5,8,0:0:0:0:
256,192,113091,5,0,0:0:0:0:
256,192,113216,5,0,0:0:0:0:
256,192,113278,5,0,0:0:0:0:
256,192,113341,5,0,0:0:0:0:
256,192,113403,5,0,0:0:0:0:
256,192,113466,5,8,0:0:0:0:
256,192,113528,5,8,0:0:0:0:
256,192,113591,5,8,0:0:0:0:
256,192,113653,5,8,0:0:0:0:
256,192,113716,5,0,0:0:0:0:
256,192,113841,5,0,0:0:0:0:
256,192,113966,5,8,0:0:0:0:
256,192,114028,5,8,0:0:0:0:
256,192,114091,5,0,0:0:0:0:
256,192,114216,5,0,0:0:0:0:
256,192,114341,5,8,0:0:0:0:
256,192,114403,5,0,0:0:0:0:
256,192,114466,5,0,0:0:0:0:
256,192,114591,5,0,0:0:0:0:
256,192,114716,5,8,0:0:0:0:
256,192,114966,5,8,0:0:0:0:
256,192,115028,5,8,0:0:0:0:
256,192,115091,5,8,0:0:0:0:
256,192,115153,5,8,0:0:0:0:
256,192,115216,5,0,0:0:0:0:
256,192,115278,5,0,0:0:0:0:
256,192,115341,5,0,0:0:0:0:
256,192,115403,5,0,0:0:0:0:
256,192,115466,5,8,0:0:0:0:
256,192,115591,5,0,0:0:0:0:
256,192,115716,5,0,0:0:0:0:
256,192,115778,5,0,0:0:0:0:
256,192,115841,5,0,0:0:0:0:
256,192,115903,5,0,0:0:0:0:
256,192,115966,5,8,0:0:0:0:
256,192,116091,5,0,0:0:0:0:
256,192,116153,5,0,0:0:0:0:
256,192,116216,5,8,0:0:0:0:
256,192,116278,5,8,0:0:0:0:
256,192,116341,5,0,0:0:0:0:
256,192,116403,5,0,0:0:0:0:
256,192,116466,5,8,0:0:0:0:
256,192,116591,5,8,0:0:0:0:
256,192,116716,5,0,0:0:0:0:
256,192,116841,5,0,0:0:0:0:
256,192,116903,5,0,0:0:0:0:
256,192,116966,5,8,0:0:0:0:
256,192,117091,5,8,0:0:0:0:
256,192,117216,5,0,0:0:0:0:
256,192,117341,5,8,0:0:0:0:
256,192,117403,5,8,0:0:0:0:
256,192,117466,5,0,0:0:0:0:
256,192,117528,5,0,0:0:0:0:
256,192,117591,5,0,0:0:0:0:
256,192,117653,5,0,0:0:0:0:
256,192,117716,5,8,0:0:0:0:
256,192,117841,5,0,0:0:0:0:
256,192,117966,5,8,0:0:0:0:
256,192,118091,5,8,0:0:0:0:
256,192,118216,5,0,0:0:0:0:
256,192,118278,5,0,0:0:0:0:
256,192,118341,5,0,0:0:0:0:
256,192,118403,5,0,0:0:0:0:
256,192,118466,5,8,0:0:0:0:
256,192,118591,5,0,0:0:0:0:
256,192,118716,5,0,0:0:0:0:
256,192,118778,5,0,0:0:0:0:
256,192,118841,5,0,0:0:0:0:
256,192,118903,5,0,0:0:0:0:
256,192,118966,5,8,0:0:0:0:
256,192,119091,5,8,0:0:0:0:
256,192,119216,5,0,0:0:0:0:
256,192,119341,5,0,0:0:0:0:
256,192,119466,5,0,0:0:0:0:
256,192,119528,5,0,0:0:0:0:
256,192,119591,5,0,0:0:0:0:
256,192,119653,5,0,0:0:0:0:
256,192,119716,5,8,0:0:0:0:
256,192,119778,5,8,0:0:0:0:
256,192,119841,5,0,0:0:0:0:
256,192,119903,5,0,0:0:0:0:
256,192,119966,5,8,0:0:0:0:
256,192,120091,5,0,0:0:0:0:
256,192,120216,5,8,0:0:0:0:
256,192,120278,5,8,0:0:0:0:
256,192,120341,5,0,0:0:0:0:
256,192,120403,5,0,0:0:0:0:
256,192,120466,5,0,0:0:0:0:
256,192,120591,5,0,0:0:0:0:
256,192,120716,5,8,0:0:0:0:
256,192,120778,5,8,0:0:0:0:
256,192,120841,5,0,0:0:0:0:
256,192,120903,5,0,0:0:0:0:
256,192,120966,5,8,0:0:0:0:
256,192,121091,5,0,0:0:0:0:
256,192,121216,5,8,0:0:0:0:
256,192,121341,5,0,0:0:0:0:
256,192,121403,5,0,0:0:0:0:
256,192,121466,5,8,0:0:0:0:
256,192,121528,5,8,0:0:0:0:
256,192,121591,5,8,0:0:0:0:
256,192,121653,5,8,0:0:0:0:
256,192,121716,5,0,0:0:0:0:
256,192,121841,5,0,0:0:0:0:
256,192,121966,5,8,0:0:0:0:
256,192,122028,5,8,0:0:0:0:
256,192,122091,5,8,0:0:0:0:
256,192,122153,5,8,0:0:0:0:
256,192,122216,5,0,0:0:0:0:
256,192,122341,5,0,0:0:0:0:
256,192,122403,5,0,0:0:0:0:
256,192,122466,5,8,0:0:0:0:
256,192,122591,5,0,0:0:0:0:
256,192,122716,5,0,0:0:0:0:
256,192,122778,5,0,0:0:0:0:
256,192,122841,5,0,0:0:0:0:
256,192,122903,5,0,0:0:0:0:
256,192,122966,5,8,0:0:0:0:
256,192,123091,5,0,0:0:0:0:
256,192,123216,5,8,0:0:0:0:
256,192,123278,5,8,0:0:0:0:
256,192,123341,5,8,0:0:0:0:
256,192,123403,5,0,0:0:0:0:
256,192,123466,5,8,0:0:0:0:
256,192,123591,5,0,0:0:0:0:
256,192,123716,5,8,0:0:0:0:
256,192,123778,5,8,0:0:0:0:
256,192,123841,5,0,0:0:0:0:
256,192,123903,5,0,0:0:0:0:
256,192,123966,5,8,0:0:0:0:
256,192,124091,5,0,0:0:0:0:
256,192,124153,5,0,0:0:0:0:
256,192,124216,5,0,0:0:0:0:
256,192,124278,5,0,0:0:0:0:
256,192,124341,5,0,0:0:0:0:
256,192,124403,5,0,0:0:0:0:
256,192,124466,5,8,0:0:0:0:
256,192,124591,5,8,0:0:0:0:
256,192,124716,5,0,0:0:0:0:
256,192,124778,5,0,0:0:0:0:
256,192,124841,5,0,0:0:0:0:
256,192,124903,5,0,0:0:0:0:
256,192,124966,5,8,0:0:0:0:
256,192,125091,5,0,0:0:0:0:
256,192,125153,5,0,0:0:0:0:
256,192,125216,5,8,0:0:0:0:
256,192,125278,5,8,0:0:0:0:
256,192,125341,5,8,0:0:0:0:
256,192,125403,5,8,0:0:0:0:
256,192,125466,5,0,0:0:0:0:
256,192,125591,5,0,0:0:0:0:
256,192,125716,5,8,0:0:0:0:
256,192,125841,5,8,0:0:0:0:
256,192,125903,5,0,0:0:0:0:
256,192,125966,5,8,0:0:0:0:
256,192,126028,5,8,0:0:0:0:
256,192,126091,5,8,0:0:0:0:
256,192,126153,5,8,0:0:0:0:
256,192,126216,5,0,0:0:0:0:
256,192,126341,5,0,0:0:0:0:
256,192,126466,5,8,0:0:0:0:
256,192,126591,5,8,0:0:0:0:
256,192,126653,5,8,0:0:0:0:
256,192,126716,5,8,0:0:0:0:
256,192,126778,5,8,0:0:0:0:
256,192,126841,5,0,0:0:0:0:
256,192,126903,5,0,0:0:0:0:
256,192,126966,5,8,0:0:0:0:
256,192,127091,5,0,0:0:0:0:
256,192,127216,5,8,0:0:0:0:
256,192,127278,5,8,0:0:0:0:
256,192,127341,5,8,0:0:0:0:
256,192,127403,5,8,0:0:0:0:
256,192,127466,5,0,0:0:0:0:
256,192,127528,5,0,0:0:0:0:
256,192,127591,5,0,0:0:0:0:
256,192,127653,5,0,0:0:0:0:
256,192,127716,5,8,0:0:0:0:
256,192,127841,5,0,0:0:0:0:
256,192,127966,5,8,0:0:0:0:
256,192,128028,5,8,0:0:0:0:
256,192,128091,5,8,0:0:0:0:
256,192,128153,5,0,0:0:0:0:
256,192,128216,5,8,0:0:0:0:
256,192,128278,5,8,0:0:0:0:
256,192,128341,5,0,0:0:0:0:
256,192,128466,5,0,0:0:0:0:
256,192,128591,5,0,0:0:0:0:
256,192,128716,5,8,0:0:0:0:
256,192,128778,5,8,0:0:0:0:
256,192,128841,5,0,0:0:0:0:
256,192,128903,5,0,0:0:0:0:
256,192,128966,5,8,0:0:0:0:
256,192,129091,5,0,0:0:0:0:
256,192,129153,5,0,0:0:0:0:
256,192,129216,5,8,0:0:0:0:
256,192,129278,5,8,0:0:0:0:
256,192,129341,5,8,0:0:0:0:
256,192,129403,5,8,0:0:0:0:
256,192,129466,5,0,0:0:0:0:
256,192,129591,5,0,0:0:0:0:
256,192,129716,5,8,0:0:0:0:
256,192,129778,5,8,0:0:0:0:
256,192,129841,5,8,0:0:0:0:
256,192,129903,5,8,0:0:0:0:
256,192,129966,5,0,0:0:0:0:
256,192,130028,5,0,0:0:0:0:
256,192,130091,5,0,0:0:0:0:
256,192,130153,5,0,0:0:0:0:
256,192,130216,5,8,0:0:0:0:
256,192,130341,5,0,0:0:0:0:
256,192,130466,5,8,0:0:0:0:
256,192,130528,5,8,0:0:0:0:
256,192,130591,5,8,0:0:0:0:
256,192,130653,5,8,0:0:0:0:
256,192,130716,5,0,0:0:0:0:
256,192,130966,5,8,0:0:0:0:
256,192,131028,5,8,0:0:0:0:
256,192,131091,5,0,0:0:0:0:
256,192,131153,5,0,0:0:0:0:
256,192,131216,5,8,0:0:0:0:
256,192,131278,5,8,0:0:0:0:
256,192,131341,5,0,0:0:0:0:
256,192,131403,5,0,0:0:0:0:
256,192,131466,5,8,0:0:0:0:
256,192,131591,5,0,0:0:0:0:
256,192,131716,5,0,0:0:0:0:
256,192,131778,5,0,0:0:0:0:
256,192,131841,5,0,0:0:0:0:
256,192,131903,5,0,0:0:0:0:
256,192,131966,5,8,0:0:0:0:
256,192,132091,5,0,0:0:0:0:
256,192,132216,5,8,0:0:0:0:
256,192,132341,5,0,0:0:0:0:
256,192,132466,5,0,0:0:0:0:
256,192,132528,5,0,0:0:0:0:
256,192,132591,5,0,0:0:0:0:
256,192,132653,5,0,0:0:0:0:
256,192,132716,5,0,0:0:0:0:
256,192,132841,5,8,0:0:0:0:
256,192,132966,5,0,0:0:0:0:
256,192,133091,5,8,0:0:0:0:
256,192,133153,5,8,0:0:0:0:
256,192,133216,5,8,0:0:0:0:
256,192,133341,5,8,0:0:0:0:
256,192,133466,5,0,0:0:0:0:
256,192,133528,5,0,0:0:0:0:
256,192,133591,5,0,0:0:0:0:
256,192,133653,5,0,0:0:0:0:
256,192,133716,5,8,0:0:0:0:
256,192,133841,5,0,0:0:0:0:
256,192,133966,5,8,0:0:0:0:
256,192,134028,5,8,0:0:0:0:
256,192,134091,5,8,0:0:0:0:
256,192,134153,5,8,0:0:0:0:
256,192,134216,5,0,0:0:0:0:
256,192,134341,5,0,0:0:0:0:
256,192,134466,5,8,0:0:0:0:
256,192,134528,5,8,0:0:0:0:
256,192,134591,5,0,0:0:0:0:
256,192,134653,5,0,0:0:0:0:
256,192,134716,5,8,0:0:0:0:
256,192,134778,5,8,0:0:0:0:
256,192,134841,5,8,0:0:0:0:
256,192,134903,5,0,0:0:0:0:
256,192,134966,5,8,0:0:0:0:
256,192,135091,5,8,0:0:0:0:
256,192,135216,5,0,0:0:0:0:
256,192,135341,5,8,0:0:0:0:
256,192,135403,5,8,0:0:0:0:
256,192,135466,5,8,0:0:0:0:
256,192,135528,5,8,0:0:0:0:
256,192,135591,5,0,0:0:0:0:
256,192,135653,5,0,0:0:0:0:
256,192,135716,5,8,0:0:0:0:
256,192,135778,5,8,0:0:0:0:
256,192,135841,5,8,0:0:0:0:
256,192,135903,5,8,0:0:0:0:
256,192,135966,5,0,0:0:0:0:
256,192,136091,5,0,0:0:0:0:
256,192,136216,5,8,0:0:0:0:
256,192,136341,5,0,0:0:0:0:
256,192,136403,5,0,0:0:0:0:
256,192,136466,5,8,0:0:0:0:
256,192,136591,5,0,0:0:0:0:
256,192,136716,5,8,0:0:0:0:
256,192,136778,5,8,0:0:0:0:
256,192,136841,5,0,0:0:0:0:
256,192,136903,5,0,0:0:0:0:
256,192,136966,5,8,0:0:0:0:
256,192,137028,5,8,0:0:0:0:
256,192,137091,5,8,0:0:0:0:
256,192,137153,5,8,0:0:0:0:
256,192,137216,5,0,0:0:0:0:
256,192,137341,5,0,0:0:0:0:
256,192,137403,5,0,0:0:0:0:
256,192,137466,5,8,0:0:0:0:
256,192,137591,5,0,0:0:0:0:
256,192,137716,5,8,0:0:0:0:
256,192,137778,5,8,0:0:0:0:
256,192,137841,5,8,0:0:0:0:
256,192,137903,5,8,0:0:0:0:
256,192,137966,5,0,0:0:0:0:
256,192,138091,5,0,0:0:0:0:
256,192,138216,5,0,0:0:0:0:
256,192,138278,5,0,0:0:0:0:
256,192,138341,5,0,0:0:0:0:
256,192,138403,5,0,0:0:0:0:
256,192,138466,5,8,0:0:0:0:
256,192,138591,5,0,0:0:0:0:
256,192,138653,5,0,0:0:0:0:
256,192,138716,5,0,0:0:0:0:
256,192,138778,5,0,0:0:0:0:
256,192,138841,5,0,0:0:0:0:
256,192,138903,5,0,0:0:0:0:
256,192,138966,5,8,0:0:0:0:
256,192,139091,5,0,0:0:0:0:
256,192,139216,5,0,0:0:0:0:
256,192,139278,5,0,0:0:0:0:
256,192,139341,5,0,0:0:0:0:
256,192,139403,5,0,0:0:0:0:
256,192,139466,5,8,0:0:0:0:
256,192,139591,5,0,0:0:0:0:
256,192,139653,5,0,0:0:0:0:
256,192,139716,5,8,0:0:0:0:
256,192,139778,5,8,0:0:0:0:
256,192,139841,5,0,0:0:0:0:
256,192,139903,5,0,0:0:0:0:
256,192,139966,5,8,0:0:0:0:
256,192,140091,5,0,0:0:0:0:
256,192,140216,5,8,0:0:0:0:
256,192,140278,5,8,0:0:0:0:
256,192,140341,5,8,0:0:0:0:
256,192,140403,5,8,0:0:0:0:
256,192,140466,5,0,0:0:0:0:
256,192,140591,5,0,0:0:0:0:
256,192,140716,5,0,0:0:0:0:
256,192,140778,5,0,0:0:0:0:
256,192,140841,5,0,0:0:0:0:
256,192,140903,5,0,0:0:0:0:
256,192,140966,5,8,0:0:0:0:
256,192,141091,5,8,0:0:0:0:
256,192,141216,5,0,0:0:0:0:
256,192,141278,5,0,0:0:0:0:
256,192,141341,5,0,0:0:0:0:
256,192,141403,5,0,0:0:0:0:
256,192,141466,5,8,0:0:0:0:
256,192,141528,5,8,0:0:0:0:
256,192,141591,5,8,0:0:0:0:
256,192,141653,5,8,0:0:0:0:
256,192,141716,5,0,0:0:0:0:
256,192,141841,5,0,0:0:0:0:
256,192,141966,5,8,0:0:0:0:
256,192,142028,5,8,0:0:0:0:
256,192,142091,5,0,0:0:0:0:
256,192,142153,5,0,0:0:0:0:
256,192,142216,5,8,0:0:0:0:
256,192,142278,5,8,0:0:0:0:
256,192,142341,5,8,0:0:0:0:
256,192,142403,5,0,0:0:0:0:
256,192,142466,5,8,0:0:0:0:
256,192,142591,5,0,0:0:0:0:
256,192,142716,5,8,0:0:0:0:
256,192,142841,5,0,0:0:0:0:
256,192,142903,5,0,0:0:0:0:
256,192,142966,5,8,0:0:0:0:
256,192,143028,5,8,0:0:0:0:
256,192,143091,5,8,0:0:0:0:
256,192,143153,5,8,0:0:0:0:
256,192,143216,5,0,0:0:0:0:
256,192,143341,5,0,0:0:0:0:
256,192,143466,5,8,0:0:0:0:
256,192,143528,5,8,0:0:0:0:
256,192,143591,5,8,0:0:0:0:
256,192,143653,5,8,0:0:0:0:
256,192,143716,5,0,0:0:0:0:
256,192,143778,5,0,0:0:0:0:
256,192,143841,5,0,0:0:0:0:
256,192,143903,5,0,0:0:0:0:
256,192,143966,5,8,0:0:0:0:
256,192,144091,5,0,0:0:0:0:
256,192,144216,5,8,0:0:0:0:
256,192,144278,5,8,0:0:0:0:
256,192,144341,5,8,0:0:0:0:
256,192,144403,5,8,0:0:0:0:
256,192,144466,5,0,0:0:0:0:
256,192,144591,5,0,0:0:0:0:
256,192,144716,5,8,0:0:0:0:
256,192,144778,5,8,0:0:0:0:
256,192,144841,5,0,0:0:0:0:
256,192,144903,5,0,0:0:0:0:
256,192,144966,5,8,0:0:0:0:
256,192,145091,5,0,0:0:0:0:
256,192,145216,5,8,0:0:0:0:
256,192,145341,5,0,0:0:0:0:
256,192,145466,5,8,0:0:0:0:
256,192,145528,5,8,0:0:0:0:
256,192,145591,5,8,0:0:0:0:
256,192,145653,5,0,0:0:0:0:
256,192,145716,5,8,0:0:0:0:
256,192,145778,5,8,0:0:0:0:
256,192,145841,5,8,0:0:0:0:
256,192,145903,5,8,0:0:0:0:
256,192,145966,5,0,0:0:0:0:
256,192,146091,5,0,0:0:0:0:
256,192,146216,5,8,0:0:0:0:
256,192,146341,5,0,0:0:0:0:
256,192,146403,5,0,0:0:0:0:
256,192,146466,5,8,0:0:0:0:
256,192,146716,5,0,0:0:0:0:
256,192,146966,5,8,0:0:0:0:
256,192,147028,5,8,0:0:0:0:
256,192,147091,5,0,0:0:0:0:
256,192,147153,5,0,0:0:0:0:
256,192,147216,5,0,0:0:0:0:
256,192,147341,5,0,0:0:0:0:
256,192,147466,5,0,0:0:0:0:
256,192,147591,5,0,0:0:0:0:
256,192,147716,5,0,0:0:0:0:
256,192,147841,5,0,0:0:0:0:
256,192,147903,5,0,0:0:0:0:
256,192,147966,5,8,0:0:0:0:
256,192,148028,5,8,0:0:0:0:
256,192,148091,5,0,0:0:0:0:
256,192,148153,5,0,0:0:0:0:
256,192,148216,5,0,0:0:0:0:
256,192,148341,5,0,0:0:0:0:
256,192,148466,5,8,0:0:0:0:
256,192,148528,5,8,0:0:0:0:
256,192,148591,5,8,0:0:0:0:
256,192,148653,5,8,0:0:0:0:
256,192,148716,5,0,0:0:0:0:
256,192,148778,5,0,0:0:0:0:
256,192,148841,5,0,0:0:0:0:
256,192,148903,5,0,0:0:0:0:
256,192,148966,5,0,0:0:0:0:
256,192,149091,5,0,0:0:0:0:
256,192,149216,5,0,0:0:0:0:
256,192,149341,5,0,0:0:0:0:
256,192,149403,5,0,0:0:0:0:
256,192,149466,5,8,0:0:0:0:
256,192,149528,5,8,0:0:0:0:
256,192,149591,5,8,0:0:0:0:
256,192,149653,5,8,0:0:0:0:
256,192,149716,5,0,0:0:0:0:
256,192,149841,5,0,0:0:0:0:
256,192,149966,5,8,0:0:0:0:
256,192,150028,5,8,0:0:0:0:
256,192,150091,5,0,0:0:0:0:
256,192,150153,5,0,0:0:0:0:
256,192,150216,5,0,0:0:0:0:
256,192,150341,5,0,0:0:0:0:
256,192,150466,5,0,0:0:0:0:
256,192,150591,5,0,0:0:0:0:
256,192,150716,5,0,0:0:0:0:
256,192,150778,5,0,0:0:0:0:
256,192,150841,5,0,0:0:0:0:
256,192,150903,5,0,0:0:0:0:
256,192,150966,5,8,0:0:0:0:
256,192,151091,5,0,0:0:0:0:
256,192,151153,5,0,0:0:0:0:
256,192,151216,5,0,0:0:0:0:
256,192,151341,5,0,0:0:0:0:
256,192,151466,5,8,0:0:0:0:
256,192,151528,5,8,0:0:0:0:
256,192,151591,5,8,0:0:0:0:
256,192,151653,5,8,0:0:0:0:
256,192,151716,5,0,0:0:0:0:
256,192,151841,5,0,0:0:0:0:
256,192,151966,5,8,0:0:0:0:
256,192,152028,5,8,0:0:0:0:
256,192,152091,5,8,0:0:0:0:
256,192,152153,5,8,0:0:0:0:
256,192,152216,5,0,0:0:0:0:
256,192,152341,5,0,0:0:0:0:
256,192,152466,5,8,0:0:0:0:
256,192,152528,5,8,0:0:0:0:
256,192,152591,5,0,0:0:0:0:
256,192,152653,5,0,0:0:0:0:
256,192,152716,5,8,0:0:0:0:
256,192,152966,5,8,0:0:0:0:
256,192,153028,1,8,0:0:0:0:
256,192,153091,1,8,0:0:0:0:
256,192,153153,1,8,0:0:0:0:
256,192,153216,1,8,0:0:0:0:
256,192,153278,1,8,0:0:0:0:
256,192,153341,1,8,0:0:0:0:
256,192,153403,1,8,0:0:0:0:
256,192,153466,1,8,0:0:0:0:
256,192,153528,1,8,0:0:0:0:
256,192,153591,1,8,0:0:0:0:
256,192,153716,5,0,0:0:0:0:
256,192,153841,5,0,0:0:0:0:
256,192,153966,5,8,0:0:0:0:
256,192,154028,5,0,0:0:0:0:
256,192,154091,5,0,0:0:0:0:
256,192,154153,5,0,0:0:0:0:
256,192,154216,5,8,0:0:0:0:
256,192,154278,5,8,0:0:0:0:
256,192,154341,5,0,0:0:0:0:
256,192,154403,5,0,0:0:0:0:
256,192,154466,5,8,0:0:0:0:
256,192,154591,5,8,0:0:0:0:
256,192,154716,5,8,0:0:0:0:
256,192,154778,1,8,0:0:0:0:
256,192,154841,1,8,0:0:0:0:
256,192,154903,1,8,0:0:0:0:
256,192,154966,1,8,0:0:0:0:
256,192,155028,1,8,0:0:0:0:
256,192,155091,1,8,0:0:0:0:
256,192,155153,1,8,0:0:0:0:
256,192,155216,1,0,0:0:0:0:
256,192,155341,5,8,0:0:0:0:
256,192,155466,5,0,0:0:0:0:
256,192,155528,5,0,0:0:0:0:
256,192,155591,5,8,0:0:0:0:
256,192,155653,5,8,0:0:0:0:
256,192,155716,5,0,0:0:0:0:
256,192,155778,5,0,0:0:0:0:
256,192,155841,5,0,0:0:0:0:
256,192,155903,5,0,0:0:0:0:
256,192,155966,5,8,0:0:0:0:
256,192,156091,5,8,0:0:0:0:
256,192,156153,1,8,0:0:0:0:
256,192,156216,1,8,0:0:0:0:
256,192,156278,1,8,0:0:0:0:
256,192,156341,1,8,0:0:0:0:
256,192,156403,1,8,0:0:0:0:
256,192,156466,1,8,0:0:0:0:
256,192,156528,1,8,0:0:0:0:
256,192,156591,1,8,0:0:0:0:
256,192,156653,1,8,0:0:0:0:
256,192,156716,1,8,0:0:0:0:
256,192,156841,5,8,0:0:0:0:
256,192,156966,5,0,0:0:0:0:
256,192,157028,1,0,0:0:0:0:
256,192,157091,1,0,0:0:0:0:
256,192,157153,1,0,0:0:0:0:
256,192,157216,1,0,0:0:0:0:
256,192,157278,1,0,0:0:0:0:
256,192,157341,1,0,0:0:0:0:
256,192,157403,1,0,0:0:0:0:
256,192,157466,1,8,0:0:0:0:
256,192,157591,5,0,0:0:0:0:
256,192,157653,5,0,0:0:0:0:
256,192,157716,5,0,0:0:0:0:
256,192,157841,5,8,0:0:0:0:
256,192,157966,5,0,0:0:0:0:
256,192,158091,5,0,0:0:0:0:
256,192,158216,5,8,0:0:0:0:
256,192,158341,5,0,0:0:0:0:
256,192,158466,5,0,0:0:0:0:
256,192,158591,5,8,0:0:0:0:
256,192,158716,5,8,0:0:0:0:
256,192,158778,5,0,0:0:0:0:
256,192,158841,5,0,0:0:0:0:
256,192,158903,5,0,0:0:0:0:
256,192,158966,5,8,0:0:0:0:
256,192,159028,5,8,0:0:0:0:
256,192,159091,5,0,0:0:0:0:
256,192,159153,5,0,0:0:0:0:
256,192,159216,5,0,0:0:0:0:
256,192,159341,5,0,0:0:0:0:
256,192,159466,5,8,0:0:0:0:
256,192,159591,5,0,0:0:0:0:
256,192,159716,5,8,0:0:0:0:
256,192,159778,5,8,0:0:0:0:
256,192,159841,5,0,0:0:0:0:
256,192,159903,5,0,0:0:0:0:
256,192,159966,5,0,0:0:0:0:
256,192,160091,5,0,0:0:0:0:
256,192,160216,5,8,0:0:0:0:
256,192,160299,5,8,0:0:0:0:
256,192,160382,5,8,0:0:0:0:
256,192,160466,5,0,0:0:0:0:
256,192,160549,5,0,0:0:0:0:
256,192,160632,5,8,0:0:0:0:
256,192,160716,5,0,0:0:0:0:
256,192,160799,5,8,0:0:0:0:
256,192,160882,5,8,0:0:0:0:
256,192,160966,5,8,0:0:0:0:
256,192,161049,5,0,0:0:0:0:
256,192,161132,5,8,0:0:0:0:
256,192,161216,5,8,0:0:0:0:
256,192,161299,5,0,0:0:0:0:
256,192,161382,5,0,0:0:0:0:
256,192,161466,5,8,0:0:0:0:
256,192,161549,5,0,0:0:0:0:
256,192,161632,5,0,0:0:0:0:
256,192,161716,5,8,0:0:0:0:
256,192,161799,5,8,0:0:0:0:
256,192,161882,5,0,0:0:0:0:
256,192,161966,5,8,0:0:0:0:
256,192,162049,5,0,0:0:0:0:
256,192,162132,5,8,0:0:0:0:
256,192,162216,5,0,0:0:0:0:
256,192,162299,5,0,0:0:0:0:
256,192,162382,5,8,0:0:0:0:
256,192,162466,5,0,0:0:0:0:
256,192,162549,5,0,0:0:0:0:
256,192,162632,5,0,0:0:0:0:
256,192,162716,5,8,0:0:0:0:
256,192,162841,5,8,0:0:0:0:
256,192,162903,5,8,0:0:0:0:
256,192,162966,5,0,0:0:0:0:
256,192,163028,5,0,0:0:0:0:
256,192,163091,5,0,0:0:0:0:
256,192,163153,5,0,0:0:0:0:
256,192,163216,5,8,0:0:0:0:
256,192,163341,5,8,0:0:0:0:
256,192,163466,5,8,0:0:0:0:
256,192,163528,5,8,0:0:0:0:
256,192,163591,5,0,0:0:0:0:
256,192,163716,5,0,0:0:0:0:
256,192,163841,5,8,0:0:0:0:
256,192,163966,5,0,0:0:0:0:
256,192,164091,5,8,0:0:0:0:
256,192,164216,5,8,0:0:0:0:
256,192,164278,5,0,0:0:0:0:
256,192,164341,5,0,0:0:0:0:
256,192,164466,5,0,0:0:0:0:
256,192,164591,5,8,0:0:0:0:
256,192,164716,5,0,0:0:0:0:
256,192,164841,5,8,0:0:0:0:
256,192,164966,5,0,0:0:0:0:
256,192,165091,5,0,0:0:0:0:
256,192,165216,5,8,0:0:0:0:
256,192,165299,5,8,0:0:0:0:
256,192,165382,5,0,0:0:0:0:
256,192,165466,5,8,0:0:0:0:
256,192,165549,5,8,0:0:0:0:
256,192,165632,5,8,0:0:0:0:
256,192,165716,5,0,0:0:0:0:
256,192,165841,5,8,0:0:0:0:
256,192,165903,5,8,0:0:0:0:
256,192,165966,5,0,0:0:0:0:
256,192,166028,5,0,0:0:0:0:
256,192,166091,5,8,0:0:0:0:
256,192,166153,5,8,0:0:0:0:
256,192,166216,5,0,0:0:0:0:
256,192,166278,5,0,0:0:0:0:
256,192,166341,5,8,0:0:0:0:
256,192,166466,5,0,0:0:0:0:
256,192,166549,5,0,0:0:0:0:
256,192,166632,5,0,0:0:0:0:
256,192,166716,5,8,0:0:0:0:
256,192,166799,5,0,0:0:0:0:
256,192,166882,5,0,0:0:0:0:
256,192,166966,5,8,0:0:0:0:
256,192,167049,5,8,0:0:0:0:
256,192,167132,5,8,0:0:0:0:
256,192,167216,5,0,0:0:0:0:
256,192,167299,5,8,0:0:0:0:
256,192,167382,5,8,0:0:0:0:
256,192,167466,5,0,0:0:0:0:
256,192,167549,5,8,0:0:0:0:
256,192,167632,5,0,0:0:0:0:
256,192,167716,5,8,0:0:0:0:
256,192,167799,5,0,0:0:0:0:
256,192,167882,5,0,0:0:0:0:
256,192,167966,5,8,0:0:0:0:
256,192,168091,5,0,0:0:0:0:
256,192,168153,5,0,0:0:0:0:
256,192,168216,5,0,0:0:0:0:
256,192,168278,5,0,0:0:0:0:
256,192,168341,5,0,0:0:0:0:
256,192,168403,5,0,0:0:0:0:
256,192,168466,5,8,0:0:0:0:
256,192,168591,5,8,0:0:0:0:
256,192,168653,5,8,0:0:0:0:
256,192,168716,5,0,0:0:0:0:
256,192,168778,5,0,0:0:0:0:
256,192,168841,5,0,0:0:0:0:
256,192,168903,5,0,0:0:0:0:
256,192,168966,5,8,0:0:0:0:
256,192,169091,5,0,0:0:0:0:
256,192,169153,5,0,0:0:0:0:
256,192,169216,5,8,0:0:0:0:
256,192,169278,5,0,0:0:0:0:
256,192,169341,5,0,0:0:0:0:
256,192,169403,5,0,0:0:0:0:
256,192,169466,5,8,0:0:0:0:
256,192,169591,5,8,0:0:0:0:
256,192,169716,5,0,0:0:0:0:
256,192,169841,5,0,0:0:0:0:
256,192,169872,5,0,0:0:0:0:
256,192,169966,5,0,0:0:0:0:
256,192,170091,5,0,0:0:0:0:
256,192,170216,5,8,0:0:0:0:
256,192,170341,5,0,0:0:0:0:
256,192,170466,5,0,0:0:0:0:
256,192,170528,5,0,0:0:0:0:
256,192,170591,5,8,0:0:0:0:
256,192,170653,5,0,0:0:0:0:
256,192,170716,5,0,0:0:0:0:
256,192,170841,5,8,0:0:0:0:
256,192,170966,5,8,0:0:0:0:
256,192,171091,5,0,0:0:0:0:
256,192,171216,5,0,0:0:0:0:
256,192,171341,5,0,0:0:0:0:
256,192,171466,5,0,0:0:0:0:
256,192,171591,5,0,0:0:0:0:
256,192,171716,5,8,0:0:0:0:
256,192,171841,5,8,0:0:0:0:
256,192,171966,5,0,0:0:0:0:
256,192,172028,5,0,0:0:0:0:
256,192,172091,5,8,0:0:0:0:
256,192,172153,5,0,0:0:0:0:
256,192,172216,5,8,0:0:0:0:
256,192,172341,5,0,0:0:0:0:
256,192,172466,5,8,0:0:0:0:
256,192,172591,5,0,0:0:0:0:
256,192,172716,5,0,0:0:0:0:
256,192,172841,5,8,0:0:0:0:
256,192,172872,5,8,0:0:0:0:
256,192,172966,5,0,0:0:0:0:
256,192,173091,5,0,0:0:0:0:
256,192,173216,5,8,0:0:0:0:
256,192,173341,5,8,0:0:0:0:
256,192,173466,5,0,0:0:0:0:
256,192,173528,5,0,0:0:0:0:
256,192,173591,5,8,0:0:0:0:
256,192,173653,5,8,0:0:0:0:
256,192,173716,5,0,0:0:0:0:
256,192,173841,5,8,0:0:0:0:
256,192,173966,5,0,0:0:0:0:
256,192,174091,5,8,0:0:0:0:
256,192,174216,5,0,0:0:0:0:
256,192,174341,5,0,0:0:0:0:
256,192,174372,5,0,0:0:0:0:
256,192,174466,5,8,0:0:0:0:
256,192,174591,5,0,0:0:0:0:
256,192,174716,5,8,0:0:0:0:
256,192,174841,5,0,0:0:0:0:
256,192,174966,5,8,0:0:0:0:
256,192,175028,5,0,0:0:0:0:
256,192,175091,5,0,0:0:0:0:
256,192,175216,5,0,0:0:0:0:
256,192,175278,5,8,0:0:0:0:
256,192,175341,5,0,0:0:0:0:
256,192,175403,5,0,0:0:0:0:
256,192,175466,5,8,0:0:0:0:
256,192,175591,5,0,0:0:0:0:
256,192,175716,5,8,0:0:0:0:
256,192,175841,5,8,0:0:0:0:
256,192,175872,5,8,0:0:0:0:
256,192,175966,5,8,0:0:0:0:
256,192,176091,5,0,0:0:0:0:
256,192,176216,5,8,0:0:0:0:
256,192,176341,5,8,0:0:0:0:
256,192,176466,5,0,0:0:0:0:
256,192,176528,5,0,0:0:0:0:
256,192,176591,5,0,0:0:0:0:
256,192,176716,5,8,0:0:0:0:
256,192,176841,5,0,0:0:0:0:
256,192,176966,5,8,0:0:0:0:
256,192,177091,5,8,0:0:0:0:
256,192,177216,5,0,0:0:0:0:
256,192,177341,5,8,0:0:0:0:
256,192,177372,5,8,0:0:0:0:
256,192,177466,5,0,0:0:0:0:
256,192,177591,5,0,0:0:0:0:
256,192,177716,5,8,0:0:0:0:
256,192,177841,5,8,0:0:0:0:
256,192,177966,5,0,0:0:0:0:
256,192,178091,5,8,0:0:0:0:
256,192,178216,5,0,0:0:0:0:
256,192,178341,5,0,0:0:0:0:
256,192,178466,5,8,0:0:0:0:
256,192,178528,5,8,0:0:0:0:
256,192,178591,5,8,0:0:0:0:
256,192,178653,5,8,0:0:0:0:
256,192,178716,5,0,0:0:0:0:
256,192,178778,5,0,0:0:0:0:
256,192,178841,5,8,0:0:0:0:
256,192,178903,5,0,0:0:0:0:
256,192,178966,5,8,0:0:0:0:
256,192,179091,5,0,0:0:0:0:
256,192,179216,5,8,0:0:0:0:
256,192,179341,5,8,0:0:0:0:
256,192,179403,5,8,0:0:0:0:
256,192,179466,5,0,0:0:0:0:
256,192,179528,5,0,0:0:0:0:
256,192,179591,5,8,0:0:0:0:
256,192,179653,5,8,0:0:0:0:
256,192,179716,5,0,0:0:0:0:
256,192,179778,5,8,0:0:0:0:
256,192,179841,5,0,0:0:0:0:
256,192,179903,5,0,0:0:0:0:
256,192,179966,5,12,0:0:0:0:
256,192,180341,5,12,0:0:0:0:
256,192,180466,5,12,0:0:0:0:
256,192,180591,5,12,0:0:0:0:
256,192,180716,5,12,0:0:0:0:
256,192,181466,5,4,0:0:0:0:
256,192,181966,5,0,0:0:0:0:
256,192,182216,5,8,0:0:0:0:
256,192,182466,5,8,0:0:0:0:
256,192,182716,5,0,0:0:0:0:
256,192,182966,5,0,0:0:0:0:
256,192,183216,5,0,0:0:0:0:
256,192,183341,5,0,0:0:0:0:
256,192,183591,5,0,0:0:0:0:
256,192,183716,5,8,0:0:0:0:
256,192,183841,5,0,0:0:0:0:
256,192,184091,5,0,0:0:0:0:
256,192,184216,5,8,0:0:0:0:
256,192,184466,5,0,0:0:0:0:
256,192,184716,5,0,0:0:0:0:
256,192,184966,5,0,0:0:0:0:
256,192,185216,5,8,0:0:0:0:
256,192,185466,5,0,0:0:0:0:
256,192,185716,5,8,0:0:0:0:
256,192,185966,5,8,0:0:0:0:
256,192,186028,5,8,0:0:0:0:
256,192,186091,5,0,0:0:0:0:
256,192,186216,5,0,0:0:0:0:
256,192,186341,5,8,0:0:0:0:
256,192,186466,5,0,0:0:0:0:
256,192,186528,5,0,0:0:0:0:
256,192,186591,5,0,0:0:0:0:
256,192,186716,5,8,0:0:0:0:
256,192,186841,5,0,0:0:0:0:
256,192,186966,5,0,0:0:0:0:
256,192,187091,5,0,0:0:0:0:
256,192,187216,5,8,0:0:0:0:
256,192,187466,5,0,0:0:0:0:
256,192,187716,5,0,0:0:0:0:
256,192,187966,5,0,0:0:0:0:
256,192,188091,5,0,0:0:0:0:
256,192,188216,5,8,0:0:0:0:
256,192,188466,5,0,0:0:0:0:
256,192,188591,5,0,0:0:0:0:
256,192,188841,5,0,0:0:0:0:
256,192,188966,5,0,0:0:0:0:
256,192,189216,5,0,0:0:0:0:
256,192,189341,5,0,0:0:0:0:
256,192,189591,5,0,0:0:0:0:
256,192,189716,5,8,0:0:0:0:
256,192,189841,5,0,0:0:0:0:
256,192,190091,5,0,0:0:0:0:
256,192,190216,5,0,0:0:0:0:
256,192,190466,5,0,0:0:0:0:
256,192,190841,5,0,0:0:0:0:
256,192,191091,5,0,0:0:0:0:
256,192,191216,5,8,0:0:0:0:
256,192,191466,5,8,0:0:0:0:
256,192,191497,5,8,0:0:0:0:
256,192,191591,5,0,0:0:0:0:
256,192,191841,5,0,0:0:0:0:
256,192,191872,5,0,0:0:0:0:
256,192,191966,5,0,0:0:0:0:
256,192,192216,5,0,0:0:0:0:
256,192,192341,5,8,0:0:0:0:
256,192,192591,5,0,0:0:0:0:
256,192,192716,5,8,0:0:0:0:
256,192,192966,5,8,0:0:0:0:
256,192,193028,5,8,0:0:0:0:
256,192,193091,5,8,0:0:0:0:
256,192,193216,5,8,0:0:0:0:
256,192,193466,5,8,0:0:0:0:
256,192,193528,5,8,0:0:0:0:
256,192,193591,5,8,0:0:0:0:
256,192,193653,5,8,0:0:0:0:
256,192,193716,5,0,0:0:0:0:
256,192,193778,5,0,0:0:0:0:
256,192,193841,5,0,0:0:0:0:
256,192,193903,5,0,0:0:0:0:
256,192,193966,5,8,0:0:0:0:
256,192,194091,5,0,0:0:0:0:
256,192,194153,5,0,0:0:0:0:
256,192,194216,5,8,0:0:0:0:
256,192,194341,5,0,0:0:0:0:
256,192,194466,5,8,0:0:0:0:
256,192,194528,5,8,0:0:0:0:
256,192,194591,5,8,0:0:0:0:
256,192,194653,5,0,0:0:0:0:
256,192,194716,5,8,0:0:0:0:
256,192,194778,5,8,0:0:0:0:
256,192,194841,5,0,0:0:0:0:
256,192,194903,5,0,0:0:0:0:
256,192,194966,5,8,0:0:0:0:
256,192,195091,5,0,0:0:0:0:
256,192,195216,5,0,0:0:0:0:
256,192,195341,5,8,0:0:0:0:
256,192,195466,5,0,0:0:0:0:
256,192,195528,5,0,0:0:0:0:
256,192,195591,5,0,0:0:0:0:
256,192,195716,5,8,0:0:0:0:
256,192,195778,5,0,0:0:0:0:
256,192,195841,5,8,0:0:0:0:
256,192,195903,5,8,0:0:0:0:
256,192,195966,5,0,0:0:0:0:
256,192,196028,5,0,0:0:0:0:
256,192,196091,5,8,0:0:0:0:
256,192,196153,5,0,0:0:0:0:
256,192,196216,5,8,0:0:0:0:
256,192,196341,5,0,0:0:0:0:
256,192,196466,5,8,0:0:0:0:
256,192,196528,5,8,0:0:0:0:
256,192,196591,5,8,0:0:0:0:
256,192,196653,5,8,0:0:0:0:
256,192,196716,5,0,0:0:0:0:
256,192,196778,5,0,0:0:0:0:
256,192,196841,5,0,0:0:0:0:
256,192,196903,5,0,0:0:0:0:
256,192,196966,5,8,0:0:0:0:
256,192,197091,5,0,0:0:0:0:
256,192,197216,5,8,0:0:0:0:
256,192,197278,5,8,0:0:0:0:
256,192,197341,5,0,0:0:0:0:
256,192,197403,5,0,0:0:0:0:
256,192,197466,5,8,0:0:0:0:
256,192,197528,5,0,0:0:0:0:
256,192,197591,5,8,0:0:0:0:
256,192,197653,5,8,0:0:0:0:
256,192,197716,5,0,0:0:0:0:
256,192,197778,5,8,0:0:0:0:
256,192,197841,5,0,0:0:0:0:
256,192,197903,5,0,0:0:0:0:
256,192,197966,5,8,0:0:0:0:
256,192,198091,5,0,0:0:0:0:
256,192,198216,5,0,0:0:0:0:
256,192,198278,5,0,0:0:0:0:
256,192,198341,5,0,0:0:0:0:
256,192,198403,5,0,0:0:0:0:
256,192,198466,5,8,0:0:0:0:
256,192,198528,5,8,0:0:0:0:
256,192,198591,5,0,0:0:0:0:
256,192,198653,5,0,0:0:0:0:
256,192,198716,5,8,0:0:0:0:
256,192,198841,5,8,0:0:0:0:
256,192,198966,5,0,0:0:0:0:
256,192,199028,5,0,0:0:0:0:
256,192,199091,5,0,0:0:0:0:
256,192,199153,5,0,0:0:0:0:
256,192,199216,5,8,0:0:0:0:
256,192,199278,5,8,0:0:0:0:
256,192,199341,5,8,0:0:0:0:
256,192,199403,5,0,0:0:0:0:
256,192,199466,5,8,0:0:0:0:
256,192,199591,5,8,0:0:0:0:
256,192,199716,5,0,0:0:0:0:
256,192,199841,5,0,0:0:0:0:
256,192,199966,5,8,0:0:0:0:
256,192,200028,5,0,0:0:0:0:
256,192,200091,5,0,0:0:0:0:
256,192,200153,5,0,0:0:0:0:
256,192,200216,5,8,0:0:0:0:
256,192,200278,5,8,0:0:0:0:
256,192,200341,5,8,0:0:0:0:
256,192,200403,5,8,0:0:0:0:
256,192,200466,5,0,0:0:0:0:
256,192,200591,5,0,0:0:0:0:
256,192,200716,5,0,0:0:0:0:
256,192,200841,5,0,0:0:0:0:
256,192,200966,5,8,0:0:0:0:
256,192,201028,5,8,0:0:0:0:
256,192,201091,5,8,0:0:0:0:
256,192,201153,5,8,0:0:0:0:
256,192,201216,5,0,0:0:0:0:
256,192,201278,5,0,0:0:0:0:
256,192,201341,5,0,0:0:0:0:
256,192,201403,5,0,0:0:0:0:
256,192,201466,5,8,0:0:0:0:
256,192,201528,5,0,0:0:0:0:
256,192,201591,5,0,0:0:0:0:
256,192,201653,5,0,0:0:0:0:
256,192,201716,5,8,0:0:0:0:
256,192,201841,5,8,0:0:0:0:
256,192,201966,5,0,0:0:0:0:
256,192,202091,5,8,0:0:0:0:
256,192,202216,5,0,0:0:0:0:
256,192,202278,5,0,0:0:0:0:
256,192,202341,5,0,0:0:0:0:
256,192,202466,5,8,0:0:0:0:
256,192,202528,5,0,0:0:0:0:
256,192,202591,5,8,0:0:0:0:
256,192,202653,5,8,0:0:0:0:
256,192,202716,5,0,0:0:0:0:
256,192,202778,5,8,0:0:0:0:
256,192,202841,5,0,0:0:0:0:
256,192,202903,5,0,0:0:0:0:
256,192,202966,5,8,0:0:0:0:
256,192,203091,5,0,0:0:0:0:
256,192,203216,5,8,0:0:0:0:
256,192,203278,5,8,0:0:0:0:
256,192,203341,5,0,0:0:0:0:
256,192,203403,5,0,0:0:0:0:
256,192,203466,5,8,0:0:0:0:
256,192,203528,5,0,0:0:0:0:
256,192,203591,5,8,0:0:0:0:
256,192,203653,5,8,0:0:0:0:
256,192,203716,5,0,0:0:0:0:
256,192,203778,5,8,0:0:0:0:
256,192,203841,5,0,0:0:0:0:
256,192,203903,5,0,0:0:0:0:
256,192,203966,5,8,0:0:0:0:
256,192,204091,5,0,0:0:0:0:
256,192,204216,5,8,0:0:0:0:
256,192,204278,5,8,0:0:0:0:
256,192,204341,5,8,0:0:0:0:
256,192,204403,5,0,0:0:0:0:
256,192,204466,5,8,0:0:0:0:
256,192,204528,5,8,0:0:0:0:
256,192,204591,5,8,0:0:0:0:
256,192,204653,5,8,0:0:0:0:
256,192,204716,5,0,0:0:0:0:
256,192,204841,5,0,0:0:0:0:
256,192,204966,5,8,0:0:0:0:
256,192,205028,5,8,0:0:0:0:
256,192,205091,5,0,0:0:0:0:
256,192,205153,5,0,0:0:0:0:
256,192,205216,5,0,0:0:0:0:
256,192,205278,5,0,0:0:0:0:
256,192,205341,5,8,0:0:0:0:
256,192,205466,5,8,0:0:0:0:
256,192,205528,5,8,0:0:0:0:
256,192,205591,5,8,0:0:0:0:
256,192,205653,5,8,0:0:0:0:
256,192,205716,5,8,0:0:0:0:
256,192,205778,5,8,0:0:0:0:
256,192,205841,5,0,0:0:0:0:
256,192,205966,5,0,0:0:0:0:
256,192,206091,5,0,0:0:0:0:
256,192,206153,5,0,0:0:0:0:
256,192,206216,5,8,0:0:0:0:
256,192,206278,5,8,0:0:0:0:
256,192,206341,5,0,0:0:0:0:
256,192,206403,5,0,0:0:0:0:
256,192,206466,5,8,0:0:0:0:
256,192,206528,5,0,0:0:0:0:
256,192,206591,5,0,0:0:0:0:
256,192,206653,5,0,0:0:0:0:
256,192,206716,5,8,0:0:0:0:
256,192,206778,5,8,0:0:0:0:
256,192,206841,5,8,0:0:0:0:
256,192,206903,5,0,0:0:0:0:
256,192,206966,5,8,0:0:0:0:
256,192,207091,5,0,0:0:0:0:
256,192,207216,5,8,0:0:0:0:
256,192,207341,5,0,0:0:0:0:
256,192,207466,5,0,0:0:0:0:
256,192,207528,5,0,0:0:0:0:
256,192,207591,5,0,0:0:0:0:
256,192,207716,5,8,0:0:0:0:
256,192,207778,5,8,0:0:0:0:
256,192,207841,5,0,0:0:0:0:
256,192,207903,5,0,0:0:0:0:
256,192,207966,5,8,0:0:0:0:
256,192,208028,5,0,0:0:0:0:
256,192,208091,5,0,0:0:0:0:
256,192,208153,5,0,0:0:0:0:
256,192,208216,5,8,0:0:0:0:
256,192,208278,5,8,0:0:0:0:
256,192,208341,5,8,0:0:0:0:
256,192,208403,5,0,0:0:0:0:
256,192,208466,5,8,0:0:0:0:
256,192,208591,5,0,0:0:0:0:
256,192,208716,5,8,0:0:0:0:
256,192,208841,5,8,0:0:0:0:
256,192,208966,5,0,0:0:0:0:
256,192,209028,5,0,0:0:0:0:
256,192,209091,5,0,0:0:0:0:
256,192,209216,5,8,0:0:0:0:
256,192,209278,5,8,0:0:0:0:
256,192,209341,5,0,0:0:0:0:
256,192,209403,5,0,0:0:0:0:
256,192,209466,5,8,0:0:0:0:
256,192,209528,5,8,0:0:0:0:
256,192,209591,5,0,0:0:0:0:
256,192,209653,5,0,0:0:0:0:
256,192,209716,5,8,0:0:0:0:
256,192,209778,5,8,0:0:0:0:
256,192,209841,5,8,0:0:0:0:
256,192,209903,5,8,0:0:0:0:
256,192,209966,5,0,0:0:0:0:
256,192,210091,5,0,0:0:0:0:
256,192,210216,5,8,0:0:0:0:
256,192,210341,5,8,0:0:0:0:
256,192,210466,5,0,0:0:0:0:
256,192,210528,5,0,0:0:0:0:
256,192,210591,5,0,0:0:0:0:
256,192,210716,5,8,0:0:0:0:
256,192,210778,5,0,0:0:0:0:
256,192,210841,5,8,0:0:0:0:
256,192,210903,5,8,0:0:0:0:
256,192,210966,5,0,0:0:0:0:
256,192,211028,5,0,0:0:0:0:
256,192,211091,5,8,0:0:0:0:
256,192,211153,5,0,0:0:0:0:
256,192,211216,5,8,0:0:0:0:
256,192,211278,5,8,0:0:0:0:
256,192,211341,5,0,0:0:0:0:
256,192,211403,5,0,0:0:0:0:
256,192,211466,5,8,0:0:0:0:
256,192,211591,5,8,0:0:0:0:
256,192,211716,5,0,0:0:0:0:
256,192,211841,5,0,0:0:0:0:
256,192,211966,5,0,0:0:0:0:
256,192,212028,5,0,0:0:0:0:
256,192,212091,5,0,0:0:0:0:
256,192,212216,5,8,0:0:0:0:
256,192,212278,5,8,0:0:0:0:
256,192,212341,5,8,0:0:0:0:
256,192,212403,5,8,0:0:0:0:
256,192,212466,5,8,0:0:0:0:
256,192,212528,5,8,0:0:0:0:
256,192,212591,5,0,0:0:0:0:
256,192,212716,5,0,0:0:0:0:
256,192,212841,5,0,0:0:0:0:
256,192,212966,5,8,0:0:0:0:
256,192,213028,5,8,0:0:0:0:
256,192,213091,5,0,0:0:0:0:
256,192,213153,5,8,0:0:0:0:
256,192,213216,5,0,0:0:0:0:
256,192,213278,5,0,0:0:0:0:
256,192,213341,5,8,0:0:0:0:
256,192,213403,5,0,0:0:0:0:
256,192,213466,5,8,0:0:0:0:
256,192,213528,5,8,0:0:0:0:
256,192,213591,5,0,0:0:0:0:
256,192,213653,5,0,0:0:0:0:
256,192,213716,5,8,0:0:0:0:
256,192,213841,5,8,0:0:0:0:
256,192,213966,5,0,0:0:0:0:
256,192,214028,5,0,0:0:0:0:
256,192,214091,5,0,0:0:0:0:
256,192,214216,5,8,0:0:0:0:
256,192,214341,5,8,0:0:0:0:
256,192,214466,5,0,0:0:0:0:
256,192,214528,5,0,0:0:0:0:
256,192,214591,5,8,0:0:0:0:
256,192,214653,5,8,0:0:0:0:
256,192,214716,5,0,0:0:0:0:
256,192,214778,5,0,0:0:0:0:
256,192,214841,5,8,0:0:0:0:
256,192,214966,5,0,0:0:0:0:
256,192,215028,5,0,0:0:0:0:
256,192,215091,5,8,0:0:0:0:
256,192,215153,5,0,0:0:0:0:
256,192,215216,5,8,0:0:0:0:
256,192,215278,5,8,0:0:0:0:
256,192,215341,5,0,0:0:0:0:
256,192,215403,5,0,0:0:0:0:
256,192,215466,5,8,0:0:0:0:
256,192,215591,5,0,0:0:0:0:
256,192,215716,5,8,0:0:0:0:
256,192,215778,5,8,0:0:0:0:
256,192,215841,5,0,0:0:0:0:
256,192,215903,5,0,0:0:0:0:
256,192,215966,5,8,0:0:0:0:
256,192,216091,5,0,0:0:0:0:
256,192,216216,5,8,0:0:0:0:
256,192,216278,5,8,0:0:0:0:
256,192,216341,5,0,0:0:0:0:
256,192,216403,5,0,0:0:0:0:
256,192,216466,5,8,0:0:0:0:
256,192,216528,5,8,0:0:0:0:
256,192,216591,5,8,0:0:0:0:
256,192,216653,5,8,0:0:0:0:
256,192,216716,5,0,0:0:0:0:
256,192,216841,5,0,0:0:0:0:
256,192,216966,5,8,0:0:0:0:
256,192,217028,5,8,0:0:0:0:
256,192,217091,5,0,0:0:0:0:
256,192,217153,5,0,0:0:0:0:
256,192,217216,5,8,0:0:0:0:
256,192,217278,5,8,0:0:0:0:
256,192,217341,5,0,0:0:0:0:
256,192,217466,5,12,0:0:0:0:
256,192,217591,5,0,0:0:0:0:
256,192,217716,5,8,0:0:0:0:
256,192,217799,5,8,0:0:0:0:
256,192,217882,5,8,0:0:0:0:
256,192,217966,5,0,0:0:0:0:
256,192,218091,5,0,0:0:0:0:
256,192,218216,5,8,0:0:0:0:
256,192,218341,5,0,0:0:0:0:
256,192,218466,5,8,0:0:0:0:
256,192,218549,5,8,0:0:0:0:
256,192,218632,5,0,0:0:0:0:
256,192,218716,5,0,0:0:0:0:
256,192,218841,5,0,0:0:0:0:
256,192,218966,5,8,0:0:0:0:
256,192,219091,5,0,0:0:0:0:
256,192,219153,5,0,0:0:0:0:
256,192,219216,5,0,0:0:0:0:
256,192,219341,5,8,0:0:0:0:
256,192,219466,5,0,0:0:0:0:
256,192,219591,5,0,0:0:0:0:
256,192,219716,5,8,0:0:0:0:
256,192,219778,5,8,0:0:0:0:
256,192,219841,5,0,0:0:0:0:
256,192,219966,5,0,0:0:0:0:
256,192,220091,5,8,0:0:0:0:
256,192,220216,5,0,0:0:0:0:
256,192,220341,5,0,0:0:0:0:
256,192,220466,5,8,0:0:0:0:
256,192,220528,5,8,0:0:0:0:
256,192,220591,5,0,0:0:0:0:
256,192,220716,5,8,0:0:0:0:
256,192,220841,5,8,0:0:0:0:
256,192,220903,5,8,0:0:0:0:
256,192,220966,5,0,0:0:0:0:
256,192,221028,5,0,0:0:0:0:
256,192,221091,5,0,0:0:0:0:
256,192,221216,5,8,0:0:0:0:
256,192,221341,5,0,0:0:0:0:
256,192,221466,5,8,0:0:0:0:
256,192,221591,5,8,0:0:0:0:
256,192,221716,5,0,0:0:0:0:
256,192,221841,5,0,0:0:0:0:
256,192,221903,5,0,0:0:0:0:
256,192,221966,5,8,0:0:0:0:
256,192,222091,5,8,0:0:0:0:
256,192,222216,5,8,0:0:0:0:
256,192,222341,5,0,0:0:0:0:
256,192,222466,5,8,0:0:0:0:
256,192,222591,5,8,0:0:0:0:
256,192,222716,5,0,0:0:0:0:
256,192,222778,5,0,0:0:0:0:
256,192,222841,5,0,0:0:0:0:
256,192,222903,5,0,0:0:0:0:
256,192,222966,5,8,0:0:0:0:
256,192,223091,5,0,0:0:0:0:
256,192,223153,5,0,0:0:0:0:
256,192,223216,5,0,0:0:0:0:
256,192,223278,5,0,0:0:0:0:
256,192,223341,5,0,0:0:0:0:
256,192,223403,5,0,0:0:0:0:
256,192,223466,5,8,0:0:0:0:
256,192,223591,5,8,0:0:0:0:
256,192,223716,5,0,0:0:0:0:
256,192,223799,5,8,0:0:0:0:
256,192,223882,5,8,0:0:0:0:
256,192,223966,5,0,0:0:0:0:
256,192,224091,5,8,0:0:0:0:
256,192,224216,5,8,0:0:0:0:
256,192,224341,5,0,0:0:0:0:
256,192,224466,5,8,0:0:0:0:
256,192,224549,5,8,0:0:0:0:
256,192,224632,5,8,0:0:0:0:
256,192,224716,5,0,0:0:0:0:
256,192,224841,5,0,0:0:0:0:
256,192,224966,5,8,0:0:0:0:
256,192,225091,5,8,0:0:0:0:
256,192,225153,5,8,0:0:0:0:
256,192,225216,5,0,0:0:0:0:
256,192,225278,5,0,0:0:0:0:
256,192,225341,5,8,0:0:0:0:
256,192,225466,5,8,0:0:0:0:
256,192,225591,5,0,0:0:0:0:
256,192,225716,5,8,0:0:0:0:
256,192,225799,5,0,0:0:0:0:
256,192,225882,5,8,0:0:0:0:
256,192,225966,5,0,0:0:0:0:
256,192,226091,5,8,0:0:0:0:
256,192,226216,5,0,0:0:0:0:
256,192,226341,5,0,0:0:0:0:
256,192,226466,5,8,0:0:0:0:
256,192,226591,5,0,0:0:0:0:
256,192,226653,5,0,0:0:0:0:
256,192,226716,5,0,0:0:0:0:
256,192,226841,5,8,0:0:0:0:
256,192,226966,5,8,0:0:0:0:
256,192,227028,5,8,0:0:0:0:
256,192,227091,5,0,0:0:0:0:
256,192,227216,5,8,0:0:0:0:
256,192,227341,5,0,0:0:0:0:
256,192,227403,5,8,0:0:0:0:
256,192,227466,5,0,0:0:0:0:
256,192,227591,5,8,0:0:0:0:
256,192,227716,5,8,0:0:0:0:
256,192,227841,5,0,0:0:0:0:
256,192,227966,5,8,0:0:0:0:
256,192,228028,5,0,0:0:0:0:
256,192,228091,5,8,0:0:0:0:
256,192,228153,5,0,0:0:0:0:
256,192,228216,5,8,0:0:0:0:
256,192,228278,5,8,0:0:0:0:
256,192,228341,5,0,0:0:0:0:
256,192,228403,5,0,0:0:0:0:
256,192,228466,5,8,0:0:0:0:
256,192,228528,5,8,0:0:0:0:
256,192,228591,5,0,0:0:0:0:
256,192,228653,5,8,0:0:0:0:
256,192,228716,5,0,0:0:0:0:
256,192,228841,5,0,0:0:0:0:
256,192,228966,5,8,0:0:0:0:
256,192,229091,5,0,0:0:0:0:
256,192,229216,5,0,0:0:0:0:
256,192,229278,5,0,0:0:0:0:
256,192,229341,5,0,0:0:0:0:
256,192,229466,5,8,0:0:0:0:
256,192,229528,5,8,0:0:0:0:
256,192,229591,5,0,0:0:0:0:
256,192,229716,5,8,0:0:0:0:
256,192,229799,5,0,0:0:0:0:
256,192,229882,5,0,0:0:0:0:
256,192,229966,5,8,0:0:0:0:
256,192,230091,5,0,0:0:0:0:
256,192,230153,5,0,0:0:0:0:
256,192,230216,5,8,0:0:0:0:
256,192,230341,5,0,0:0:0:0:
256,192,230466,5,0,0:0:0:0:
256,192,230549,5,8,0:0:0:0:
256,192,230632,5,8,0:0:0:0:
256,192,230716,5,0,0:0:0:0:
256,192,230841,5,0,0:0:0:0:
256,192,230903,5,0,0:0:0:0:
256,192,230966,5,8,0:0:0:0:
256,192,231091,5,0,0:0:0:0:
256,192,231216,5,8,0:0:0:0:
256,192,231278,5,8,0:0:0:0:
256,192,231341,5,0,0:0:0:0:
256,192,231403,5,0,0:0:0:0:
256,192,231466,5,8,0:0:0:0:
256,192,231528,5,0,0:0:0:0:
256,192,231591,5,0,0:0:0:0:
256,192,231653,5,0,0:0:0:0:
256,192,231716,5,8,0:0:0:0:
256,192,231841,5,8,0:0:0:0:
256,192,231966,5,0,0:0:0:0:
256,192,232028,5,0,0:0:0:0:
256,192,232091,5,8,0:0:0:0:
256,192,232153,5,0,0:0:0:0:
256,192,232216,5,8,0:0:0:0:
256,192,232278,5,8,0:0:0:0:
256,192,232341,5,0,0:0:0:0:
256,192,232403,5,0,0:0:0:0:
256,192,232466,5,8,0:0:0:0:
256,192,232591,5,0,0:0:0:0:
256,192,232716,5,8,0:0:0:0:
256,192,232778,5,0,0:0:0:0:
256,192,232841,5,0,0:0:0:0:
256,192,232903,5,0,0:0:0:0:
256,192,232966,5,8,0:0:0:0:
256,192,233028,5,8,0:0:0:0:
256,192,233091,5,0,0:0:0:0:
256,192,233153,5,0,0:0:0:0:
256,192,233216,5,8,0:0:0:0:
256,192,233341,5,0,0:0:0:0:
256,192,233466,5,8,0:0:0:0:
256,192,233528,5,8,0:0:0:0:
256,192,233591,5,0,0:0:0:0:
256,192,233653,5,0,0:0:0:0:
256,192,233716,5,8,0:0:0:0:
256,192,233778,5,0,0:0:0:0:
256,192,233841,5,0,0:0:0:0:
256,192,233903,5,0,0:0:0:0:
256,192,233966,5,8,0:0:0:0:
256,192,234091,5,0,0:0:0:0:
256,192,234216,5,8,0:0:0:0:
256,192,234278,5,8,0:0:0:0:
256,192,234341,5,0,0:0:0:0:
256,192,234403,5,0,0:0:0:0:
256,192,234466,5,8,0:0:0:0:
256,192,234528,5,0,0:0:0:0:
256,192,234591,5,0,0:0:0:0:
256,192,234653,5,0,0:0:0:0:
256,192,234716,5,8,0:0:0:0:
256,192,234841,5,0,0:0:0:0:
256,192,234903,5,0,0:0:0:0:
256,192,234966,5,8,0:0:0:0:
256,192,235028,5,0,0:0:0:0:
256,192,235091,5,8,0:0:0:0:
256,192,235153,5,8,0:0:0:0:
256,192,235216,5,8,0:0:0:0:
256,192,235341,5,0,0:0:0:0:
256,192,235466,5,8,0:0:0:0:
256,192,235528,5,8,0:0:0:0:
256,192,235591,5,0,0:0:0:0:
256,192,235716,5,8,0:0:0:0:
256,192,235799,5,8,0:0:0:0:
256,192,235882,5,8,0:0:0:0:
256,192,235966,5,0,0:0:0:0:
256,192,236091,5,0,0:0:0:0:
256,192,236216,5,8,0:0:0:0:
256,192,236278,5,8,0:0:0:0:
256,192,236341,5,8,0:0:0:0:
256,192,236466,5,8,0:0:0:0:
256,192,236549,5,0,0:0:0:0:
256,192,236632,5,8,0:0:0:0:
256,192,236716,5,0,0:0:0:0:
256,192,236841,5,0,0:0:0:0:
256,192,236966,5,8,0:0:0:0:
256,192,237028,5,8,0:0:0:0:
256,192,237091,5,0,0:0:0:0:
256,192,237153,5,0,0:0:0:0:
256,192,237216,5,8,0:0:0:0:
256,192,237278,5,0,0:0:0:0:
256,192,237341,5,8,0:0:0:0:
256,192,237403,5,0,0:0:0:0:
256,192,237466,5,8,0:0:0:0:
256,192,237528,5,8,0:0:0:0:
256,192,237591,5,0,0:0:0:0:
256,192,237716,5,0,0:0:0:0:
256,192,237799,5,8,0:0:0:0:
256,192,237882,5,8,0:0:0:0:
256,192,237966,5,0,0:0:0:0:
256,192,238091,5,0,0:0:0:0:
256,192,238216,5,8,0:0:0:0:
256,192,238278,5,0,0:0:0:0:
256,192,238341,5,0,0:0:0:0:
256,192,238403,5,0,0:0:0:0:
256,192,238466,5,8,0:0:0:0:
256,192,238528,5,0,0:0:0:0:
256,192,238591,5,8,0:0:0:0:
256,192,238653,5,8,0:0:0:0:
256,192,238716,5,0,0:0:0:0:
256,192,238841,5,8,0:0:0:0:
256,192,238903,5,0,0:0:0:0:
256,192,238966,5,8,0:0:0:0:
256,192,239028,5,8,0:0:0:0:
256,192,239091,5,0,0:0:0:0:
256,192,239216,5,8,0:0:0:0:
256,192,239278,5,8,0:0:0:0:
256,192,239341,5,0,0:0:0:0:
256,192,239403,5,8,0:0:0:0:
256,192,239466,5,0,0:0:0:0:
256,192,239528,5,0,0:0:0:0:
256,192,239591,5,8,0:0:0:0:
256,192,239716,5,8,0:0:0:0:
256,192,239841,5,0,0:0:0:0:
256,192,239903,5,0,0:0:0:0:
256,192,239966,5,8,0:0:0:0:
256,192,240028,5,8,0:0:0:0:
256,192,240091,5,0,0:0:0:0:
256,192,240216,5,0,0:0:0:0:
256,192,240341,5,8,0:0:0:0:
256,192,240466,5,8,0:0:0:0:
256,192,240528,5,8,0:0:0:0:
256,192,240591,5,0,0:0:0:0:
256,192,240653,5,8,0:0:0:0:
256,192,240716,5,0,0:0:0:0:
256,192,240778,5,0,0:0:0:0:
256,192,240841,5,8,0:0:0:0:
256,192,240903,5,0,0:0:0:0:
256,192,240966,5,8,0:0:0:0:
256,192,241091,5,8,0:0:0:0:
256,192,241216,5,4,0:0:0:0:
