osu file format v14

[General]
AudioFilename: audio.mp3
AudioLeadIn: 0
PreviewTime: 39204
Countdown: 0
SampleSet: Normal
StackLeniency: 0.7
Mode: 1
LetterboxInBreaks: 0
WidescreenStoryboard: 1

[Editor]
Bookmarks: 51204,78704,84704,91454,106954,205454,227954,229454
DistanceSpacing: 0.7
BeatDivisor: 4
GridSize: 32
TimelineZoom: 2

[Metadata]
Title:Wrath of the Fallen One
TitleUnicode:Wrath of the Fallen One
Artist:Inferi
ArtistUnicode:Inferi
Creator:Raiden
Version:Futsuu
Source:osu!
Tags:technical melodeath melodic death metal fa featured artist english path apotheosis wotfo
BeatmapID:2445577
BeatmapSetID:1168660

[Difficulty]
HPDrainRate:6.5
CircleSize:2
OverallDifficulty:4
ApproachRate:10
SliderMultiplier:1.4
SliderTickRate:1

[Events]
//Background and Video events
0,0,"everyoung_by_chriscold_d4ur1qe.jpg",0,50
//Break Periods
//Storyboard Layer 0 (Background)
//Storyboard Layer 1 (Fail)
//Storyboard Layer 2 (Pass)
//Storyboard Layer 3 (Foreground)
//Storyboard Layer 4 (Overlay)
//Storyboard Sound Samples

[TimingPoints]
466,250,3,1,0,80,1,0
1966,250,4,1,0,80,1,0
12966,250,7,1,0,80,1,0
14716,250,4,1,0,80,1,0
17716,250,6,1,0,80,1,0
19216,250,4,1,0,80,1,0
39216,250,6,1,0,80,1,1
39216,-100,4,1,0,80,0,1
49684,-100,4,1,0,40,0,1
49716,-100,4,1,0,40,0,0
50903,-100,4,1,0,30,0,0
51028,-100,4,1,0,80,0,0
63216,250,4,1,0,80,1,0
65216,250,3,1,0,80,1,0
78716,250,3,1,0,80,1,8
98966,250,4,1,0,80,1,0
114966,-100,4,1,0,80,0,1
146966,250,6,1,0,80,1,0
152966,-100,6,1,0,80,0,1
157466,250,3,1,0,80,1,0
180278,-100,3,1,0,80,0,0
181403,-111.111111111111,3,1,0,60,0,0
193466,-100,3,1,0,80,0,1
217466,-100,3,1,0,80,0,0
229466,-100,3,1,0,80,0,1
241216,-100,3,1,0,80,0,0

[HitObjects]
256,192,466,5,8,0:0:0:0:
256,192,716,5,0,0:0:0:0:
256,192,966,5,8,0:0:0:0:
256,192,1216,5,0,0:0:0:0:
256,192,1966,5,12,0:0:0:0:
256,192,2216,5,0,0:0:0:0:
256,192,2341,5,0,0:0:0:0:
256,192,2466,5,8,0:0:0:0:
256,192,2716,5,4,0:0:0:0:
256,192,3466,5,8,0:0:0:0:
256,192,3716,5,8,0:0:0:0:
256,192,3966,5,0,0:0:0:0:
256,192,4216,5,0,0:0:0:0:
256,192,4341,5,0,0:0:0:0:
256,192,4466,5,8,0:0:0:0:
256,192,4966,5,8,0:0:0:0:
256,192,5091,1,8,0:0:0:0:
256,192,5216,5,0,0:0:0:0:
256,192,5466,5,8,0:0:0:0:
256,192,5591,1,8,0:0:0:0:
256,192,5716,1,0,0:0:0:0:
256,192,5966,5,8,0:0:0:0:
256,192,6091,5,8,0:0:0:0:
256,192,6216,5,8,0:0:0:0:
256,192,6341,5,0,0:0:0:0:
256,192,6966,5,8,0:0:0:0:
256,192,7216,5,0,0:0:0:0:
256,192,7466,5,8,0:0:0:0:
256,192,7966,5,0,0:0:0:0:
256,192,8466,5,8,0:0:0:0:
256,192,8966,5,0,0:0:0:0:
256,192,9466,5,8,0:0:0:0:
256,192,9716,5,8,0:0:0:0:
256,192,9966,5,8,0:0:0:0:
256,192,10216,1,0,0:0:0:0:
256,192,10466,5,8,0:0:0:0:
256,192,10966,5,8,0:0:0:0:
256,192,11216,5,0,0:0:0:0:
256,192,11466,5,8,0:0:0:0:
256,192,11716,5,8,0:0:0:0:
256,192,11966,5,0,0:0:0:0:
256,192,12216,5,8,0:0:0:0:
256,192,12466,5,0,0:0:0:0:
256,192,12966,5,8,0:0:0:0:
256,192,13091,5,8,0:0:0:0:
256,192,13216,5,0,0:0:0:0:
256,192,14716,5,8,0:0:0:0:
256,192,14966,5,0,0:0:0:0:
256,192,15091,5,8,0:0:0:0:
256,192,15466,5,8,0:0:0:0:
256,192,15716,5,8,0:0:0:0:
256,192,15966,5,0,0:0:0:0:
256,192,16216,5,0,0:0:0:0:
256,192,16466,5,8,0:0:0:0:
256,192,16716,5,8,0:0:0:0:
256,192,16966,5,0,0:0:0:0:
256,192,17091,5,8,0:0:0:0:
256,192,17716,5,0,0:0:0:0:
256,192,17966,5,0,0:0:0:0:
256,192,18216,5,8,0:0:0:0:
256,192,18716,5,8,0:0:0:0:
256,192,19216,5,0,0:0:0:0:
256,192,19716,5,8,0:0:0:0:
256,192,19966,5,8,0:0:0:0:
256,192,20216,5,0,0:0:0:0:
256,192,20466,5,0,0:0:0:0:
256,192,20716,5,8,0:0:0:0:
256,192,20966,5,0,0:0:0:0:
256,192,21091,5,8,0:0:0:0:
256,192,21716,5,8,0:0:0:0:
256,192,21966,5,8,0:0:0:0:
256,192,22216,5,0,0:0:0:0:
256,192,22716,5,8,0:0:0:0:
256,192,23216,5,8,0:0:0:0:
256,192,23591,5,0,0:0:0:0:
256,192,23841,5,8,0:0:0:0:
256,192,24216,5,8,0:0:0:0:
256,192,24591,5,0,0:0:0:0:
256,192,24841,5,8,0:0:0:0:
256,192,25216,5,0,0:0:0:0:
256,192,25591,5,8,0:0:0:0:
256,192,25841,5,0,0:0:0:0:
256,192,26216,5,0,0:0:0:0:
256,192,26716,5,8,0:0:0:0:
256,192,27216,5,0,0:0:0:0:
256,192,27716,5,0,0:0:0:0:
256,192,28216,5,8,0:0:0:0:
256,192,28716,5,8,0:0:0:0:
256,192,29216,5,0,0:0:0:0:
256,192,29466,5,0,0:0:0:0:
256,192,29716,5,8,0:0:0:0:
256,192,30216,5,0,0:0:0:0:
256,192,30716,5,8,0:0:0:0:
256,192,31216,5,8,0:0:0:0:
256,192,31466,5,0,0:0:0:0:
256,192,31716,5,8,0:0:0:0:
256,192,32216,5,0,0:0:0:0:
256,192,32716,5,8,0:0:0:0:
256,192,33216,5,0,0:0:0:0:
256,192,33466,5,0,0:0:0:0:
256,192,33716,5,8,0:0:0:0:
256,192,34216,5,8,0:0:0:0:
256,192,34716,5,0,0:0:0:0:
256,192,34966,5,0,0:0:0:0:
256,192,35216,5,8,0:0:0:0:
256,192,35716,1,8,0:0:0:0:
256,192,36216,5,0,0:0:0:0:
256,192,36466,5,8,0:0:0:0:
256,192,36716,5,0,0:0:0:0:
256,192,37216,5,8,0:0:0:0:
256,192,37716,5,8,0:0:0:0:
256,192,38216,5,0,0:0:0:0:
256,192,38466,5,8,0:0:0:0:
256,192,38716,5,0,0:0:0:0:
256,192,39216,5,8,0:0:0:0:
256,192,39716,5,8,0:0:0:0:
256,192,39966,5,0,0:0:0:0:
256,192,40216,5,8,0:0:0:0:
256,192,40341,5,8,0:0:0:0:
256,192,40466,5,8,0:0:0:0:
256,192,40716,5,0,0:0:0:0:
256,192,41216,5,8,0:0:0:0:
256,192,41466,5,0,0:0:0:0:
256,192,41716,5,0,0:0:0:0:
256,192,41966,5,8,0:0:0:0:
256,192,42216,5,0,0:0:0:0:
256,192,42716,5,8,0:0:0:0:
256,192,42966,5,8,0:0:0:0:
256,192,43216,5,0,0:0:0:0:
256,192,43341,5,8,0:0:0:0:
256,192,43466,5,0,0:0:0:0:
256,192,43716,5,8,0:0:0:0:
256,192,43966,5,0,0:0:0:0:
256,192,44091,5,0,0:0:0:0:
256,192,44216,5,8,0:0:0:0:
256,192,44466,5,0,0:0:0:0:
256,192,44716,5,8,0:0:0:0:
256,192,44841,1,0,0:0:0:0:
256,192,44966,5,8,0:0:0:0:
256,192,45216,5,8,0:0:0:0:
256,192,45716,5,8,0:0:0:0:
256,192,45966,5,0,0:0:0:0:
256,192,46091,5,0,0:0:0:0:
256,192,46216,5,8,0:0:0:0:
256,192,46466,5,8,0:0:0:0:
256,192,46716,5,0,0:0:0:0:
256,192,47216,5,8,0:0:0:0:
256,192,47341,5,8,0:0:0:0:
256,192,47466,5,0,0:0:0:0:
256,192,47716,5,0,0:0:0:0:
256,192,47966,5,8,0:0:0:0:
256,192,48216,5,0,0:0:0:0:
256,192,48716,5,8,0:0:0:0:
256,192,48966,5,8,0:0:0:0:
256,192,49091,5,8,0:0:0:0:
256,192,49216,5,0,0:0:0:0:
256,192,49466,5,8,0:0:0:0:
256,192,49716,5,4,0:0:0:0:
256,192,50966,5,8,0:0:0:0:
256,192,51216,5,8,0:0:0:0:
256,192,51466,5,0,0:0:0:0:
256,192,51716,5,8,0:0:0:0:
256,192,51966,5,0,0:0:0:0:
256,192,52216,5,8,0:0:0:0:
256,192,52341,5,8,0:0:0:0:
256,192,52466,5,0,0:0:0:0:
256,192,52716,5,8,0:0:0:0:
256,192,53216,5,8,0:0:0:0:
256,192,53466,5,0,0:0:0:0:
256,192,53716,5,8,0:0:0:0:
256,192,53966,5,0,0:0:0:0:
256,192,54091,5,0,0:0:0:0:
256,192,54216,5,8,0:0:0:0:
256,192,54716,5,0,0:0:0:0:
256,192,55216,5,8,0:0:0:0:
256,192,55466,5,0,0:0:0:0:
256,192,55716,5,8,0:0:0:0:
256,192,55966,5,0,0:0:0:0:
256,192,56091,5,8,0:0:0:0:
256,192,56216,5,0,0:0:0:0:
256,192,56716,5,8,0:0:0:0:
256,192,56966,5,0,0:0:0:0:
256,192,57091,5,0,0:0:0:0:
256,192,57216,5,8,0:0:0:0:
256,192,57716,5,0,0:0:0:0:
256,192,57966,5,8,0:0:0:0:
256,192,58216,5,0,0:0:0:0:
256,192,58341,5,0,0:0:0:0:
256,192,58466,5,8,0:0:0:0:
256,192,58716,5,8,0:0:0:0:
256,192,58966,5,8,0:0:0:0:
256,192,59091,5,8,0:0:0:0:
256,192,59216,5,0,0:0:0:0:
256,192,59716,5,0,0:0:0:0:
256,192,59966,5,0,0:0:0:0:
256,192,60216,5,8,0:0:0:0:
256,192,60466,5,0,0:0:0:0:
256,192,60591,5,8,0:0:0:0:
256,192,60716,5,0,0:0:0:0:
256,192,60966,5,8,0:0:0:0:
256,192,61216,5,0,0:0:0:0:
256,192,61716,5,8,0:0:0:0:
256,192,61966,5,0,0:0:0:0:
256,192,62216,5,8,0:0:0:0:
256,192,62466,5,8,0:0:0:0:
256,192,62591,5,0,0:0:0:0:
256,192,62716,5,8,0:0:0:0:
256,192,63216,5,0,0:0:0:0:
256,192,63341,5,0,0:0:0:0:
256,192,63466,5,8,0:0:0:0:
256,192,63716,5,8,0:0:0:0:
256,192,63966,5,8,0:0:0:0:
256,192,64216,5,0,0:0:0:0:
256,192,64466,5,8,0:0:0:0:
256,192,64591,5,0,0:0:0:0:
256,192,64716,5,8,0:0:0:0:
256,192,65216,5,8,0:0:0:0:
256,192,65466,5,0,0:0:0:0:
256,192,65591,5,0,0:0:0:0:
256,192,65716,5,8,0:0:0:0:
256,192,65966,5,8,0:0:0:0:
256,192,66216,5,0,0:0:0:0:
256,192,66466,5,8,0:0:0:0:
256,192,66591,5,0,0:0:0:0:
256,192,66716,5,8,0:0:0:0:
256,192,67091,5,8,0:0:0:0:
256,192,67466,5,0,0:0:0:0:
256,192,67716,5,8,0:0:0:0:
256,192,67841,5,0,0:0:0:0:
256,192,67966,5,8,0:0:0:0:
256,192,68216,5,8,0:0:0:0:
256,192,68466,5,0,0:0:0:0:
256,192,68591,5,0,0:0:0:0:
256,192,68716,5,8,0:0:0:0:
256,192,68966,5,8,0:0:0:0:
256,192,69216,5,8,0:0:0:0:
256,192,69466,5,0,0:0:0:0:
256,192,69591,5,0,0:0:0:0:
256,192,69716,5,8,0:0:0:0:
256,192,69966,5,0,0:0:0:0:
256,192,70216,5,8,0:0:0:0:
256,192,70466,5,8,0:0:0:0:
256,192,70591,5,8,0:0:0:0:
480,352,71216,5,8,0:0:0:0:
256,192,71466,5,0,0:0:0:0:
256,192,71591,5,0,0:0:0:0:
256,192,71716,5,8,0:0:0:0:
256,192,71966,5,8,0:0:0:0:
256,192,72216,5,0,0:0:0:0:
256,192,72466,5,8,0:0:0:0:
256,192,72716,5,8,0:0:0:0:
256,192,72841,5,0,0:0:0:0:
256,192,72966,5,0,0:0:0:0:
256,192,73091,5,8,0:0:0:0:
256,192,73466,5,0,0:0:0:0:
256,192,73716,5,8,0:0:0:0:
256,192,73841,5,0,0:0:0:0:
256,192,73966,5,8,0:0:0:0:
256,192,74216,5,8,0:0:0:0:
256,192,74716,5,8,0:0:0:0:
256,192,74966,5,8,0:0:0:0:
256,192,75216,5,8,0:0:0:0:
256,192,75341,5,0,0:0:0:0:
256,192,75466,5,8,0:0:0:0:
256,192,75716,5,8,0:0:0:0:
256,192,75966,5,0,0:0:0:0:
256,192,76091,5,0,0:0:0:0:
256,192,76216,5,8,0:0:0:0:
256,192,76466,5,8,0:0:0:0:
256,192,76591,5,8,0:0:0:0:
256,192,77216,5,8,0:0:0:0:
256,192,77341,5,8,0:0:0:0:
256,192,77466,5,0,0:0:0:0:
256,192,77716,5,8,0:0:0:0:
256,192,77966,5,8,0:0:0:0:
256,192,78216,5,0,0:0:0:0:
256,192,78716,5,8,0:0:0:0:
256,192,78966,5,0,0:0:0:0:
256,192,79091,5,0,0:0:0:0:
256,192,79216,5,8,0:0:0:0:
256,192,79466,5,8,0:0:0:0:
256,192,79716,5,0,0:0:0:0:
256,192,79841,5,8,0:0:0:0:
256,192,79966,5,0,0:0:0:0:
256,192,80216,5,8,0:0:0:0:
256,192,80466,5,0,0:0:0:0:
256,192,80591,5,0,0:0:0:0:
256,192,80716,5,8,0:0:0:0:
256,192,80966,5,0,0:0:0:0:
256,192,81216,5,8,0:0:0:0:
256,192,81716,5,8,0:0:0:0:
256,192,81966,5,0,0:0:0:0:
256,192,82091,5,0,0:0:0:0:
256,192,82216,5,8,0:0:0:0:
256,192,82466,5,8,0:0:0:0:
256,192,82716,5,8,0:0:0:0:
256,192,82841,5,0,0:0:0:0:
256,192,82966,5,0,0:0:0:0:
256,192,83216,5,8,0:0:0:0:
256,192,83466,5,0,0:0:0:0:
256,192,83591,5,0,0:0:0:0:
256,192,83716,5,8,0:0:0:0:
256,192,83966,5,0,0:0:0:0:
256,192,84216,5,0,0:0:0:0:
256,192,84716,5,8,0:0:0:0:
256,192,84966,5,0,0:0:0:0:
256,192,85091,5,0,0:0:0:0:
256,192,85216,5,8,0:0:0:0:
256,192,85466,5,8,0:0:0:0:
256,192,85716,5,8,0:0:0:0:
256,192,85841,5,0,0:0:0:0:
256,192,85966,5,0,0:0:0:0:
256,192,86216,5,8,0:0:0:0:
256,192,86466,5,0,0:0:0:0:
256,192,86591,5,0,0:0:0:0:
256,192,86716,5,8,0:0:0:0:
256,192,86966,5,0,0:0:0:0:
256,192,87216,5,8,0:0:0:0:
256,192,87716,5,8,0:0:0:0:
256,192,87966,5,0,0:0:0:0:
256,192,88091,5,0,0:0:0:0:
256,192,88216,5,8,0:0:0:0:
256,192,88466,5,8,0:0:0:0:
256,192,88716,5,0,0:0:0:0:
256,192,88841,5,0,0:0:0:0:
256,192,88966,5,8,0:0:0:0:
256,192,89216,5,8,0:0:0:0:
256,192,89466,5,0,0:0:0:0:
256,192,89591,5,0,0:0:0:0:
256,192,89716,5,8,0:0:0:0:
256,192,89966,5,8,0:0:0:0:
256,192,90216,5,0,0:0:0:0:
256,192,90466,5,8,0:0:0:0:
256,192,90966,5,8,0:0:0:0:
256,192,91216,5,8,0:0:0:0:
256,192,91466,5,8,0:0:0:0:
256,192,91716,5,0,0:0:0:0:
256,192,91966,5,8,0:0:0:0:
256,192,92216,5,8,0:0:0:0:
256,192,92716,5,8,0:0:0:0:
256,192,92966,5,8,0:0:0:0:
256,192,93216,5,0,0:0:0:0:
256,192,93466,5,8,0:0:0:0:
256,192,93716,5,8,0:0:0:0:
256,192,94216,5,0,0:0:0:0:
256,192,94466,5,8,0:0:0:0:
256,192,94716,5,0,0:0:0:0:
256,192,94841,5,0,0:0:0:0:
256,192,94966,5,8,0:0:0:0:
256,192,95216,5,8,0:0:0:0:
256,192,95341,5,0,0:0:0:0:
256,192,95466,5,8,0:0:0:0:
256,192,95716,5,8,0:0:0:0:
256,192,95841,5,8,0:0:0:0:
256,192,95966,5,0,0:0:0:0:
256,192,96216,5,8,0:0:0:0:
256,192,96466,5,8,0:0:0:0:
256,192,96716,5,0,0:0:0:0:
256,192,96966,5,8,0:0:0:0:
256,192,97466,5,8,0:0:0:0:
256,192,97716,5,0,0:0:0:0:
256,192,97966,5,8,0:0:0:0:
256,192,98216,5,0,0:0:0:0:
256,192,98341,5,0,0:0:0:0:
256,192,98466,5,8,0:0:0:0:
256,192,98966,5,8,0:0:0:0:
256,192,99216,5,0,0:0:0:0:
256,192,99466,5,8,0:0:0:0:
256,192,99591,5,0,0:0:0:0:
256,192,99716,5,8,0:0:0:0:
256,192,99966,5,0,0:0:0:0:
256,192,100216,5,8,0:0:0:0:
256,192,100341,5,0,0:0:0:0:
256,192,100466,5,8,0:0:0:0:
256,192,100966,5,8,0:0:0:0:
256,192,101466,5,8,0:0:0:0:
256,192,101591,5,0,0:0:0:0:
256,192,101716,5,8,0:0:0:0:
256,192,101841,5,8,0:0:0:0:
256,192,101966,5,0,0:0:0:0:
256,192,102216,5,8,0:0:0:0:
256,192,102466,5,8,0:0:0:0:
256,192,102591,5,0,0:0:0:0:
256,192,102716,5,8,0:0:0:0:
256,192,102966,5,8,0:0:0:0:
256,192,103466,5,8,0:0:0:0:
256,192,103716,5,8,0:0:0:0:
256,192,103966,5,0,0:0:0:0:
256,192,104216,5,8,0:0:0:0:
256,192,104341,5,0,0:0:0:0:
256,192,104466,5,8,0:0:0:0:
256,192,104966,5,8,0:0:0:0:
256,192,105216,5,0,0:0:0:0:
256,192,105466,5,8,0:0:0:0:
256,192,105591,5,0,0:0:0:0:
256,192,105716,5,8,0:0:0:0:
256,192,105841,5,0,0:0:0:0:
256,192,105966,5,8,0:0:0:0:
256,192,106216,1,8,0:0:0:0:
256,192,106466,5,0,0:0:0:0:
256,192,106966,5,8,0:0:0:0:
256,192,107466,5,8,0:0:0:0:
256,192,107716,5,8,0:0:0:0:
256,192,107966,5,0,0:0:0:0:
256,192,108216,5,8,0:0:0:0:
256,192,108341,5,0,0:0:0:0:
256,192,108466,5,8,0:0:0:0:
256,192,108966,5,8,0:0:0:0:
256,192,109466,5,0,0:0:0:0:
256,192,109591,5,0,0:0:0:0:
256,192,109716,5,8,0:0:0:0:
256,192,109841,5,8,0:0:0:0:
256,192,109966,5,0,0:0:0:0:
256,192,110216,1,8,0:0:0:0:
256,192,110466,5,8,0:0:0:0:
256,192,110966,5,8,0:0:0:0:
256,192,111466,5,8,0:0:0:0:
256,192,111716,5,8,0:0:0:0:
256,192,111966,5,0,0:0:0:0:
256,192,112216,5,8,0:0:0:0:
256,192,112341,5,0,0:0:0:0:
256,192,112466,5,8,0:0:0:0:
256,192,112966,5,8,0:0:0:0:
256,192,113466,5,8,0:0:0:0:
256,192,113966,5,8,0:0:0:0:
256,192,114091,5,8,0:0:0:0:
256,192,114216,5,0,0:0:0:0:
256,192,114466,5,0,0:0:0:0:
256,192,114966,5,8,0:0:0:0:
256,192,115216,5,0,0:0:0:0:
256,192,115466,5,8,0:0:0:0:
256,192,115716,5,0,0:0:0:0:
256,192,115841,5,0,0:0:0:0:
256,192,115966,5,8,0:0:0:0:
256,192,116216,5,8,0:0:0:0:
256,192,116466,5,0,0:0:0:0:
256,192,116716,5,0,0:0:0:0:
256,192,116966,5,8,0:0:0:0:
256,192,117216,5,8,0:0:0:0:
256,192,117716,5,8,0:0:0:0:
256,192,117966,5,8,0:0:0:0:
256,192,118216,5,0,0:0:0:0:
256,192,118341,5,0,0:0:0:0:
256,192,118466,5,8,0:0:0:0:
256,192,118966,5,8,0:0:0:0:
256,192,119216,5,0,0:0:0:0:
256,192,119466,5,0,0:0:0:0:
256,192,119716,5,8,0:0:0:0:
256,192,119966,5,8,0:0:0:0:
256,192,120341,5,0,0:0:0:0:
256,192,120716,5,8,0:0:0:0:
256,192,120966,5,8,0:0:0:0:
256,192,121091,5,0,0:0:0:0:
256,192,121216,5,8,0:0:0:0:
256,192,121716,5,0,0:0:0:0:
256,192,121966,5,8,0:0:0:0:
256,192,122091,5,8,0:0:0:0:
256,192,122216,5,0,0:0:0:0:
256,192,122466,5,8,0:0:0:0:
256,192,122716,5,0,0:0:0:0:
256,192,122966,5,8,0:0:0:0:
256,192,123216,5,8,0:0:0:0:
256,192,123466,5,0,0:0:0:0:
256,192,123716,5,8,0:0:0:0:
256,192,123966,5,8,0:0:0:0:
256,192,124466,5,8,0:0:0:0:
256,192,124716,5,0,0:0:0:0:
256,192,124841,5,0,0:0:0:0:
256,192,124966,5,8,0:0:0:0:
256,192,125216,5,8,0:0:0:0:
256,192,125716,5,8,0:0:0:0:
256,192,125966,5,8,0:0:0:0:
256,192,126216,5,0,0:0:0:0:
256,192,126341,5,0,0:0:0:0:
256,192,126466,5,8,0:0:0:0:
256,192,126966,5,8,0:0:0:0:
256,192,127216,5,8,0:0:0:0:
256,192,127466,5,0,0:0:0:0:
256,192,127716,5,8,0:0:0:0:
256,192,127966,5,0,0:0:0:0:
256,192,128091,5,0,0:0:0:0:
256,192,128216,5,8,0:0:0:0:
256,192,128716,5,8,0:0:0:0:
256,192,128966,5,8,0:0:0:0:
256,192,129216,5,0,0:0:0:0:
256,192,129466,5,0,0:0:0:0:
256,192,129716,5,8,0:0:0:0:
256,192,129841,5,8,0:0:0:0:
256,192,129966,5,0,0:0:0:0:
256,192,130216,5,8,0:0:0:0:
256,192,130466,5,8,0:0:0:0:
256,192,130966,5,8,0:0:0:0:
256,192,131216,1,0,0:0:0:0:
256,192,131466,5,8,0:0:0:0:
256,192,131591,1,0,0:0:0:0:
256,192,131716,5,0,0:0:0:0:
256,192,131966,5,8,0:0:0:0:
256,192,132216,5,0,0:0:0:0:
256,192,132966,5,0,0:0:0:0:
256,192,133216,5,8,0:0:0:0:
256,192,133466,5,0,0:0:0:0:
256,192,133716,5,8,0:0:0:0:
256,192,133841,1,0,0:0:0:0:
256,192,133966,5,8,0:0:0:0:
256,192,134466,5,8,0:0:0:0:
256,192,134716,5,0,0:0:0:0:
256,192,134966,5,8,0:0:0:0:
256,192,135341,5,8,0:0:0:0:
256,192,135716,5,8,0:0:0:0:
256,192,135966,5,0,0:0:0:0:
256,192,136466,5,8,0:0:0:0:
256,192,136716,5,0,0:0:0:0:
256,192,136841,1,0,0:0:0:0:
256,192,136966,5,8,0:0:0:0:
256,192,137466,5,8,0:0:0:0:
256,192,137716,5,8,0:0:0:0:
256,192,137966,5,0,0:0:0:0:
256,192,138091,1,0,0:0:0:0:
256,192,138216,5,0,0:0:0:0:
256,192,138466,5,8,0:0:0:0:
256,192,138966,5,8,0:0:0:0:
256,192,139216,5,0,0:0:0:0:
256,192,139341,5,0,0:0:0:0:
256,192,139466,5,8,0:0:0:0:
256,192,139966,5,8,0:0:0:0:
256,192,140216,1,0,0:0:0:0:
256,192,140716,5,0,0:0:0:0:
256,192,140966,5,8,0:0:0:0:
256,192,141216,5,0,0:0:0:0:
256,192,141466,5,8,0:0:0:0:
256,192,141716,5,0,0:0:0:0:
256,192,141966,5,8,0:0:0:0:
256,192,142091,5,0,0:0:0:0:
256,192,142216,5,8,0:0:0:0:
256,192,142716,5,8,0:0:0:0:
256,192,142966,5,8,0:0:0:0:
256,192,143091,5,8,0:0:0:0:
256,192,143216,5,0,0:0:0:0:
256,192,143466,5,8,0:0:0:0:
256,192,143591,5,8,0:0:0:0:
256,192,143716,5,0,0:0:0:0:
256,192,143966,5,8,0:0:0:0:
256,192,144466,5,0,0:0:0:0:
256,192,144716,5,8,0:0:0:0:
256,192,144841,5,0,0:0:0:0:
256,192,144966,5,8,0:0:0:0:
256,192,145466,5,8,0:0:0:0:
256,192,145716,5,8,0:0:0:0:
256,192,145966,5,0,0:0:0:0:
256,192,146091,5,0,0:0:0:0:
256,192,146216,5,8,0:0:0:0:
256,192,146466,5,8,0:0:0:0:
256,192,146966,5,8,0:0:0:0:
256,192,147466,5,0,0:0:0:0:
256,192,147716,5,0,0:0:0:0:
256,192,147841,5,0,0:0:0:0:
256,192,147966,5,8,0:0:0:0:
256,192,148216,5,0,0:0:0:0:
256,192,148341,5,0,0:0:0:0:
256,192,148466,5,8,0:0:0:0:
256,192,148966,5,0,0:0:0:0:
256,192,149216,5,0,0:0:0:0:
256,192,149341,5,0,0:0:0:0:
256,192,149466,5,8,0:0:0:0:
256,192,149591,5,8,0:0:0:0:
256,192,149716,5,0,0:0:0:0:
256,192,149966,5,8,0:0:0:0:
256,192,150466,5,0,0:0:0:0:
256,192,150716,5,0,0:0:0:0:
256,192,150841,5,0,0:0:0:0:
256,192,150966,5,8,0:0:0:0:
256,192,151466,5,8,0:0:0:0:
256,192,151591,5,8,0:0:0:0:
256,192,151716,5,0,0:0:0:0:
256,192,151966,5,8,0:0:0:0:
256,192,152091,5,8,0:0:0:0:
256,192,152216,5,0,0:0:0:0:
256,192,152466,5,8,0:0:0:0:
256,192,152716,5,8,0:0:0:0:
256,192,152966,5,8,0:0:0:0:
256,192,153466,5,8,0:0:0:0:
256,192,153716,5,0,0:0:0:0:
256,192,153966,5,8,0:0:0:0:
256,192,154091,5,0,0:0:0:0:
256,192,154216,5,8,0:0:0:0:
256,192,154341,5,0,0:0:0:0:
256,192,154466,5,8,0:0:0:0:
256,192,154716,5,8,0:0:0:0:
256,192,155216,5,0,0:0:0:0:
256,192,155466,5,8,0:0:0:0:
256,192,155591,5,8,0:0:0:0:
256,192,155716,5,0,0:0:0:0:
256,192,155966,5,8,0:0:0:0:
256,192,156216,5,8,0:0:0:0:
256,192,156716,5,8,0:0:0:0:
256,192,156966,5,0,0:0:0:0:
256,192,157091,5,0,0:0:0:0:
256,192,157216,5,0,0:0:0:0:
256,192,157466,5,8,0:0:0:0:
256,192,157716,5,0,0:0:0:0:
256,192,157841,5,8,0:0:0:0:
256,192,157966,5,0,0:0:0:0:
256,192,158216,5,8,0:0:0:0:
256,192,158466,5,8,0:0:0:0:
256,192,158716,5,0,0:0:0:0:
256,192,158841,5,0,0:0:0:0:
256,192,158966,5,8,0:0:0:0:
256,192,159466,5,8,0:0:0:0:
256,192,159591,5,0,0:0:0:0:
256,192,159716,5,8,0:0:0:0:
256,192,160216,5,8,0:0:0:0:
256,192,160341,5,8,0:0:0:0:
256,192,160466,5,0,0:0:0:0:
256,192,160716,5,0,0:0:0:0:
256,192,160966,5,8,0:0:0:0:
256,192,161216,5,8,0:0:0:0:
256,192,161466,5,0,0:0:0:0:
256,192,161716,5,8,0:0:0:0:
256,192,161841,5,8,0:0:0:0:
256,192,161966,5,0,0:0:0:0:
256,192,162466,5,0,0:0:0:0:
256,192,162716,5,8,0:0:0:0:
256,192,162966,5,0,0:0:0:0:
256,192,163466,5,8,0:0:0:0:
256,192,163716,5,8,0:0:0:0:
256,192,163841,5,8,0:0:0:0:
256,192,163966,5,0,0:0:0:0:
256,192,164216,5,8,0:0:0:0:
256,192,164466,5,0,0:0:0:0:
256,192,164591,5,8,0:0:0:0:
256,192,164716,5,0,0:0:0:0:
256,192,164966,5,0,0:0:0:0:
256,192,165216,5,8,0:0:0:0:
256,192,165341,5,0,0:0:0:0:
256,192,165466,5,8,0:0:0:0:
256,192,165716,5,0,0:0:0:0:
256,192,165966,5,8,0:0:0:0:
256,192,166466,5,0,0:0:0:0:
256,192,166591,5,0,0:0:0:0:
256,192,166716,5,8,0:0:0:0:
256,192,166966,5,8,0:0:0:0:
256,192,167216,5,0,0:0:0:0:
256,192,167466,5,0,0:0:0:0:
256,192,167716,5,8,0:0:0:0:
256,192,167966,5,8,0:0:0:0:
256,192,168466,5,8,0:0:0:0:
256,192,168716,5,8,0:0:0:0:
256,192,168966,5,0,0:0:0:0:
256,192,169091,5,0,0:0:0:0:
256,192,169216,5,8,0:0:0:0:
256,192,169466,5,8,0:0:0:0:
256,192,169966,5,0,0:0:0:0:
256,192,170216,5,8,0:0:0:0:
256,192,170466,5,0,0:0:0:0:
256,192,170591,5,8,0:0:0:0:
256,192,170841,5,8,0:0:0:0:
256,192,170966,5,0,0:0:0:0:
256,192,171466,5,0,0:0:0:0:
256,192,171716,5,8,0:0:0:0:
256,192,171841,5,8,0:0:0:0:
256,192,171966,5,0,0:0:0:0:
256,192,172216,5,8,0:0:0:0:
256,192,172466,5,8,0:0:0:0:
256,192,172966,5,0,0:0:0:0:
256,192,173216,5,8,0:0:0:0:
256,192,173466,1,0,0:0:0:0:
256,192,173591,5,8,0:0:0:0:
256,192,173841,5,8,0:0:0:0:
256,192,173966,5,0,0:0:0:0:
256,192,174216,5,0,0:0:0:0:
256,192,174341,5,0,0:0:0:0:
256,192,174466,5,8,0:0:0:0:
256,192,174716,5,8,0:0:0:0:
256,192,175216,5,0,0:0:0:0:
256,192,175466,5,8,0:0:0:0:
256,192,175591,5,0,0:0:0:0:
256,192,175716,5,8,0:0:0:0:
256,192,175966,5,0,0:0:0:0:
256,192,176216,5,8,0:0:0:0:
256,192,176341,5,8,0:0:0:0:
256,192,176466,5,0,0:0:0:0:
256,192,176716,5,8,0:0:0:0:
256,192,176841,5,0,0:0:0:0:
256,192,176966,5,8,0:0:0:0:
256,192,177466,5,0,0:0:0:0:
256,192,177716,5,8,0:0:0:0:
256,192,177841,5,8,0:0:0:0:
256,192,177966,5,0,0:0:0:0:
256,192,178216,5,0,0:0:0:0:
256,192,178466,5,8,0:0:0:0:
256,192,178841,5,8,0:0:0:0:
256,192,179091,5,0,0:0:0:0:
256,192,179216,5,8,0:0:0:0:
256,192,179591,5,8,0:0:0:0:
256,192,179841,5,0,0:0:0:0:
256,192,179966,5,12,0:0:0:0:
256,192,180341,5,12,0:0:0:0:
256,192,180466,5,12,0:0:0:0:
256,192,180591,5,12,0:0:0:0:
256,192,180716,5,12,0:0:0:0:
256,192,181466,5,4,0:0:0:0:
256,192,181966,5,0,0:0:0:0:
256,192,182216,5,8,0:0:0:0:
256,192,182716,5,0,0:0:0:0:
256,192,182966,5,0,0:0:0:0:
256,192,183341,5,0,0:0:0:0:
256,192,183716,5,8,0:0:0:0:
256,192,184216,5,8,0:0:0:0:
256,192,184466,5,0,0:0:0:0:
256,192,184966,5,0,0:0:0:0:
256,192,185216,5,8,0:0:0:0:
256,192,185716,5,8,0:0:0:0:
256,192,185966,5,8,0:0:0:0:
256,192,186216,5,0,0:0:0:0:
256,192,186466,5,0,0:0:0:0:
256,192,186716,5,8,0:0:0:0:
256,192,187216,5,8,0:0:0:0:
256,192,187466,5,0,0:0:0:0:
256,192,187716,5,0,0:0:0:0:
256,192,187966,5,0,0:0:0:0:
256,192,188216,5,8,0:0:0:0:
256,192,188966,5,0,0:0:0:0:
256,192,189216,5,0,0:0:0:0:
256,192,189716,5,8,0:0:0:0:
256,192,190216,5,0,0:0:0:0:
256,192,190466,5,0,0:0:0:0:
256,192,190841,5,0,0:0:0:0:
256,192,191216,5,8,0:0:0:0:
256,192,191591,5,0,0:0:0:0:
256,192,191966,5,0,0:0:0:0:
256,192,192341,5,8,0:0:0:0:
256,192,192716,5,8,0:0:0:0:
256,192,193466,5,8,0:0:0:0:
256,192,193716,5,0,0:0:0:0:
256,192,193966,5,8,0:0:0:0:
256,192,194091,5,0,0:0:0:0:
256,192,194216,5,8,0:0:0:0:
256,192,194466,5,8,0:0:0:0:
256,192,194716,5,0,0:0:0:0:
256,192,194966,5,8,0:0:0:0:
256,192,195466,5,0,0:0:0:0:
256,192,195716,5,8,0:0:0:0:
256,192,195841,5,8,0:0:0:0:
256,192,195966,5,0,0:0:0:0:
256,192,196091,5,0,0:0:0:0:
256,192,196216,5,8,0:0:0:0:
256,192,196466,5,8,0:0:0:0:
256,192,196966,5,8,0:0:0:0:
256,192,197216,5,8,0:0:0:0:
256,192,197341,5,0,0:0:0:0:
256,192,197466,5,8,0:0:0:0:
256,192,197591,5,8,0:0:0:0:
256,192,197716,5,0,0:0:0:0:
256,192,197966,5,8,0:0:0:0:
256,192,198216,5,0,0:0:0:0:
256,192,198466,5,8,0:0:0:0:
256,192,198591,5,0,0:0:0:0:
256,192,198716,5,8,0:0:0:0:
256,192,199216,5,8,0:0:0:0:
256,192,199341,5,8,0:0:0:0:
256,192,199466,5,0,0:0:0:0:
256,192,199966,5,8,0:0:0:0:
256,192,200091,5,8,0:0:0:0:
256,192,200216,5,8,0:0:0:0:
256,192,200716,5,0,0:0:0:0:
256,192,200966,5,8,0:0:0:0:
256,192,201216,5,0,0:0:0:0:
256,192,201466,5,8,0:0:0:0:
256,192,201716,5,8,0:0:0:0:
256,192,202091,5,8,0:0:0:0:
256,192,202466,5,8,0:0:0:0:
256,192,202591,5,8,0:0:0:0:
256,192,202716,5,0,0:0:0:0:
256,192,202966,5,8,0:0:0:0:
256,192,203216,5,8,0:0:0:0:
256,192,203466,5,0,0:0:0:0:
256,192,203591,5,8,0:0:0:0:
256,192,203716,5,0,0:0:0:0:
256,192,203966,5,8,0:0:0:0:
256,192,204216,5,8,0:0:0:0:
256,192,204341,5,8,0:0:0:0:
256,192,204466,5,0,0:0:0:0:
256,192,204716,5,8,0:0:0:0:
256,192,205341,5,8,0:0:0:0:
256,192,205466,5,8,0:0:0:0:
256,192,206216,5,8,0:0:0:0:
256,192,206466,5,0,0:0:0:0:
256,192,206716,5,0,0:0:0:0:
256,192,206966,5,8,0:0:0:0:
256,192,207466,5,0,0:0:0:0:
256,192,207716,5,8,0:0:0:0:
256,192,207966,5,8,0:0:0:0:
256,192,208216,5,0,0:0:0:0:
256,192,208466,5,8,0:0:0:0:
256,192,208966,5,0,0:0:0:0:
256,192,209216,5,8,0:0:0:0:
256,192,209466,5,0,0:0:0:0:
256,192,209716,5,8,0:0:0:0:
256,192,209966,5,0,0:0:0:0:
256,192,210091,5,0,0:0:0:0:
256,192,210216,5,8,0:0:0:0:
256,192,210466,5,0,0:0:0:0:
256,192,210716,5,8,0:0:0:0:
256,192,210841,5,8,0:0:0:0:
256,192,210966,5,0,0:0:0:0:
256,192,211216,5,8,0:0:0:0:
256,192,211341,5,0,0:0:0:0:
256,192,211466,5,8,0:0:0:0:
256,192,211966,5,0,0:0:0:0:
256,192,212216,5,8,0:0:0:0:
256,192,212716,5,0,0:0:0:0:
256,192,212966,5,8,0:0:0:0:
256,192,213091,5,0,0:0:0:0:
256,192,213216,5,0,0:0:0:0:
256,192,213466,5,0,0:0:0:0:
256,192,213716,5,8,0:0:0:0:
256,192,214216,5,8,0:0:0:0:
256,192,214466,5,0,0:0:0:0:
256,192,214591,5,8,0:0:0:0:
256,192,214716,5,0,0:0:0:0:
256,192,214966,5,0,0:0:0:0:
256,192,215216,5,8,0:0:0:0:
256,192,215466,5,0,0:0:0:0:
256,192,215591,5,0,0:0:0:0:
256,192,215716,5,8,0:0:0:0:
256,192,215966,5,8,0:0:0:0:
256,192,216216,5,0,0:0:0:0:
256,192,216466,5,8,0:0:0:0:
256,192,216591,5,8,0:0:0:0:
256,192,216716,5,0,0:0:0:0:
256,192,216841,1,0,0:0:0:0:
256,192,216966,5,8,0:0:0:0:
256,192,217466,5,12,0:0:0:0:
256,192,217716,5,8,0:0:0:0:
256,192,217841,5,8,0:0:0:0:
256,192,217966,5,0,0:0:0:0:
256,192,218216,5,8,0:0:0:0:
256,192,218466,5,8,0:0:0:0:
256,192,218591,5,0,0:0:0:0:
256,192,218716,5,0,0:0:0:0:
256,192,218966,5,8,0:0:0:0:
256,192,219216,5,8,0:0:0:0:
256,192,219466,5,0,0:0:0:0:
256,192,219716,5,8,0:0:0:0:
256,192,219966,5,0,0:0:0:0:
256,192,220216,5,0,0:0:0:0:
256,192,220466,5,8,0:0:0:0:
256,192,220716,5,8,0:0:0:0:
256,192,220966,5,0,0:0:0:0:
256,192,221216,5,8,0:0:0:0:
256,192,221466,5,8,0:0:0:0:
256,192,221716,5,0,0:0:0:0:
256,192,221966,5,8,0:0:0:0:
256,192,222216,5,8,0:0:0:0:
256,192,222466,5,0,0:0:0:0:
256,192,222716,5,8,0:0:0:0:
256,192,223216,5,0,0:0:0:0:
256,192,223466,5,8,0:0:0:0:
256,192,223716,5,0,0:0:0:0:
256,192,223841,5,8,0:0:0:0:
256,192,223966,5,0,0:0:0:0:
256,192,224216,5,8,0:0:0:0:
256,192,224466,5,8,0:0:0:0:
256,192,224591,5,8,0:0:0:0:
256,192,224716,5,0,0:0:0:0:
256,192,224966,5,8,0:0:0:0:
256,192,225216,5,0,0:0:0:0:
256,192,225466,5,8,0:0:0:0:
256,192,225716,5,8,0:0:0:0:
256,192,225841,5,8,0:0:0:0:
256,192,225966,5,0,0:0:0:0:
256,192,226216,5,0,0:0:0:0:
256,192,226466,5,8,0:0:0:0:
256,192,226716,5,0,0:0:0:0:
256,192,226841,5,8,0:0:0:0:
256,192,226966,5,0,0:0:0:0:
256,192,227216,5,8,0:0:0:0:
256,192,227466,5,0,0:0:0:0:
256,192,227591,5,8,0:0:0:0:
256,192,227716,5,0,0:0:0:0:
256,192,227966,5,8,0:0:0:0:
256,192,228216,1,8,0:0:0:0:
256,192,228466,5,8,0:0:0:0:
256,192,228716,5,0,0:0:0:0:
256,192,228966,5,8,0:0:0:0:
256,192,229466,5,8,0:0:0:0:
256,192,229716,5,8,0:0:0:0:
256,192,229841,5,0,0:0:0:0:
256,192,229966,5,8,0:0:0:0:
256,192,230216,5,8,0:0:0:0:
256,192,230466,5,0,0:0:0:0:
256,192,230591,5,8,0:0:0:0:
256,192,230716,5,0,0:0:0:0:
256,192,230966,5,8,0:0:0:0:
256,192,231216,5,8,0:0:0:0:
256,192,231466,5,0,0:0:0:0:
256,192,231716,5,8,0:0:0:0:
256,192,231966,5,0,0:0:0:0:
256,192,232091,1,0,0:0:0:0:
256,192,232216,5,8,0:0:0:0:
256,192,232466,5,8,0:0:0:0:
256,192,232716,5,0,0:0:0:0:
256,192,232966,5,8,0:0:0:0:
256,192,233216,5,8,0:0:0:0:
256,192,233466,5,8,0:0:0:0:
256,192,233716,5,0,0:0:0:0:
256,192,233966,5,8,0:0:0:0:
256,192,234216,5,8,0:0:0:0:
256,192,234466,5,0,0:0:0:0:
256,192,234716,5,8,0:0:0:0:
256,192,235216,5,0,0:0:0:0:
256,192,235466,5,8,0:0:0:0:
256,192,235716,5,8,0:0:0:0:
256,192,235841,5,8,0:0:0:0:
256,192,235966,5,0,0:0:0:0:
256,192,236216,5,8,0:0:0:0:
256,192,236466,5,0,0:0:0:0:
256,192,236591,5,8,0:0:0:0:
256,192,236716,5,0,0:0:0:0:
256,192,236966,5,8,0:0:0:0:
256,192,237216,5,8,0:0:0:0:
256,192,237466,5,8,0:0:0:0:
256,192,237716,5,0,0:0:0:0:
256,192,237841,5,8,0:0:0:0:
256,192,237966,5,0,0:0:0:0:
256,192,238216,5,8,0:0:0:0:
256,192,238466,5,8,0:0:0:0:
256,192,238591,5,8,0:0:0:0:
256,192,238716,5,0,0:0:0:0:
256,192,238966,5,0,0:0:0:0:
256,192,239216,5,8,0:0:0:0:
256,192,239341,5,0,0:0:0:0:
256,192,239466,5,8,0:0:0:0:
256,192,239716,5,0,0:0:0:0:
256,192,239841,5,0,0:0:0:0:
256,192,239966,5,8,0:0:0:0:
256,192,240466,5,8,0:0:0:0:
256,192,240591,5,8,0:0:0:0:
256,192,240716,5,0,0:0:0:0:
256,192,240841,5,0,0:0:0:0:
256,192,240966,5,8,0:0:0:0:
256,192,241216,5,4,0:0:0:0:
