osu file format v14

[General]
AudioFilename: audio.mp3
AudioLeadIn: 0
PreviewTime: 141579
Countdown: 1
SampleSet: Normal
StackLeniency: 0.4
Mode: 0
LetterboxInBreaks: 0
WidescreenStoryboard: 1
SamplesMatchPlaybackRate: 1

[Editor]
Bookmarks: 48660,56619,60048,65190,71068,71129,84979,101510,107068,116864,130578,142333,151884,161435,181517,201109,224619,267004,270921,271656,279003,290758,296635,301778,305452,306676,306921,308023,308084,308145,308207,308268,308329,308390,309860,315526,335817,343398,350617
DistanceSpacing: 0.8
BeatDivisor: 4
GridSize: 4
TimelineZoom: 2.999999

[Metadata]
Title:Within the Dead Horizon
TitleUnicode:Within the Dead Horizon
Artist:Inferi
ArtistUnicode:Inferi
Creator:_Nico_
Version:Beyond The Dead Horizon
Source:
Tags:metal death metal melodic death metal technical death metal thrash metal inferi deathstreams rsi stamina 2017 new
BeatmapID:1342179
BeatmapSetID:632264

[Difficulty]
HPDrainRate:5
CircleSize:3.9
OverallDifficulty:9
ApproachRate:10
SliderMultiplier:2
SliderTickRate:1

[Events]
//Background and Video events
0,0,"inferi.jpg",0,0
//Break Periods
//Storyboard Layer 0 (Background)
//Storyboard Layer 1 (Fail)
//Storyboard Layer 2 (Pass)
//Storyboard Layer 3 (Foreground)
//Storyboard Sound Samples

[TimingPoints]
48273,244.897959183673,3,1,1,40,1,0
48640,-100,3,1,1,50,0,1
51211,-100,3,1,1,50,0,1
55375,-100,3,1,1,50,0,1
58130,-100,3,1,1,5,0,1
58313,-100,3,1,1,50,0,1
58375,-100,3,1,1,5,0,1
58558,-100,3,1,1,50,0,1
59415,-133.333333333333,3,1,1,50,0,1
59660,-100,3,1,1,50,0,1
61558,-100,3,1,1,50,0,1
61864,-100,3,1,1,50,0,1
61926,-100,3,1,1,50,0,1
62232,-100,3,1,1,50,0,1
67864,-100,3,1,1,50,0,1
68109,-100,3,1,1,50,0,1
68660,-100,3,1,1,50,0,1
68721,-100,3,1,1,50,0,1
70375,-100,3,1,1,5,0,1
70558,-100,3,1,1,50,0,1
70619,-100,3,1,1,5,0,1
70803,-100,3,1,1,50,0,1
77048,-133.333333333333,3,1,1,50,0,1
77293,-100,3,1,1,50,0,1
80599,-100,3,1,1,50,0,0
82068,-400,3,1,1,50,0,0
82803,-250,3,1,1,50,0,0
84272,-100,3,1,1,50,0,0
87824,-100,3,1,1,50,0,0
87885,-100,3,1,1,5,0,0
87946,-100,3,1,1,50,0,0
88558,-100,3,1,1,50,0,0
88619,-100,3,1,1,5,0,0
88681,-100,3,1,1,50,0,0
89415,-100,3,1,1,50,0,0
93824,-100,3,1,1,50,0,0
93885,-100,3,1,1,5,0,0
94068,-100,3,1,1,50,0,0
94130,-100,3,1,1,5,0,0
94313,-100,3,1,1,50,0,0
95293,-100,3,1,1,50,0,0
101170,-400,3,1,1,50,0,0
101538,-90.9090909090909,3,1,1,50,0,0
101599,-90.9090909090909,3,1,1,5,0,0
101783,-90.9090909090909,3,1,1,50,0,0
101966,-90.9090909090909,3,1,1,5,0,0
102028,-90.9090909090909,3,1,1,50,0,0
102456,-90.9090909090909,3,1,1,5,0,0
102517,-90.9090909090909,3,1,1,50,0,0
106681,-133.333333333333,3,1,1,50,0,0
107048,-100,3,1,1,50,0,1
108946,-100,3,1,1,5,0,1
109252,-100,3,1,1,50,0,1
110048,-100,3,1,1,5,0,1
110232,-100,3,1,1,50,0,1
112436,-113.636363636364,3,1,1,50,0,1
112926,-100,3,1,1,50,0,1
114946,-100,3,1,1,5,0,1
115007,-100,3,1,1,50,0,1
117579,-100,3,1,1,50,0,1
117640,-100,3,1,1,5,0,1
117701,-100,3,1,1,50,0,1
118313,-200,3,1,1,50,0,1
118803,-100,3,1,1,50,0,1
120517,-100,3,1,1,50,0,1
124681,-100,3,1,1,50,0,1
125783,-100,3,1,1,50,0,1
129946,-133.333333333333,3,1,1,50,0,0
130191,-100,3,1,1,50,0,0
130558,-100,3,2,1,50,0,0
132824,-100,3,2,1,50,0,0
133130,-100,3,2,1,50,0,0
133191,-100,3,2,1,50,0,0
133497,-100,3,2,1,50,0,0
136436,-100,3,1,1,50,0,0
138762,-100,3,2,1,50,0,0
139375,-100,3,1,1,50,0,0
141579,-400,3,1,1,50,0,0
142313,-80,3,2,1,40,0,0
144517,-76.9230769230769,3,1,1,40,0,0
145252,-80,3,2,1,40,0,0
145987,-100,3,2,1,40,0,0
146477,-100,3,2,1,40,0,0
146721,-80,3,2,1,40,0,0
147456,-76.9230769230769,3,1,1,40,0,0
148191,-80,3,2,1,40,0,0
150150,-100,3,2,1,40,0,0
150395,-76.9230769230769,3,1,1,50,0,0
151619,-80,3,1,1,50,0,0
151803,-80,3,1,1,5,0,0
151864,-80,3,1,1,50,0,0
152354,-100,3,1,1,50,0,0
152599,-80,3,1,1,50,0,0
154803,-90.9090909090909,3,1,1,50,0,0
155538,-90.9090909090909,3,2,1,50,0,0
155599,-90.9090909090909,3,2,1,50,0,0
155721,-90.9090909090909,3,2,1,5,0,0
155783,-90.9090909090909,3,2,1,50,0,0
155844,-90.9090909090909,3,2,1,50,0,0
155966,-90.9090909090909,3,2,1,5,0,0
156028,-90.9090909090909,3,1,1,50,0,0
156946,-90.9090909090909,3,2,1,5,0,0
157007,-90.9090909090909,3,1,1,50,0,0
157926,-90.9090909090909,3,2,1,5,0,0
157987,-90.9090909090909,3,1,1,50,0,0
158477,-100,3,1,1,50,0,0
161415,-90.9090909090909,3,1,1,50,0,0
162150,-133.333333333333,3,1,1,50,0,0
163681,-133.333333333333,3,1,1,50,0,0
163926,-133.333333333333,3,1,1,5,0,0
163987,-133.333333333333,3,1,1,50,0,0
164048,-133.333333333333,3,1,1,50,0,0
164293,-133.333333333333,3,1,1,5,0,0
164354,-100,3,1,1,50,0,0
165089,-133.333333333333,3,1,1,50,0,0
166068,-90.9090909090909,3,1,1,50,0,0
166191,-90.9090909090909,3,1,1,50,0,0
166252,-90.9090909090909,3,1,1,5,0,0
166313,-90.9090909090909,3,1,1,50,0,0
166558,-90.9090909090909,3,1,1,50,0,0
169130,-90.9090909090909,3,1,1,50,0,0
170109,-133.333333333333,3,1,1,50,0,0
170477,-90.9090909090909,3,1,1,50,0,0
173232,-90.9090909090909,3,1,1,5,0,0
173415,-90.9090909090909,3,1,1,50,0,0
173477,-90.9090909090909,3,1,1,5,0,0
173660,-90.9090909090909,3,1,1,50,0,0
177579,-90.9090909090909,3,1,1,50,0,0
178007,-90.9090909090909,3,1,1,5,0,0
178313,-90.9090909090909,3,1,1,50,0,0
178375,-90.9090909090909,3,1,1,5,0,0
178681,-90.9090909090909,3,1,1,50,0,0
179477,-90.9090909090909,3,1,1,5,0,0
179783,-90.9090909090909,3,1,1,50,0,0
181313,-90.9090909090909,3,1,1,5,0,0
181497,-90.9090909090909,3,1,1,50,0,0
182721,-100,3,1,1,50,0,0
182966,-200,3,1,1,50,0,0
183824,-100,3,1,1,50,0,0
183946,-100,3,2,1,50,0,0
187130,-100,3,2,1,50,0,0
188844,-166.666666666667,3,1,1,50,0,0
189579,-125,3,1,1,50,0,0
189824,-100,3,1,1,50,0,0
190150,-80,3,1,1,50,0,0
190803,-80,3,1,1,50,0,0
193987,-80,3,1,1,50,0,0
194477,-80,3,1,1,50,0,0
194577,-100,3,1,1,50,0,0
199619,-133.333333333333,3,1,1,50,0,0
199987,-100,3,1,1,50,0,0
201089,-100,3,1,1,50,0,1
202803,-100,3,1,1,50,0,1
207272,-100,3,1,1,5,0,1
207334,-100,3,1,1,50,0,1
207395,-100,3,1,1,5,0,1
207579,-100,3,1,1,50,0,1
212477,-117.647058823529,3,1,1,50,0,1
212844,-80,3,1,1,50,0,1
217252,-100,3,1,1,50,0,1
217313,-100,3,1,1,5,0,1
217497,-100,3,1,1,50,0,1
218721,-80,3,1,1,50,0,1
219334,-100,3,1,1,50,0,1
219395,-80,3,1,1,5,0,1
219579,-100,3,1,1,50,0,1
219640,-80,3,1,1,5,0,1
219824,-80,3,1,1,50,0,1
220926,-100,3,1,1,50,0,1
223803,-80,3,1,1,5,0,1
223864,-80,3,1,1,50,0,1
223987,-133.333333333333,3,1,1,50,0,1
224599,733.94495412844,4,1,1,50,1,0
224599,-100,3,1,1,50,0,0
230470,-133.333333333333,4,1,1,50,0,0
241479,-82.6446280991736,4,1,1,50,0,0
241724,-133.333333333333,4,1,1,50,0,0
247351,-66.6666666666667,4,1,1,50,0,0
247718,-50,4,1,1,50,0,0
248085,-133.333333333333,4,1,1,50,0,0
259094,-50,4,1,1,50,0,0
259828,-66.6666666666667,4,1,1,50,0,0
263498,-66.6666666666667,4,1,1,50,0,0
264232,-66.6666666666667,4,1,1,50,0,0
264690,-66.6666666666667,4,1,1,50,0,0
264965,-66.6666666666667,4,1,1,50,0,0
265699,-66.6666666666667,4,1,1,50,0,0
267017,405.405405405405,3,1,1,50,1,0
267219,244.897959183673,3,1,1,50,1,0
267219,-100,3,1,1,50,0,1
270892,-100,3,1,1,50,0,1
271382,-100,3,1,1,50,0,1
278974,-100,3,1,1,50,0,0
279708,-100,3,1,1,50,0,0
280443,-100,3,1,1,50,0,0
281178,-100,3,1,1,50,0,0
281912,-100,3,1,1,50,0,0
282647,-100,3,1,1,50,0,0
283382,-100,3,1,1,50,0,0
285586,-100,3,1,1,50,0,0
286321,-100,3,1,1,50,0,0
287055,-100,3,1,1,50,0,0
287790,-100,3,1,1,50,0,0
288525,-100,3,1,1,50,0,0
290729,-100,3,1,1,50,0,0
293302,-80,3,1,1,50,0,0
295872,-100,3,1,1,50,0,0
296606,-100,3,1,1,50,0,0
301749,-100,3,1,1,50,0,1
302484,-100,3,1,1,50,0,1
305484,-100,3,1,1,5,0,1
305545,-100,3,1,1,50,0,1
305790,-100,3,1,1,50,0,1
311300,-100,3,1,1,50,0,0
312770,-400,3,1,1,50,0,0
313749,-100,3,1,1,50,0,0
313994,-100,3,1,1,50,0,0
314239,1250,4,1,1,40,1,0
315526,923.076923076923,4,2,1,25,1,0
316141,-200,4,2,1,5,0,0
316449,-200,4,2,1,20,0,0
326602,869.565217391304,4,2,1,20,1,0
328316,952.380952380952,4,2,1,20,1,0
332125,923.076923076923,4,2,1,20,1,0
339509,952.380952380952,4,2,1,20,1,0
341413,882.352941176471,4,2,1,20,1,0
343177,-100,4,2,1,20,0,0
344942,895.522388059701,4,2,1,25,1,0
345837,909.090909090909,4,2,1,20,1,0
346746,1000,4,2,1,20,1,0
347746,967.741935483871,4,2,1,20,1,0
348713,952.380952380952,4,2,1,20,1,0
350617,-100,4,2,1,10,0,0
352443,923.076923076923,4,2,1,5,1,0

[HitObjects]
256,192,42395,12,14,48272,0:0:0:0:
248,264,48640,5,14,0:0:0:0:
240,258,48701,1,2,0:0:0:0:
233,250,48762,1,2,0:0:0:0:
228,241,48823,1,2,0:0:0:0:
225,232,48884,1,2,0:0:0:0:
225,222,48946,1,2,0:0:0:0:
228,212,49007,5,14,0:0:0:0:
248,208,49068,1,2,0:0:0:0:
268,204,49129,1,2,0:0:0:0:
288,200,49190,1,2,0:0:0:0:
308,196,49252,5,14,0:0:0:0:
284,192,49313,1,2,0:0:0:0:
260,188,49374,1,2,0:0:0:0:
236,184,49435,1,2,0:0:0:0:
212,180,49497,5,14,0:0:0:0:
240,176,49558,1,2,0:0:0:0:
268,172,49619,1,2,0:0:0:0:
296,168,49680,1,2,0:0:0:0:
328,164,49742,6,2,L|340:108,5,50,14|2|2|2|2|2,0:0|0:0|0:0|0:0|0:0|0:0,0:0:0:0:
264,76,50109,2,2,L|240:20,5,50,14|2|2|2|2|2,0:0|0:0|0:0|0:0|0:0|0:0,0:0:0:0:
380,156,50477,5,14,0:0:0:0:
358,176,50538,1,2,0:0:0:0:
329,180,50599,1,2,0:0:0:0:
303,166,50660,1,2,0:0:0:0:
290,139,50721,1,2,0:0:0:0:
295,110,50783,1,2,0:0:0:0:
320,92,50844,5,14,0:0:0:0:
329,119,50905,1,2,0:0:0:0:
317,146,50966,1,2,0:0:0:0:
290,156,51027,1,2,0:0:0:0:
263,145,51088,1,2,0:0:0:0:
252,118,51150,1,2,0:0:0:0:
264,92,51211,6,2,L|260:40,7,50,14|2|2|2|2|2|2|2,0:0|0:0|0:0|0:0|0:0|0:0|0:0|0:0,0:0:0:0:
156,160,51701,5,14,0:0:0:0:
156,164,51762,1,2,0:0:0:0:
156,168,51824,2,2,L|136:112,1,50
244,228,51946,5,14,0:0:0:0:
244,232,52007,1,2,0:0:0:0:
244,236,52068,2,2,L|272:180,1,50
160,300,52191,5,14,0:0:0:0:
160,304,52252,1,2,0:0:0:0:
160,308,52313,2,2,L|136:260,1,50
260,356,52436,5,14,0:0:0:0:
260,352,52497,1,2,0:0:0:0:
260,348,52558,2,2,L|296:288,1,50
404,208,52681,5,14,0:0:0:0:
386,216,52742,1,2,0:0:0:0:
368,223,52803,1,2,0:0:0:0:
348,227,52864,1,2,0:0:0:0:
329,228,52925,1,2,0:0:0:0:
308,225,52987,1,2,0:0:0:0:
292,220,53048,5,14,0:0:0:0:
305,235,53109,1,2,0:0:0:0:
313,254,53170,1,2,0:0:0:0:
317,274,53231,1,2,0:0:0:0:
315,293,53292,1,2,0:0:0:0:
310,312,53354,1,2,0:0:0:0:
300,328,53416,5,14,0:0:0:0:
319,321,53477,1,2,0:0:0:0:
339,319,53538,1,2,0:0:0:0:
359,321,53599,1,2,0:0:0:0:
378,327,53660,1,2,0:0:0:0:
395,337,53722,1,2,0:0:0:0:
408,352,53783,5,14,0:0:0:0:
415,326,53844,1,2,0:0:0:0:
416,299,53905,1,2,0:0:0:0:
411,273,53966,1,2,0:0:0:0:
403,248,54027,1,2,0:0:0:0:
392,224,54089,1,2,0:0:0:0:
380,206,54150,5,14,0:0:0:0:
380,233,54211,1,2,0:0:0:0:
380,259,54272,1,2,0:0:0:0:
380,286,54334,1,2,0:0:0:0:
380,312,54395,1,2,0:0:0:0:
380,339,54456,1,2,0:0:0:0:
380,364,54518,6,2,L|352:308,5,50,14|2|2|2|2|2,0:0|0:0|0:0|0:0|0:0|0:0,0:0:0:0:
268,200,54885,5,14,0:0:0:0:
268,180,54946,1,2,0:0:0:0:
268,160,55007,2,2,L|268:104,1,50
144,128,55130,5,14,0:0:0:0:
144,108,55191,1,2,0:0:0:0:
144,88,55252,2,2,L|144:32,1,50
380,188,55375,5,14,0:0:0:0:
380,168,55436,1,2,0:0:0:0:
380,148,55497,2,2,L|380:92,1,50
216,184,55619,6,2,L|216:116,5,50,14|2|2|2|2|2,0:0|0:0|0:0|0:0|0:0|0:0,0:0:0:0:
312,92,55987,2,2,L|340:36,5,50,14|2|2|2|2|2,0:0|0:0|0:0|0:0|0:0|0:0,0:0:0:0:
324,248,56354,5,14,0:0:0:0:
313,265,56415,1,2,0:0:0:0:
303,281,56476,2,2,L|274:329,1,50
436,196,56599,5,14,0:0:0:0:
447,179,56660,1,2,0:0:0:0:
457,163,56721,2,2,L|485:114,1,50
362,147,56844,5,14,0:0:0:0:
332,143,56905,1,2,0:0:0:0:
313,122,56966,1,2,0:0:0:0:
312,92,57027,1,2,0:0:0:0:
333,76,57089,5,14,0:0:0:0:
357,108,57150,1,2,0:0:0:0:
362,147,57211,1,2,0:0:0:0:
349,185,57272,1,2,0:0:0:0:
327,219,57333,1,2,0:0:0:0:
315,256,57395,1,2,0:0:0:0:
317,304,57456,5,14,0:0:0:0:
342,271,57517,1,2,0:0:0:0:
342,231,57578,1,2,0:0:0:0:
322,195,57639,1,2,0:0:0:0:
290,171,57700,1,2,0:0:0:0:
250,163,57762,1,2,0:0:0:0:
214,179,57824,5,14,0:0:0:0:
228,188,57885,1,2,0:0:0:0:
242,193,57946,1,2,0:0:0:0:
256,195,58007,1,2,0:0:0:0:
271,192,58068,6,14,L|267:136,3,50
350,87,58313,2,14,L|354:35,3,50
272,136,58558,5,14,0:0:0:0:
252,160,58619,1,2,0:0:0:0:
248,188,58680,1,2,0:0:0:0:
256,216,58741,1,2,0:0:0:0:
280,236,58802,1,2,0:0:0:0:
308,244,58864,1,2,0:0:0:0:
332,236,58926,5,14,0:0:0:0:
304,224,58987,1,2,0:0:0:0:
268,224,59048,1,2,0:0:0:0:
236,232,59109,1,2,0:0:0:0:
208,252,59170,1,2,0:0:0:0:
188,280,59232,1,2,0:0:0:0:
176,316,59293,5,14,0:0:0:0:
176,308,59354,1,10,0:0:0:0:
176,300,59415,2,2,B|176:268|176:268|204:236|204:236|204:184,1,112.500004291535,14|2,0:0|0:0,0:0:0:0:
152,132,59660,5,14,0:0:0:0:
262,133,59783,1,6,0:0:0:0:
146,125,59905,1,6,0:0:0:0:
264,140,60028,5,14,0:0:0:0:
293,143,60089,1,2,0:0:0:0:
320,156,60150,1,2,0:0:0:0:
342,177,60211,1,2,0:0:0:0:
355,203,60272,1,2,0:0:0:0:
360,233,60334,1,2,0:0:0:0:
360,264,60395,5,14,0:0:0:0:
366,236,60456,1,2,0:0:0:0:
379,210,60517,1,2,0:0:0:0:
400,188,60579,1,2,0:0:0:0:
423,171,60640,1,2,0:0:0:0:
450,164,60701,1,2,0:0:0:0:
477,166,60762,5,14,0:0:0:0:
463,172,60824,1,2,0:0:0:0:
447,170,60885,1,2,0:0:0:0:
435,163,60946,1,2,0:0:0:0:
418,153,61007,1,2,0:0:0:0:
406,137,61068,1,2,0:0:0:0:
399,111,61130,5,14,0:0:0:0:
392,124,61191,1,2,0:0:0:0:
390,140,61253,1,2,0:0:0:0:
396,154,61314,1,2,0:0:0:0:
406,169,61376,1,2,0:0:0:0:
419,178,61437,1,2,0:0:0:0:
437,187,61498,5,14,0:0:0:0:
453,199,61559,1,2,0:0:0:0:
461,219,61620,1,2,0:0:0:0:
461,239,61681,1,2,0:0:0:0:
457,259,61743,1,2,0:0:0:0:
445,275,61804,1,2,0:0:0:0:
429,287,61864,2,14,L|429:347,5,50
368,200,62232,5,14,0:0:0:0:
367,180,62293,1,2,0:0:0:0:
367,161,62354,1,2,0:0:0:0:
367,140,62415,1,2,0:0:0:0:
367,121,62476,1,2,0:0:0:0:
367,100,62538,1,2,0:0:0:0:
366,83,62599,6,10,L|305:73,1,50
172,35,62721,2,10,L|224:56,1,50
362,63,62844,2,10,L|303:57,1,50
172,35,62966,5,14,0:0:0:0:
175,64,63027,1,2,0:0:0:0:
194,86,63088,1,2,0:0:0:0:
226,99,63149,1,2,0:0:0:0:
255,96,63210,1,2,0:0:0:0:
282,84,63272,1,2,0:0:0:0:
298,53,63334,5,14,0:0:0:0:
269,51,63394,1,2,0:0:0:0:
248,70,63455,1,2,0:0:0:0:
248,102,63517,1,2,0:0:0:0:
273,131,63579,1,0,0:0:0:0:
311,136,63640,1,0,0:0:0:0:
350,129,63701,6,2,L|348:184,3,50,14|2|2|2,0:0|0:0|0:0|0:0,0:0:0:0:
424,268,63946,2,2,L|424:208,3,50,14|2|2|2,0:0|0:0|0:0|0:0,0:0:0:0:
324,304,64191,2,2,L|324:356,3,50,14|2|2|2,0:0|0:0|0:0|0:0,0:0:0:0:
350,129,64436,5,14,0:0:0:0:
338,138,64497,1,2,0:0:0:0:
324,144,64558,1,2,0:0:0:0:
309,145,64619,1,2,0:0:0:0:
282,161,64681,5,14,0:0:0:0:
270,151,64742,1,2,0:0:0:0:
256,145,64803,1,2,0:0:0:0:
241,144,64864,1,2,0:0:0:0:
214,129,64926,5,14,0:0:0:0:
202,138,64987,1,2,0:0:0:0:
188,144,65048,1,2,0:0:0:0:
173,145,65109,1,2,0:0:0:0:
162,141,65170,6,10,L|118:181,1,50
118,301,65293,2,10,L|182:265,1,50
154,153,65415,6,10,L|110:193,1,50
110,313,65538,2,10,L|174:277,1,50
146,165,65660,6,10,L|102:205,1,50
102,325,65783,2,10,L|166:289,1,50
24,248,65905,5,14,0:0:0:0:
68,248,65966,1,2,0:0:0:0:
112,248,66028,1,2,0:0:0:0:
156,248,66089,1,2,0:0:0:0:
200,248,66150,1,2,0:0:0:0:
244,248,66211,1,2,0:0:0:0:
288,248,66272,5,14,0:0:0:0:
274,222,66333,1,2,0:0:0:0:
246,213,66394,1,2,0:0:0:0:
220,225,66455,1,2,0:0:0:0:
210,252,66516,1,2,0:0:0:0:
223,278,66578,1,2,0:0:0:0:
248,296,66640,5,14,0:0:0:0:
248,256,66701,1,2,0:0:0:0:
248,216,66762,1,2,0:0:0:0:
248,176,66823,1,2,0:0:0:0:
248,136,66884,1,2,0:0:0:0:
248,96,66946,1,2,0:0:0:0:
248,56,67007,5,14,0:0:0:0:
228,80,67068,1,2,0:0:0:0:
224,108,67129,1,2,0:0:0:0:
236,136,67190,1,2,0:0:0:0:
264,144,67251,1,2,0:0:0:0:
292,132,67313,1,2,0:0:0:0:
308,104,67375,5,14,0:0:0:0:
322,78,67436,1,2,0:0:0:0:
349,67,67497,1,2,0:0:0:0:
377,78,67558,1,2,0:0:0:0:
390,103,67619,1,2,0:0:0:0:
386,132,67681,1,2,0:0:0:0:
364,156,67742,2,2,L|419:156,5,50,14|2|2|2|2|2,0:0|0:0|0:0|0:0|0:0|0:0,0:0:0:0:
324,208,68109,5,6,0:0:0:0:
320,208,68170,1,2,0:0:0:0:
316,208,68231,1,2,0:0:0:0:
312,208,68292,1,2,0:0:0:0:
308,208,68354,1,2,0:0:0:0:
304,208,68415,1,2,0:0:0:0:
300,208,68477,2,2,L|300:156,1,50,10|2,0:0|0:0,0:0:0:0:
300,284,68599,2,2,L|300:340,1,50,10|2,0:0|0:0,0:0:0:0:
300,208,68721,2,2,L|300:156,1,50,10|2,0:0|0:0,0:0:0:0:
304,288,68844,5,14,0:0:0:0:
261,273,68905,1,2,0:0:0:0:
217,273,68966,1,2,0:0:0:0:
175,289,69027,1,2,0:0:0:0:
134,309,69088,1,2,0:0:0:0:
90,313,69150,1,2,0:0:0:0:
54,289,69211,1,10,0:0:0:0:
46,245,69272,1,2,0:0:0:0:
60,203,69333,1,2,0:0:0:0:
92,172,69395,1,2,0:0:0:0:
136,164,69456,1,2,0:0:0:0:
180,172,69517,1,2,0:0:0:0:
212,204,69579,5,14,0:0:0:0:
212,200,69640,1,2,0:0:0:0:
212,196,69701,2,2,L|224:124,1,50
300,244,69824,5,14,0:0:0:0:
300,248,69885,1,2,0:0:0:0:
300,252,69946,2,2,L|312:316,1,50
388,196,70068,6,2,L|400:124,3,50,14|2|2|2,0:0|0:0|0:0|0:0,0:0:0:0:
452,291,70313,2,14,L|440:343,3,50
384,192,70558,5,14,0:0:0:0:
380,192,70619,1,2,0:0:0:0:
376,192,70681,1,2,0:0:0:0:
372,192,70742,1,2,0:0:0:0:
352,216,70803,5,14,0:0:0:0:
348,216,70864,1,2,0:0:0:0:
344,216,70926,1,2,0:0:0:0:
340,216,70987,1,2,0:0:0:0:
336,216,71048,6,10,L|280:232,1,50
216,312,71170,2,10,L|288:308,1,50
320,224,71293,6,10,L|264:240,1,50
200,320,71415,2,10,L|272:316,1,50
304,236,71538,6,10,L|248:252,1,50
184,332,71660,2,10,L|256:328,1,50
409,198,71783,5,14,0:0:0:0:
406,212,71844,1,2,0:0:0:0:
398,225,71905,1,2,0:0:0:0:
387,235,71966,1,2,0:0:0:0:
373,241,72027,1,2,0:0:0:0:
359,243,72089,1,2,0:0:0:0:
344,241,72150,1,2,0:0:0:0:
331,234,72211,1,2,0:0:0:0:
320,224,72272,1,2,0:0:0:0:
312,211,72334,1,2,0:0:0:0:
309,197,72395,1,2,0:0:0:0:
309,182,72456,1,2,0:0:0:0:
321,170,72517,5,14,0:0:0:0:
361,162,72579,1,2,0:0:0:0:
397,178,72639,1,2,0:0:0:0:
421,210,72700,1,2,0:0:0:0:
429,250,72761,1,2,0:0:0:0:
417,290,72823,1,2,0:0:0:0:
393,322,72885,5,14,0:0:0:0:
393,278,72946,1,2,0:0:0:0:
393,234,73007,1,2,0:0:0:0:
393,190,73068,1,2,0:0:0:0:
393,146,73129,1,2,0:0:0:0:
397,102,73191,1,2,0:0:0:0:
397,58,73252,6,2,L|449:38,5,50,14|2|2|2|2|2,0:0|0:0|0:0|0:0|0:0|0:0,0:0:0:0:
356,148,73619,2,2,L|308:168,5,50,14|2|2|2|2|2,0:0|0:0|0:0|0:0|0:0|0:0,0:0:0:0:
296,48,73987,5,14,0:0:0:0:
264,80,74048,1,2,0:0:0:0:
220,92,74109,1,2,0:0:0:0:
176,92,74170,1,2,0:0:0:0:
132,84,74231,1,2,0:0:0:0:
88,84,74293,1,2,0:0:0:0:
52,108,74354,1,2,0:0:0:0:
32,148,74415,1,2,0:0:0:0:
36,192,74477,1,2,0:0:0:0:
72,216,74538,1,2,0:0:0:0:
112,216,74599,1,2,0:0:0:0:
148,196,74660,1,2,0:0:0:0:
164,160,74721,6,2,L|216:204,5,50,14|2|2|2|2|2,0:0|0:0|0:0|0:0|0:0|0:0,0:0:0:0:
288,120,75089,2,2,L|348:128,5,50,14|2|2|2|2|2,0:0|0:0|0:0|0:0|0:0|0:0,0:0:0:0:
236,208,75456,5,14,0:0:0:0:
228,213,75517,1,2,0:0:0:0:
223,222,75578,1,2,0:0:0:0:
223,232,75639,1,2,0:0:0:0:
228,241,75700,1,2,0:0:0:0:
236,246,75762,1,2,0:0:0:0:
244,252,75824,5,10,0:0:0:0:
209,252,75885,1,2,0:0:0:0:
174,252,75946,1,2,0:0:0:0:
139,252,76007,1,2,0:0:0:0:
104,252,76068,1,2,0:0:0:0:
69,252,76130,1,2,0:0:0:0:
36,252,76191,5,14,0:0:0:0:
54,231,76252,1,2,0:0:0:0:
82,218,76313,1,2,0:0:0:0:
113,213,76375,1,2,0:0:0:0:
144,220,76435,1,2,0:0:0:0:
168,242,76497,1,2,0:0:0:0:
181,269,76558,6,2,L|218:227,5,50,14|2|2|2|2|2,0:0|0:0|0:0|0:0|0:0|0:0,0:0:0:0:
372,180,76926,2,2,L|332:220,5,50,14|2|2|2|2|2,0:0|0:0|0:0|0:0|0:0|0:0,0:0:0:0:
456,280,77293,5,14,0:0:0:0:
461,273,77415,1,6,0:0:0:0:
466,267,77538,1,6,0:0:0:0:
471,261,77660,5,14,0:0:0:0:
460,224,77721,1,2,0:0:0:0:
424,204,77782,1,2,0:0:0:0:
384,200,77843,1,2,0:0:0:0:
348,216,77904,1,2,0:0:0:0:
320,244,77966,1,2,0:0:0:0:
288,268,78027,1,10,0:0:0:0:
252,284,78088,1,2,0:0:0:0:
212,280,78149,1,2,0:0:0:0:
188,248,78211,1,2,0:0:0:0:
184,208,78272,1,2,0:0:0:0:
200,172,78333,1,2,0:0:0:0:
236,156,78395,5,14,0:0:0:0:
236,200,78456,1,2,0:0:0:0:
212,240,78517,1,2,0:0:0:0:
168,244,78578,1,2,0:0:0:0:
136,212,78639,1,2,0:0:0:0:
132,168,78701,1,2,0:0:0:0:
148,128,78762,1,10,0:0:0:0:
144,84,78823,1,2,0:0:0:0:
116,48,78884,1,2,0:0:0:0:
72,44,78946,1,2,0:0:0:0:
36,68,79007,1,2,0:0:0:0:
28,112,79068,1,2,0:0:0:0:
60,144,79130,5,14,0:0:0:0:
108,152,79191,1,2,0:0:0:0:
156,136,79252,1,2,0:0:0:0:
196,104,79313,1,2,0:0:0:0:
240,84,79374,1,2,0:0:0:0:
292,80,79436,1,2,0:0:0:0:
340,96,79497,1,10,0:0:0:0:
364,140,79558,1,2,0:0:0:0:
368,188,79619,1,2,0:0:0:0:
352,236,79681,1,2,0:0:0:0:
304,252,79742,1,2,0:0:0:0:
256,236,79803,1,2,0:0:0:0:
248,188,79864,5,14,0:0:0:0:
260,192,79925,1,2,0:0:0:0:
273,198,79986,1,2,0:0:0:0:
284,207,80047,1,2,0:0:0:0:
294,221,80108,1,2,0:0:0:0:
297,237,80170,1,2,0:0:0:0:
292,252,80232,5,10,0:0:0:0:
292,242,80293,1,2,0:0:0:0:
292,232,80354,1,2,0:0:0:0:
292,222,80415,1,2,0:0:0:0:
292,212,80476,1,2,0:0:0:0:
292,202,80538,1,2,0:0:0:0:
316,168,80599,1,14,0:0:0:0:
256,192,80660,12,2,82007,0:0:0:0:
384,296,82068,6,10,P|340:264|296:256,1,100
144,156,82681,1,10,0:0:0:0:
144,156,82742,1,10,0:0:0:0:
144,156,82803,2,10,B|176:144|192:156|236:148|272:168|304:124,1,160
336,96,83354,6,10,L|336:148,1,40
344,120,83538,2,10,L|344:168,1,40
340,108,84272,5,14,0:0:0:0:
360,129,84333,1,10,0:0:0:0:
372,156,84394,1,10,0:0:0:0:
375,186,84455,1,10,0:0:0:0:
368,220,84517,5,10,0:0:0:0:
382,218,84578,1,2,0:0:0:0:
397,221,84639,1,2,0:0:0:0:
410,228,84701,1,2,0:0:0:0:
424,240,84762,5,10,0:0:0:0:
427,233,84823,1,2,0:0:0:0:
430,226,84884,1,2,0:0:0:0:
434,219,84945,1,2,0:0:0:0:
440,212,85007,6,2,P|432:144|436:104,1,100,10|2,0:0|0:0,0:0:0:0:
448,36,85252,1,10,0:0:0:0:
162,129,85375,1,2,0:0:0:0:
450,210,85497,1,10,0:0:0:0:
233,3,85619,1,2,0:0:0:0:
456,204,85742,6,2,P|444:262|415:309,1,100,10|2,0:0|0:0,0:0:0:0:
333,340,85987,1,10,0:0:0:0:
289,196,86109,1,2,0:0:0:0:
422,269,86232,1,10,0:0:0:0:
223,286,86354,5,2,0:0:0:0:
401,193,86477,2,2,P|425:133|408:70,2,100,10|2|10,0:0|0:0|0:0,0:0:0:0:
223,286,86844,5,2,0:0:0:0:
330,120,86966,1,10,0:0:0:0:
223,286,87089,5,2,0:0:0:0:
226,275,87150,1,2,0:0:0:0:
229,263,87211,2,10,P|242:212|248:160,1,100,10|2,0:0|0:0,0:0:0:0:
252,56,87456,5,10,0:0:0:0:
172,124,87579,2,2,B|172:148|172:148|200:132|200:132|248:132,2,100,2|10|2,0:0|0:0|0:0,0:0:0:0:
376,72,87946,5,6,0:0:0:0:
376,76,88007,1,2,0:0:0:0:
376,80,88068,2,2,L|420:44,1,50,14|2,0:0|0:0,0:0:0:0:
480,188,88191,5,14,0:0:0:0:
472,188,88253,1,2,0:0:0:0:
464,188,88314,2,2,L|460:128,1,50
368,280,88436,5,6,0:0:0:0:
364,272,88497,1,2,0:0:0:0:
360,264,88558,2,14,L|344:216,1,50
260,316,88681,2,2,L|280:372,1,50,14|2,0:0|0:0,0:0:0:0:
152,272,88803,5,2,0:0:0:0:
136,276,88864,1,2,0:0:0:0:
120,276,88926,1,2,0:0:0:0:
104,272,88987,1,2,0:0:0:0:
88,268,89048,2,2,P|68:252|60:220,1,50
120,168,89170,5,14,0:0:0:0:
122,163,89231,1,10,0:0:0:0:
124,158,89292,1,10,0:0:0:0:
126,153,89354,1,10,0:0:0:0:
128,148,89415,6,2,B|144:128|144:128|136:108|136:108|148:92|148:92|136:68|136:68|152:48,1,100,14|2,0:0|0:0,0:0:0:0:
64,344,89660,1,10,0:0:0:0:
216,216,89783,1,2,0:0:0:0:
376,332,89905,1,10,0:0:0:0:
176,332,90028,1,2,0:0:0:0:
376,324,90150,6,2,L|412:224,1,100,10|2,0:0|0:0,0:0:0:0:
440,84,90395,1,10,0:0:0:0:
344,200,90517,6,2,B|296:216|296:216|240:216,2,100,2|10|2,0:0|0:0|0:0,0:0:0:0:
228,32,90885,2,2,L|272:140,1,100,10|2,0:0|0:0,0:0:0:0:
344,208,91130,5,10,0:0:0:0:
265,124,91252,1,2,0:0:0:0:
380,120,91375,5,10,0:0:0:0:
216,308,91497,1,2,0:0:0:0:
384,124,91619,6,2,L|384:224,1,100,10|2,0:0|0:0,0:0:0:0:
208,300,91864,5,10,0:0:0:0:
204,300,91926,1,10,0:0:0:0:
200,300,91987,1,10,0:0:0:0:
196,300,92048,1,10,0:0:0:0:
192,300,92109,5,10,0:0:0:0:
164,328,92170,1,10,0:0:0:0:
160,328,92231,1,10,0:0:0:0:
156,328,92293,1,10,0:0:0:0:
124,352,92354,6,2,L|124:240,1,100,10|2,0:0|0:0,0:0:0:0:
176,100,92599,1,10,0:0:0:0:
372,256,92721,1,2,0:0:0:0:
252,280,92844,5,10,0:0:0:0:
295,189,92966,1,2,0:0:0:0:
252,280,93089,2,2,L|300:180,1,100,10|2,0:0|0:0,0:0:0:0:
372,128,93334,6,2,B|404:176|388:208|384:212|368:224|360:240|356:256|356:268|364:288,1,150,6|2,0:0|0:0,0:0:0:0:
404,288,93579,2,2,P|348:248|280:296,1,150,6|2,0:0|0:0,0:0:0:0:
336,340,93824,6,14,L|336:288,3,50
312,144,94068,2,14,L|296:196,3,50
172,132,94313,5,14,0:0:0:0:
158,138,94374,1,2,0:0:0:0:
143,139,94435,1,2,0:0:0:0:
129,135,94496,1,2,0:0:0:0:
116,128,94558,6,2,L|104:176,3,50,14|2|2|2,0:0|0:0|0:0|0:0,0:0:0:0:
220,76,94803,5,14,0:0:0:0:
225,76,94864,1,2,0:0:0:0:
230,76,94925,1,2,0:0:0:0:
235,76,94986,1,2,0:0:0:0:
268,96,95048,2,10,L|320:88,3,50
476,56,95292,5,14,0:0:0:0:
468,232,95415,1,2,0:0:0:0:
472,60,95538,2,2,P|448:116|456:164,1,100,10|2,0:0|0:0,0:0:0:0:
468,240,95783,5,10,0:0:0:0:
472,68,95905,1,2,0:0:0:0:
468,248,96028,2,2,L|468:348,1,100,10|2,0:0|0:0,0:0:0:0:
328,352,96272,5,10,0:0:0:0:
324,200,96395,1,2,0:0:0:0:
220,308,96517,5,10,0:0:0:0:
364,272,96640,1,2,0:0:0:0:
236,196,96762,5,10,0:0:0:0:
308,328,96885,5,2,0:0:0:0:
332,180,97007,2,2,L|360:76,1,100,10|2,0:0|0:0,0:0:0:0:
184,100,97252,1,10,0:0:0:0:
336,188,97375,5,2,0:0:0:0:
336,188,97497,2,2,L|444:256,1,100,10|2,0:0|0:0,0:0:0:0:
484,276,97742,5,10,0:0:0:0:
388,120,97864,1,2,0:0:0:0:
384,336,97987,5,10,0:0:0:0:
488,60,98109,1,2,0:0:0:0:
384,340,98232,6,2,B|368:320|368:320|376:296|376:296|376:280|376:248|356:224|356:224,1,100,10|2,0:0|0:0,0:0:0:0:
332,96,98477,1,10,0:0:0:0:
472,184,98599,1,2,0:0:0:0:
336,90,98721,1,10,0:0:0:0:
467,189,98843,1,2,0:0:0:0:
340,84,98966,6,2,B|356:108|356:108|332:128|320:140|312:196|352:224,1,150,14|2,0:0|0:0,0:0:0:0:
396,168,99211,2,2,B|412:156|412:156|416:192|416:192|412:208|412:208|412:224|420:240|436:248|436:248|436:292,1,150,14|2,0:0|0:0,0:0:0:0:
396,336,99456,2,2,P|336:324|300:348,1,100,10|2,0:0|0:0,0:0:0:0:
240,352,99701,5,10,0:0:0:0:
240,352,99762,1,10,0:0:0:0:
240,352,99824,2,2,P|208:304|156:284,1,100,10|2,0:0|0:0,0:0:0:0:
56,264,100068,5,10,0:0:0:0:
100,132,100191,1,10,0:0:0:0:
52,268,100313,1,10,0:0:0:0:
104,128,100436,1,10,0:0:0:0:
108,124,100497,1,10,0:0:0:0:
112,120,100558,2,10,L|220:120,1,100,10|10,0:0|0:0,0:0:0:0:
412,48,100803,6,10,L|292:48,1,100
316,248,101048,1,10,0:0:0:0:
312,48,101170,2,10,L|312:104,1,50
240,176,101538,6,2,L|240:236,3,55.0000016784668,14|2|2|2,0:0|0:0|0:0|0:0,0:0:0:0:
108,96,101783,5,14,0:0:0:0:
116,100,101844,1,2,0:0:0:0:
124,104,101905,2,2,L|88:44,3,55.0000016784668,14|2|2|2,0:0|0:0|0:0|0:0,0:0:0:0:
256,24,102150,5,14,0:0:0:0:
256,40,102211,1,2,0:0:0:0:
256,56,102272,2,2,L|264:132,1,55.0000016784668
416,164,102395,5,14,0:0:0:0:
408,168,102456,1,2,0:0:0:0:
400,176,102517,2,0,L|424:116,1,55.0000016784668
309,278,102640,5,14,0:0:0:0:
292,264,102700,1,2,0:0:0:0:
272,260,102762,1,2,0:0:0:0:
252,264,102823,1,2,0:0:0:0:
232,272,102884,1,2,0:0:0:0:
216,288,102945,1,2,0:0:0:0:
200,300,103006,1,2,0:0:0:0:
176,300,103068,1,2,0:0:0:0:
156,288,103130,5,14,0:0:0:0:
192,276,103191,1,2,0:0:0:0:
216,248,103252,1,2,0:0:0:0:
228,212,103313,1,2,0:0:0:0:
224,172,103375,5,14,0:0:0:0:
236,128,103436,1,2,0:0:0:0:
272,104,103497,1,2,0:0:0:0:
316,108,103558,1,2,0:0:0:0:
352,132,103619,6,2,L|368:76,3,55.0000016784668,14|2|2|2,0:0|0:0|0:0|0:0,0:0:0:0:
404,236,103864,2,2,L|468:224,3,55.0000016784668,14|2|2|2,0:0|0:0|0:0|0:0,0:0:0:0:
256,276,104109,5,14,0:0:0:0:
271,269,104170,1,2,0:0:0:0:
287,269,104231,1,2,0:0:0:0:
303,274,104292,1,2,0:0:0:0:
320,284,104354,5,14,0:0:0:0:
318,263,104415,1,2,0:0:0:0:
310,242,104476,1,2,0:0:0:0:
299,223,104537,1,2,0:0:0:0:
283,208,104599,1,14,0:0:0:0:
263,198,104660,1,2,0:0:0:0:
242,192,104721,1,2,0:0:0:0:
220,192,104782,1,2,0:0:0:0:
200,200,104844,2,14,L|168:256,3,55.0000016784668
40,116,105089,5,14,0:0:0:0:
42,138,105150,1,2,0:0:0:0:
46,160,105211,1,2,0:0:0:0:
52,181,105272,1,2,0:0:0:0:
60,202,105333,1,2,0:0:0:0:
67,222,105395,1,2,0:0:0:0:
72,244,105456,1,2,0:0:0:0:
71,266,105517,1,2,0:0:0:0:
68,288,105579,5,14,0:0:0:0:
122,299,105640,1,10,0:0:0:0:
176,309,105701,1,10,0:0:0:0:
230,319,105762,1,10,0:0:0:0:
284,328,105824,6,10,B|236:368|236:368|188:368,1,110.000003356934
24,328,106068,6,10,B|72:368|72:368|120:368,1,110.000003356934
156,308,106313,5,10,0:0:0:0:
156,302,106374,1,10,0:0:0:0:
156,296,106435,1,10,0:0:0:0:
156,291,106496,1,10,0:0:0:0:
156,285,106558,1,10,0:0:0:0:
156,279,106619,1,10,0:0:0:0:
157,274,106681,2,10,P|211:267|164:208,1,150.000005722046
224,144,107048,5,14,0:0:0:0:
232,156,107109,1,2,0:0:0:0:
244,164,107170,1,2,0:0:0:0:
260,168,107231,1,2,0:0:0:0:
276,164,107292,1,2,0:0:0:0:
288,152,107354,1,2,0:0:0:0:
288,136,107415,5,14,0:0:0:0:
252,148,107476,1,2,0:0:0:0:
232,180,107537,1,2,0:0:0:0:
224,220,107598,1,2,0:0:0:0:
232,260,107659,1,2,0:0:0:0:
260,292,107721,1,2,0:0:0:0:
300,312,107783,5,14,0:0:0:0:
280,272,107844,1,2,0:0:0:0:
240,252,107905,1,2,0:0:0:0:
196,240,107966,1,2,0:0:0:0:
152,244,108027,1,2,0:0:0:0:
112,264,108089,1,2,0:0:0:0:
80,292,108150,5,14,0:0:0:0:
124,292,108211,1,2,0:0:0:0:
168,292,108272,1,2,0:0:0:0:
212,292,108333,1,2,0:0:0:0:
256,288,108394,1,2,0:0:0:0:
300,288,108456,1,2,0:0:0:0:
344,284,108517,5,14,0:0:0:0:
320,252,108578,1,2,0:0:0:0:
284,248,108639,1,2,0:0:0:0:
256,260,108700,1,2,0:0:0:0:
248,284,108762,1,2,0:0:0:0:
252,304,108824,1,2,0:0:0:0:
264,316,108885,6,14,L|264:264,5,50
392,224,109252,5,14,0:0:0:0:
392,204,109313,1,2,0:0:0:0:
400,184,109374,1,2,0:0:0:0:
412,168,109435,1,2,0:0:0:0:
432,160,109496,5,14,0:0:0:0:
436,128,109558,1,10,0:0:0:0:
436,100,109619,1,10,0:0:0:0:
436,72,109680,1,10,0:0:0:0:
436,40,109742,5,14,0:0:0:0:
376,40,109803,1,10,0:0:0:0:
316,44,109864,1,10,0:0:0:0:
256,44,109925,1,10,0:0:0:0:
196,48,109987,2,2,B|236:20|236:20|300:20,1,100,14|2,0:0|0:0,0:0:0:0:
416,224,110231,5,14,0:0:0:0:
420,228,110293,1,2,0:0:0:0:
424,232,110354,2,2,L|392:188,1,50
248,64,110477,5,14,0:0:0:0:
248,64,110538,1,0,0:0:0:0:
248,64,110599,2,0,L|308:52,1,50
396,100,110721,5,6,0:0:0:0:
416,104,110783,1,2,0:0:0:0:
436,108,110844,1,2,0:0:0:0:
456,112,110905,1,2,0:0:0:0:
476,116,110966,5,6,0:0:0:0:
458,124,111027,1,2,0:0:0:0:
440,133,111088,1,2,0:0:0:0:
422,142,111149,1,2,0:0:0:0:
404,152,111211,6,2,L|352:152,3,50,6|2|2|2,0:0|0:0|0:0|0:0,0:0:0:0:
180,108,111456,5,14,0:0:0:0:
172,136,111517,1,2,0:0:0:0:
176,164,111578,1,2,0:0:0:0:
192,188,111639,1,2,0:0:0:0:
216,204,111700,1,2,0:0:0:0:
248,208,111762,1,2,0:0:0:0:
276,204,111823,1,2,0:0:0:0:
304,208,111884,1,2,0:0:0:0:
328,224,111945,1,2,0:0:0:0:
348,244,112007,1,2,0:0:0:0:
360,272,112068,1,2,0:0:0:0:
360,300,112129,1,2,0:0:0:0:
352,328,112191,5,14,0:0:0:0:
352,288,112252,1,10,0:0:0:0:
352,248,112313,1,10,0:0:0:0:
352,208,112374,1,10,0:0:0:0:
352,168,112436,2,14,B|320:192|320:192|320:336,1,176.000005371094
320,328,112925,5,14,0:0:0:0:
339,321,112986,1,2,0:0:0:0:
359,319,113047,1,2,0:0:0:0:
379,322,113109,1,2,0:0:0:0:
419,344,113170,5,14,0:0:0:0:
406,352,113231,1,2,0:0:0:0:
393,359,113292,1,2,0:0:0:0:
379,363,113353,1,2,0:0:0:0:
351,332,113415,5,14,0:0:0:0:
359,319,113476,1,2,0:0:0:0:
366,306,113537,1,2,0:0:0:0:
372,292,113598,1,2,0:0:0:0:
375,268,113660,5,14,0:0:0:0:
365,286,113721,1,2,0:0:0:0:
352,301,113782,1,2,0:0:0:0:
335,312,113843,1,2,0:0:0:0:
316,319,113904,1,2,0:0:0:0:
297,321,113966,1,2,0:0:0:0:
278,316,114028,1,0,0:0:0:0:
262,304,114089,1,0,0:0:0:0:
258,284,114150,2,2,P|266:248|282:232,3,50,6|2|2|2,0:0|0:0|0:0|0:0,0:0:0:0:
428,192,114395,5,14,0:0:0:0:
432,164,114456,1,2,0:0:0:0:
428,136,114517,1,2,0:0:0:0:
416,108,114578,1,2,0:0:0:0:
400,84,114639,1,2,0:0:0:0:
376,68,114701,1,2,0:0:0:0:
348,60,114762,2,2,L|396:36,3,50,14|2|2|2,0:0|0:0|0:0|0:0,0:0:0:0:
260,52,115007,5,14,0:0:0:0:
256,52,115068,1,2,0:0:0:0:
252,52,115129,1,2,0:0:0:0:
248,52,115191,1,2,0:0:0:0:
220,72,115252,1,2,0:0:0:0:
200,108,115313,1,2,0:0:0:0:
200,152,115375,1,2,0:0:0:0:
220,192,115436,1,2,0:0:0:0:
252,224,115497,1,2,0:0:0:0:
256,268,115558,1,2,0:0:0:0:
232,308,115619,2,2,P|183:322|164:319,3,50,14|2|2|2,0:0|0:0|0:0|0:0,0:0:0:0:
36,340,115864,5,14,0:0:0:0:
36,304,115925,1,2,0:0:0:0:
56,276,115986,1,2,0:0:0:0:
88,260,116047,1,2,0:0:0:0:
124,252,116108,1,2,0:0:0:0:
156,232,116170,1,2,0:0:0:0:
172,200,116232,1,2,0:0:0:0:
172,164,116293,1,2,0:0:0:0:
152,136,116354,6,2,L|136:184,3,50,14|2|2|2,0:0|0:0|0:0|0:0,0:0:0:0:
292,104,116599,2,2,L|316:60,3,50,14|2|2|2,0:0|0:0|0:0|0:0,0:0:0:0:
404,192,116844,5,14,0:0:0:0:
410,200,116905,1,2,0:0:0:0:
418,205,116966,1,2,0:0:0:0:
428,208,117027,1,2,0:0:0:0:
438,209,117088,5,14,0:0:0:0:
444,244,117150,1,2,0:0:0:0:
444,280,117211,1,2,0:0:0:0:
444,316,117272,1,2,0:0:0:0:
444,352,117334,6,2,L|392:352,3,50,14|2|2|2,0:0|0:0|0:0|0:0,0:0:0:0:
256,280,117579,2,2,L|320:280,3,50,14|2|2|2,0:0|0:0|0:0|0:0,0:0:0:0:
96,192,117823,5,14,0:0:0:0:
114,201,117884,1,2,0:0:0:0:
133,202,117945,1,2,0:0:0:0:
153,198,118007,1,10,0:0:0:0:
176,184,118068,5,14,0:0:0:0:
176,224,118130,1,10,0:0:0:0:
176,264,118190,1,10,0:0:0:0:
176,304,118251,1,10,0:0:0:0:
176,344,118313,2,2,B|212:296|212:296|212:180,1,150,14|2,0:0|0:0,0:0:0:0:
176,344,118803,5,14,0:0:0:0:
200,312,118864,1,2,0:0:0:0:
216,276,118925,1,2,0:0:0:0:
216,236,118986,1,2,0:0:0:0:
216,196,119047,1,2,0:0:0:0:
216,156,119109,1,2,0:0:0:0:
216,116,119170,5,14,0:0:0:0:
232,140,119231,1,2,0:0:0:0:
224,168,119292,1,2,0:0:0:0:
196,180,119353,1,2,0:0:0:0:
168,176,119414,1,2,0:0:0:0:
144,156,119476,1,2,0:0:0:0:
144,124,119538,5,14,0:0:0:0:
136,84,119599,1,2,0:0:0:0:
108,56,119660,1,2,0:0:0:0:
68,56,119721,1,2,0:0:0:0:
40,84,119782,1,2,0:0:0:0:
36,124,119844,1,2,0:0:0:0:
52,160,119905,5,14,0:0:0:0:
96,172,119966,1,2,0:0:0:0:
136,152,120028,1,2,0:0:0:0:
160,116,120088,1,2,0:0:0:0:
200,88,120149,1,2,0:0:0:0:
248,76,120211,1,2,0:0:0:0:
296,84,120272,6,2,L|296:140,3,50,14|2|2|2,0:0|0:0|0:0|0:0,0:0:0:0:
400,208,120517,2,2,L|400:156,3,50,14|2|2|2,0:0|0:0|0:0|0:0,0:0:0:0:
440,296,120761,5,14,0:0:0:0:
440,308,120823,1,2,0:0:0:0:
440,320,120885,2,2,L|376:352,1,50
256,288,121007,5,14,0:0:0:0:
256,300,121069,1,2,0:0:0:0:
256,312,121131,2,2,L|192:344,1,50
80,352,121252,5,14,0:0:0:0:
72,320,121313,1,2,0:0:0:0:
80,288,121374,1,2,0:0:0:0:
108,264,121435,1,2,0:0:0:0:
140,252,121496,1,2,0:0:0:0:
164,220,121558,1,2,0:0:0:0:
168,180,121619,1,2,0:0:0:0:
148,144,121680,1,2,0:0:0:0:
112,128,121742,6,2,L|112:64,5,50,14|2|2|2|2|2,0:0|0:0|0:0|0:0|0:0|0:0,0:0:0:0:
224,128,122109,5,14,0:0:0:0:
256,148,122170,1,2,0:0:0:0:
296,148,122231,1,2,0:0:0:0:
332,128,122292,1,2,0:0:0:0:
344,92,122353,1,2,0:0:0:0:
336,52,122415,1,2,0:0:0:0:
304,28,122477,5,14,0:0:0:0:
282,61,122538,1,2,0:0:0:0:
279,100,122599,1,2,0:0:0:0:
295,136,122660,1,2,0:0:0:0:
327,160,122721,1,2,0:0:0:0:
366,165,122783,1,2,0:0:0:0:
404,152,122844,5,14,0:0:0:0:
368,140,122905,1,2,0:0:0:0:
328,136,122966,1,2,0:0:0:0:
288,144,123027,1,2,0:0:0:0:
252,160,123088,1,2,0:0:0:0:
212,160,123150,1,2,0:0:0:0:
180,140,123211,6,2,L|180:88,5,50,14|2|2|2|2|2,0:0|0:0|0:0|0:0|0:0|0:0,0:0:0:0:
88,68,123579,5,14,0:0:0:0:
88,88,123640,1,10,0:0:0:0:
88,108,123701,1,10,0:0:0:0:
88,128,123762,1,10,0:0:0:0:
88,148,123823,1,10,0:0:0:0:
88,168,123885,1,10,0:0:0:0:
88,188,123946,6,2,L|32:96,1,100,10|2,0:0|0:0,0:0:0:0:
88,208,124191,2,2,L|136:104,1,100,10|2,0:0|0:0,0:0:0:0:
256,320,124436,6,14,L|236:376,1,50,14|2,0:0|0:0,0:0:0:0:
272,136,124558,2,2,L|276:84,1,50,14|2,0:0|0:0,0:0:0:0:
264,328,124681,5,14,0:0:0:0:
268,300,124742,1,2,0:0:0:0:
284,276,124803,1,2,0:0:0:0:
308,260,124864,1,2,0:0:0:0:
336,252,124925,1,2,0:0:0:0:
364,236,124987,1,2,0:0:0:0:
384,212,125048,1,2,0:0:0:0:
392,184,125109,1,2,0:0:0:0:
392,156,125170,1,2,0:0:0:0:
372,132,125232,1,2,0:0:0:0:
344,120,125293,1,0,0:0:0:0:
316,120,125354,1,0,0:0:0:0:
288,124,125415,6,2,L|264:80,3,50,14|2|2|2,0:0|0:0|0:0|0:0,0:0:0:0:
148,120,125660,2,2,L|88:92,3,50,14|2|2|2,0:0|0:0|0:0|0:0,0:0:0:0:
124,248,125905,5,14,0:0:0:0:
124,258,125966,1,2,0:0:0:0:
124,268,126027,1,2,0:0:0:0:
124,278,126089,1,2,0:0:0:0:
124,288,126150,5,14,0:0:0:0:
132,308,126211,1,2,0:0:0:0:
160,324,126272,1,2,0:0:0:0:
200,324,126333,1,2,0:0:0:0:
236,300,126394,1,2,0:0:0:0:
272,264,126456,1,2,0:0:0:0:
320,248,126517,1,2,0:0:0:0:
368,260,126578,1,2,0:0:0:0:
404,296,126640,6,2,L|352:296,3,50,14|2|2|2,0:0|0:0|0:0|0:0,0:0:0:0:
424,184,126885,2,10,L|480:184,3,50
212,200,127130,6,10,L|256:224,1,50
424,268,127252,2,10,L|444:324,1,50
312,348,127375,5,14,0:0:0:0:
288,352,127436,1,2,0:0:0:0:
264,348,127497,1,2,0:0:0:0:
244,340,127558,1,2,0:0:0:0:
228,332,127619,2,2,L|220:276,3,50,14|2|2|2,0:0|0:0|0:0|0:0,0:0:0:0:
76,240,127864,5,14,0:0:0:0:
92,248,127925,1,2,0:0:0:0:
108,256,127986,2,2,L|88:208,1,50
112,96,128110,5,14,0:0:0:0:
128,88,128171,1,2,0:0:0:0:
144,80,128232,2,2,L|124:128,1,50
300,104,128355,5,14,0:0:0:0:
328,112,128416,1,2,0:0:0:0:
348,136,128477,1,2,0:0:0:0:
356,164,128538,1,2,0:0:0:0:
348,192,128600,5,14,0:0:0:0:
340,200,128661,1,2,0:0:0:0:
332,208,128722,2,2,L|332:156,1,50
204,240,128844,5,14,0:0:0:0:
176,232,128905,1,2,0:0:0:0:
148,232,128966,1,2,0:0:0:0:
120,244,129027,1,2,0:0:0:0:
96,264,129089,2,2,L|96:208,7,50,14|2|2|2|2|2|2|2,0:0|0:0|0:0|0:0|0:0|0:0|0:0|0:0,0:0:0:0:
52,88,129579,5,14,0:0:0:0:
62,83,129639,1,2,0:0:0:0:
72,81,129701,1,2,0:0:0:0:
80,79,129762,1,2,0:0:0:0:
92,80,129824,5,14,0:0:0:0:
100,76,129885,1,2,0:0:0:0:
108,72,129946,2,2,P|132:120|188:152,1,112.500004291535
304,164,130191,5,14,0:0:0:0:
108,188,130313,1,6,0:0:0:0:
280,84,130436,1,6,0:0:0:0:
88,240,130558,5,14,0:0:0:0:
97,236,130619,1,2,0:0:0:0:
106,233,130680,1,2,0:0:0:0:
116,231,130741,1,2,0:0:0:0:
126,230,130802,1,2,0:0:0:0:
136,230,130864,1,2,0:0:0:0:
160,260,130926,5,14,0:0:0:0:
165,268,130987,1,2,0:0:0:0:
173,274,131048,1,2,0:0:0:0:
181,279,131109,1,2,0:0:0:0:
191,283,131170,1,2,0:0:0:0:
201,284,131232,1,2,0:0:0:0:
235,266,131293,5,14,0:0:0:0:
228,273,131354,1,2,0:0:0:0:
222,281,131415,1,2,0:0:0:0:
220,291,131476,1,2,0:0:0:0:
219,301,131537,1,2,0:0:0:0:
221,310,131599,1,2,0:0:0:0:
256,332,131660,5,14,0:0:0:0:
248,324,131721,1,2,0:0:0:0:
240,319,131782,1,2,0:0:0:0:
231,315,131843,1,2,0:0:0:0:
221,314,131904,1,2,0:0:0:0:
211,315,131966,1,2,0:0:0:0:
176,332,132028,5,14,0:0:0:0:
166,333,132089,1,2,0:0:0:0:
156,332,132150,1,2,0:0:0:0:
147,329,132211,1,2,0:0:0:0:
139,322,132272,1,2,0:0:0:0:
134,314,132334,1,2,0:0:0:0:
144,276,132395,5,14,0:0:0:0:
151,269,132456,1,2,0:0:0:0:
157,261,132517,1,2,0:0:0:0:
161,252,132578,1,2,0:0:0:0:
164,242,132639,1,2,0:0:0:0:
164,232,132701,1,2,0:0:0:0:
164,222,132762,6,14,L|148:170,5,50
224,148,133130,2,14,L|252:100,5,50
320,72,133497,5,14,0:0:0:0:
324,80,133558,1,2,0:0:0:0:
331,88,133619,1,2,0:0:0:0:
339,94,133680,1,2,0:0:0:0:
348,98,133741,1,2,0:0:0:0:
358,100,133803,1,2,0:0:0:0:
372,104,133864,6,2,L|372:160,5,50,14|2|2|2|14|2,0:0|0:0|0:0|0:0|0:0|0:0,0:0:0:0:
376,256,134232,5,14,0:0:0:0:
380,256,134293,1,2,0:0:0:0:
384,256,134354,1,2,0:0:0:0:
388,256,134415,1,2,0:0:0:0:
392,256,134476,1,2,0:0:0:0:
396,256,134538,1,2,0:0:0:0:
400,256,134599,1,2,0:0:0:0:
404,256,134660,1,2,0:0:0:0:
408,256,134721,2,2,L|432:200,3,50,14|2|2|2,0:0|0:0|0:0|0:0,0:0:0:0:
324,352,134966,5,14,0:0:0:0:
294,352,135027,1,2,0:0:0:0:
265,352,135089,1,2,0:0:0:0:
236,352,135149,1,2,0:0:0:0:
203,353,135211,5,14,0:0:0:0:
226,330,135272,1,2,0:0:0:0:
248,307,135333,1,2,0:0:0:0:
271,283,135395,1,2,0:0:0:0:
293,260,135456,6,14,L|350:248,1,50
229,196,135579,2,14,L|172:203,1,50
288,128,135701,5,14,0:0:0:0:
276,119,135762,1,2,0:0:0:0:
266,108,135823,1,2,0:0:0:0:
260,94,135884,1,2,0:0:0:0:
256,80,135946,2,14,L|276:32,1,50
368,72,136068,5,14,0:0:0:0:
372,91,136129,1,10,0:0:0:0:
379,110,136190,1,14,0:0:0:0:
391,126,136251,1,10,0:0:0:0:
405,139,136312,1,14,0:0:0:0:
423,149,136374,1,10,0:0:0:0:
444,156,136436,6,14,B|440:196|440:196|452:232|452:232|444:260|444:260|444:284,1,100
448,76,136681,1,14,0:0:0:0:
448,68,136926,1,14,0:0:0:0:
448,60,137170,5,14,0:0:0:0:
444,168,137293,2,2,P|376:144|340:152,1,100,2|10,0:0|0:0,0:0:0:0:
148,140,137538,5,2,0:0:0:0:
384,304,137660,1,10,0:0:0:0:
148,136,137783,5,2,0:0:0:0:
384,312,137905,2,14,P|392:256|388:196,1,100
288,40,138150,2,14,L|288:144,1,100
296,336,138395,5,14,0:0:0:0:
480,216,138517,1,14,0:0:0:0:
256,192,138640,5,14,0:0:0:0:
416,320,138762,1,14,0:0:0:0:
300,332,138885,5,14,0:0:0:0:
484,212,139007,1,14,0:0:0:0:
416,332,139130,5,14,0:0:0:0:
256,184,139252,1,14,0:0:0:0:
416,344,139375,6,2,L|416:244,2,100,10|2|10,0:0|0:0|0:0,0:0:0:0:
416,92,139742,1,2,0:0:0:0:
480,180,139864,1,10,0:0:0:0:
248,184,139987,1,2,0:0:0:0:
416,100,140109,6,10,P|376:144|336:148,2,100
440,28,140477,1,10,0:0:0:0:
348,76,140599,1,10,0:0:0:0:
436,260,140721,1,10,0:0:0:0:
440,36,140844,6,2,B|424:52|424:52|424:88|424:88|420:128|400:144|424:152|440:124|440:92,1,150,14|2,0:0|0:0,0:0:0:0:
476,96,141089,2,2,B|452:120|452:120|460:140|464:164|460:180|448:188|428:188|428:188|428:240,1,150,14|2,0:0|0:0,0:0:0:0:
352,260,141334,5,14,0:0:0:0:
348,264,141395,1,10,0:0:0:0:
344,268,141456,1,14,0:0:0:0:
340,272,141517,1,10,0:0:0:0:
336,276,141579,2,14,P|336:236|336:176,1,100
189,110,142313,5,14,0:0:0:0:
208,112,142374,1,2,0:0:0:0:
224,122,142436,1,2,0:0:0:0:
236,136,142496,1,2,0:0:0:0:
241,174,142558,5,14,0:0:0:0:
223,174,142619,1,2,0:0:0:0:
204,174,142680,1,2,0:0:0:0:
185,174,142741,1,2,0:0:0:0:
161,202,142803,5,14,0:0:0:0:
175,213,142864,1,2,0:0:0:0:
193,220,142925,1,2,0:0:0:0:
211,221,142986,1,2,0:0:0:0:
249,230,143048,5,14,0:0:0:0:
239,245,143109,1,2,0:0:0:0:
233,263,143170,1,2,0:0:0:0:
232,282,143231,1,2,0:0:0:0:
253,314,143293,5,14,0:0:0:0:
248,318,143354,1,2,0:0:0:0:
243,322,143415,1,2,0:0:0:0:
237,325,143476,1,2,0:0:0:0:
202,340,143538,5,14,0:0:0:0:
208,340,143599,1,2,0:0:0:0:
214,340,143660,1,2,0:0:0:0:
220,340,143721,1,2,0:0:0:0:
248,318,143783,5,14,0:0:0:0:
243,315,143844,1,2,0:0:0:0:
238,312,143905,1,2,0:0:0:0:
233,309,143966,1,2,0:0:0:0:
205,282,144028,5,14,0:0:0:0:
203,276,144089,1,2,0:0:0:0:
203,270,144150,1,2,0:0:0:0:
203,264,144211,1,2,0:0:0:0:
233,242,144272,5,14,0:0:0:0:
235,237,144334,1,2,0:0:0:0:
237,232,144395,1,2,0:0:0:0:
239,227,144456,1,2,0:0:0:0:
221,194,144517,5,14,0:0:0:0:
416,240,144640,1,10,0:0:0:0:
328,100,144762,5,10,0:0:0:0:
304,340,144885,1,10,0:0:0:0:
219,194,145007,5,10,0:0:0:0:
424,240,145130,1,10,0:0:0:0:
219,194,145252,5,14,0:0:0:0:
224,190,145313,1,2,0:0:0:0:
229,186,145374,1,2,0:0:0:0:
234,182,145435,1,2,0:0:0:0:
207,158,145496,5,14,0:0:0:0:
203,153,145558,1,2,0:0:0:0:
199,148,145619,1,2,0:0:0:0:
195,143,145680,1,2,0:0:0:0:
231,126,145742,5,14,0:0:0:0:
232,120,145803,1,2,0:0:0:0:
233,114,145864,1,2,0:0:0:0:
234,108,145926,1,2,0:0:0:0:
211,78,145987,6,2,L|192:20,3,50,14|14|14|2,0:0|0:0|0:0|0:0,0:0:0:0:
304,60,146232,2,2,L|316:8,3,50,14|2|2|2,0:0|0:0|0:0|0:0,0:0:0:0:
400,64,146477,2,2,L|424:20,3,50,14|2|2|2,0:0|0:0|0:0|0:0,0:0:0:0:
424,144,146721,5,14,0:0:0:0:
421,156,146782,1,2,0:0:0:0:
419,168,146843,1,2,0:0:0:0:
419,181,146904,1,2,0:0:0:0:
420,192,146966,2,10,P|440:256|452:264,1,62.5
368,288,147089,5,14,0:0:0:0:
367,300,147150,1,2,0:0:0:0:
365,312,147211,1,2,0:0:0:0:
360,324,147272,1,2,0:0:0:0:
354,335,147333,1,2,0:0:0:0:
346,345,147395,1,2,0:0:0:0:
336,352,147456,5,14,0:0:0:0:
324,360,147517,2,2,P|308:288|316:228,1,129.999994049073,10|2,0:0|0:0,0:0:0:0:
228,144,147701,5,10,0:0:0:0:
228,144,147762,2,2,P|256:76|252:20,1,129.999994049073,10|2,0:0|0:0,0:0:0:0:
176,216,147946,5,10,0:0:0:0:
316,336,148068,1,10,0:0:0:0:
184,216,148191,5,14,0:0:0:0:
188,221,148252,1,2,0:0:0:0:
191,226,148313,1,2,0:0:0:0:
194,231,148374,1,2,0:0:0:0:
224,252,148435,5,14,0:0:0:0:
222,257,148497,1,2,0:0:0:0:
220,264,148558,1,2,0:0:0:0:
220,270,148619,1,2,0:0:0:0:
208,308,148681,5,14,0:0:0:0:
217,298,148742,1,2,0:0:0:0:
227,291,148803,1,2,0:0:0:0:
239,287,148864,1,2,0:0:0:0:
272,272,148926,5,14,0:0:0:0:
256,262,148987,1,2,0:0:0:0:
243,249,149048,1,2,0:0:0:0:
235,232,149109,1,2,0:0:0:0:
232,212,149170,5,14,0:0:0:0:
268,203,149231,1,2,0:0:0:0:
304,194,149292,1,2,0:0:0:0:
341,185,149353,1,2,0:0:0:0:
380,176,149415,5,14,0:0:0:0:
342,173,149476,1,2,0:0:0:0:
305,170,149537,1,2,0:0:0:0:
267,167,149598,1,2,0:0:0:0:
228,168,149660,5,14,0:0:0:0:
228,160,149721,1,10,0:0:0:0:
228,152,149783,1,10,0:0:0:0:
228,144,149843,1,10,0:0:0:0:
228,136,149905,1,14,0:0:0:0:
228,128,149966,1,10,0:0:0:0:
228,120,150028,1,10,0:0:0:0:
228,112,150089,1,10,0:0:0:0:
228,104,150150,6,14,P|272:148|288:236,1,150
272,332,150395,1,14,0:0:0:0:
288,247,150640,5,14,0:0:0:0:
288,235,150762,1,14,0:0:0:0:
288,223,150885,1,14,0:0:0:0:
288,215,151007,1,14,0:0:0:0:
288,207,151130,5,14,0:0:0:0:
265,235,151191,1,2,0:0:0:0:
245,267,151252,1,2,0:0:0:0:
225,299,151313,1,2,0:0:0:0:
201,331,151374,5,14,0:0:0:0:
201,291,151436,1,2,0:0:0:0:
201,251,151497,1,2,0:0:0:0:
201,211,151558,1,2,0:0:0:0:
201,175,151619,2,14,L|201:111,3,62.5,14|2|2|14,0:0|0:0|0:0|0:0,0:0:0:0:
112,84,151864,5,10,0:0:0:0:
112,132,151925,1,10,0:0:0:0:
112,180,151986,1,10,0:0:0:0:
112,228,152047,1,10,0:0:0:0:
112,280,152109,5,14,0:0:0:0:
72,252,152170,1,2,0:0:0:0:
56,204,152231,1,2,0:0:0:0:
60,156,152292,1,2,0:0:0:0:
88,112,152354,6,2,L|48:80,3,50,14|2|2|2,0:0|0:0|0:0|0:0,0:0:0:0:
112,280,152599,5,14,0:0:0:0:
128,288,152660,1,2,0:0:0:0:
148,284,152721,1,2,0:0:0:0:
164,276,152782,1,2,0:0:0:0:
176,260,152843,1,2,0:0:0:0:
184,244,152905,1,2,0:0:0:0:
184,224,152966,1,2,0:0:0:0:
176,204,153027,1,2,0:0:0:0:
172,184,153088,1,2,0:0:0:0:
176,164,153150,1,2,0:0:0:0:
188,148,153211,1,2,0:0:0:0:
204,140,153272,1,2,0:0:0:0:
224,140,153334,5,14,0:0:0:0:
216,164,153395,1,2,0:0:0:0:
192,176,153456,1,2,0:0:0:0:
168,176,153517,1,2,0:0:0:0:
152,156,153578,1,2,0:0:0:0:
148,132,153640,1,2,0:0:0:0:
156,108,153701,1,2,0:0:0:0:
172,84,153762,1,2,0:0:0:0:
200,72,153823,1,2,0:0:0:0:
232,72,153885,1,2,0:0:0:0:
264,80,153946,1,2,0:0:0:0:
296,84,154007,1,2,0:0:0:0:
328,76,154068,5,14,0:0:0:0:
452,132,154191,6,10,L|460:200,1,62.5
384,204,154313,2,10,L|360:276,1,62.5
452,280,154436,2,10,L|472:360,1,62.5
364,263,154558,1,14,0:0:0:0:
368,259,154803,5,14,0:0:0:0:
372,256,154864,1,2,0:0:0:0:
377,253,154925,1,2,0:0:0:0:
382,250,154987,1,2,0:0:0:0:
352,235,155048,5,14,0:0:0:0:
347,232,155109,1,2,0:0:0:0:
342,229,155170,1,2,0:0:0:0:
337,226,155231,1,2,0:0:0:0:
348,195,155293,5,14,0:0:0:0:
352,192,155354,1,2,0:0:0:0:
357,189,155415,1,2,0:0:0:0:
363,188,155477,1,2,0:0:0:0:
352,155,155538,6,14,L|332:103,3,55.0000016784668,14|2|2|14,0:0|0:0|0:0|0:0,0:0:0:0:
428,84,155783,2,14,L|456:28,3,55.0000016784668,14|2|2|14,0:0|0:0|0:0|0:0,0:0:0:0:
416,192,156028,5,14,0:0:0:0:
403,210,156089,1,2,0:0:0:0:
395,230,156150,1,2,0:0:0:0:
391,252,156211,1,2,0:0:0:0:
392,274,156272,1,14,0:0:0:0:
397,295,156334,1,2,0:0:0:0:
416,320,156395,5,14,0:0:0:0:
396,310,156456,1,2,0:0:0:0:
375,303,156517,1,14,0:0:0:0:
353,299,156578,1,2,0:0:0:0:
331,298,156639,1,2,0:0:0:0:
310,301,156701,1,2,0:0:0:0:
288,308,156762,6,14,L|244:352,3,55.0000016784668,14|2|2|14,0:0|0:0|0:0|0:0,0:0:0:0:
232,240,157007,5,14,0:0:0:0:
228,235,157068,1,2,0:0:0:0:
225,230,157129,1,2,0:0:0:0:
221,225,157190,1,2,0:0:0:0:
200,248,157251,5,14,0:0:0:0:
195,252,157313,1,2,0:0:0:0:
189,256,157374,1,2,0:0:0:0:
184,259,157435,1,2,0:0:0:0:
164,224,157496,5,14,0:0:0:0:
158,223,157558,1,2,0:0:0:0:
151,221,157619,1,2,0:0:0:0:
144,220,157681,1,2,0:0:0:0:
116,248,157742,6,14,L|64:268,3,55.0000016784668,14|2|2|14,0:0|0:0|0:0|0:0,0:0:0:0:
68,176,157987,5,14,0:0:0:0:
68,162,158048,1,0,0:0:0:0:
68,147,158109,1,0,0:0:0:0:
68,132,158170,1,0,0:0:0:0:
40,100,158231,5,14,0:0:0:0:
40,85,158293,1,0,0:0:0:0:
40,70,158354,1,0,0:0:0:0:
40,56,158415,1,0,0:0:0:0:
60,32,158477,5,14,0:0:0:0:
120,196,158721,1,6,0:0:0:0:
272,88,158966,1,6,0:0:0:0:
120,176,159211,5,10,0:0:0:0:
128,156,159334,1,10,0:0:0:0:
140,136,159456,2,10,P|192:104|252:92,1,100
320,168,159701,2,10,P|376:136|412:84,1,100
400,232,159946,5,14,0:0:0:0:
400,260,160007,1,2,0:0:0:0:
402,292,160068,1,2,0:0:0:0:
280,260,160191,5,14,0:0:0:0:
264,292,160252,1,2,0:0:0:0:
248,324,160313,1,2,0:0:0:0:
164,236,160436,5,14,0:0:0:0:
142,248,160497,1,2,0:0:0:0:
112,260,160558,1,2,0:0:0:0:
44,208,160681,5,10,0:0:0:0:
52,208,160742,1,10,0:0:0:0:
60,212,160803,1,10,0:0:0:0:
64,220,160864,1,10,0:0:0:0:
64,232,160926,1,10,0:0:0:0:
56,240,160987,1,10,0:0:0:0:
44,248,161048,1,10,0:0:0:0:
32,252,161109,1,10,0:0:0:0:
24,252,161170,2,10,P|92:232|132:212,1,100
208,112,161415,5,14,0:0:0:0:
193,141,161476,1,2,0:0:0:0:
187,173,161537,1,2,0:0:0:0:
191,206,161598,1,2,0:0:0:0:
204,236,161659,1,2,0:0:0:0:
225,262,161721,1,2,0:0:0:0:
264,272,161783,5,14,0:0:0:0:
251,261,161844,1,2,0:0:0:0:
237,253,161905,1,2,0:0:0:0:
221,248,161966,1,2,0:0:0:0:
200,248,162028,2,10,P|136:268|124:280,1,55.0000016784668
100,288,162150,6,14,L|100:152,1,112.500004291535
200,168,162395,5,14,0:0:0:0:
120,56,162517,1,14,0:0:0:0:
276,24,162640,5,14,0:0:0:0:
416,168,162762,1,14,0:0:0:0:
296,180,162885,5,14,0:0:0:0:
304,192,162946,1,2,0:0:0:0:
316,200,163007,1,2,0:0:0:0:
332,204,163068,1,2,0:0:0:0:
368,196,163130,5,14,0:0:0:0:
356,206,163191,1,2,0:0:0:0:
347,217,163252,1,2,0:0:0:0:
339,230,163313,1,2,0:0:0:0:
334,244,163374,1,14,0:0:0:0:
331,259,163436,1,2,0:0:0:0:
330,274,163497,1,2,0:0:0:0:
332,289,163558,1,2,0:0:0:0:
340,308,163619,6,14,L|376:352,5,37.5000014305115,14|2|2|2|2|14,0:0|0:0|0:0|0:0|0:0|0:0,0:0:0:0:
260,344,163987,2,14,L|244:296,5,37.5000014305115,14|2|2|2|2|14,0:0|0:0|0:0|0:0|0:0|0:0,0:0:0:0:
216,156,164354,5,6,0:0:0:0:
360,108,164599,1,6,0:0:0:0:
348,264,164844,1,6,0:0:0:0:
348,264,165089,6,6,B|312:240|300:216|300:216|232:228|232:228|179:216|179:216|148:224|128:224,1,225.000008583069
56,260,165579,1,6,0:0:0:0:
76,240,165824,2,0,P|140:212|204:252,1,150.000005722046
136,284,166191,6,2,L|124:224,1,55.0000016784668,10|2,0:0|0:0,0:0:0:0:
140,296,166314,2,2,L|112:240,1,55.0000016784668,10|2,0:0|0:0,0:0:0:0:
188,108,166436,6,2,L|192:48,1,55.0000016784668,10|2,0:0|0:0,0:0:0:0:
196,120,166558,2,2,L|208:52,1,55.0000016784668,10|2,0:0|0:0,0:0:0:0:
312,200,166681,6,2,L|340:144,1,55.0000016784668,10|2,0:0|0:0,0:0:0:0:
316,216,166804,2,2,L|344:152,1,55.0000016784668,10|2,0:0|0:0,0:0:0:0:
232,284,166926,6,2,L|248:340,3,55.0000016784668,14|2|2|2,0:0|0:0|0:0|0:0,0:0:0:0:
364,152,167170,6,2,L|376:80,1,55.0000016784668,10|2,0:0|0:0,0:0:0:0:
372,164,167293,2,2,L|392:104,1,55.0000016784668,10|2,0:0|0:0,0:0:0:0:
276,228,167415,6,2,L|260:160,1,55.0000016784668,10|2,0:0|0:0,0:0:0:0:
280,240,167538,2,2,L|248:184,1,55.0000016784668,10|2,0:0|0:0,0:0:0:0:
372,308,167660,6,2,L|440:348,5,55.0000016784668,14|2|2|2|2|2,0:0|0:0|0:0|0:0|0:0|0:0,0:0:0:0:
472,236,168028,5,14,0:0:0:0:
452,226,168089,1,2,0:0:0:0:
431,218,168150,1,2,0:0:0:0:
410,213,168211,1,2,0:0:0:0:
388,212,168272,1,14,0:0:0:0:
366,215,168334,1,2,0:0:0:0:
346,223,168395,1,2,0:0:0:0:
325,231,168456,1,2,0:0:0:0:
305,239,168517,1,14,0:0:0:0:
283,244,168579,1,2,0:0:0:0:
262,247,168640,1,2,0:0:0:0:
240,247,168701,1,2,0:0:0:0:
216,244,168762,6,2,L|172:208,3,55.0000016784668,14|2|2|2,0:0|0:0|0:0|0:0,0:0:0:0:
124,100,169007,2,2,L|68:140,3,55.0000016784668,14|2|2|2,0:0|0:0|0:0|0:0,0:0:0:0:
130,214,169252,5,2,0:0:0:0:
167,191,169313,1,2,0:0:0:0:
205,169,169374,1,14,0:0:0:0:
252,160,169436,1,2,0:0:0:0:
300,200,169497,5,14,0:0:0:0:
300,200,169558,1,2,0:0:0:0:
300,200,169619,2,2,L|244:232,1,55.0000016784668
148,284,169741,5,14,0:0:0:0:
148,284,169803,1,2,0:0:0:0:
148,284,169864,2,2,L|156:224,1,55.0000016784668
136,116,169987,5,14,0:0:0:0:
156,112,170048,1,10,0:0:0:0:
172,108,170109,1,10,0:0:0:0:
192,108,170170,1,10,0:0:0:0:
212,108,170232,2,6,P|260:92|320:104,1,112.500004291535
376,168,170477,1,14,0:0:0:0:
216,312,170599,2,14,B|240:272|240:272|248:232|248:232|260:204,2,110.000003356934
168,88,170966,5,14,0:0:0:0:
168,104,171027,1,2,0:0:0:0:
168,121,171088,1,2,0:0:0:0:
168,137,171149,1,2,0:0:0:0:
168,152,171211,2,2,B|172:188|172:188|164:232|164:232|168:276,1,110.000003356934
176,352,171456,1,14,0:0:0:0:
292,296,171702,5,14,0:0:0:0:
292,296,171763,1,2,0:0:0:0:
292,296,171824,2,2,L|332:240,1,55.0000016784668
336,136,171947,5,14,0:0:0:0:
336,136,172008,1,2,0:0:0:0:
336,136,172069,2,2,L|384:80,1,55.0000016784668
204,52,172191,5,14,0:0:0:0:
200,60,172252,1,2,0:0:0:0:
196,68,172313,2,2,P|168:120|156:128,1,55.0000016784668
52,216,172436,5,14,0:0:0:0:
68,212,172497,1,2,0:0:0:0:
84,211,172558,1,2,0:0:0:0:
101,213,172619,1,2,0:0:0:0:
132,200,172681,5,14,0:0:0:0:
123,214,172742,1,2,0:0:0:0:
119,230,172803,1,2,0:0:0:0:
120,246,172864,1,2,0:0:0:0:
136,280,172926,5,14,0:0:0:0:
144,266,172987,1,2,0:0:0:0:
156,254,173048,1,2,0:0:0:0:
171,247,173109,1,2,0:0:0:0:
192,240,173170,6,14,L|236:196,3,55.0000016784668
288,276,173415,2,14,L|352:264,3,55.0000016784668
392,148,173660,5,14,0:0:0:0:
392,148,173721,1,2,0:0:0:0:
392,148,173783,2,2,L|328:168,1,55.0000016784668
156,176,173905,5,14,0:0:0:0:
183,177,173966,1,2,0:0:0:0:
210,173,174027,1,14,0:0:0:0:
235,162,174088,1,2,0:0:0:0:
254,142,174149,1,2,0:0:0:0:
261,116,174211,1,2,0:0:0:0:
255,89,174272,1,2,0:0:0:0:
239,67,174333,1,2,0:0:0:0:
216,56,174395,6,10,L|200:112,1,55.0000016784668
44,148,174517,2,10,L|72:92,1,55.0000016784668
136,272,174640,6,10,L|196:272,3,55.0000016784668,14|10|10|10,0:0|0:0|0:0|0:0,0:0:0:0:
259,336,174885,5,14,0:0:0:0:
290,347,174946,1,2,0:0:0:0:
323,348,175007,1,2,0:0:0:0:
354,338,175069,1,2,0:0:0:0:
376,316,175130,2,10,L|408:268,1,55.0000016784668
384,152,175252,5,2,0:0:0:0:
384,136,175313,1,14,0:0:0:0:
384,120,175375,2,10,L|408:176,1,55.0000016784668
276,232,175497,2,10,L|284:168,1,55.0000016784668
464,136,175619,6,2,L|480:80,3,55.0000016784668,14|2|2|2,0:0|0:0|0:0|0:0,0:0:0:0:
384,104,175864,6,2,L|380:48,3,55.0000016784668,14|2|2|2,0:0|0:0|0:0|0:0,0:0:0:0:
292,104,176109,5,14,0:0:0:0:
307,99,176170,1,2,0:0:0:0:
324,100,176231,1,2,0:0:0:0:
338,107,176292,1,2,0:0:0:0:
348,144,176354,5,14,0:0:0:0:
333,136,176415,1,2,0:0:0:0:
317,133,176476,1,2,0:0:0:0:
301,138,176537,1,2,0:0:0:0:
272,152,176599,5,14,0:0:0:0:
281,165,176660,1,2,0:0:0:0:
288,180,176721,1,2,0:0:0:0:
291,196,176782,1,2,0:0:0:0:
288,220,176844,5,14,0:0:0:0:
251,206,176905,1,10,0:0:0:0:
215,193,176966,1,10,0:0:0:0:
179,180,177027,1,10,0:0:0:0:
144,168,177089,6,6,B|156:120|156:120|148:48,1,110.000003356934
260,56,177334,1,6,0:0:0:0:
36,36,177456,1,6,0:0:0:0:
152,172,177579,5,14,0:0:0:0:
152,180,177640,1,2,0:0:0:0:
152,188,177701,1,2,0:0:0:0:
156,200,177762,1,2,0:0:0:0:
164,212,177823,1,2,0:0:0:0:
176,220,177885,1,2,0:0:0:0:
188,228,177946,6,14,L|248:264,5,55.0000016784668
344,308,178313,2,14,L|344:244,5,55.0000016784668
344,108,178681,5,14,0:0:0:0:
336,108,178742,1,2,0:0:0:0:
328,108,178803,1,2,0:0:0:0:
316,112,178864,1,2,0:0:0:0:
300,124,178925,1,2,0:0:0:0:
288,140,178987,1,2,0:0:0:0:
280,164,179048,5,14,0:0:0:0:
263,150,179109,1,2,0:0:0:0:
245,137,179170,1,2,0:0:0:0:
226,127,179231,1,2,0:0:0:0:
205,120,179292,1,2,0:0:0:0:
184,115,179354,1,2,0:0:0:0:
160,116,179415,2,14,L|160:176,5,55.0000016784668
276,84,179783,6,10,L|276:28,1,55.0000016784668
368,176,179905,2,10,L|368:240,1,55.0000016784668
448,88,180028,6,2,L|448:32,3,55.0000016784668,10|2|2|2,0:0|0:0|0:0|0:0,0:0:0:0:
448,272,180272,6,2,L|448:328,3,55.0000016784668,10|2|2|2,0:0|0:0|0:0|0:0,0:0:0:0:
412,180,180517,5,14,0:0:0:0:
374,201,180578,1,2,0:0:0:0:
347,235,180639,1,2,0:0:0:0:
323,273,180700,1,2,0:0:0:0:
295,306,180761,1,2,0:0:0:0:
255,323,180823,1,2,0:0:0:0:
216,308,180885,5,14,0:0:0:0:
257,292,180946,1,2,0:0:0:0:
300,290,181007,1,2,0:0:0:0:
344,297,181068,1,2,0:0:0:0:
387,304,181129,1,2,0:0:0:0:
431,301,181191,1,2,0:0:0:0:
472,284,181252,6,2,L|460:224,3,55.0000016784668,14|2|2|2,0:0|0:0|0:0|0:0,0:0:0:0:
344,164,181497,2,2,P|372:168|397:158,3,55.0000016784668,14|2|2|2,0:0|0:0|0:0|0:0,0:0:0:0:
460,116,181742,5,14,0:0:0:0:
464,104,181803,1,2,0:0:0:0:
468,92,181864,2,2,L|484:32,1,55.0000016784668
300,104,181987,5,14,0:0:0:0:
292,96,182048,1,2,0:0:0:0:
284,88,182109,2,2,L|236:48,1,55.0000016784668
368,152,182232,5,14,0:0:0:0:
368,163,182293,1,2,0:0:0:0:
368,174,182354,1,2,0:0:0:0:
368,185,182415,1,2,0:0:0:0:
368,196,182476,1,2,0:0:0:0:
368,207,182538,1,2,0:0:0:0:
368,232,182599,5,14,0:0:0:0:
336,201,182660,1,2,0:0:0:0:
296,182,182721,1,2,0:0:0:0:
253,177,182782,1,2,0:0:0:0:
210,186,182843,1,2,0:0:0:0:
172,208,182905,1,2,0:0:0:0:
140,240,182966,2,6,L|140:344,1,100
304,320,183334,5,6,0:0:0:0:
188,140,183456,2,0,P|132:120|92:116,1,100
36,192,184068,5,0,0:0:0:0:
256,32,184191,1,0,0:0:0:0:
324,152,184558,5,2,0:0:0:0:
324,152,184681,1,2,0:0:0:0:
324,152,184803,1,2,0:0:0:0:
324,152,184926,1,2,0:0:0:0:
228,176,185170,1,2,0:0:0:0:
208,336,185538,5,2,0:0:0:0:
224,124,185660,2,2,L|256:236,2,100
360,224,186028,1,2,0:0:0:0:
368,340,186150,1,2,0:0:0:0:
400,88,186395,5,2,0:0:0:0:
400,88,186517,2,2,L|400:208,1,100
272,168,186762,5,2,0:0:0:0:
272,168,186885,2,2,L|272:300,1,100
364,328,187130,5,2,0:0:0:0:
356,298,187191,1,2,0:0:0:0:
348,269,187252,1,2,0:0:0:0:
341,240,187313,1,2,0:0:0:0:
333,211,187374,1,2,0:0:0:0:
325,182,187436,1,2,0:0:0:0:
320,160,187497,6,2,L|372:140,1,50
460,84,187619,2,2,L|484:36,3,50
356,68,187864,5,2,0:0:0:0:
347,79,187925,1,2,0:0:0:0:
334,88,187986,1,2,0:0:0:0:
320,92,188047,1,2,0:0:0:0:
288,116,188109,5,2,0:0:0:0:
281,108,188170,1,2,0:0:0:0:
274,101,188231,1,2,0:0:0:0:
265,96,188292,1,2,0:0:0:0:
256,92,188353,1,2,0:0:0:0:
247,89,188415,1,2,0:0:0:0:
236,88,188477,2,2,L|236:16,1,50
128,112,188599,5,10,0:0:0:0:
128,167,188660,1,10,0:0:0:0:
128,222,188721,1,10,0:0:0:0:
128,277,188782,1,10,0:0:0:0:
128,332,188844,2,10,P|184:308|220:312,1,89.9999972534181
300,184,189089,2,2,L|248:232,1,59.9999981689454
88,300,189334,6,2,L|88:236,2,39.9999987792969,14|2|2,3:0|3:0|3:0,3:0:0:0:
156,216,189579,2,2,L|180:160,2,53.3333333333333,14|2|2,0:0|0:0|0:0,0:0:0:0:
272,156,189824,2,2,L|320:104,2,66.6666666666667,14|2|2,0:0|0:0|0:0,0:0:0:0:
112,324,190068,5,14,0:0:0:0:
116,332,190150,2,0,L|144:244,1,83.3333333333333
312,204,190313,5,14,0:0:0:0:
312,212,190395,2,2,L|324:124,1,83.3333333333333,14|2,0:0|0:0,0:0:0:0:
72,116,190558,5,14,0:0:0:0:
72,124,190640,2,2,L|84:36,1,83.3333333333333,14|2,0:0|0:0,0:0:0:0:
48,292,190803,5,14,0:0:0:0:
102,252,190884,1,2,0:0:0:0:
166,240,190966,1,2,0:0:0:0:
230,252,191048,5,14,0:0:0:0:
192,284,191129,1,2,0:0:0:0:
144,268,191211,1,2,0:0:0:0:
128,220,191293,5,6,0:0:0:0:
136,220,191375,1,2,0:0:0:0:
144,216,191456,1,2,0:0:0:0:
152,212,191538,2,10,L|168:140,3,62.5,10|2|2|10,0:0|0:0|0:0|0:0,0:0:0:0:
252,168,191782,5,14,0:0:0:0:
328,48,191905,1,14,0:0:0:0:
364,232,192028,5,14,0:0:0:0:
464,100,192150,1,14,0:0:0:0:
364,240,192272,5,14,0:0:0:0:
360,272,192353,1,2,0:0:0:0:
328,312,192435,1,2,0:0:0:0:
276,316,192517,2,2,L|228:244,1,83.3333333333333,14|2,0:0|0:0,0:0:0:0:
156,148,192681,5,14,0:0:0:0:
108,192,192762,1,2,0:0:0:0:
104,260,192844,1,2,0:0:0:0:
156,304,192926,1,2,0:0:0:0:
220,296,193007,5,14,0:0:0:0:
168,252,193089,1,2,0:0:0:0:
104,244,193170,1,2,0:0:0:0:
48,280,193252,5,14,0:0:0:0:
124,348,193375,1,14,0:0:0:0:
44,288,193497,5,14,0:0:0:0:
128,340,193619,1,14,0:0:0:0:
40,296,193742,5,6,0:0:0:0:
36,296,193824,2,0,L|12:204,1,83.3333333333333
116,44,193987,5,14,0:0:0:0:
116,44,194068,2,2,L|112:132,1,83.3333333333333
228,268,194232,5,14,0:0:0:0:
228,275,194313,2,2,P|269:363|316:384,1,83.3333333333333
292,92,194477,5,14,0:0:0:0:
299,110,194538,1,10,0:0:0:0:
300,128,194599,2,2,B|280:144|280:172|280:172|280:200|280:200|328:200|356:200,1,150,10|2,0:0|0:0,0:0:0:0:
415,196,194844,5,6,0:0:0:0:
339,288,194966,1,6,0:0:0:0:
295,176,195089,1,6,0:0:0:0:
420,204,195211,5,14,0:0:0:0:
377,268,195293,1,2,0:0:0:0:
314,307,195375,1,2,0:0:0:0:
240,302,195456,1,2,0:0:0:0:
184,254,195538,1,2,0:0:0:0:
158,185,195619,1,2,0:0:0:0:
192,120,195701,5,14,0:0:0:0:
199,139,195783,2,2,L|232:56,1,66.6666666666667
80,188,195946,5,14,0:0:0:0:
76,216,196028,2,2,P|96:192|112:144,1,66.6666666666667
296,92,196191,5,6,0:0:0:0:
264,228,196313,1,6,0:0:0:0:
160,144,196436,1,6,0:0:0:0:
296,92,196558,1,6,0:0:0:0:
152,136,196681,5,14,0:0:0:0:
108,192,196762,1,2,0:0:0:0:
112,264,196844,1,2,0:0:0:0:
152,324,196926,1,2,0:0:0:0:
224,340,197007,6,2,L|328:344,1,83.3333333333333
400,348,197171,5,6,0:0:0:0:
332,244,197294,1,6,0:0:0:0:
452,228,197416,1,6,0:0:0:0:
408,340,197539,5,6,0:0:0:0:
331,229,197661,1,6,0:0:0:0:
464,234,197783,1,6,0:0:0:0:
420,348,197905,5,6,0:0:0:0:
343,237,198027,1,6,0:0:0:0:
464,234,198149,5,14,0:0:0:0:
439,303,198232,1,2,0:0:0:0:
376,345,198313,1,2,0:0:0:0:
303,331,198395,1,2,0:0:0:0:
280,264,198477,1,2,0:0:0:0:
219,223,198558,1,2,0:0:0:0:
148,240,198640,2,14,L|151:111,1,125
240,60,198885,5,6,0:0:0:0:
312,208,199007,1,6,0:0:0:0:
228,61,199130,5,6,0:0:0:0:
313,203,199252,1,6,0:0:0:0:
217,64,199375,5,6,0:0:0:0:
313,198,199497,1,6,0:0:0:0:
136,184,199619,6,2,L|104:96,2,75.0000028610231,14|2|14,0:0|0:0|0:0,0:0:0:0:
236,140,199987,1,2,0:0:0:0:
236,140,200109,2,2,L|236:24,1,100,14|2,0:0|0:0,0:0:0:0:
240,288,200354,5,10,0:0:0:0:
240,288,200415,1,10,0:0:0:0:
240,288,200477,1,6,0:0:0:0:
320,168,200599,5,6,0:0:0:0:
104,292,200721,1,6,0:0:0:0:
300,340,200844,5,6,0:0:0:0:
136,152,200966,1,6,0:0:0:0:
324,176,201089,5,14,0:0:0:0:
308,176,201150,1,2,0:0:0:0:
296,168,201211,1,2,0:0:0:0:
292,156,201272,1,2,0:0:0:0:
292,144,201333,1,2,0:0:0:0:
300,136,201395,1,2,0:0:0:0:
312,132,201456,5,14,0:0:0:0:
268,132,201517,1,2,0:0:0:0:
224,132,201578,1,2,0:0:0:0:
180,132,201639,1,2,0:0:0:0:
136,132,201700,1,2,0:0:0:0:
92,132,201762,1,2,0:0:0:0:
48,132,201824,5,14,0:0:0:0:
68,110,201885,1,2,0:0:0:0:
97,107,201946,1,2,0:0:0:0:
121,124,202007,1,2,0:0:0:0:
129,152,202068,1,2,0:0:0:0:
116,179,202130,1,2,0:0:0:0:
92,196,202191,5,14,0:0:0:0:
119,159,202252,1,2,0:0:0:0:
163,146,202313,1,2,0:0:0:0:
206,145,202374,1,2,0:0:0:0:
247,161,202435,1,2,0:0:0:0:
277,194,202497,1,2,0:0:0:0:
290,238,202558,2,10,L|340:206,3,50
252,320,202802,5,14,0:0:0:0:
244,324,202864,1,2,0:0:0:0:
236,328,202926,2,2,L|188:348,1,50
96,376,203047,5,14,0:0:0:0:
76,368,203109,1,2,0:0:0:0:
56,360,203171,2,2,L|24:296,1,50
36,180,203293,2,2,L|64:224,3,50,6|2|2|2,0:0|0:0|0:0|0:0,0:0:0:0:
132,248,203538,5,14,0:0:0:0:
136,240,203599,1,2,0:0:0:0:
140,232,203660,1,2,0:0:0:0:
144,224,203721,1,2,0:0:0:0:
148,216,203782,1,2,0:0:0:0:
152,208,203844,1,2,0:0:0:0:
156,200,203905,1,2,0:0:0:0:
160,192,203966,1,2,0:0:0:0:
164,184,204028,5,14,0:0:0:0:
184,204,204089,1,2,0:0:0:0:
184,232,204150,1,2,0:0:0:0:
176,260,204211,1,2,0:0:0:0:
156,284,204272,1,2,0:0:0:0:
128,292,204334,1,2,0:0:0:0:
100,280,204395,6,2,L|72:228,3,50,14|2|2|2,0:0|0:0|0:0|0:0,0:0:0:0:
136,152,204640,2,2,L|132:88,3,50,14|2|2|2,0:0|0:0|0:0|0:0,0:0:0:0:
244,56,204885,5,14,0:0:0:0:
244,104,204946,1,2,0:0:0:0:
244,152,205007,1,2,0:0:0:0:
244,200,205068,1,2,0:0:0:0:
244,252,205130,5,14,0:0:0:0:
240,252,205191,1,2,0:0:0:0:
236,252,205252,1,2,0:0:0:0:
220,276,205313,5,14,0:0:0:0:
216,276,205375,1,2,0:0:0:0:
212,276,205436,1,2,0:0:0:0:
208,276,205497,5,14,0:0:0:0:
234,259,205558,1,2,0:0:0:0:
256,238,205619,1,2,0:0:0:0:
272,212,205680,1,2,0:0:0:0:
280,185,205741,1,2,0:0:0:0:
283,154,205803,1,2,0:0:0:0:
280,121,205865,5,14,0:0:0:0:
291,147,205926,1,2,0:0:0:0:
310,170,205987,1,2,0:0:0:0:
337,186,206048,1,2,0:0:0:0:
365,190,206109,1,2,0:0:0:0:
397,187,206171,1,2,0:0:0:0:
418,148,206232,5,14,0:0:0:0:
407,159,206293,1,2,0:0:0:0:
399,171,206354,1,2,0:0:0:0:
396,186,206415,1,2,0:0:0:0:
416,224,206477,5,14,0:0:0:0:
420,228,206722,5,14,0:0:0:0:
406,222,206783,1,2,0:0:0:0:
396,213,206844,1,2,0:0:0:0:
389,200,206905,1,2,0:0:0:0:
381,150,206967,5,14,0:0:0:0:
376,175,207028,1,2,0:0:0:0:
368,198,207089,1,2,0:0:0:0:
359,221,207150,1,2,0:0:0:0:
343,250,207211,6,14,L|319:306,1,50
272,144,207334,2,14,L|260:92,3,50
384,148,207578,5,14,0:0:0:0:
384,148,207639,1,2,0:0:0:0:
388,152,207701,1,14,0:0:0:0:
395,165,207762,1,2,0:0:0:0:
400,179,207823,1,2,0:0:0:0:
403,193,207884,1,2,0:0:0:0:
404,208,207946,2,2,L|384:256,1,50
272,152,208069,5,14,0:0:0:0:
282,152,208130,1,2,0:0:0:0:
292,152,208191,1,2,0:0:0:0:
302,152,208252,1,2,0:0:0:0:
312,152,208313,1,2,0:0:0:0:
322,152,208375,1,2,0:0:0:0:
332,152,208436,5,14,0:0:0:0:
301,126,208497,1,2,0:0:0:0:
277,94,208558,1,2,0:0:0:0:
254,61,208619,1,2,0:0:0:0:
230,30,208680,5,14,0:0:0:0:
208,56,208742,1,2,0:0:0:0:
196,88,208803,1,2,0:0:0:0:
192,124,208864,1,2,0:0:0:0:
208,156,208926,5,14,0:0:0:0:
182,126,208987,1,10,0:0:0:0:
156,95,209048,1,10,0:0:0:0:
130,65,209109,1,10,0:0:0:0:
104,32,209170,5,14,0:0:0:0:
109,46,209232,1,10,0:0:0:0:
117,58,209293,1,10,0:0:0:0:
124,64,209354,1,10,0:0:0:0:
136,68,209415,6,10,L|80:112,1,50
128,192,209538,2,10,L|108:244,1,50
236,252,209660,5,2,0:0:0:0:
252,252,209721,1,2,0:0:0:0:
264,256,209782,1,2,0:0:0:0:
276,264,209843,1,2,0:0:0:0:
288,276,209905,2,2,L|312:232,3,50,14|2|2|2,0:0|0:0|0:0|0:0,0:0:0:0:
384,104,210150,5,14,0:0:0:0:
368,96,210211,1,2,0:0:0:0:
352,88,210272,2,2,L|372:136,1,50
240,132,210395,5,14,0:0:0:0:
240,112,210456,1,2,0:0:0:0:
240,96,210517,2,2,L|188:40,1,50
96,152,210640,5,14,0:0:0:0:
111,164,210701,1,2,0:0:0:0:
123,180,210762,1,2,0:0:0:0:
132,198,210823,1,2,0:0:0:0:
137,217,210884,1,2,0:0:0:0:
138,237,210946,1,2,0:0:0:0:
136,256,211007,5,14,0:0:0:0:
154,248,211068,1,2,0:0:0:0:
174,245,211129,1,2,0:0:0:0:
194,246,211190,1,2,0:0:0:0:
213,252,211251,1,2,0:0:0:0:
231,261,211313,1,2,0:0:0:0:
244,272,211375,5,14,0:0:0:0:
253,238,211436,1,2,0:0:0:0:
265,205,211497,1,2,0:0:0:0:
281,174,211558,1,2,0:0:0:0:
304,148,211619,1,2,0:0:0:0:
332,127,211681,1,2,0:0:0:0:
364,112,211742,5,14,0:0:0:0:
347,122,211803,1,2,0:0:0:0:
328,129,211864,1,2,0:0:0:0:
308,131,211925,1,2,0:0:0:0:
288,130,211986,1,2,0:0:0:0:
269,124,212048,1,2,0:0:0:0:
232,136,212109,5,10,0:0:0:0:
228,133,212170,1,10,0:0:0:0:
224,130,212231,1,10,0:0:0:0:
220,128,212293,1,0,0:0:0:0:
216,124,212354,1,0,0:0:0:0:
212,120,212415,1,0,0:0:0:0:
209,120,212477,2,14,B|217:156|229:176|229:176|257:180|257:180|285:180|285:180|325:200|365:204,1,170.000003242493
208,120,212844,5,14,0:0:0:0:
189,136,212905,1,2,0:0:0:0:
176,158,212966,1,2,0:0:0:0:
170,182,213027,1,2,0:0:0:0:
170,207,213088,1,2,0:0:0:0:
178,230,213150,1,2,0:0:0:0:
200,248,213211,5,14,0:0:0:0:
186,227,213272,1,2,0:0:0:0:
166,211,213333,1,2,0:0:0:0:
143,203,213394,1,2,0:0:0:0:
118,204,213455,1,2,0:0:0:0:
95,212,213517,1,2,0:0:0:0:
76,232,213579,5,14,0:0:0:0:
104,264,213640,1,2,0:0:0:0:
148,264,213701,1,2,0:0:0:0:
188,244,213762,1,2,0:0:0:0:
212,208,213824,1,2,0:0:0:0:
224,164,213886,1,2,0:0:0:0:
216,120,213947,5,14,0:0:0:0:
184,156,214007,1,2,0:0:0:0:
192,204,214069,1,2,0:0:0:0:
232,236,214130,1,2,0:0:0:0:
276,236,214191,1,2,0:0:0:0:
308,220,214253,1,2,0:0:0:0:
324,196,214313,6,2,L|344:136,3,62.5,14|2|2|2,0:0|0:0|0:0|0:0,0:0:0:0:
296,256,214558,5,14,0:0:0:0:
296,272,214619,1,2,0:0:0:0:
296,288,214681,2,2,L|296:356,1,62.5
429,195,214803,5,14,0:0:0:0:
429,179,214864,1,2,0:0:0:0:
429,163,214926,2,2,L|429:95,1,62.5
296,304,215048,5,14,0:0:0:0:
285,297,215109,1,2,0:0:0:0:
276,289,215170,1,2,0:0:0:0:
268,279,215231,1,2,0:0:0:0:
248,240,215292,5,14,0:0:0:0:
237,246,215354,1,2,0:0:0:0:
225,250,215415,1,2,0:0:0:0:
213,253,215476,1,2,0:0:0:0:
201,254,215537,1,2,0:0:0:0:
188,253,215599,1,2,0:0:0:0:
176,251,215660,1,2,0:0:0:0:
164,248,215721,1,2,0:0:0:0:
148,244,215783,6,2,L|108:180,5,62.5,14|2|2|2|2|2,0:0|0:0|0:0|0:0|0:0|0:0,0:0:0:0:
200,160,216150,5,14,0:0:0:0:
201,142,216211,1,2,0:0:0:0:
203,123,216272,1,2,0:0:0:0:
205,105,216333,1,2,0:0:0:0:
204,88,216395,2,2,L|200:16,1,62.5
200,168,216517,5,14,0:0:0:0:
201,150,216578,1,2,0:0:0:0:
203,131,216639,1,2,0:0:0:0:
205,113,216700,1,2,0:0:0:0:
204,96,216762,2,2,L|200:24,1,62.5
376,168,216885,5,14,0:0:0:0:
363,166,216946,1,2,0:0:0:0:
351,163,217007,1,2,0:0:0:0:
340,157,217068,1,2,0:0:0:0:
331,149,217129,1,2,0:0:0:0:
323,139,217191,1,2,0:0:0:0:
316,128,217252,2,14,L|316:72,3,50
232,44,217497,6,2,B|240:52|252:36|244:16|216:16|196:20|180:36|172:60|176:76|192:92|200:108|208:128|208:148|196:176,1,200,14|2,0:0|0:0,0:0:0:0:
184,288,217803,1,10,0:0:0:0:
232,288,217864,1,10,0:0:0:0:
284,288,217926,1,10,0:0:0:0:
332,288,217987,5,14,0:0:0:0:
332,188,218109,1,14,0:0:0:0:
328,288,218232,5,14,0:0:0:0:
280,284,218293,1,10,0:0:0:0:
232,280,218354,1,10,0:0:0:0:
184,276,218415,1,10,0:0:0:0:
132,268,218477,5,14,0:0:0:0:
128,368,218599,1,14,0:0:0:0:
128,272,218721,5,14,0:0:0:0:
151,252,218782,1,2,0:0:0:0:
180,240,218843,1,2,0:0:0:0:
211,237,218904,1,2,0:0:0:0:
241,243,218965,1,2,0:0:0:0:
270,256,219027,1,2,0:0:0:0:
297,271,219088,1,2,0:0:0:0:
325,285,219149,1,2,0:0:0:0:
355,294,219210,1,2,0:0:0:0:
386,290,219272,1,2,0:0:0:0:
412,268,219334,6,14,L|432:212,3,50
368,152,219579,2,14,L|356:104,3,50
428,44,219824,5,14,0:0:0:0:
424,40,219885,1,2,0:0:0:0:
428,32,219946,1,2,0:0:0:0:
444,32,220007,1,2,0:0:0:0:
456,36,220068,1,2,0:0:0:0:
468,44,220130,1,2,0:0:0:0:
476,56,220191,5,14,0:0:0:0:
444,96,220252,1,2,0:0:0:0:
396,88,220313,1,2,0:0:0:0:
356,60,220374,1,2,0:0:0:0:
312,36,220435,1,2,0:0:0:0:
260,40,220497,1,2,0:0:0:0:
212,56,220558,1,2,0:0:0:0:
180,92,220619,1,2,0:0:0:0:
160,140,220681,5,14,0:0:0:0:
188,116,220742,1,2,0:0:0:0:
224,104,220803,1,2,0:0:0:0:
260,104,220864,1,2,0:0:0:0:
296,116,220926,6,2,L|312:60,3,50,14|10|10|2,0:0|0:0|0:0|0:0,0:0:0:0:
332,252,221170,2,2,L|348:312,3,50,14|2|10|2,0:0|0:0|0:0|0:0,0:0:0:0:
432,156,221415,6,2,L|420:108,3,50,14|10|10|2,0:0|0:0|0:0|0:0,0:0:0:0:
248,84,221660,2,2,L|224:32,3,50,14|2|2|2,0:0|0:0|0:0|0:0,0:0:0:0:
276,176,221905,5,14,0:0:0:0:
280,180,221967,1,2,0:0:0:0:
285,184,222028,1,2,0:0:0:0:
290,188,222089,1,2,0:0:0:0:
276,220,222150,5,14,0:0:0:0:
271,224,222212,1,2,0:0:0:0:
266,228,222273,1,2,0:0:0:0:
260,236,222334,1,2,0:0:0:0:
232,252,222395,5,14,0:0:0:0:
250,256,222456,1,2,0:0:0:0:
268,260,222517,1,2,0:0:0:0:
286,264,222578,1,2,0:0:0:0:
312,272,222640,5,14,0:0:0:0:
293,276,222701,1,2,0:0:0:0:
275,281,222762,1,2,0:0:0:0:
257,286,222823,1,2,0:0:0:0:
232,296,222885,5,14,0:0:0:0:
250,300,222946,1,2,0:0:0:0:
268,305,223007,1,2,0:0:0:0:
286,309,223068,1,2,0:0:0:0:
312,316,223130,5,14,0:0:0:0:
304,279,223191,1,2,0:0:0:0:
285,246,223252,1,2,0:0:0:0:
258,221,223313,1,2,0:0:0:0:
224,206,223374,1,2,0:0:0:0:
187,202,223436,1,2,0:0:0:0:
152,212,223497,6,14,L|140:156,5,50,14|2|2|2|2|14,0:0|0:0|0:0|0:0|0:0|0:0,0:0:0:0:
188,45,223864,5,14,0:0:0:0:
196,45,223926,1,2,0:0:0:0:
200,49,223987,1,2,0:0:0:0:
204,53,224048,1,2,0:0:0:0:
208,61,224109,1,2,0:0:0:0:
208,73,224170,1,2,0:0:0:0:
204,93,224232,5,14,0:0:0:0:
192,109,224293,1,2,0:0:0:0:
176,125,224354,1,2,0:0:0:0:
156,133,224415,1,2,0:0:0:0:
132,129,224477,1,2,0:0:0:0:
116,116,224538,1,2,0:0:0:0:
112,96,224599,5,14,0:0:0:0:
256,192,224721,12,2,230287,0:0:0:0:
208,292,230470,6,2,P|288:288|344:244,1,150
348,128,231938,1,0,0:0:0:0:
380,244,232672,6,2,B|340:196|340:196|300:204|300:204|244:200,1,150
252,236,233956,1,0,0:0:0:0:
252,232,234140,1,0,0:0:0:0:
260,240,234874,1,0,0:0:0:0:
200,80,235608,1,0,0:0:0:0:
168,108,236342,6,2,B|168:176|224:192|272:228|200:296|200:296|340:140,1,412.500015735627
404,192,238543,6,2,P|404:224|344:328,1,150
276,216,241204,5,6,0:0:0:0:
276,216,241296,1,10,0:0:0:0:
276,216,241387,1,10,0:0:0:0:
276,216,241479,2,6,L|328:216,1,40.3333321947734,14|6,0:0|0:0,0:0:0:0:
212,352,241724,5,6,0:0:0:0:
184,116,241846,1,6,0:0:0:0:
388,344,241969,1,6,0:0:0:0:
292,88,242091,1,6,0:0:0:0:
60,192,242213,6,10,B|204:192|204:192|200:184|140:52|140:52|140:224|140:224|200:260|200:260|280:260|280:260|396:212|396:212|284:116|284:116|364:116|364:116|392:112|392:112|424:96,1,1025.00003910065
432,168,247351,6,10,L|332:168,1,100.000003814697
192,288,247718,2,10,L|264:288,2,66.6666666666667
432,304,248085,6,10,B|436:252|432:224|432:164|432:164|332:292|332:292|476:264|476:264|348:208|248:108|404:40|404:40|496:68,1,875.000033378602
212,48,252488,6,10,L|212:180,1,125
240,272,253222,5,10,0:0:0:0:
240,272,253345,1,10,0:0:0:0:
240,272,253467,1,10,0:0:0:0:
240,272,253589,1,10,0:0:0:0:
240,272,253712,1,10,0:0:0:0:
240,272,253834,1,10,0:0:0:0:
240,272,253956,6,14,B|188:300|152:260|92:268,1,150
11,220,254935,1,10,0:0:0:0:
72,144,255180,2,14,B|116:152|160:108|160:108|196:184,1,175
300,124,256158,2,10,B|240:212|392:260|256:348,1,250
196,248,257504,5,6,0:0:0:0:
196,248,257626,1,6,0:0:0:0:
224,64,257871,1,6,0:0:0:0:
316,328,258115,1,6,0:0:0:0:
72,260,258360,2,14,L|80:156,1,93.7500035762788
136,120,258910,5,2,0:0:0:0:
136,120,259002,1,2,0:0:0:0:
136,120,259094,2,2,L|236:104,1,66.6666666666667
204,204,259339,5,6,0:0:0:0:
364,64,259461,1,6,0:0:0:0:
368,188,259583,5,6,0:0:0:0:
228,56,259706,1,6,0:0:0:0:
132,176,259828,6,14,P|168:168|280:208,1,150
356,296,260317,1,6,0:0:0:0:
356,296,260439,1,6,0:0:0:0:
220,304,260562,1,6,0:0:0:0:
424,216,260806,1,6,0:0:0:0:
444,236,262030,5,10,0:0:0:0:
444,236,262152,1,10,0:0:0:0:
444,236,262274,1,10,0:0:0:0:
444,236,262397,1,10,0:0:0:0:
444,236,262519,1,10,0:0:0:0:
444,236,262641,1,10,0:0:0:0:
444,236,262764,6,10,L|388:264,1,50
256,232,263008,2,10,L|192:260,1,50
400,348,263253,2,10,L|344:368,1,50
384,156,263498,5,14,0:0:0:0:
384,156,263589,1,10,0:0:0:0:
384,156,263681,2,10,L|384:216,1,37.5000014305115
284,72,263865,5,14,0:0:0:0:
284,72,263956,1,10,0:0:0:0:
284,72,264048,2,10,L|284:128,1,37.5000014305115
200,224,264232,6,10,L|200:68,1,150
124,240,264690,5,14,0:0:0:0:
128,244,264782,1,2,0:0:0:0:
132,248,264874,1,2,0:0:0:0:
136,252,264965,2,10,L|160:288,3,25.0000009536744
288,200,265271,1,0,0:0:0:0:
120,236,265394,2,10,L|76:236,3,25.0000009536744
256,192,265699,12,14,266923,0:0:0:0:
128,188,267017,6,0,L|132:144,2,33.3333333333333
200,332,267219,5,14,0:0:0:0:
231,307,267280,1,2,0:0:0:0:
268,292,267341,1,2,0:0:0:0:
308,290,267402,1,2,0:0:0:0:
347,297,267463,1,2,0:0:0:0:
387,300,267525,1,2,0:0:0:0:
424,280,267586,2,2,P|376:280|360:288,1,50,14|14,0:0|0:0,0:0:0:0:
268,300,267708,5,2,0:0:0:0:
268,296,267770,1,2,0:0:0:0:
268,292,267831,2,2,L|268:232,1,50,14|2,0:0|0:0,0:0:0:0:
144,284,267953,5,14,0:0:0:0:
116,272,268014,1,2,0:0:0:0:
100,244,268075,1,2,0:0:0:0:
104,216,268136,1,2,0:0:0:0:
120,192,268197,1,2,0:0:0:0:
128,164,268259,1,2,0:0:0:0:
120,136,268320,5,14,0:0:0:0:
160,144,268381,1,10,0:0:0:0:
176,180,268442,1,10,0:0:0:0:
172,220,268503,1,10,0:0:0:0:
148,252,268565,5,14,0:0:0:0:
148,204,268626,1,10,0:0:0:0:
148,156,268687,1,10,0:0:0:0:
152,108,268748,1,10,0:0:0:0:
152,56,268810,2,10,L|152:4,1,50
36,100,268933,5,14,0:0:0:0:
35,134,268994,1,2,0:0:0:0:
34,169,269055,1,2,0:0:0:0:
34,204,269116,1,2,0:0:0:0:
33,239,269177,1,2,0:0:0:0:
32,274,269239,1,2,0:0:0:0:
32,315,269300,5,14,0:0:0:0:
36,315,269361,1,2,0:0:0:0:
41,313,269422,1,2,0:0:0:0:
45,311,269483,1,2,0:0:0:0:
84,272,269544,5,14,0:0:0:0:
80,271,269606,1,2,0:0:0:0:
75,269,269667,1,2,0:0:0:0:
71,267,269728,1,2,0:0:0:0:
89,224,269789,5,14,0:0:0:0:
93,224,269851,1,2,0:0:0:0:
97,221,269912,2,2,L|101:165,3,50
180,156,270156,5,14,0:0:0:0:
184,155,270218,1,2,0:0:0:0:
192,147,270279,1,2,0:0:0:0:
200,135,270340,1,2,0:0:0:0:
204,115,270402,1,2,0:0:0:0:
196,91,270463,1,2,0:0:0:0:
176,71,270525,1,0,0:0:0:0:
140,63,270586,1,0,0:0:0:0:
104,75,270647,2,2,L|68:23,3,50,14|2|2|2,0:0|0:0|0:0|0:0,0:0:0:0:
104,192,270892,5,14,0:0:0:0:
104,200,270953,1,2,0:0:0:0:
108,216,271014,1,2,0:0:0:0:
124,240,271075,1,2,0:0:0:0:
152,252,271136,1,2,0:0:0:0:
192,244,271198,1,2,0:0:0:0:
224,220,271259,2,2,L|240:168,1,50,14|2,0:0|0:0,0:0:0:0:
296,324,271382,2,2,L|284:376,3,50,14|2|2|2,0:0|0:0|0:0|0:0,0:0:0:0:
412,276,271626,5,14,0:0:0:0:
386,248,271687,1,2,0:0:0:0:
350,236,271748,1,2,0:0:0:0:
310,228,271809,1,2,0:0:0:0:
274,208,271872,1,2,0:0:0:0:
254,176,271932,1,2,0:0:0:0:
246,136,271994,1,14,0:0:0:0:
258,96,272055,1,2,0:0:0:0:
294,80,272116,5,2,0:0:0:0:
302,100,272177,1,2,0:0:0:0:
298,120,272238,1,2,0:0:0:0:
286,136,272300,1,2,0:0:0:0:
266,140,272361,5,14,0:0:0:0:
222,128,272422,1,2,0:0:0:0:
178,140,272483,1,2,0:0:0:0:
150,172,272544,1,2,0:0:0:0:
142,216,272605,1,2,0:0:0:0:
150,260,272667,1,2,0:0:0:0:
186,288,272728,1,2,0:0:0:0:
230,300,272789,1,2,0:0:0:0:
274,296,272850,1,2,0:0:0:0:
310,268,272912,1,2,0:0:0:0:
314,224,272973,1,2,0:0:0:0:
298,184,273034,1,2,0:0:0:0:
258,164,273096,5,14,0:0:0:0:
222,136,273157,1,2,0:0:0:0:
202,96,273218,1,2,0:0:0:0:
210,52,273279,1,2,0:0:0:0:
246,24,273340,1,2,0:0:0:0:
286,24,273402,1,2,0:0:0:0:
314,44,273463,1,2,0:0:0:0:
330,68,273524,1,2,0:0:0:0:
334,92,273585,5,14,0:0:0:0:
343,92,273647,1,2,0:0:0:0:
351,90,273708,2,2,L|381:34,1,50
362,256,273831,5,14,0:0:0:0:
362,256,273892,1,2,0:0:0:0:
362,256,273953,2,2,L|298:288,1,50
418,148,274075,5,14,0:0:0:0:
418,148,274137,1,2,0:0:0:0:
418,148,274198,2,2,L|470:160,1,50
482,252,274320,5,14,0:0:0:0:
469,257,274381,1,2,0:0:0:0:
454,256,274442,1,2,0:0:0:0:
440,254,274503,1,2,0:0:0:0:
414,220,274565,5,14,0:0:0:0:
428,225,274626,1,2,0:0:0:0:
443,223,274687,1,2,0:0:0:0:
456,215,274748,1,2,0:0:0:0:
466,180,274810,5,14,0:0:0:0:
458,185,274871,1,2,0:0:0:0:
447,188,274933,1,2,0:0:0:0:
437,189,274993,1,2,0:0:0:0:
420,160,275055,2,2,L|420:108,3,50,14|2|2|2,0:0|0:0|0:0|0:0,0:0:0:0:
310,96,275300,5,14,0:0:0:0:
283,110,275361,1,2,0:0:0:0:
254,117,275422,1,2,0:0:0:0:
224,117,275483,1,2,0:0:0:0:
194,112,275545,5,14,0:0:0:0:
221,124,275606,1,2,0:0:0:0:
249,135,275667,1,2,0:0:0:0:
277,146,275728,1,2,0:0:0:0:
306,160,275790,5,14,0:0:0:0:
266,167,275851,1,2,0:0:0:0:
226,173,275912,1,2,0:0:0:0:
187,179,275973,1,2,0:0:0:0:
146,188,276035,5,14,0:0:0:0:
162,164,276096,1,2,0:0:0:0:
190,160,276157,1,2,0:0:0:0:
214,176,276218,1,2,0:0:0:0:
226,204,276279,1,2,0:0:0:0:
234,232,276341,1,2,0:0:0:0:
246,260,276402,1,2,0:0:0:0:
270,280,276463,1,2,0:0:0:0:
298,288,276524,1,2,0:0:0:0:
326,280,276586,1,2,0:0:0:0:
346,256,276647,1,2,0:0:0:0:
346,228,276708,1,2,0:0:0:0:
335,204,276769,5,14,0:0:0:0:
325,215,276830,1,2,0:0:0:0:
312,222,276891,1,2,0:0:0:0:
297,225,276952,1,2,0:0:0:0:
272,256,277014,5,14,0:0:0:0:
258,253,277075,1,2,0:0:0:0:
243,249,277136,1,2,0:0:0:0:
229,246,277197,1,2,0:0:0:0:
212,208,277259,5,14,0:0:0:0:
196,204,277320,1,2,0:0:0:0:
182,201,277381,1,2,0:0:0:0:
168,199,277442,1,2,0:0:0:0:
136,224,277504,6,10,L|88:208,3,50
196,48,277749,5,14,0:0:0:0:
184,72,277810,1,2,0:0:0:0:
168,88,277871,1,2,0:0:0:0:
148,100,277932,1,2,0:0:0:0:
124,108,277994,1,2,0:0:0:0:
100,108,278055,1,2,0:0:0:0:
76,104,278116,1,2,0:0:0:0:
56,88,278177,1,2,0:0:0:0:
40,68,278239,2,2,L|40:124,3,50,14|2|2|2,0:0|0:0|0:0|0:0,0:0:0:0:
100,292,278484,5,6,0:0:0:0:
196,48,278606,1,6,0:0:0:0:
264,344,278729,5,6,0:0:0:0:
200,48,278851,1,6,0:0:0:0:
260,340,278973,5,14,0:0:0:0:
259,330,279034,1,2,0:0:0:0:
259,320,279095,1,2,0:0:0:0:
258,310,279156,1,2,0:0:0:0:
257,300,279219,1,2,0:0:0:0:
256,290,279279,1,2,0:0:0:0:
254,280,279340,1,2,0:0:0:0:
252,270,279401,1,2,0:0:0:0:
228,252,279463,5,14,0:0:0:0:
241,244,279524,1,2,0:0:0:0:
254,237,279585,1,2,0:0:0:0:
267,229,279646,1,2,0:0:0:0:
272,200,279708,2,6,L|272:80,1,100
128,80,279953,5,6,0:0:0:0:
0,176,280198,2,6,L|104:176,1,100
232,160,280443,5,14,0:0:0:0:
242,170,280504,1,2,0:0:0:0:
253,181,280565,1,2,0:0:0:0:
263,192,280626,1,2,0:0:0:0:
270,205,280687,1,2,0:0:0:0:
274,219,280749,1,2,0:0:0:0:
269,233,280810,1,2,0:0:0:0:
261,246,280871,1,2,0:0:0:0:
253,259,280932,1,2,0:0:0:0:
246,272,280994,1,2,0:0:0:0:
243,286,281055,1,2,0:0:0:0:
243,301,281116,1,2,0:0:0:0:
249,315,281177,5,6,0:0:0:0:
392,220,281300,1,6,0:0:0:0:
328,320,281422,5,6,0:0:0:0:
352,112,281545,1,6,0:0:0:0:
408,324,281667,5,6,0:0:0:0:
276,104,281790,1,6,0:0:0:0:
392,216,281912,5,14,0:0:0:0:
363,216,281973,1,2,0:0:0:0:
334,216,282034,1,2,0:0:0:0:
306,216,282095,1,2,0:0:0:0:
277,216,282156,1,2,0:0:0:0:
249,216,282218,1,2,0:0:0:0:
220,216,282279,1,2,0:0:0:0:
192,216,282340,1,2,0:0:0:0:
163,216,282401,1,2,0:0:0:0:
135,216,282463,1,2,0:0:0:0:
106,216,282524,1,2,0:0:0:0:
77,216,282585,1,2,0:0:0:0:
48,216,282647,2,6,B|84:256|84:256|256:260,1,200
48,216,283137,1,6,0:0:0:0:
230,259,283382,5,14,0:0:0:0:
230,251,283443,1,2,0:0:0:0:
230,243,283504,2,2,L|250:119,1,100
372,128,283749,5,14,0:0:0:0:
372,116,283810,1,2,0:0:0:0:
372,104,283871,2,2,L|384:0,1,100
376,232,284116,6,14,L|416:192,4,50
268,192,284484,2,14,L|288:132,4,50
128,104,284851,5,14,0:0:0:0:
137,121,284912,1,2,0:0:0:0:
145,140,284973,1,2,0:0:0:0:
148,159,285034,1,2,0:0:0:0:
147,179,285095,1,2,0:0:0:0:
142,198,285157,1,2,0:0:0:0:
137,218,285218,1,2,0:0:0:0:
134,238,285279,1,2,0:0:0:0:
134,258,285340,1,2,0:0:0:0:
138,277,285402,1,2,0:0:0:0:
146,295,285463,1,2,0:0:0:0:
158,311,285524,1,2,0:0:0:0:
176,320,285586,2,6,B|208:264|208:264|72:264,1,200
72,264,286075,1,6,0:0:0:0:
192,320,286320,5,14,0:0:0:0:
191,300,286381,1,2,0:0:0:0:
191,280,286442,1,2,0:0:0:0:
191,260,286503,1,2,0:0:0:0:
190,240,286564,1,2,0:0:0:0:
190,220,286626,1,2,0:0:0:0:
190,200,286687,1,2,0:0:0:0:
189,180,286748,1,2,0:0:0:0:
189,160,286809,1,2,0:0:0:0:
189,140,286871,1,2,0:0:0:0:
189,120,286932,1,2,0:0:0:0:
188,100,286993,1,2,0:0:0:0:
188,80,287055,2,6,B|128:112|128:112|128:264,1,200
128,244,287545,1,6,0:0:0:0:
184,80,287790,5,14,0:0:0:0:
202,87,287851,1,2,0:0:0:0:
218,98,287912,1,2,0:0:0:0:
232,113,287973,1,2,0:0:0:0:
243,130,288034,1,2,0:0:0:0:
250,148,288096,1,2,0:0:0:0:
255,168,288157,1,2,0:0:0:0:
259,187,288218,1,2,0:0:0:0:
263,207,288279,1,2,0:0:0:0:
270,226,288341,1,2,0:0:0:0:
281,242,288402,1,2,0:0:0:0:
296,255,288463,1,2,0:0:0:0:
316,256,288525,2,6,B|292:192|292:192|152:192,1,200
160,192,289014,1,6,0:0:0:0:
200,88,289259,5,14,0:0:0:0:
200,88,289320,1,2,0:0:0:0:
200,88,289382,1,2,0:0:0:0:
200,88,289443,1,2,0:0:0:0:
200,88,289504,6,2,L|216:40,3,50
256,200,289749,2,2,L|272:264,3,50
116,172,289994,5,10,0:0:0:0:
116,172,290056,1,10,0:0:0:0:
116,172,290117,1,14,0:0:0:0:
120,176,290361,5,6,0:0:0:0:
460,180,290484,1,6,0:0:0:0:
324,340,290606,1,6,0:0:0:0:
312,56,290728,5,14,0:0:0:0:
303,85,290789,1,2,0:0:0:0:
289,112,290850,1,2,0:0:0:0:
270,134,290911,1,2,0:0:0:0:
244,148,290974,1,2,0:0:0:0:
212,152,291035,1,2,0:0:0:0:
192,136,291096,5,14,0:0:0:0:
218,122,291157,1,2,0:0:0:0:
247,115,291218,1,2,0:0:0:0:
277,116,291279,1,2,0:0:0:0:
304,124,291341,1,2,0:0:0:0:
328,140,291402,1,2,0:0:0:0:
332,164,291463,5,14,0:0:0:0:
318,169,291524,1,2,0:0:0:0:
307,180,291585,1,2,0:0:0:0:
302,194,291646,1,2,0:0:0:0:
296,212,291708,1,2,0:0:0:0:
296,232,291770,1,2,0:0:0:0:
301,255,291831,5,14,0:0:0:0:
315,260,291892,1,2,0:0:0:0:
326,271,291953,1,2,0:0:0:0:
331,285,292014,1,2,0:0:0:0:
333,303,292076,1,2,0:0:0:0:
329,319,292137,1,2,0:0:0:0:
316,328,292198,5,14,0:0:0:0:
333,303,292259,1,2,0:0:0:0:
356,285,292320,1,2,0:0:0:0:
384,274,292381,1,2,0:0:0:0:
412,268,292443,1,2,0:0:0:0:
440,272,292504,1,2,0:0:0:0:
464,284,292565,5,14,0:0:0:0:
464,254,292626,1,2,0:0:0:0:
464,224,292687,1,2,0:0:0:0:
464,194,292748,1,2,0:0:0:0:
464,160,292810,2,10,L|464:96,1,50
336,72,292933,5,14,0:0:0:0:
317,64,292994,1,2,0:0:0:0:
298,59,293055,1,2,0:0:0:0:
278,55,293116,1,2,0:0:0:0:
258,54,293177,1,2,0:0:0:0:
238,55,293239,1,2,0:0:0:0:
220,64,293300,6,10,L|252:128,1,50
256,288,293422,2,10,L|224:224,1,62.5
44,140,293545,2,10,L|84:212,1,62.5
149,222,293667,5,14,0:0:0:0:
173,194,293728,1,2,0:0:0:0:
205,178,293790,1,2,0:0:0:0:
241,170,293850,1,2,0:0:0:0:
277,174,293912,1,2,0:0:0:0:
313,190,293974,1,2,0:0:0:0:
337,218,294035,5,14,0:0:0:0:
300,222,294096,1,2,0:0:0:0:
265,208,294157,1,2,0:0:0:0:
241,180,294218,1,2,0:0:0:0:
232,144,294279,1,2,0:0:0:0:
242,108,294341,1,2,0:0:0:0:
265,78,294402,5,14,0:0:0:0:
265,127,294463,1,2,0:0:0:0:
266,177,294524,1,2,0:0:0:0:
266,227,294585,1,2,0:0:0:0:
267,277,294646,1,2,0:0:0:0:
267,327,294708,1,2,0:0:0:0:
268,380,294770,5,14,0:0:0:0:
281,359,294831,1,2,0:0:0:0:
282,334,294892,1,2,0:0:0:0:
270,312,294953,1,2,0:0:0:0:
248,300,295014,1,2,0:0:0:0:
224,299,295076,1,2,0:0:0:0:
212,324,295137,5,14,0:0:0:0:
212,324,295198,1,2,0:0:0:0:
212,324,295259,2,2,L|224:236,1,62.5
348,192,295382,5,14,0:0:0:0:
344,196,295443,1,2,0:0:0:0:
340,200,295504,2,2,L|332:288,1,62.5
240,104,295627,5,14,0:0:0:0:
240,104,295688,1,2,0:0:0:0:
240,104,295749,2,2,L|220:20,1,62.5
104,160,295872,6,14,L|52:160,1,50
180,160,295994,2,14,L|244:160,1,50
96,160,296116,6,14,L|44:160,1,50
188,160,296238,2,2,L|252:160,5,50,14|2|2|2|2|2,0:0|0:0|0:0|0:0|0:0|0:0,0:0:0:0:
136,104,296606,5,14,0:0:0:0:
320,300,296729,1,0,0:0:0:0:
136,104,296851,5,14,0:0:0:0:
320,300,296974,1,0,0:0:0:0:
184,300,297097,5,14,0:0:0:0:
308,104,297219,1,0,0:0:0:0:
100,48,297341,6,14,P|84:120|88:160,1,100
288,332,297587,2,14,P|280:276|288:228,1,100
240,36,297832,2,14,P|224:136|200:160,1,100
140,192,298076,5,14,0:0:0:0:
100,20,298199,1,2,0:0:0:0:
144,204,298321,5,14,0:0:0:0:
48,24,298444,1,2,0:0:0:0:
148,212,298566,5,14,0:0:0:0:
8,60,298689,1,2,0:0:0:0:
324,176,298811,5,14,0:0:0:0:
136,84,298934,1,2,0:0:0:0:
336,340,299056,1,14,0:0:0:0:
448,112,299178,1,2,0:0:0:0:
8,108,299301,2,14,L|128:112,1,100
296,172,299546,5,14,0:0:0:0:
360,180,299627,1,2,0:0:0:0:
384,244,299709,1,2,0:0:0:0:
344,296,299790,1,2,0:0:0:0:
280,280,299872,1,2,0:0:0:0:
252,220,299954,1,2,0:0:0:0:
252,152,300035,1,2,0:0:0:0:
224,92,300117,1,2,0:0:0:0:
160,68,300199,1,2,0:0:0:0:
96,84,300280,5,14,0:0:0:0:
148,136,300361,1,2,0:0:0:0:
216,104,300443,1,2,0:0:0:0:
232,32,300525,5,14,0:0:0:0:
172,84,300606,1,2,0:0:0:0:
184,164,300688,1,2,0:0:0:0:
244,216,300770,2,14,L|316:132,1,100
368,44,301015,5,6,0:0:0:0:
240,224,301138,1,6,0:0:0:0:
264,32,301259,1,6,0:0:0:0:
336,220,301383,1,6,0:0:0:0:
200,120,301504,1,6,0:0:0:0:
396,140,301627,1,6,0:0:0:0:
204,126,301750,5,14,0:0:0:0:
210,134,301811,1,2,0:0:0:0:
214,142,301872,1,2,0:0:0:0:
218,152,301933,1,2,0:0:0:0:
221,161,301994,1,2,0:0:0:0:
222,171,302056,1,2,0:0:0:0:
222,181,302117,1,2,0:0:0:0:
221,191,302178,1,2,0:0:0:0:
216,202,302240,5,14,0:0:0:0:
243,188,302301,1,2,0:0:0:0:
272,182,302362,1,2,0:0:0:0:
302,184,302423,1,2,0:0:0:0:
324,202,302485,5,14,0:0:0:0:
296,226,302546,1,2,0:0:0:0:
268,230,302607,1,2,0:0:0:0:
244,216,302668,1,2,0:0:0:0:
226,195,302729,1,2,0:0:0:0:
217,168,302791,1,2,0:0:0:0:
211,140,302852,1,2,0:0:0:0:
205,111,302913,1,2,0:0:0:0:
195,85,302974,5,14,0:0:0:0:
180,74,303036,1,2,0:0:0:0:
160,74,303097,1,2,0:0:0:0:
144,82,303158,1,2,0:0:0:0:
136,98,303219,5,14,0:0:0:0:
156,122,303280,1,2,0:0:0:0:
192,126,303341,1,2,0:0:0:0:
228,110,303402,1,2,0:0:0:0:
260,90,303463,1,2,0:0:0:0:
296,70,303525,1,2,0:0:0:0:
336,74,303586,2,2,L|344:18,5,50,14|2|2|2|2|2,0:0|0:0|0:0|0:0|0:0|0:0,0:0:0:0:
220,156,303954,5,14,0:0:0:0:
205,148,304015,1,2,0:0:0:0:
193,135,304076,1,2,0:0:0:0:
183,121,304137,1,2,0:0:0:0:
179,101,304199,2,14,L|179:19,1,50
236,176,304321,5,14,0:0:0:0:
248,191,304382,1,2,0:0:0:0:
258,208,304443,1,2,0:0:0:0:
267,226,304504,1,2,0:0:0:0:
273,245,304565,1,2,0:0:0:0:
278,265,304627,1,2,0:0:0:0:
276,292,304688,5,14,0:0:0:0:
257,257,304749,1,2,0:0:0:0:
240,228,304811,2,2,L|216:184,1,50
372,320,304934,5,14,0:0:0:0:
399,291,304994,1,2,0:0:0:0:
428,268,305055,2,2,L|476:220,1,50
292,176,305178,5,14,0:0:0:0:
309,138,305239,1,2,0:0:0:0:
326,101,305300,2,2,L|349:44,1,50
440,88,305423,5,14,0:0:0:0:
456,128,305484,1,2,0:0:0:0:
452,176,305545,1,2,0:0:0:0:
432,220,305606,1,2,0:0:0:0:
404,256,305667,1,2,0:0:0:0:
360,272,305729,1,2,0:0:0:0:
316,268,305791,1,2,0:0:0:0:
276,244,305851,1,2,0:0:0:0:
256,200,305912,5,14,0:0:0:0:
283,213,305974,1,2,0:0:0:0:
304,240,306035,1,2,0:0:0:0:
308,268,306096,1,2,0:0:0:0:
312,300,306157,5,14,0:0:0:0:
323,251,306218,1,2,0:0:0:0:
335,202,306279,1,2,0:0:0:0:
347,154,306340,1,2,0:0:0:0:
359,105,306401,1,2,0:0:0:0:
370,57,306463,1,2,0:0:0:0:
384,8,306525,2,2,L|328:4,1,50,14|2,0:0|0:0,0:0:0:0:
84,120,306647,5,14,0:0:0:0:
84,106,306708,1,2,0:0:0:0:
84,92,306770,2,2,L|98:34,1,50
204,8,306893,5,14,0:0:0:0:
192,56,306954,1,2,0:0:0:0:
200,100,307015,1,2,0:0:0:0:
228,136,307076,1,2,0:0:0:0:
262,159,307137,1,2,0:0:0:0:
300,171,307199,1,2,0:0:0:0:
339,181,307260,1,2,0:0:0:0:
377,192,307321,1,2,0:0:0:0:
414,208,307382,1,2,0:0:0:0:
444,234,307444,1,2,0:0:0:0:
460,270,307505,1,2,0:0:0:0:
460,310,307566,1,2,0:0:0:0:
448,348,307627,5,14,0:0:0:0:
388,337,307688,1,10,0:0:0:0:
329,327,307749,1,10,0:0:0:0:
270,317,307810,1,10,0:0:0:0:
211,307,307871,1,10,0:0:0:0:
152,297,307933,1,10,0:0:0:0:
96,284,307994,6,10,B|136:244|136:244|208:252,1,100
284,256,308239,1,10,0:0:0:0:
92,288,308361,5,14,0:0:0:0:
83,279,308422,1,2,0:0:0:0:
76,268,308483,1,2,0:0:0:0:
72,255,308544,1,2,0:0:0:0:
73,241,308605,1,2,0:0:0:0:
77,229,308667,1,2,0:0:0:0:
85,218,308728,1,2,0:0:0:0:
96,210,308789,1,2,0:0:0:0:
108,204,308852,5,14,0:0:0:0:
77,212,308913,1,2,0:0:0:0:
46,203,308974,1,2,0:0:0:0:
21,174,309035,1,2,0:0:0:0:
11,126,309097,5,14,0:0:0:0:
64,124,309157,1,2,0:0:0:0:
120,124,309218,1,2,0:0:0:0:
176,124,309279,1,2,0:0:0:0:
232,124,309342,1,2,0:0:0:0:
284,124,309402,1,2,0:0:0:0:
340,120,309463,6,2,P|364:96|372:64,3,50,14|2|14|2,0:0|0:0|0:0|0:0,0:0:0:0:
384,272,309708,2,2,P|360:296|332:308,1,50
120,40,309832,5,14,0:0:0:0:
88,88,309893,1,2,0:0:0:0:
88,148,309954,1,2,0:0:0:0:
132,188,310015,1,2,0:0:0:0:
192,196,310076,1,2,0:0:0:0:
252,192,310138,1,2,0:0:0:0:
301,167,310199,1,14,0:0:0:0:
360,160,310260,1,2,0:0:0:0:
420,168,310321,1,2,0:0:0:0:
464,208,310383,1,2,0:0:0:0:
480,264,310443,1,0,0:0:0:0:
464,320,310504,1,0,0:0:0:0:
416,356,310566,5,14,0:0:0:0:
416,351,310627,1,10,0:0:0:0:
416,346,310688,1,10,0:0:0:0:
416,341,310749,1,10,0:0:0:0:
416,336,310810,1,10,0:0:0:0:
416,331,310872,1,10,0:0:0:0:
388,304,310933,5,14,0:0:0:0:
388,299,310994,1,10,0:0:0:0:
388,294,311055,1,10,0:0:0:0:
388,289,311117,1,10,0:0:0:0:
388,284,311178,1,10,0:0:0:0:
388,279,311239,1,10,0:0:0:0:
356,252,311300,5,14,0:0:0:0:
216,282,311545,1,6,0:0:0:0:
336,72,311790,1,6,0:0:0:0:
216,282,312035,1,14,0:0:0:0:
336,80,312280,5,10,0:0:0:0:
336,95,312341,1,10,0:0:0:0:
336,110,312402,1,10,0:0:0:0:
336,125,312463,1,10,0:0:0:0:
308,152,312525,5,10,0:0:0:0:
308,140,312587,1,10,0:0:0:0:
308,128,312648,1,10,0:0:0:0:
308,116,312709,1,10,0:0:0:0:
308,104,312770,2,2,B|236:140|236:140|236:240,1,175
336,324,313749,5,14,0:0:0:0:
336,324,313810,1,10,0:0:0:0:
336,324,313872,2,14,P|360:300|380:272,1,50
380,208,313994,5,14,0:0:0:0:
80,320,314116,1,14,0:0:0:0:
352,40,314239,1,14,0:0:0:0:
344,140,315526,6,0,B|388:168|360:64|312:104|296:136|316:172|320:188|320:188,1,133.333333333333
332,264,316449,2,2,P|272:268|208:240,1,100
208,140,318295,1,2,0:0:0:0:
104,268,319218,2,2,L|104:160,1,100
224,168,321064,5,2,0:0:0:0:
236,44,321987,2,2,L|236:152,1,100
384,232,323833,2,2,P|344:216|272:216,1,100
136,272,325679,2,2,P|160:252|240:256,1,100
292,296,327471,1,2,0:0:0:0:
232,176,328316,1,2,0:0:0:0:
104,232,329268,6,2,B|148:188|160:128|180:88|248:80,1,200
312,128,331173,2,2,B|284:188|296:248|216:312,1,200
136,184,333048,1,2,0:0:0:0:
212,312,333971,1,2,0:0:0:0:
212,312,334894,1,2,0:0:0:0:
300,316,335817,6,2,B|344:240|292:160|312:108,2,200
204,312,338586,6,2,B|144:272|116:200|20:208,1,200
264,304,340461,2,2,B|292:232|344:208|392:196|400:180|420:144,1,200
232,68,342295,1,2,0:0:0:0:
232,264,343177,5,2,0:0:0:0:
256,192,343398,12,2,350617,0:0:0:0:
