osu file format v14

[General]
AudioFilename: audio.mp3
AudioLeadIn: 0
PreviewTime: 130945
Countdown: 0
SampleSet: Normal
StackLeniency: 0.2
Mode: 0
LetterboxInBreaks: 0
WidescreenStoryboard: 0

[Editor]
DistanceSpacing: 0.1
BeatDivisor: 8
GridSize: 8
TimelineZoom: 2

[Metadata]
Title:Within the Dead Horizon
TitleUnicode:Within the Dead Horizon
Artist:Inferi
ArtistUnicode:Inferi
Creator:OlmyBootycheeks
Version:Transient Souls
Source:
Tags:metal symphonic metal death metal melodic death metal symphonic death metal tech death technical death metal thrash metal Nashville
BeatmapID:1704602
BeatmapSetID:812713

[Difficulty]
HPDrainRate:4.5
CircleSize:4
OverallDifficulty:10
ApproachRate:10
SliderMultiplier:2.2
SliderTickRate:1

[Events]
//Background and Video events
0,0,"riverofwoe.jpg",0,0
//Break Periods
//Storyboard Layer 0 (Background)
//Storyboard Layer 1 (Fail)
//Storyboard Layer 2 (Pass)
//Storyboard Layer 3 (Foreground)
//Storyboard Sound Samples

[TimingPoints]
13162,244.897959183673,3,1,0,5,1,0
13162,-500,3,1,0,5,0,0
22774,244.897959183673,3,1,0,5,1,0
24978,-333.333333333333,3,1,0,5,0,0
29462,244.897959183673,3,1,0,5,1,0
30931,-333.333333333333,3,1,0,5,0,0
35466,244.897959183673,3,1,0,5,1,0
36935,-333.333333333333,3,1,0,5,0,0
48568,-333.333333333333,3,1,0,5,0,0
48721,244.897959183673,3,1,1,40,1,0
81047,-125,3,1,1,40,0,0
83741,-83.3333333333333,3,1,1,40,0,0
84720,-100,3,1,1,40,0,0
95741,-83.3333333333333,3,1,1,40,0,0
106761,-83.3333333333333,3,1,1,30,0,0
106823,-83.3333333333333,3,1,1,35,0,0
106884,-83.3333333333333,3,1,1,40,0,0
106945,-83.3333333333333,3,1,1,45,0,0
107006,-83.3333333333333,3,1,1,50,0,0
107067,-83.3333333333333,3,1,1,55,0,0
107129,-83.3333333333333,3,1,1,60,0,0
107496,-83.3333333333333,3,1,1,40,0,1
118516,-100,3,1,1,30,0,0
118700,-100,3,2,3,40,0,0
118761,-100,3,1,1,30,0,0
118945,-100,3,2,3,40,0,0
119006,-100,3,1,1,30,0,0
119190,-100,3,2,3,40,0,0
119251,-83.3333333333333,3,1,1,40,0,1
123659,-71.4285714285714,3,1,1,40,0,1
123904,-83.3333333333333,3,1,1,40,0,1
124149,-100,3,1,1,40,0,1
124394,-83.3333333333333,3,1,1,40,0,1
131006,-100,3,1,1,40,0,0
135904,-71.4285714285714,3,1,1,40,0,0
136149,-100,3,1,1,40,0,0
136639,-71.4285714285714,3,1,1,40,0,0
136884,-100,3,1,1,40,0,0
142761,-83.3333333333333,3,1,1,40,0,1
144965,-100,3,1,1,40,0,0
145700,-83.3333333333333,3,1,1,40,0,1
147904,-100,3,1,1,40,0,0
148639,-83.3333333333333,3,1,1,40,0,1
150843,-100,3,1,1,40,0,0
151578,-83.3333333333333,3,1,1,40,0,1
153047,-100,3,1,1,40,0,0
154516,-83.3333333333333,3,1,1,40,0,1
157455,-71.4285714285714,3,1,1,40,0,1
158190,-83.3333333333333,3,1,1,40,0,1
158925,-71.4285714285714,3,1,1,40,0,1
159659,-83.3333333333333,3,1,1,40,0,1
164802,-100,3,1,1,40,0,0
166272,-83.3333333333333,3,1,1,40,0,1
170680,-100,3,1,1,40,0,0
172149,-83.3333333333333,3,1,1,40,0,1
178027,-100,3,1,1,40,0,0
189782,-83.3333333333333,3,1,1,40,0,1
195659,-100,3,1,1,40,0,0
197863,-83.3333333333333,3,1,1,40,0,0
198598,-100,3,1,1,40,0,0
200802,-71.4285714285714,3,1,1,40,0,0
201537,-83.3333333333333,3,1,1,40,0,1
222108,-71.4285714285714,3,1,1,40,0,0
222843,-83.3333333333333,3,1,1,40,0,0
223578,-100,3,1,1,40,0,0
225047,-166.666666666667,3,1,1,40,0,0
229455,-166.666666666667,3,2,3,40,0,0
230190,-166.666666666667,3,2,0,40,0,0
230925,-125,3,1,1,60,0,0
232027,-125,3,2,0,20,0,0
233129,-125,3,1,1,60,0,0
234231,-125,3,2,0,30,0,0
235333,-250.000000000001,3,2,0,30,0,0
236006,-250.000000000001,3,2,3,30,0,0
236067,-166.666666666667,3,2,0,30,0,0
236741,-166.666666666667,3,2,3,30,0,0
236802,-125,3,1,1,60,0,0
241210,-125,3,1,1,50,0,0
241700,-125,3,1,1,40,0,0
241945,-125,3,1,1,30,0,0
242190,-125,3,1,1,20,0,0
242435,-125,3,1,1,10,0,0
242680,-166.666666666667,3,1,1,40,0,0
243353,-166.666666666667,3,2,3,40,0,0
243414,-166.666666666667,3,1,1,40,0,0
263251,-125,3,1,1,40,0,0
265455,-83.3333333333333,3,1,1,40,0,0
266190,-71.4285714285714,3,1,1,40,0,0
266925,-62.5,3,1,1,40,0,0
267659,-71.4285714285714,3,1,1,40,0,1
279414,-62.5,3,1,1,40,0,1
280884,-71.4285714285714,3,1,1,40,0,1
302925,-71.4285714285714,3,1,1,40,0,1
314680,-100,3,1,1,40,0,0

[Colours]
Combo1 : 128,128,128
Combo2 : 128,64,64
Combo3 : 255,128,0
Combo4 : 64,0,0
Combo5 : 128,64,0
Combo6 : 192,192,192

[HitObjects]
131,146,13162,69,0,0:0:0:0:
131,146,13896,1,0,0:0:0:0:
321,81,14631,5,0,0:0:0:0:
248,167,15366,69,0,0:0:0:0:
248,167,16100,1,0,0:0:0:0:
248,167,16835,1,0,0:0:0:0:
313,327,17570,5,0,0:0:0:0:
131,284,18304,69,0,0:0:0:0:
245,223,19039,6,0,P|220:165|157:157,1,132
157,157,20508,1,0,0:0:0:0:
157,157,21243,1,0,0:0:0:0:
157,157,21978,1,0,0:0:0:0:
248,86,22774,69,0,0:0:0:0:
272,146,23508,1,0,0:0:0:0:
257,209,24243,1,0,0:0:0:0:
433,92,24978,6,0,P|427:128|383:64,1,197.99999395752
385,63,26447,1,0,0:0:0:0:
385,63,27182,1,0,0:0:0:0:
219,111,27916,69,0,0:0:0:0:
219,111,28651,1,0,0:0:0:0:
294,269,29462,5,0,0:0:0:0:
294,269,30196,1,0,0:0:0:0:
109,252,30931,70,0,P|94:272|179:272,1,197.99999395752
179,275,32400,1,0,0:0:0:0:
179,275,33135,1,0,0:0:0:0:
321,183,33870,5,0,0:0:0:0:
321,183,34604,1,0,0:0:0:0:
179,299,35466,69,0,0:0:0:0:
412,261,36200,5,0,0:0:0:0:
226,318,36935,70,0,P|182:283|154:146,1,197.99999395752
152,150,38404,1,0,0:0:0:0:
152,150,39139,1,0,0:0:0:0:
56,311,39874,5,0,0:0:0:0:
204,289,40608,1,0,0:0:0:0:
352,267,41343,1,0,0:0:0:0:
56,311,42078,69,0,0:0:0:0:
77,159,42812,6,0,P|74:92|154:139,1,197.99999395752
155,133,44282,1,0,0:0:0:0:
155,133,45017,1,0,0:0:0:0:
246,241,45751,5,0,0:0:0:0:
256,192,45812,12,0,48568,1:0:0:0:
376,126,48721,5,12,1:0:0:0:
360,123,48782,1,0,1:0:0:0:
344,120,48843,1,0,1:0:0:0:
328,117,48904,1,0,1:0:0:0:
312,114,48965,1,0,1:0:0:0:
295,111,49027,1,0,1:0:0:0:
279,108,49088,1,0,1:0:0:0:
263,107,49149,1,0,1:0:0:0:
248,113,49210,1,0,1:0:0:0:
237,126,49271,1,0,1:0:0:0:
234,141,49332,1,0,1:0:0:0:
238,157,49394,1,0,1:0:0:0:
249,233,49455,5,8,0:0:0:0:
233,234,49516,1,0,0:0:0:0:
217,231,49577,1,0,0:0:0:0:
201,224,49638,1,0,0:0:0:0:
124,209,49700,5,8,0:0:0:0:
123,225,49761,1,0,0:0:0:0:
126,241,49822,1,0,0:0:0:0:
133,257,49883,1,0,0:0:0:0:
121,334,49945,5,8,0:0:0:0:
105,331,50006,1,0,0:0:0:0:
91,324,50067,1,0,0:0:0:0:
77,313,50128,1,0,0:0:0:0:
30,257,50190,5,12,0:0:0:0:
18,239,50251,1,0,0:0:0:0:
12,218,50312,1,0,0:0:0:0:
12,196,50373,1,0,0:0:0:0:
19,175,50434,1,0,0:0:0:0:
31,157,50496,1,0,0:0:0:0:
42,126,50557,5,8,0:0:0:0:
63,134,50618,1,0,0:0:0:0:
84,139,50679,1,0,0:0:0:0:
106,143,50740,1,0,0:0:0:0:
128,145,50801,1,0,0:0:0:0:
150,145,50863,1,0,0:0:0:0:
182,136,50925,6,0,P|222:134|250:140,3,55,2|0|0|0,0:0|0:0|0:0|0:0,0:0:0:0:
109,187,51169,2,0,P|69:185|41:191,3,55,2|0|0|0,0:0|0:0|0:0|0:0,0:0:0:0:
156,264,51414,2,0,P|190:235|199:205,3,55,2|0|0|0,0:0|0:0|0:0|0:0,0:0:0:0:
79,323,51659,5,12,0:0:0:0:
90,335,51720,1,0,0:0:0:0:
103,346,51781,1,0,0:0:0:0:
117,353,51842,1,0,0:0:0:0:
133,356,51903,1,0,0:0:0:0:
149,357,51965,1,0,0:0:0:0:
166,353,52027,1,0,0:0:0:0:
182,349,52088,1,0,0:0:0:0:
199,347,52149,1,0,0:0:0:0:
215,347,52210,1,0,0:0:0:0:
231,348,52271,1,0,0:0:0:0:
247,352,52333,1,0,0:0:0:0:
315,370,52394,5,8,0:0:0:0:
319,354,52455,1,0,0:0:0:0:
321,337,52516,1,0,0:0:0:0:
319,321,52577,1,0,0:0:0:0:
315,305,52638,1,0,0:0:0:0:
308,290,52700,1,0,0:0:0:0:
298,277,52761,1,0,0:0:0:0:
286,266,52822,1,0,0:0:0:0:
274,254,52884,1,2,0:0:0:0:
277,237,52945,1,0,0:0:0:0:
285,223,53006,1,0,0:0:0:0:
297,212,53067,1,0,0:0:0:0:
358,163,53129,5,12,0:0:0:0:
375,135,53190,1,0,0:0:0:0:
375,102,53251,1,0,0:0:0:0:
357,75,53312,1,0,0:0:0:0:
328,61,53373,1,0,0:0:0:0:
296,65,53435,1,0,0:0:0:0:
224,92,53496,5,12,0:0:0:0:
193,104,53557,1,0,0:0:0:0:
162,116,53618,1,0,0:0:0:0:
132,129,53679,1,0,0:0:0:0:
101,141,53740,1,0,0:0:0:0:
70,153,53802,1,0,0:0:0:0:
2,188,53863,5,8,0:0:0:0:
0,209,53924,1,0,0:0:0:0:
0,230,53985,1,0,0:0:0:0:
13,248,54046,1,0,0:0:0:0:
78,291,54108,5,8,0:0:0:0:
109,281,54169,1,0,0:0:0:0:
141,271,54230,1,0,0:0:0:0:
172,262,54291,1,0,0:0:0:0:
246,236,54353,5,8,0:0:0:0:
278,230,54414,1,0,0:0:0:0:
309,239,54475,1,0,0:0:0:0:
333,262,54536,1,0,0:0:0:0:
396,307,54598,5,12,0:0:0:0:
385,319,54659,1,0,0:0:0:0:
373,330,54720,1,0,0:0:0:0:
359,339,54781,1,0,0:0:0:0:
344,345,54842,1,0,0:0:0:0:
328,350,54904,1,0,0:0:0:0:
311,351,54965,1,0,0:0:0:0:
295,350,55026,1,0,0:0:0:0:
279,346,55087,1,0,0:0:0:0:
263,340,55149,1,0,0:0:0:0:
249,332,55210,1,0,0:0:0:0:
236,321,55271,1,0,0:0:0:0:
204,310,55333,6,0,P|175:302|133:313,3,55,2|0|2|0,0:0|0:0|0:0|0:0,0:0:0:0:
113,231,55578,2,0,P|79:266|77:278,3,55,2|0|2|0,0:0|0:0|0:0|0:0,0:0:0:0:
197,223,55823,2,0,L|263:239,3,55,2|0|2|0,0:0|0:0|0:0|0:0,0:0:0:0:
138,156,56067,5,8,0:0:0:0:
124,148,56128,1,0,0:0:0:0:
108,144,56189,1,0,0:0:0:0:
92,143,56250,1,0,0:0:0:0:
75,146,56311,1,0,0:0:0:0:
60,151,56373,1,0,0:0:0:0:
46,161,56434,1,0,0:0:0:0:
35,172,56495,1,0,0:0:0:0:
26,186,56556,1,0,0:0:0:0:
21,202,56618,1,0,0:0:0:0:
19,218,56679,1,0,0:0:0:0:
21,235,56740,1,0,0:0:0:0:
17,312,56802,5,8,0:0:0:0:
49,312,56863,1,0,0:0:0:0:
79,298,56924,1,0,0:0:0:0:
99,272,56985,1,0,0:0:0:0:
177,268,57047,5,8,0:0:0:0:
194,240,57108,1,0,0:0:0:0:
196,207,57169,1,0,0:0:0:0:
184,177,57230,1,0,0:0:0:0:
122,128,57292,5,0,0:0:0:0:
143,102,57353,1,0,0:0:0:0:
172,88,57414,1,0,0:0:0:0:
205,88,57475,1,8,0:0:0:0:
281,104,57537,5,12,0:0:0:0:
277,136,57598,1,0,0:0:0:0:
273,169,57659,1,0,0:0:0:0:
270,202,57720,1,0,0:0:0:0:
266,235,57781,1,0,0:0:0:0:
263,268,57843,1,0,0:0:0:0:
260,300,57904,1,0,0:0:0:0:
268,331,57965,1,0,0:0:0:0:
293,352,58026,1,0,0:0:0:0:
325,355,58087,1,0,0:0:0:0:
354,338,58148,1,0,0:0:0:0:
368,309,58210,1,0,0:0:0:0:
380,278,58272,6,0,L|397:218,3,55,2|0|2|0,0:0|0:0|0:0|0:0,0:0:0:0:
299,322,58516,2,0,L|281:381,3,55,2|0|2|0,0:0|0:0|0:0|0:0,0:0:0:0:
304,234,58761,2,0,P|277:235|246:248,3,55,2|0|2|0,0:0|0:0|0:0|0:0,0:0:0:0:
216,314,59006,5,12,0:0:0:0:
196,303,59067,1,0,0:0:0:0:
182,287,59128,1,0,0:0:0:0:
173,267,59189,1,0,0:0:0:0:
171,245,59250,1,0,0:0:0:0:
175,223,59312,1,0,0:0:0:0:
204,190,59374,5,12,0:0:0:0:
209,169,59436,1,0,0:0:0:0:
207,147,59497,1,0,0:0:0:0:
198,127,59558,1,0,0:0:0:0:
183,111,59619,1,0,0:0:0:0:
164,100,59680,1,0,0:0:0:0:
134,86,59741,5,8,0:0:0:0:
134,113,59802,1,0,0:0:0:0:
134,140,59863,1,0,0:0:0:0:
135,168,59924,1,0,0:0:0:0:
135,195,59985,1,0,0:0:0:0:
136,223,60047,1,0,0:0:0:0:
136,250,60108,1,0,0:0:0:0:
140,278,60169,1,0,0:0:0:0:
154,301,60230,1,0,0:0:0:0:
177,315,60291,1,0,0:0:0:0:
204,318,60352,1,0,0:0:0:0:
230,309,60414,1,0,0:0:0:0:
293,263,60476,5,12,0:0:0:0:
269,240,60537,1,0,0:0:0:0:
239,228,60598,1,0,0:0:0:0:
206,228,60659,1,0,0:0:0:0:
176,241,60720,1,0,0:0:0:0:
153,265,60782,1,0,0:0:0:0:
132,290,60843,6,0,P|109:308|64:311,1,55,8|0,0:0|0:0,0:0:0:0:
19,263,60965,2,0,P|42:245|87:242,1,55,8|0,0:0|0:0,0:0:0:0:
148,223,61088,2,0,L|211:211,1,55,8|0,0:0|0:0,0:0:0:0:
282,196,61210,5,8,0:0:0:0:
303,192,61271,1,0,0:0:0:0:
325,188,61332,1,0,0:0:0:0:
347,185,61393,1,0,0:0:0:0:
401,197,61455,5,8,0:0:0:0:
406,175,61516,1,0,0:0:0:0:
402,154,61577,1,0,0:0:0:0:
389,136,61638,1,0,0:0:0:0:
392,92,61700,5,8,0:0:0:0:
372,102,61761,1,0,0:0:0:0:
351,108,61822,1,0,0:0:0:0:
329,108,61883,1,0,0:0:0:0:
297,95,61945,5,8,0:0:0:0:
280,96,62006,1,0,0:0:0:0:
264,101,62067,1,0,0:0:0:0:
250,110,62128,1,0,0:0:0:0:
238,121,62189,1,0,0:0:0:0:
229,135,62251,1,0,0:0:0:0:
224,150,62312,1,0,0:0:0:0:
222,167,62373,1,0,0:0:0:0:
223,183,62434,1,0,0:0:0:0:
229,198,62496,1,0,0:0:0:0:
238,212,62557,1,0,0:0:0:0:
249,224,62618,1,0,0:0:0:0:
268,251,62680,5,8,0:0:0:0:
257,249,62741,1,0,0:0:0:0:
246,248,62802,1,0,0:0:0:0:
235,246,62863,1,0,0:0:0:0:
224,245,62924,1,2,0:0:0:0:
213,243,62986,1,0,0:0:0:0:
202,242,63047,1,0,0:0:0:0:
191,240,63108,1,0,0:0:0:0:
180,239,63169,1,2,0:0:0:0:
169,237,63231,1,0,0:0:0:0:
159,236,63292,1,0,0:0:0:0:
148,234,63353,1,0,0:0:0:0:
137,233,63414,5,8,0:0:0:0:
117,222,63475,1,0,0:0:0:0:
102,206,63536,1,0,0:0:0:0:
92,187,63597,1,0,0:0:0:0:
89,165,63658,1,0,0:0:0:0:
93,144,63720,1,0,0:0:0:0:
103,124,63781,1,0,0:0:0:0:
119,109,63842,1,0,0:0:0:0:
139,99,63903,1,0,0:0:0:0:
160,96,63965,1,0,0:0:0:0:
182,100,64026,1,0,0:0:0:0:
201,110,64087,1,0,0:0:0:0:
219,124,64149,5,8,0:0:0:0:
258,143,64210,1,0,0:0:0:0:
301,146,64271,1,0,0:0:0:0:
342,130,64332,1,0,0:0:0:0:
377,103,64394,5,8,0:0:0:0:
363,144,64455,1,0,0:0:0:0:
358,188,64516,1,0,0:0:0:0:
363,232,64577,1,0,0:0:0:0:
378,274,64639,5,8,0:0:0:0:
380,316,64700,1,0,0:0:0:0:
351,347,64761,1,0,0:0:0:0:
308,346,64822,1,0,0:0:0:0:
271,320,64884,5,8,0:0:0:0:
255,313,64945,1,0,0:0:0:0:
239,310,65006,1,0,0:0:0:0:
223,308,65067,1,0,0:0:0:0:
206,310,65128,1,0,0:0:0:0:
190,314,65190,1,0,0:0:0:0:
175,319,65251,1,0,0:0:0:0:
160,326,65312,1,0,0:0:0:0:
143,328,65373,1,0,0:0:0:0:
127,326,65434,1,0,0:0:0:0:
112,320,65495,1,0,0:0:0:0:
99,310,65557,1,0,0:0:0:0:
88,298,65618,6,0,P|68:259|74:240,1,55,2|0,0:0|0:0,0:0:0:0:
87,174,65741,2,0,L|100:110,1,55,2|0,0:0|0:0,0:0:0:0:
117,45,65863,2,0,P|157:70|186:69,3,55,2|0|0|0,0:0|0:0|0:0|0:0,0:0:0:0:
224,128,66108,2,0,P|184:153|155:152,3,55,2|0|0|0,0:0|0:0|0:0|0:0,0:0:0:0:
111,205,66353,5,12,0:0:0:0:
127,219,66414,1,0,0:0:0:0:
145,231,66475,1,0,0:0:0:0:
166,239,66536,1,0,0:0:0:0:
188,242,66597,1,0,0:0:0:0:
210,242,66659,1,0,0:0:0:0:
231,237,66720,1,0,0:0:0:0:
251,229,66781,1,0,0:0:0:0:
269,216,66842,1,0,0:0:0:0:
285,201,66904,1,0,0:0:0:0:
297,183,66965,1,0,0:0:0:0:
306,163,67026,1,0,0:0:0:0:
317,143,67088,6,0,P|324:113|337:89,3,55,2|0|2|0,0:0|0:0|0:0|0:0,0:0:0:0:
408,160,67333,2,0,L|440:89,3,55,2|0|2|0,0:0|0:0|0:0|0:0,0:0:0:0:
449,236,67578,2,0,P|403:247|373:238,3,55,2|0|2|0,0:0|0:0|0:0|0:0,0:0:0:0:
312,243,67823,5,8,0:0:0:0:
295,241,67884,1,0,0:0:0:0:
279,240,67945,1,0,0:0:0:0:
262,238,68006,1,0,0:0:0:0:
246,237,68067,1,0,0:0:0:0:
229,236,68129,1,0,0:0:0:0:
213,234,68190,1,0,0:0:0:0:
196,233,68251,1,0,0:0:0:0:
180,232,68312,1,0,0:0:0:0:
163,230,68374,1,0,0:0:0:0:
147,229,68435,1,0,0:0:0:0:
131,228,68496,1,0,0:0:0:0:
98,232,68557,5,8,0:0:0:0:
70,231,68618,1,0,0:0:0:0:
45,220,68679,1,0,0:0:0:0:
25,202,68740,1,0,0:0:0:0:
28,163,68802,5,8,0:0:0:0:
35,136,68863,1,0,0:0:0:0:
43,110,68924,1,0,0:0:0:0:
50,83,68985,1,0,0:0:0:0:
100,119,69047,5,8,0:0:0:0:
123,132,69108,1,0,0:0:0:0:
150,138,69169,1,0,0:0:0:0:
178,136,69230,1,0,0:0:0:0:
207,120,69292,5,8,0:0:0:0:
222,112,69353,1,0,0:0:0:0:
238,108,69414,1,0,0:0:0:0:
254,107,69475,1,0,0:0:0:0:
270,109,69536,1,0,0:0:0:0:
286,115,69598,1,0,0:0:0:0:
299,124,69659,1,0,0:0:0:0:
311,136,69720,1,0,0:0:0:0:
320,150,69781,1,0,0:0:0:0:
325,165,69843,1,0,0:0:0:0:
327,181,69904,1,0,0:0:0:0:
326,198,69965,1,0,0:0:0:0:
325,214,70027,5,8,0:0:0:0:
308,235,70088,1,0,0:0:0:0:
283,247,70149,1,0,0:0:0:0:
256,247,70210,1,0,0:0:0:0:
231,234,70272,5,8,0:0:0:0:
203,230,70333,1,0,0:0:0:0:
177,237,70394,1,0,0:0:0:0:
155,253,70455,1,0,0:0:0:0:
139,275,70516,5,8,0:0:0:0:
112,271,70577,1,0,0:0:0:0:
90,255,70638,1,0,0:0:0:0:
78,231,70699,1,0,0:0:0:0:
63,207,70761,5,12,0:0:0:0:
73,187,70822,1,0,0:0:0:0:
86,170,70883,1,0,0:0:0:0:
102,155,70944,1,0,0:0:0:0:
121,143,71005,1,0,0:0:0:0:
141,136,71067,1,0,0:0:0:0:
163,132,71128,1,0,0:0:0:0:
185,132,71189,1,0,0:0:0:0:
207,137,71250,1,0,0:0:0:0:
227,145,71312,1,0,0:0:0:0:
245,157,71373,1,0,0:0:0:0:
261,172,71434,1,0,0:0:0:0:
275,188,71496,6,0,L|316:228,3,55,2|0|0|0,0:0|0:0|0:0|0:0,0:0:0:0:
297,301,71741,2,0,L|338:341,3,55,2|0|2|0,0:0|0:0|0:0|0:0,0:0:0:0:
188,309,71986,2,0,L|229:349,3,55,2|0|0|0,0:0|0:0|0:0|0:0,0:0:0:0:
172,225,72231,5,8,0:0:0:0:
182,227,72292,1,0,0:0:0:0:
193,227,72353,1,0,0:0:0:0:
204,227,72414,1,0,0:0:0:0:
215,225,72475,1,0,0:0:0:0:
226,223,72537,1,0,0:0:0:0:
236,219,72598,1,0,0:0:0:0:
246,213,72659,1,0,0:0:0:0:
255,207,72720,1,0,0:0:0:0:
263,200,72782,1,0,0:0:0:0:
270,192,72843,1,0,0:0:0:0:
277,183,72904,1,0,0:0:0:0:
285,176,72965,5,8,0:0:0:0:
292,168,73026,1,0,0:0:0:0:
302,162,73087,1,0,0:0:0:0:
312,158,73148,1,0,0:0:0:0:
323,156,73209,1,0,0:0:0:0:
334,156,73271,1,0,0:0:0:0:
344,158,73332,1,0,0:0:0:0:
354,162,73393,1,0,0:0:0:0:
364,168,73454,1,0,0:0:0:0:
371,176,73516,1,0,0:0:0:0:
378,185,73577,1,0,0:0:0:0:
382,195,73638,1,0,0:0:0:0:
385,206,73700,5,8,0:0:0:0:
374,209,73761,1,0,0:0:0:0:
364,213,73822,1,0,0:0:0:0:
353,216,73883,1,0,0:0:0:0:
343,220,73944,1,0,0:0:0:0:
333,223,74006,1,0,0:0:0:0:
322,227,74067,1,0,0:0:0:0:
312,231,74128,1,0,0:0:0:0:
301,234,74189,1,0,0:0:0:0:
291,238,74251,1,0,0:0:0:0:
281,241,74312,1,0,0:0:0:0:
270,245,74373,1,0,0:0:0:0:
260,251,74435,5,8,0:0:0:0:
250,255,74496,1,0,0:0:0:0:
239,258,74557,1,0,0:0:0:0:
228,259,74618,1,0,0:0:0:0:
217,257,74679,1,0,0:0:0:0:
207,254,74741,1,0,0:0:0:0:
197,249,74802,1,0,0:0:0:0:
189,241,74863,1,0,0:0:0:0:
182,232,74924,1,0,0:0:0:0:
177,223,74986,1,0,0:0:0:0:
175,212,75047,1,0,0:0:0:0:
174,201,75108,1,0,0:0:0:0:
177,190,75169,5,8,0:0:0:0:
176,173,75230,1,0,0:0:0:0:
172,157,75291,1,0,0:0:0:0:
165,142,75352,1,0,0:0:0:0:
154,130,75413,1,0,0:0:0:0:
141,120,75475,1,0,0:0:0:0:
126,113,75536,1,0,0:0:0:0:
110,110,75597,1,0,0:0:0:0:
94,110,75658,1,0,0:0:0:0:
78,114,75720,1,0,0:0:0:0:
64,124,75782,2,0,P|30:147|-3:144,1,55,2|0,0:0|0:0,0:0:0:0:
16,65,75904,5,10,0:0:0:0:
31,49,75965,1,0,0:0:0:0:
50,38,76026,1,0,0:0:0:0:
71,30,76087,1,0,0:0:0:0:
92,27,76148,1,0,0:0:0:0:
114,28,76210,1,0,0:0:0:0:
135,33,76271,1,0,0:0:0:0:
155,43,76332,1,0,0:0:0:0:
173,57,76393,1,0,0:0:0:0:
187,73,76455,1,0,0:0:0:0:
197,93,76516,1,0,0:0:0:0:
204,113,76577,1,0,0:0:0:0:
206,135,76638,1,0,0:0:0:0:
204,157,76699,1,0,0:0:0:0:
197,178,76761,1,0,0:0:0:0:
186,197,76822,1,0,0:0:0:0:
172,214,76883,1,0,0:0:0:0:
154,227,76944,1,0,0:0:0:0:
136,240,77006,1,0,0:0:0:0:
120,255,77067,1,0,0:0:0:0:
109,274,77128,1,0,0:0:0:0:
104,295,77189,1,0,0:0:0:0:
105,317,77250,1,0,0:0:0:0:
112,338,77312,1,0,0:0:0:0:
125,355,77373,1,0,0:0:0:0:
142,369,77434,1,0,0:0:0:0:
163,377,77495,1,0,0:0:0:0:
185,379,77557,1,0,0:0:0:0:
206,374,77618,1,0,0:0:0:0:
226,364,77679,1,0,0:0:0:0:
241,349,77740,1,0,0:0:0:0:
252,330,77801,1,0,0:0:0:0:
257,308,77863,1,0,0:0:0:0:
256,286,77924,1,0,0:0:0:0:
248,266,77985,1,0,0:0:0:0:
240,245,78047,1,0,0:0:0:0:
231,230,78108,5,2,0:0:0:0:
225,215,78169,1,0,0:0:0:0:
218,200,78230,1,0,0:0:0:0:
211,185,78291,1,0,0:0:0:0:
205,170,78352,1,0,0:0:0:0:
198,155,78414,1,0,0:0:0:0:
189,139,78476,1,0,0:0:0:0:
185,123,78537,1,0,0:0:0:0:
185,107,78598,1,0,0:0:0:0:
191,91,78659,1,0,0:0:0:0:
200,78,78720,1,0,0:0:0:0:
213,68,78782,1,0,0:0:0:0:
222,63,78843,5,2,0:0:0:0:
233,59,78904,1,0,0:0:0:0:
243,57,78965,1,0,0:0:0:0:
254,57,79026,1,0,0:0:0:0:
265,59,79087,1,0,0:0:0:0:
276,63,79149,1,0,0:0:0:0:
285,68,79210,1,0,0:0:0:0:
293,75,79271,1,0,0:0:0:0:
300,84,79332,1,0,0:0:0:0:
306,93,79394,1,0,0:0:0:0:
309,104,79455,1,0,0:0:0:0:
311,114,79516,1,0,0:0:0:0:
312,119,79578,5,2,0:0:0:0:
311,124,79639,1,0,0:0:0:0:
311,129,79700,1,0,0:0:0:0:
310,135,79761,1,0,0:0:0:0:
310,140,79822,1,0,0:0:0:0:
309,146,79884,1,0,0:0:0:0:
309,151,79945,1,0,0:0:0:0:
308,157,80006,1,0,0:0:0:0:
308,162,80067,1,0,0:0:0:0:
307,168,80129,1,0,0:0:0:0:
307,173,80190,1,0,0:0:0:0:
306,179,80251,1,0,0:0:0:0:
306,184,80312,6,0,L|301:243,3,55,8|0|0|0,0:0|0:0|0:0|0:0,0:0:0:0:
288,321,80557,2,0,P|254:308|236:275,3,55,8|0|0|0,0:0|0:0|0:0|0:0,0:0:0:0:
222,218,80802,2,0,L|183:179,3,55,8|0|8|0,0:0|0:0|0:0|0:0,0:0:0:0:
112,132,81047,5,12,0:0:0:0:
101,156,81108,1,0,0:0:0:0:
99,182,81169,1,0,0:0:0:0:
105,207,81230,1,0,0:0:0:0:
118,240,81292,5,8,0:0:0:0:
113,261,81353,1,0,0:0:0:0:
108,282,81414,1,0,0:0:0:0:
103,304,81475,1,0,0:0:0:0:
88,336,81537,5,8,0:0:0:0:
98,349,81598,1,0,0:0:0:0:
113,359,81659,1,0,0:0:0:0:
130,363,81720,1,0,0:0:0:0:
160,355,81782,6,0,L|222:345,3,44,2|0|0|0,0:0|0:0|0:0|0:0,0:0:0:0:
209,276,82027,1,0,0:0:0:0:
235,276,82088,1,0,0:0:0:0:
258,288,82149,1,0,0:0:0:0:
273,309,82210,1,0,0:0:0:0:
291,355,82272,2,0,P|326:345|350:352,3,44,2|0|0|0,0:0|0:0|0:0|0:0,0:0:0:0:
411,345,82516,5,14,0:0:0:0:
402,320,82577,1,0,0:0:0:0:
396,294,82638,1,0,0:0:0:0:
394,268,82699,1,0,0:0:0:0:
396,242,82760,1,0,0:0:0:0:
401,216,82822,1,0,0:0:0:0:
415,146,82884,5,12,0:0:0:0:
409,120,82945,1,0,0:0:0:0:
395,98,83006,1,0,0:0:0:0:
374,82,83067,1,0,0:0:0:0:
349,75,83128,1,0,0:0:0:0:
323,77,83190,1,0,0:0:0:0:
253,103,83251,5,0,0:0:0:0:
255,120,83312,1,0,0:0:0:0:
257,137,83373,1,0,0:0:0:0:
260,155,83434,1,0,0:0:0:0:
262,172,83495,1,0,0:0:0:0:
265,190,83557,1,0,0:0:0:0:
267,207,83618,1,0,0:0:0:0:
270,225,83679,1,0,0:0:0:0:
272,242,83741,2,0,P|261:298|175:308,1,131.99999597168,8|0,0:0|0:0,0:0:0:0:
85,244,83986,5,14,0:0:0:0:
106,42,84720,5,0,0:0:0:0:
118,84,84781,1,0,0:0:0:0:
130,126,84842,1,0,0:0:0:0:
142,168,84903,1,0,0:0:0:0:
154,211,84964,1,0,0:0:0:0:
166,253,85026,1,0,0:0:0:0:
180,297,85088,6,0,L|198:357,1,55
272,379,85210,1,0,0:0:0:0:
276,325,85271,1,0,0:0:0:0:
244,282,85332,1,0,0:0:0:0:
191,270,85393,1,0,0:0:0:0:
135,273,85455,6,0,L|157:154,1,110,2|0,0:0|0:0,0:0:0:0:
171,55,85700,1,0,0:0:0:0:
254,185,85823,1,0,0:0:0:0:
260,193,85945,1,0,0:0:0:0:
355,69,86067,5,8,0:0:0:0:
418,233,86190,2,0,P|374:293|384:345,1,110,12|0,0:0|0:0,0:0:0:0:
486,322,86435,1,4,0:0:0:0:
492,212,86557,5,8,0:0:0:0:
489,195,86618,1,0,0:0:0:0:
486,179,86679,1,0,0:0:0:0:
483,163,86740,1,0,0:0:0:0:
480,147,86801,1,0,0:0:0:0:
477,130,86863,1,0,0:0:0:0:
474,114,86925,6,0,L|460:43,1,55,2|0,0:0|0:0,0:0:0:0:
389,149,87047,1,4,0:0:0:0:
251,110,87169,6,0,L|175:85,1,55,2|0,0:0|0:0,0:0:0:0:
234,233,87292,1,4,0:0:0:0:
364,313,87414,6,0,L|470:369,1,110,8|0,0:0|0:0,0:0:0:0:
409,218,87659,6,0,P|368:201|293:242,1,110
176,301,87904,1,4,0:0:0:0:
110,161,88027,5,8,0:0:0:0:
98,149,88088,1,0,0:0:0:0:
90,135,88149,1,0,0:0:0:0:
86,119,88210,1,0,0:0:0:0:
86,102,88271,1,0,0:0:0:0:
91,87,88333,1,0,0:0:0:0:
99,72,88394,6,0,L|130:26,1,55,2|0,0:0|0:0,0:0:0:0:
166,112,88516,2,0,L|217:91,1,55,2|0,0:0|0:0,0:0:0:0:
221,185,88639,2,0,L|275:196,1,55,2|0,0:0|0:0,0:0:0:0:
364,220,88761,2,0,B|408:230|408:230|431:249|431:249|477:257,1,110,8|0,0:0|0:0,0:0:0:0:
385,331,89006,1,4,0:0:0:0:
262,280,89129,5,12,0:0:0:0:
223,260,89190,1,0,0:0:0:0:
205,220,89251,1,0,0:0:0:0:
215,178,89312,1,0,0:0:0:0:
246,151,89373,1,0,0:0:0:0:
289,147,89435,1,0,0:0:0:0:
329,166,89496,1,0,0:0:0:0:
369,182,89557,1,0,0:0:0:0:
409,166,89618,1,0,0:0:0:0:
429,128,89679,1,0,0:0:0:0:
418,86,89740,1,0,0:0:0:0:
383,62,89802,1,0,0:0:0:0:
340,68,89863,6,0,L|221:91,1,110,2|0,0:0|0:0,0:0:0:0:
147,63,90108,2,0,P|145:121|179:166,1,110,2|0,0:0|0:0,0:0:0:0:
268,254,90353,1,8,0:0:0:0:
362,346,90476,1,8,0:0:0:0:
345,193,90598,6,0,P|298:153|230:157,1,110,2|0,0:0|0:0,0:0:0:0:
151,267,90843,2,0,P|88:219|89:169,1,110,2|0,0:0|0:0,0:0:0:0:
114,87,91088,5,8,0:0:0:0:
157,91,91149,1,0,0:0:0:0:
201,95,91210,1,0,0:0:0:0:
245,99,91271,1,0,0:0:0:0:
289,107,91333,2,0,P|349:101|386:51,1,110
285,10,91578,6,0,L|186:65,1,110,8|0,0:0|0:0,0:0:0:0:
151,190,91823,2,0,L|250:135,1,110,8|0,0:0|0:0,0:0:0:0:
380,60,92067,5,2,0:0:0:0:
286,235,92190,1,4,0:0:0:0:
455,134,92312,5,2,0:0:0:0:
361,309,92435,1,4,0:0:0:0:
267,134,92557,1,0,0:0:0:0:
228,95,92618,1,0,0:0:0:0:
175,80,92679,1,0,0:0:0:0:
122,92,92740,1,0,0:0:0:0:
71,115,92802,6,0,P|26:84|15:31,1,110,4|0,0:0|0:0,0:0:0:0:
125,26,93047,2,0,P|183:43|224:83,1,110,4|0,0:0|0:0,0:0:0:0:
264,223,93292,2,0,L|181:150,1,110,4|0,0:0|0:0,0:0:0:0:
50,68,93537,6,0,P|28:143|40:190,1,110,12|0,0:0|0:0,0:0:0:0:
160,324,93782,2,0,L|178:208,1,110,12|0,0:0|0:0,0:0:0:0:
345,109,94027,2,0,P|345:187|319:229,1,110,12|0,0:0|0:0,0:0:0:0:
242,311,94272,5,8,0:0:0:0:
111,229,94394,1,0,0:0:0:0:
247,156,94516,1,0,2:0:0:0:
220,319,94639,1,8,0:0:0:0:
114,206,94761,1,0,0:0:0:0:
265,170,94883,1,0,2:0:0:0:
374,182,95006,5,8,0:0:0:0:
512,114,95128,1,0,0:0:0:0:
384,28,95250,1,0,0:0:0:0:
394,193,95373,1,8,0:0:0:0:
511,91,95495,1,0,0:0:0:0:
364,41,95617,1,0,0:0:0:0:
257,121,95741,5,8,0:0:0:0:
211,146,95802,1,0,0:0:0:0:
159,144,95863,1,0,0:0:0:0:
116,115,95924,1,0,0:0:0:0:
80,75,95986,6,0,L|36:21,1,65.9999979858399
181,45,96108,2,0,P|185:100|171:131,1,65.9999979858399
143,223,96231,2,0,P|148:286|221:328,1,131.99999597168
331,337,96476,6,0,L|362:199,1,131.99999597168,8|0,0:0|0:0,0:0:0:0:
315,29,96720,1,0,0:0:0:0:
215,185,96843,2,0,P|133:216|199:138,1,263.99999194336,8|4,0:0|0:0,0:0:0:0:
336,171,97210,6,0,P|363:230|356:294,1,131.99999597168
239,72,97455,2,0,P|146:49|94:71,1,131.99999597168
307,199,97700,2,0,P|314:263|288:323,1,131.99999597168
167,378,97945,5,8,0:0:0:0:
96,222,98067,1,0,0:0:0:0:
259,276,98190,1,0,0:0:0:0:
85,214,98312,2,0,P|72:116|128:198,1,263.99999194336,8|4,0:0|0:0,0:0:0:0:
201,274,98680,5,0,0:0:0:0:
364,328,98803,1,0,0:0:0:0:
293,172,98925,1,0,0:0:0:0:
373,337,99047,2,0,P|431:358|431:221,1,263.99999194336,8|4,0:0|0:0,0:0:0:0:
281,166,99414,6,0,L|131:108,1,131.99999597168,10|0,0:0|0:0,0:0:0:0:
39,177,99659,2,0,L|189:235,1,131.99999597168,10|0,0:0|0:0,0:0:0:0:
201,351,99904,2,0,L|51:293,1,131.99999597168,10|0,0:0|0:0,0:0:0:0:
8,222,100149,5,8,0:0:0:0:
0,184,100210,1,0,0:0:0:0:
3,145,100271,1,0,0:0:0:0:
27,115,100332,1,0,0:0:0:0:
52,83,100394,5,8,0:0:0:0:
74,129,100455,1,0,0:0:0:0:
120,153,100516,1,0,0:0:0:0:
172,146,100577,1,0,0:0:0:0:
216,117,100639,5,8,0:0:0:0:
267,126,100700,1,0,0:0:0:0:
319,135,100761,1,0,0:0:0:0:
371,144,100822,1,0,0:0:0:0:
405,141,100884,5,4,0:0:0:0:
436,162,100945,1,0,0:0:0:0:
442,200,101006,1,0,0:0:0:0:
418,230,101067,1,0,0:0:0:0:
382,247,101129,5,2,0:0:0:0:
335,244,101190,1,0,0:0:0:0:
289,242,101251,1,0,0:0:0:0:
243,239,101312,1,0,0:0:0:0:
196,239,101374,1,0,0:0:0:0:
152,252,101435,1,0,0:0:0:0:
130,291,101496,1,0,0:0:0:0:
140,335,101557,1,0,0:0:0:0:
173,366,101618,6,0,L|442:334,1,263.99999194336,8|0,0:0|0:0,0:0:0:0:
504,220,101986,2,0,P|501:142|436:229,1,263.99999194336,8|4,0:0|0:0,0:0:0:0:
496,311,102353,5,0,0:0:0:0:
335,374,102476,1,0,0:0:0:0:
366,205,102598,1,4,0:0:0:0:
465,118,102720,5,0,0:0:0:0:
346,59,102843,1,0,0:0:0:0:
223,106,102965,1,6,0:0:0:0:
112,180,103088,6,0,L|-4:257,1,131.99999597168,10|0,0:0|0:0,0:0:0:0:
109,331,103333,1,0,0:0:0:0:
232,287,103455,1,14,0:0:0:0:
264,290,103516,1,0,0:0:0:0:
297,293,103577,1,0,0:0:0:0:
330,296,103638,1,0,0:0:0:0:
363,299,103699,1,0,0:0:0:0:
396,302,103761,1,0,0:0:0:0:
434,315,103823,6,0,L|463:251,3,65.9999979858399,4|0|4|0,0:0|0:0|0:0|0:0,0:0:0:0:
403,223,104067,1,8,0:0:0:0:
411,197,104128,1,0,0:0:0:0:
424,175,104189,1,0,0:0:0:0:
442,155,104250,1,0,0:0:0:0:
482,131,104312,5,8,0:0:0:0:
472,93,104373,1,0,0:0:0:0:
443,67,104434,1,0,0:0:0:0:
404,64,104495,1,0,0:0:0:0:
359,78,104557,6,0,L|223:117,1,131.99999597168,8|0,0:0|0:0,0:0:0:0:
104,159,104802,1,0,0:0:0:0:
117,159,104925,2,0,P|159:189|155:271,1,131.99999597168
49,344,105169,1,4,0:0:0:0:
23,213,105292,6,0,B|32:179|32:179|28:137,3,65.9999979858399,2|0|2|0,0:0|0:0|0:0|0:0,0:0:0:0:
18,62,105537,2,0,P|54:77|109:70,1,65.9999979858399
165,73,105659,1,8,0:0:0:0:
197,71,105720,1,0,0:0:0:0:
230,69,105781,1,0,0:0:0:0:
263,67,105842,1,0,0:0:0:0:
296,65,105903,1,0,0:0:0:0:
329,62,105965,1,0,0:0:0:0:
391,37,106027,5,12,0:0:0:0:
373,72,106088,1,0,0:0:0:0:
367,111,106149,1,0,0:0:0:0:
376,149,106210,1,0,0:0:0:0:
405,177,106272,5,12,0:0:0:0:
418,226,106333,1,0,0:0:0:0:
388,267,106394,1,0,0:0:0:0:
338,269,106455,1,0,0:0:0:0:
289,248,106516,5,12,0:0:0:0:
251,251,106577,1,0,0:0:0:0:
229,282,106638,1,0,0:0:0:0:
239,319,106699,1,0,0:0:0:0:
295,365,106761,5,12,0:0:0:0:
311,315,106822,1,0,0:0:0:0:
315,262,106883,1,0,0:0:0:0:
307,210,106944,1,0,0:0:0:0:
285,162,107005,1,0,0:0:0:0:
253,120,107067,1,0,0:0:0:0:
211,88,107128,1,14,0:0:0:0:
97,320,107496,5,14,0:0:0:0:
111,269,107557,1,0,0:0:0:0:
102,218,107618,1,0,0:0:0:0:
80,169,107680,1,0,0:0:0:0:
68,118,107741,1,0,0:0:0:0:
88,71,107802,1,0,0:0:0:0:
111,58,107863,5,12,0:0:0:0:
134,48,107924,1,0,0:0:0:0:
158,55,107985,1,0,0:0:0:0:
171,78,108046,1,0,0:0:0:0:
165,102,108107,1,0,0:0:0:0:
144,116,108169,1,0,0:0:0:0:
118,111,108231,5,12,0:0:0:0:
130,147,108292,1,0,0:0:0:0:
163,167,108353,1,0,0:0:0:0:
201,161,108414,1,0,0:0:0:0:
227,132,108475,1,0,0:0:0:0:
228,93,108537,1,0,0:0:0:0:
215,56,108598,5,12,0:0:0:0:
254,62,108659,1,0,0:0:0:0:
293,69,108720,1,0,0:0:0:0:
332,76,108781,1,0,0:0:0:0:
371,83,108842,1,0,0:0:0:0:
410,90,108904,1,0,0:0:0:0:
447,102,108965,5,14,0:0:0:0:
494,146,109026,1,0,0:0:0:0:
508,209,109087,1,0,0:0:0:0:
482,269,109148,1,0,0:0:0:0:
426,302,109209,1,0,0:0:0:0:
361,297,109271,1,0,0:0:0:0:
326,277,109333,6,0,L|251:254,3,65.9999979858399,2|0|2|0,0:0|0:0|0:0|0:0,0:0:0:0:
224,165,109578,2,0,L|168:222,3,65.9999979858399,2|0|2|0,0:0|0:0|0:0|0:0,0:0:0:0:
67,183,109823,2,0,B|61:206|74:234|88:259,3,65.9999979858399,2|0|2|0,0:0|0:0|0:0|0:0,0:0:0:0:
27,328,110067,5,8,0:0:0:0:
57,340,110128,1,0,0:0:0:0:
90,342,110189,1,0,0:0:0:0:
122,333,110250,1,0,0:0:0:0:
149,316,110311,1,0,0:0:0:0:
170,290,110373,1,0,0:0:0:0:
177,251,110435,5,12,0:0:0:0:
208,210,110496,1,0,0:0:0:0:
259,210,110557,1,0,0:0:0:0:
291,250,110618,1,0,0:0:0:0:
281,299,110679,1,0,0:0:0:0:
235,322,110741,1,0,0:0:0:0:
183,332,110802,6,0,P|146:336|109:319,1,65.9999979858399,8|0,0:0|0:0,0:0:0:0:
51,283,110925,2,0,L|64:205,1,65.9999979858399,8|0,0:0|0:0,0:0:0:0:
133,184,111047,2,0,L|121:93,1,65.9999979858399,8|0,0:0|0:0,0:0:0:0:
98,44,111169,5,8,0:0:0:0:
124,47,111230,1,0,0:0:0:0:
150,51,111291,1,0,0:0:0:0:
176,55,111352,1,0,0:0:0:0:
202,58,111413,1,0,0:0:0:0:
228,62,111475,1,0,0:0:0:0:
249,78,111537,5,8,0:0:0:0:
293,79,111598,1,0,0:0:0:0:
318,42,111659,1,0,0:0:0:0:
301,1,111720,1,0,0:0:0:0:
258,0,111781,1,0,0:0:0:0:
227,24,111843,1,0,0:0:0:0:
227,70,111904,5,12,0:0:0:0:
230,123,111965,1,0,0:0:0:0:
233,176,112026,1,0,0:0:0:0:
235,228,112087,1,0,0:0:0:0:
236,281,112149,1,0,0:0:0:0:
224,331,112210,1,0,0:0:0:0:
186,366,112271,1,0,0:0:0:0:
134,372,112332,1,0,0:0:0:0:
89,348,112393,1,0,0:0:0:0:
66,301,112455,1,0,0:0:0:0:
75,250,112516,1,0,0:0:0:0:
111,213,112577,1,0,0:0:0:0:
163,199,112639,6,0,L|234:189,3,65.9999979858399,2|0|2|0,0:0|0:0|0:0|0:0,0:0:0:0:
243,97,112884,2,0,L|293:147,3,65.9999979858399,2|0|2|0,0:0|0:0|0:0|0:0,0:0:0:0:
372,99,113129,2,0,L|362:170,3,65.9999979858399,2|0|2|0,0:0|0:0|0:0|0:0,0:0:0:0:
385,241,113374,5,8,0:0:0:0:
352,245,113435,1,0,0:0:0:0:
319,250,113496,1,0,0:0:0:0:
287,255,113557,1,0,0:0:0:0:
249,291,113618,5,8,0:0:0:0:
281,290,113679,1,0,0:0:0:0:
314,290,113740,1,0,0:0:0:0:
347,290,113801,1,0,0:0:0:0:
387,285,113863,5,8,0:0:0:0:
405,318,113924,1,0,0:0:0:0:
389,352,113985,1,0,0:0:0:0:
351,358,114046,1,0,0:0:0:0:
318,335,114108,5,0,0:0:0:0:
344,290,114169,1,0,0:0:0:0:
341,238,114230,1,0,0:0:0:0:
308,197,114291,1,0,0:0:0:0:
258,183,114352,1,0,0:0:0:0:
209,199,114414,1,0,0:0:0:0:
178,240,114475,1,0,0:0:0:0:
176,292,114536,1,0,0:0:0:0:
203,338,114598,6,0,P|230:363|280:356,3,65.9999979858399,2|0|0|0,0:0|0:0|0:0|0:0,0:0:0:0:
258,285,114843,5,8,0:0:0:0:
230,267,114904,1,0,0:0:0:0:
202,250,114965,1,0,0:0:0:0:
174,232,115026,1,0,0:0:0:0:
146,215,115087,1,0,0:0:0:0:
118,197,115149,1,0,0:0:0:0:
89,181,115210,6,0,L|31:147,1,65.9999979858399,8|0,0:0|0:0,0:0:0:0:
4,72,115333,1,0,0:0:0:0:
30,44,115394,1,0,0:0:0:0:
67,30,115455,1,0,0:0:0:0:
106,34,115516,1,0,0:0:0:0:
139,55,115577,1,0,0:0:0:0:
159,89,115639,1,0,0:0:0:0:
172,125,115700,1,0,0:0:0:0:
188,160,115761,1,0,0:0:0:0:
222,179,115822,1,0,0:0:0:0:
261,176,115883,1,0,0:0:0:0:
291,151,115944,1,0,0:0:0:0:
301,114,116006,1,0,0:0:0:0:
321,80,116067,1,0,0:0:0:0:
356,64,116128,1,0,0:0:0:0:
392,78,116189,1,0,0:0:0:0:
410,112,116250,1,0,0:0:0:0:
405,152,116312,5,8,0:0:0:0:
407,196,116373,1,0,0:0:0:0:
441,226,116434,1,0,0:0:0:0:
485,223,116495,1,0,0:0:0:0:
512,188,116556,1,0,0:0:0:0:
510,143,116618,1,0,0:0:0:0:
474,116,116679,1,0,0:0:0:0:
428,89,116741,1,0,0:0:0:0:
377,74,116802,6,0,L|309:65,1,65.9999979858399,8|0,0:0|0:0,0:0:0:0:
306,158,116925,2,0,L|239:188,1,65.9999979858399,8|0,0:0|0:0,0:0:0:0:
134,225,117047,6,0,L|194:250,1,65.9999979858399,8|0,0:0|0:0,0:0:0:0:
230,335,117169,2,0,L|295:310,1,65.9999979858399,8|0,0:0|0:0,0:0:0:0:
402,268,117292,6,0,L|341:242,3,65.9999979858399,2|0|0|0,0:0|0:0|0:0|0:0,0:0:0:0:
306,158,117537,2,0,L|240:182,3,65.9999979858399,2|0|0|0,0:0|0:0|0:0|0:0,0:0:0:0:
152,201,117782,5,8,0:0:0:0:
117,186,117843,1,0,0:0:0:0:
104,150,117904,1,0,0:0:0:0:
123,116,117965,1,0,0:0:0:0:
169,108,118027,5,8,0:0:0:0:
204,90,118088,1,0,0:0:0:0:
241,77,118149,1,0,0:0:0:0:
280,69,118210,1,0,0:0:0:0:
321,45,118272,5,8,0:0:0:0:
313,83,118333,1,0,0:0:0:0:
327,119,118394,1,0,0:0:0:0:
359,141,118455,1,0,0:0:0:0:
384,161,118516,6,0,P|414:203|354:309,1,165,14|0,0:0|0:0,0:0:0:0:
306,334,118761,2,0,B|301:257|303:243|303:243|306:203|306:203|301:178|289:151,1,165,14|0,0:0|0:0,0:0:0:0:
243,114,119006,2,0,P|193:102|133:195,1,165,14|0,0:0|0:0,0:0:0:0:
123,261,119251,5,8,0:0:0:0:
123,274,119312,1,0,0:0:0:0:
122,288,119373,1,0,0:0:0:0:
121,301,119434,1,0,0:0:0:0:
120,314,119495,1,0,0:0:0:0:
120,327,119557,1,0,0:0:0:0:
118,340,119618,5,12,0:0:0:0:
139,372,119679,1,0,0:0:0:0:
176,384,119740,1,0,0:0:0:0:
213,370,119801,1,0,0:0:0:0:
233,337,119862,1,0,0:0:0:0:
229,299,119924,1,0,0:0:0:0:
202,271,119986,5,12,0:0:0:0:
180,247,120047,1,0,0:0:0:0:
182,215,120108,1,0,0:0:0:0:
206,194,120169,1,0,0:0:0:0:
238,197,120230,1,0,0:0:0:0:
258,222,120292,1,0,0:0:0:0:
254,254,120353,5,12,0:0:0:0:
244,304,120414,1,0,0:0:0:0:
271,348,120475,1,0,0:0:0:0:
321,359,120536,1,0,0:0:0:0:
365,333,120597,1,0,0:0:0:0:
378,283,120659,1,0,0:0:0:0:
390,232,120720,5,12,0:0:0:0:
344,238,120781,1,0,0:0:0:0:
298,244,120842,1,0,0:0:0:0:
252,250,120903,1,0,0:0:0:0:
206,256,120964,1,0,0:0:0:0:
161,263,121026,1,0,0:0:0:0:
115,272,121088,6,0,P|72:275|35:263,3,65.9999979858399,2|0|0|0,0:0|0:0|0:0|0:0,0:0:0:0:
3,213,121333,1,0,0:0:0:0:
4,174,121394,1,0,0:0:0:0:
29,144,121455,2,0,L|81:90,1,65.9999979858399,8|0,0:0|0:0,0:0:0:0:
193,115,121578,2,0,L|141:169,1,65.9999979858399,8|0,0:0|0:0,0:0:0:0:
94,221,121700,5,8,0:0:0:0:
73,254,121761,1,0,0:0:0:0:
76,293,121822,1,0,0:0:0:0:
100,324,121883,1,0,0:0:0:0:
137,336,121944,1,0,0:0:0:0:
174,325,122006,1,0,0:0:0:0:
199,294,122067,1,0,0:0:0:0:
202,255,122128,1,0,0:0:0:0:
211,216,122190,6,0,P|221:185|255:164,3,65.9999979858399,2|0|2|0,0:0|0:0|0:0|0:0,0:0:0:0:
324,145,122435,1,2,0:0:0:0:
349,139,122496,1,0,0:0:0:0:
369,122,122557,1,0,0:0:0:0:
379,98,122618,1,0,0:0:0:0:
376,72,122679,1,0,0:0:0:0:
361,50,122741,1,0,0:0:0:0:
338,38,122802,1,0,0:0:0:0:
312,38,122863,1,0,0:0:0:0:
287,47,122925,5,2,0:0:0:0:
250,61,122986,1,0,0:0:0:0:
211,67,123047,1,0,0:0:0:0:
171,63,123108,1,0,0:0:0:0:
134,50,123169,5,2,0:0:0:0:
141,102,123230,1,0,0:0:0:0:
131,153,123291,1,0,0:0:0:0:
105,199,123352,1,0,0:0:0:0:
74,242,123414,1,0,0:0:0:0:
56,289,123475,1,0,0:0:0:0:
81,334,123536,1,0,0:0:0:0:
131,343,123597,1,0,0:0:0:0:
169,340,123659,6,0,P|207:329|265:328,3,76.9999976501466,2|0|2|0,0:0|0:0|0:0|0:0,0:0:0:0:
246,232,123904,2,0,P|283:244|331:277,3,65.9999979858399,2|0|2|0,0:0|0:0|0:0|0:0,0:0:0:0:
362,195,124149,2,0,P|378:217|392:254,3,55,2|0|2|0,0:0|0:0|0:0|0:0,0:0:0:0:
415,317,124394,5,8,0:0:0:0:
399,345,124455,1,0,0:0:0:0:
369,356,124516,1,0,0:0:0:0:
339,343,124577,1,0,0:0:0:0:
307,334,124639,5,8,0:0:0:0:
310,294,124700,1,0,0:0:0:0:
314,255,124761,1,0,0:0:0:0:
318,215,124822,1,0,0:0:0:0:
334,186,124884,5,8,0:0:0:0:
354,153,124945,1,0,0:0:0:0:
343,117,125006,1,0,0:0:0:0:
307,102,125067,1,0,0:0:0:0:
281,103,125129,5,8,0:0:0:0:
254,105,125190,1,0,0:0:0:0:
228,108,125251,1,0,0:0:0:0:
202,110,125312,1,0,0:0:0:0:
176,113,125373,1,0,0:0:0:0:
149,115,125435,1,0,0:0:0:0:
123,120,125496,1,0,0:0:0:0:
98,128,125557,1,0,0:0:0:0:
78,145,125618,1,0,0:0:0:0:
67,169,125679,1,0,0:0:0:0:
65,195,125740,1,0,0:0:0:0:
74,219,125802,1,0,0:0:0:0:
89,240,125863,5,8,0:0:0:0:
112,271,125924,1,0,0:0:0:0:
120,309,125985,1,0,0:0:0:0:
111,347,126046,1,0,0:0:0:0:
35,374,126108,5,8,0:0:0:0:
34,334,126169,1,0,0:0:0:0:
33,294,126230,1,0,0:0:0:0:
32,255,126291,1,0,0:0:0:0:
19,189,126353,5,8,0:0:0:0:
56,200,126414,1,0,0:0:0:0:
95,197,126475,1,0,0:0:0:0:
131,179,126536,1,0,0:0:0:0:
154,165,126598,5,8,0:0:0:0:
180,167,126659,1,0,0:0:0:0:
206,169,126720,1,0,0:0:0:0:
232,171,126781,1,0,0:0:0:0:
259,173,126842,1,0,0:0:0:0:
285,175,126904,1,0,0:0:0:0:
311,177,126965,2,0,P|341:179|377:161,1,65.9999979858399,10|0,0:0|0:0,0:0:0:0:
416,89,127088,2,0,P|385:77|346:83,1,65.9999979858399,10|0,0:0|0:0,0:0:0:0:
267,83,127210,2,0,P|235:81|184:57,1,65.9999979858399,2|0,0:0|0:0,0:0:0:0:
112,48,127333,6,0,L|119:121,1,65.9999979858399,8|0,0:0|0:0,0:0:0:0:
28,133,127455,2,0,L|21:206,1,65.9999979858399,8|0,0:0|0:0,0:0:0:0:
73,276,127578,6,0,L|119:219,1,65.9999979858399,8|0,0:0|0:0,0:0:0:0:
193,275,127700,2,0,P|215:248|249:228,1,65.9999979858399,2|0,0:0|0:0,0:0:0:0:
315,187,127823,1,0,0:0:0:0:
327,182,127884,1,0,0:0:0:0:
340,178,127945,1,0,0:0:0:0:
353,177,128006,1,0,0:0:0:0:
366,176,128067,5,10,0:0:0:0:
417,184,128128,1,0,0:0:0:0:
453,221,128189,1,0,0:0:0:0:
460,272,128250,1,0,0:0:0:0:
435,318,128311,1,0,0:0:0:0:
388,340,128373,1,0,0:0:0:0:
337,329,128434,1,0,0:0:0:0:
286,314,128496,1,0,0:0:0:0:
235,299,128557,1,0,0:0:0:0:
183,304,128618,1,0,0:0:0:0:
136,327,128679,1,0,0:0:0:0:
101,367,128740,1,0,0:0:0:0:
28,363,128802,5,10,0:0:0:0:
47,313,128863,1,0,0:0:0:0:
66,264,128924,1,0,0:0:0:0:
85,215,128985,1,0,0:0:0:0:
106,166,129047,1,0,0:0:0:0:
131,121,129108,1,0,0:0:0:0:
181,106,129169,1,0,0:0:0:0:
227,129,129230,1,0,0:0:0:0:
266,165,129292,1,0,0:0:0:0:
300,204,129353,1,0,0:0:0:0:
351,210,129414,1,0,0:0:0:0:
393,180,129475,1,0,0:0:0:0:
436,121,129537,5,10,0:0:0:0:
377,128,129598,1,0,0:0:0:0:
318,136,129659,1,0,0:0:0:0:
259,144,129720,1,0,0:0:0:0:
199,151,129782,1,0,0:0:0:0:
143,140,129843,1,0,0:0:0:0:
122,87,129904,1,0,0:0:0:0:
156,42,129965,1,0,0:0:0:0:
232,17,130027,5,10,0:0:0:0:
222,83,130088,1,0,0:0:0:0:
213,148,130149,1,0,0:0:0:0:
204,213,130210,1,0,0:0:0:0:
193,292,130272,5,8,0:0:0:0:
160,331,130333,1,0,0:0:0:0:
108,337,130394,1,0,0:0:0:0:
68,305,130455,1,0,0:0:0:0:
61,254,130516,1,0,0:0:0:0:
92,212,130578,1,0,0:0:0:0:
164,180,130639,5,4,0:0:0:0:
145,228,130700,1,0,0:0:0:0:
165,275,130761,1,0,0:0:0:0:
212,295,130822,1,0,0:0:0:0:
261,277,130883,1,0,0:0:0:0:
283,231,130945,1,0,0:0:0:0:
308,188,131006,6,0,P|386:151|448:259,1,220,12|0,0:0|0:0,0:0:0:0:
451,255,131374,1,0,0:0:0:0:
360,104,131496,1,0,0:0:0:0:
269,255,131618,1,0,0:0:0:0:
178,92,131741,6,0,P|84:55|31:142,1,220,12|0,3:0|3:0,3:0:0:0:
33,152,132108,1,0,0:0:0:0:
82,319,132230,1,0,0:0:0:0:
208,196,132352,1,0,0:0:0:0:
254,352,132476,6,0,L|330:261,1,110,8|0,0:0|0:0,0:0:0:0:
395,183,132720,1,8,0:0:0:0:
402,174,132843,1,0,0:0:0:0:
262,34,132965,1,8,0:0:0:0:
260,44,133088,1,0,0:0:0:0:
259,54,133210,6,0,L|191:140,1,110,8|0,0:0|0:0,0:0:0:0:
204,272,133455,1,8,0:0:0:0:
205,282,133578,1,0,0:0:0:0:
66,174,133700,1,8,0:0:0:0:
65,164,133823,1,0,0:0:0:0:
63,153,133945,6,0,P|115:66|210:103,1,220,12|0,3:0|3:0,3:0:0:0:
213,113,134312,1,0,0:0:0:0:
237,286,134434,1,0,0:0:0:0:
379,183,134556,1,0,0:0:0:0:
403,356,134680,6,0,P|498:321|481:222,1,220,12|0,3:0|3:0,3:0:0:0:
475,212,135047,1,0,0:0:0:0:
407,51,135169,1,0,0:0:0:0:
296,187,135291,1,0,0:0:0:0:
228,26,135414,6,0,P|184:4|111:31,1,110,12|0,0:0|0:0,0:0:0:0:
69,111,135659,2,0,P|113:133|186:106,1,110,12|0,0:0|0:0,0:0:0:0:
335,80,135904,6,0,P|375:71|428:109,1,76.9999976501466,8|0,0:0|0:0,0:0:0:0:
445,183,136027,2,0,P|404:191|351:153,1,76.9999976501466,8|0,0:0|0:0,0:0:0:0:
171,192,136149,6,0,P|138:228|145:306,1,110,12|0,0:0|0:0,0:0:0:0:
211,368,136394,2,0,P|243:331|236:253,1,110,12|0,0:0|0:0,0:0:0:0:
250,102,136639,6,0,P|252:60|302:19,1,76.9999976501466,8|0,0:0|0:0,0:0:0:0:
378,23,136762,2,0,P|375:64|325:105,1,76.9999976501466,8|0,0:0|0:0,0:0:0:0:
308,159,136884,6,0,L|270:214,1,55,8|0,0:0|0:0,0:0:0:0:
295,328,137006,2,0,L|333:273,1,55,8|0,0:0|0:0,0:0:0:0:
397,176,137129,1,2,0:0:0:0:
409,158,137374,1,2,0:0:0:0:
66,69,137618,6,0,L|131:171,1,110,8|0,0:0|0:0,0:0:0:0:
197,272,137863,1,8,0:0:0:0:
203,281,137986,1,0,0:0:0:0:
288,127,138108,1,8,0:0:0:0:
282,118,138231,1,0,0:0:0:0:
139,52,138353,6,0,L|124:165,1,110,2|0,0:0|0:0,0:0:0:0:
221,318,138598,2,0,L|235:208,1,110,2|0,0:0|0:0,0:0:0:0:
255,49,138843,1,0,0:0:0:0:
394,66,138965,1,0,0:0:0:0:
116,32,139088,5,8,0:0:0:0:
45,115,139210,1,0,0:0:0:0:
42,250,139333,5,10,0:0:0:0:
158,190,139455,1,0,0:0:0:0:
279,218,139578,5,10,0:0:0:0:
160,315,139700,1,0,0:0:0:0:
325,321,139823,6,0,L|411:249,1,110,10|0,0:0|0:0,0:0:0:0:
410,139,140067,1,8,0:0:0:0:
394,109,140190,1,0,0:0:0:0:
198,81,140312,1,8,0:0:0:0:
214,111,140435,1,0,0:0:0:0:
230,141,140557,6,0,L|287:245,1,110,10|0,0:0|0:0,0:0:0:0:
372,301,140802,1,0,0:0:0:0:
388,331,140925,1,8,0:0:0:0:
192,303,141047,1,0,0:0:0:0:
176,273,141170,1,8,0:0:0:0:
159,244,141292,6,0,L|102:140,1,110,10|0,0:0|0:0,0:0:0:0:
249,145,141537,2,0,L|192:41,1,110,10|0,0:0|0:0,0:0:0:0:
338,64,141782,1,2,0:0:0:0:
407,190,141904,1,2,0:0:0:0:
338,316,142027,5,8,0:0:0:0:
320,329,142088,1,0,0:0:0:0:
300,336,142149,1,0,0:0:0:0:
278,335,142210,1,0,0:0:0:0:
258,326,142271,1,0,0:0:0:0:
242,310,142333,1,0,0:0:0:0:
233,290,142394,1,0,0:0:0:0:
232,269,142455,1,0,0:0:0:0:
205,234,142516,5,2,0:0:0:0:
235,221,142577,1,0,0:0:0:0:
256,196,142638,1,0,0:0:0:0:
265,165,142699,1,0,0:0:0:0:
291,118,142761,5,8,0:0:0:0:
297,85,142822,1,0,0:0:0:0:
302,53,142883,1,0,0:0:0:0:
307,20,142944,1,0,0:0:0:0:
224,46,143006,5,8,0:0:0:0:
218,79,143067,1,0,0:0:0:0:
213,111,143128,1,0,0:0:0:0:
208,144,143189,1,0,0:0:0:0:
135,109,143251,5,0,0:0:0:0:
141,76,143312,1,0,0:0:0:0:
146,44,143373,1,0,0:0:0:0:
151,12,143434,1,0,0:0:0:0:
72,28,143496,5,4,0:0:0:0:
53,55,143557,1,0,0:0:0:0:
46,87,143618,1,0,0:0:0:0:
49,119,143679,1,0,0:0:0:0:
64,198,143741,5,4,0:0:0:0:
70,230,143802,1,0,0:0:0:0:
76,263,143863,1,0,0:0:0:0:
83,295,143924,1,0,0:0:0:0:
149,211,143986,5,8,0:0:0:0:
171,187,144047,1,0,0:0:0:0:
202,176,144108,1,0,0:0:0:0:
235,180,144169,1,0,0:0:0:0:
313,195,144231,5,8,0:0:0:0:
345,201,144292,1,0,0:0:0:0:
377,207,144353,1,0,0:0:0:0:
410,213,144414,1,0,0:0:0:0:
367,280,144476,5,8,0:0:0:0:
335,288,144537,1,0,0:0:0:0:
303,296,144598,1,0,0:0:0:0:
271,304,144659,1,0,0:0:0:0:
212,251,144720,5,8,0:0:0:0:
180,243,144781,1,0,0:0:0:0:
148,235,144842,1,0,0:0:0:0:
116,227,144903,1,0,0:0:0:0:
35,203,144965,5,4,0:0:0:0:
40,224,145210,1,4,0:0:0:0:
45,245,145455,1,4,0:0:0:0:
279,302,145700,5,8,0:0:0:0:
257,269,145761,1,0,0:0:0:0:
223,249,145822,1,0,0:0:0:0:
184,247,145883,1,0,0:0:0:0:
117,265,145945,5,8,0:0:0:0:
109,226,146006,1,0,0:0:0:0:
119,188,146067,1,0,0:0:0:0:
145,159,146128,1,0,0:0:0:0:
224,167,146190,5,8,0:0:0:0:
220,128,146251,1,0,0:0:0:0:
197,96,146312,1,0,0:0:0:0:
161,80,146373,1,0,0:0:0:0:
82,66,146435,5,4,0:0:0:0:
90,97,146496,1,0,0:0:0:0:
98,129,146557,1,0,0:0:0:0:
106,161,146618,1,0,0:0:0:0:
178,197,146680,5,8,0:0:0:0:
186,165,146741,1,0,0:0:0:0:
194,133,146802,1,0,0:0:0:0:
203,101,146863,1,0,0:0:0:0:
275,66,146925,5,8,0:0:0:0:
284,98,146986,1,0,0:0:0:0:
292,130,147047,1,0,0:0:0:0:
300,162,147108,1,0,0:0:0:0:
340,229,147169,5,6,0:0:0:0:
319,254,147230,1,0,0:0:0:0:
289,268,147291,1,0,0:0:0:0:
256,268,147352,1,0,0:0:0:0:
211,201,147414,5,10,0:0:0:0:
177,182,147475,1,0,0:0:0:0:
155,149,147536,1,0,0:0:0:0:
149,110,147597,1,0,0:0:0:0:
139,30,147659,5,10,0:0:0:0:
99,43,147720,1,0,0:0:0:0:
66,77,147781,1,0,0:0:0:0:
52,120,147842,1,0,0:0:0:0:
25,193,147904,6,0,L|7:251,3,55,2|0|0|0,0:0|0:0|0:0|0:0,0:0:0:0:
114,183,148149,2,0,L|97:235,3,55,2|0|0|0,0:0|0:0|0:0|0:0,0:0:0:0:
203,173,148394,2,0,L|186:225,3,55,2|0|0|0,0:0|0:0|0:0|0:0,0:0:0:0:
147,310,148639,5,8,0:0:0:0:
184,323,148700,1,0,0:0:0:0:
223,316,148761,1,0,0:0:0:0:
253,291,148822,1,0,0:0:0:0:
285,267,148884,5,8,0:0:0:0:
283,228,148945,1,0,0:0:0:0:
281,188,149006,1,0,0:0:0:0:
278,149,149067,1,0,0:0:0:0:
296,113,149129,5,8,0:0:0:0:
317,81,149190,1,0,0:0:0:0:
355,74,149251,1,0,0:0:0:0:
387,95,149312,1,0,0:0:0:0:
356,162,149374,5,4,0:0:0:0:
316,155,149435,1,0,0:0:0:0:
277,148,149496,1,0,0:0:0:0:
238,142,149557,1,0,0:0:0:0:
171,116,149618,5,8,0:0:0:0:
134,129,149679,1,0,0:0:0:0:
113,162,149740,1,0,0:0:0:0:
117,201,149801,1,0,0:0:0:0:
141,270,149863,5,8,0:0:0:0:
145,308,149924,1,0,0:0:0:0:
122,338,149985,1,0,0:0:0:0:
83,343,150046,1,0,0:0:0:0:
25,298,150108,5,0,0:0:0:0:
38,246,150169,1,0,0:0:0:0:
52,195,150230,1,0,0:0:0:0:
65,144,150291,1,0,0:0:0:0:
91,98,150353,1,0,0:0:0:0:
134,70,150414,1,0,0:0:0:0:
184,80,150475,1,0,0:0:0:0:
214,122,150536,1,0,0:0:0:0:
203,194,150598,5,8,0:0:0:0:
255,198,150659,1,0,0:0:0:0:
301,174,150720,1,0,0:0:0:0:
329,130,150781,1,0,0:0:0:0:
342,76,150843,5,12,0:0:0:0:
344,93,150904,1,0,0:0:0:0:
347,109,150965,1,0,0:0:0:0:
349,125,151026,1,0,0:0:0:0:
362,194,151087,5,8,0:0:0:0:
364,210,151333,1,8,0:0:0:0:
113,239,151578,5,10,0:0:0:0:
90,205,151639,1,0,0:0:0:0:
84,167,151700,1,0,0:0:0:0:
92,128,151761,1,0,0:0:0:0:
115,95,151822,1,0,0:0:0:0:
148,74,151884,1,0,0:0:0:0:
186,66,151945,1,0,0:0:0:0:
224,73,152006,1,0,0:0:0:0:
299,94,152067,5,8,0:0:0:0:
350,108,152128,1,0,0:0:0:0:
400,123,152189,1,0,0:0:0:0:
451,138,152250,1,0,0:0:0:0:
504,198,152312,5,8,0:0:0:0:
509,236,152373,1,0,0:0:0:0:
498,274,152434,1,0,0:0:0:0:
472,304,152495,1,0,0:0:0:0:
436,320,152556,1,0,0:0:0:0:
397,320,152618,1,0,0:0:0:0:
361,304,152679,1,0,0:0:0:0:
335,275,152740,1,0,0:0:0:0:
276,220,152802,5,8,0:0:0:0:
239,182,152863,1,0,0:0:0:0:
202,144,152924,1,0,0:0:0:0:
165,106,152985,1,0,0:0:0:0:
107,53,153047,6,0,P|85:42|36:40,3,55,2|0|2|0,0:0|0:0|0:0|0:0,0:0:0:0:
109,160,153292,2,0,P|136:156|160:144,3,55,2|0|2|0,0:0|0:0|0:0|0:0,0:0:0:0:
106,266,153537,2,0,P|78:262|54:250,3,55,2|0|2|0,0:0|0:0|0:0|0:0,0:0:0:0:
286,331,153782,6,0,L|295:260,3,55,2|0|2|0,0:0|0:0|0:0|0:0,0:0:0:0:
423,245,154027,2,0,L|413:174,3,55,2|0|2|0,0:0|0:0|0:0|0:0,0:0:0:0:
286,153,154272,2,0,L|295:82,3,55,2|0|2|0,0:0|0:0|0:0|0:0,0:0:0:0:
380,133,154516,5,8,0:0:0:0:
379,185,154577,1,0,0:0:0:0:
350,228,154638,1,0,0:0:0:0:
303,250,154699,1,0,0:0:0:0:
222,275,154761,5,8,0:0:0:0:
222,222,154822,1,0,0:0:0:0:
251,179,154883,1,0,0:0:0:0:
298,157,154944,1,0,0:0:0:0:
339,88,155006,5,8,0:0:0:0:
298,57,155067,1,0,0:0:0:0:
246,61,155128,1,0,0:0:0:0:
209,97,155189,1,0,0:0:0:0:
156,157,155251,5,8,0:0:0:0:
129,186,155312,1,0,0:0:0:0:
102,216,155373,1,0,0:0:0:0:
77,246,155434,1,0,0:0:0:0:
166,273,155496,5,8,0:0:0:0:
193,244,155557,1,0,0:0:0:0:
220,214,155618,1,0,0:0:0:0:
245,184,155679,1,0,0:0:0:0:
311,249,155741,5,8,0:0:0:0:
284,278,155802,1,0,0:0:0:0:
257,308,155863,1,0,0:0:0:0:
232,338,155924,1,0,0:0:0:0:
153,353,155986,5,8,0:0:0:0:
129,322,156047,1,0,0:0:0:0:
120,284,156108,1,0,0:0:0:0:
129,245,156169,1,0,0:0:0:0:
86,193,156231,5,8,0:0:0:0:
97,155,156292,1,0,0:0:0:0:
123,126,156353,1,0,0:0:0:0:
160,111,156414,1,0,0:0:0:0:
210,67,156476,5,8,0:0:0:0:
249,65,156537,1,0,0:0:0:0:
286,79,156598,1,0,0:0:0:0:
313,109,156659,1,0,0:0:0:0:
355,175,156720,5,4,0:0:0:0:
377,190,156781,1,0,0:0:0:0:
402,197,156842,1,0,0:0:0:0:
428,196,156903,1,0,0:0:0:0:
499,214,156965,5,8,0:0:0:0:
459,281,157026,1,8,0:0:0:0:
387,309,157087,1,8,0:0:0:0:
313,286,157148,1,8,0:0:0:0:
252,245,157210,5,8,0:0:0:0:
214,232,157271,1,0,0:0:0:0:
175,233,157332,1,0,0:0:0:0:
139,248,157393,1,0,0:0:0:0:
72,279,157455,6,0,P|29:290|-12:280,3,76.9999976501466,2|0|2|0,0:0|0:0|0:0|0:0,0:0:0:0:
107,197,157700,2,0,P|62:194|26:171,3,76.9999976501466,2|0|2|0,0:0|0:0|0:0|0:0,0:0:0:0:
167,135,157945,2,0,P|125:118|98:86,3,76.9999976501466,2|0|2|0,0:0|0:0|0:0|0:0,0:0:0:0:
222,212,158190,5,0,0:0:0:0:
222,212,158435,1,0,0:0:0:0:
261,254,158496,1,0,0:0:0:0:
318,263,158557,1,0,0:0:0:0:
368,232,158618,1,0,0:0:0:0:
424,210,158680,1,0,0:0:0:0:
485,232,158741,1,0,0:0:0:0:
488,304,158802,1,0,0:0:0:0:
420,345,158863,1,0,0:0:0:0:
333,348,158925,6,0,L|230:325,3,76.9999976501466,2|0|2|0,0:0|0:0|0:0|0:0,0:0:0:0:
433,251,159169,2,0,L|507:177,3,76.9999976501466,2|0|2|0,0:0|0:0|0:0|0:0,0:0:0:0:
300,199,159414,2,0,L|197:174,3,76.9999976501466,2|0|2|0,0:0|0:0|0:0|0:0,0:0:0:0:
354,253,159659,5,12,0:0:0:0:
378,193,159720,1,0,0:0:0:0:
358,132,159781,1,0,0:0:0:0:
302,99,159842,1,0,0:0:0:0:
238,112,159903,1,0,0:0:0:0:
174,128,159965,1,0,0:0:0:0:
109,140,160026,1,0,0:0:0:0:
44,129,160087,1,0,0:0:0:0:
0,95,160148,1,10,0:0:0:0:
66,238,160394,5,8,0:0:0:0:
92,266,160455,1,0,0:0:0:0:
130,275,160516,1,0,0:0:0:0:
167,263,160577,1,0,0:0:0:0:
228,210,160639,5,8,0:0:0:0:
261,188,160700,1,0,0:0:0:0:
295,167,160761,1,0,0:0:0:0:
328,145,160822,1,0,0:0:0:0:
405,123,160884,5,8,0:0:0:0:
441,136,160945,1,0,0:0:0:0:
461,169,161006,1,0,0:0:0:0:
457,208,161067,1,0,0:0:0:0:
402,266,161129,5,4,0:0:0:0:
388,236,161190,1,0,0:0:0:0:
374,206,161251,1,0,0:0:0:0:
360,177,161312,1,0,0:0:0:0:
296,127,161374,5,4,0:0:0:0:
282,156,161435,1,0,0:0:0:0:
268,186,161496,1,0,0:0:0:0:
254,216,161557,1,0,0:0:0:0:
194,269,161619,5,4,0:0:0:0:
180,239,161680,1,0,0:0:0:0:
166,209,161741,1,0,0:0:0:0:
152,180,161802,1,0,0:0:0:0:
114,110,161863,5,8,0:0:0:0:
108,58,161924,1,0,0:0:0:0:
137,15,161985,1,0,0:0:0:0:
186,0,162046,1,0,0:0:0:0:
234,18,162107,1,0,0:0:0:0:
279,47,162169,1,0,0:0:0:0:
327,67,162230,1,0,0:0:0:0:
379,61,162291,1,0,0:0:0:0:
458,50,162353,5,8,0:0:0:0:
482,59,162414,1,0,0:0:0:0:
499,79,162475,1,0,0:0:0:0:
504,105,162536,1,0,0:0:0:0:
507,131,162598,5,8,0:0:0:0:
505,183,162659,1,0,0:0:0:0:
504,236,162720,1,0,0:0:0:0:
502,289,162781,1,0,0:0:0:0:
500,342,162843,1,0,0:0:0:0:
466,380,162904,1,0,0:0:0:0:
415,379,162965,1,0,0:0:0:0:
382,340,163026,1,0,0:0:0:0:
339,308,163088,1,0,0:0:0:0:
290,290,163149,1,0,0:0:0:0:
239,301,163210,1,0,0:0:0:0:
200,336,163271,1,0,0:0:0:0:
156,367,163333,6,0,P|116:379|67:362,1,65.9999979858399,2|0,0:0|0:0,0:0:0:0:
111,272,163455,2,0,P|141:260|174:263,1,65.9999979858399,2|0,0:0|0:0,0:0:0:0:
281,269,163578,2,0,L|351:274,1,65.9999979858399,2|0,0:0|0:0,0:0:0:0:
437,255,163700,5,2,0:0:0:0:
481,228,163761,1,0,0:0:0:0:
497,180,163822,1,0,0:0:0:0:
475,133,163883,1,0,0:0:0:0:
429,112,163944,1,0,0:0:0:0:
379,129,164006,1,0,0:0:0:0:
307,162,164067,5,2,0:0:0:0:
261,170,164128,1,0,0:0:0:0:
217,160,164189,1,0,0:0:0:0:
180,133,164250,1,0,0:0:0:0:
141,107,164312,1,0,0:0:0:0:
97,95,164373,1,0,0:0:0:0:
17,90,164435,6,0,P|38:47|63:24,1,65.9999979858399,2|0,0:0|0:0,0:0:0:0:
137,29,164557,2,0,L|211:19,3,65.9999979858399,2|0|2|0,0:0|0:0|0:0|0:0,0:0:0:0:
240,97,164802,6,0,L|186:255,1,165,4|0,0:0|0:0,0:0:0:0:
278,335,165047,6,0,L|331:176,1,165,4|0,0:0|0:0,0:0:0:0:
473,103,165292,70,0,L|420:259,1,165,4|0,0:0|0:0,0:0:0:0:
373,54,165537,70,0,B|291:96|223:105|223:105|191:118|136:107|136:107|168:169|168:169|193:148|236:147,1,385,4|0,0:0|0:0,0:0:0:0:
329,158,166027,1,14,0:0:0:0:
77,218,166272,6,0,P|107:237|146:241,1,65.9999979858399
292,278,166394,2,0,P|261:259|223:255,1,65.9999979858399
76,171,166516,2,0,P|100:197|137:210,1,65.9999979858399
268,284,166638,2,0,P|244:258|208:244,1,65.9999979858399
91,116,166761,2,0,P|106:149|137:173,1,65.9999979858399
239,283,166883,2,0,P|224:251|194:227,1,65.9999979858399
48,137,167006,5,8,0:0:0:0:
47,98,167067,1,0,0:0:0:0:
76,73,167128,1,0,0:0:0:0:
114,78,167189,1,0,0:0:0:0:
150,96,167251,1,0,0:0:0:0:
189,98,167312,1,0,0:0:0:0:
268,92,167374,5,8,0:0:0:0:
306,87,167435,1,0,0:0:0:0:
341,104,167496,1,0,0:0:0:0:
376,123,167557,1,0,0:0:0:0:
413,137,167618,1,0,0:0:0:0:
451,128,167679,1,0,0:0:0:0:
484,125,167741,6,0,P|476:95|444:68,1,65.9999979858399
359,78,167863,2,0,P|335:58|293:54,1,65.9999979858399
229,111,167986,2,0,P|198:108|161:129,1,65.9999979858399
82,240,168108,6,0,P|107:257|149:257,1,65.9999979858399
234,272,168231,5,8,0:0:0:0:
286,277,168292,1,0,0:0:0:0:
339,282,168353,1,0,0:0:0:0:
392,287,168414,1,0,0:0:0:0:
445,293,168476,1,0,0:0:0:0:
486,263,168537,1,0,0:0:0:0:
491,212,168598,1,0,0:0:0:0:
456,175,168659,1,0,0:0:0:0:
405,177,168720,1,0,0:0:0:0:
355,196,168782,1,0,0:0:0:0:
304,207,168843,1,0,0:0:0:0:
256,188,168904,1,0,0:0:0:0:
186,151,168965,5,2,0:0:0:0:
210,112,169026,1,0,0:0:0:0:
252,93,169087,1,2,0:0:0:0:
297,98,169148,1,0,0:0:0:0:
374,119,169210,5,2,0:0:0:0:
416,133,169271,1,0,0:0:0:0:
450,106,169332,1,2,0:0:0:0:
445,62,169393,1,0,0:0:0:0:
356,32,169455,5,8,0:0:0:0:
363,84,169516,1,0,0:0:0:0:
371,136,169577,1,0,0:0:0:0:
378,188,169638,1,0,0:0:0:0:
386,241,169700,1,0,0:0:0:0:
378,291,169761,1,0,0:0:0:0:
334,319,169822,1,0,0:0:0:0:
285,305,169883,1,0,0:0:0:0:
214,266,169945,5,8,0:0:0:0:
176,257,170006,1,0,0:0:0:0:
137,263,170067,1,0,0:0:0:0:
102,281,170128,1,0,0:0:0:0:
29,266,170190,5,8,0:0:0:0:
47,232,170251,1,0,0:0:0:0:
77,206,170312,1,0,0:0:0:0:
113,191,170373,1,0,0:0:0:0:
184,155,170435,6,0,P|161:126|115:112,3,65.9999979858399,8|0|2|0,0:0|0:0|0:0|0:0,0:0:0:0:
169,340,170680,5,8,0:0:0:0:
246,220,170802,1,0,0:0:0:0:
302,349,170925,5,0,0:0:0:0:
379,229,171047,2,0,L|447:119,1,110,8|0,0:0|0:0,0:0:0:0:
361,41,171292,1,0,0:0:0:0:
344,69,171414,5,8,0:0:0:0:
318,103,171475,1,0,0:0:0:0:
276,114,171536,1,0,0:0:0:0:
236,97,171597,1,0,0:0:0:0:
196,79,171659,1,0,0:0:0:0:
153,73,171720,1,0,0:0:0:0:
112,88,171781,1,0,0:0:0:0:
82,120,171842,1,0,0:0:0:0:
87,164,171904,1,0,0:0:0:0:
105,204,171965,1,0,0:0:0:0:
113,247,172026,1,0,0:0:0:0:
113,291,172087,1,0,0:0:0:0:
97,335,172149,6,0,P|71:372|56:268,1,263.99999194336,8|0,0:0|0:0,0:0:0:0:
60,265,172516,1,8,0:0:0:0:
189,235,172639,1,2,0:0:0:0:
318,205,172761,1,2,0:0:0:0:
235,137,172884,6,0,L|101:166,1,131.99999597168,8|0,0:0|0:0,0:0:0:0:
196,261,173129,2,0,L|330:232,1,131.99999597168,8|0,0:0|0:0,0:0:0:0:
415,329,173374,2,0,L|286:357,1,131.99999597168,8|0,0:0|0:0,0:0:0:0:
109,282,173618,6,0,P|117:219|194:177,1,131.99999597168,8|0,0:0|0:0,0:0:0:0:
288,122,173863,2,0,L|423:58,1,131.99999597168,8|0,0:0|0:0,0:0:0:0:
222,50,174108,2,0,L|87:114,1,131.99999597168,8|0,0:0|0:0,0:0:0:0:
27,276,174353,6,0,P|60:335|180:236,1,263.99999194336,8|0,0:0|0:0,0:0:0:0:
194,120,174720,1,2,0:0:0:0:
210,78,174781,1,2,0:0:0:0:
244,46,174842,1,2,0:0:0:0:
287,32,174903,1,2,0:0:0:0:
333,37,174964,1,2,0:0:0:0:
461,73,175088,5,8,0:0:0:0:
363,161,175210,1,2,0:0:0:0:
380,292,175333,2,0,P|387:333|321:265,1,263.99999194336,8|0,0:0|0:0,0:0:0:0:
305,265,175700,5,0,0:0:0:0:
313,254,175823,2,0,L|354:200,1,65.9999979858399
309,120,175945,2,0,L|268:174,1,65.9999979858399
207,249,176067,2,0,P|139:289|149:157,1,263.99999194336,8|0,0:0|0:0,0:0:0:0:
203,72,176557,6,0,L|274:25,1,65.9999979858399,2|0,0:0|0:0,0:0:0:0:
223,77,176680,2,0,L|294:30,1,65.9999979858399,2|0,0:0|0:0,0:0:0:0:
394,97,176802,2,0,L|323:144,1,65.9999979858399,2|0,0:0|0:0,0:0:0:0:
414,102,176925,2,0,L|343:149,1,65.9999979858399,2|0,0:0|0:0,0:0:0:0:
243,82,177047,6,0,L|314:35,1,65.9999979858399,2|0,0:0|0:0,0:0:0:0:
434,107,177170,2,0,L|363:154,1,65.9999979858399,2|0,0:0|0:0,0:0:0:0:
130,287,177292,6,0,L|185:250,1,65.9999979858399,2|0,0:0|0:0,0:0:0:0:
110,282,177414,2,0,L|165:245,1,65.9999979858399,2|0,0:0|0:0,0:0:0:0:
80,212,177537,2,0,L|151:165,1,65.9999979858399,2|0,0:0|0:0,0:0:0:0:
60,207,177660,2,0,L|131:160,1,65.9999979858399,2|0,0:0|0:0,0:0:0:0:
53,124,177782,2,0,L|108:87,1,65.9999979858399,2|0,0:0|0:0,0:0:0:0:
33,119,177905,2,0,L|88:82,1,65.9999979858399,2|0,0:0|0:0,0:0:0:0:
192,60,178027,5,8,0:0:0:0:
222,71,178149,1,0,0:0:0:0:
287,143,178272,5,8,0:0:0:0:
317,154,178394,2,0,B|361:192|409:199|409:199|445:220|445:220|425:236|416:264|416:264|381:230|329:224,1,275,2|0,0:0|0:0,0:0:0:0:
274,218,178761,70,0,B|216:206|178:164|178:164|147:195|74:190|74:190|70:222|36:252,1,275,8|0,0:0|0:0,0:0:0:0:
29,311,179129,6,0,P|40:357|126:257,1,275,8|0,0:0|0:0,0:0:0:0:
113,202,179496,70,0,B|106:120|60:61|60:61|112:75|154:57|154:57|172:170|257:225,1,440,8|0,0:0|0:0,0:0:0:0:
308,267,180047,2,0,P|354:292|382:294,1,55,2|0,0:0|0:0,0:0:0:0:
436,308,180169,6,0,B|411:202|443:125|443:125|371:131|331:84|331:84|272:123|194:109|160:37|160:37|194:119|129:194,1,660,8|0,0:0|0:0,0:0:0:0:
103,249,180965,70,0,L|71:308,1,55
140,251,181088,2,0,L|108:310,1,55
178,257,181210,2,0,L|146:316,1,55
319,300,181333,6,0,P|288:292|263:272,1,55
323,267,181455,2,0,P|307:239|303:208,1,55
338,240,181578,2,0,P|345:209|365:185,1,55
397,113,181700,70,0,B|414:73|419:32|419:32|384:37|366:13|366:13|369:60|333:101,1,220,8|8,0:0|0:0,0:0:0:0:
273,154,182067,1,0,0:0:0:0:
241,183,182128,1,0,0:0:0:0:
198,190,182189,1,0,0:0:0:0:
158,172,182250,1,0,0:0:0:0:
116,158,182312,1,0,0:0:0:0:
73,162,182373,1,0,0:0:0:0:
33,181,182435,6,0,P|9:204|89:246,1,165,2|0,0:0|0:0,0:0:0:0:
93,243,182680,1,0,0:0:0:0:
215,289,182802,1,8,0:0:0:0:
341,99,183047,69,8,0:0:0:0:
341,99,183169,5,0,0:0:0:0:
325,127,183230,1,0,0:0:0:0:
320,160,183291,1,0,0:0:0:0:
326,192,183352,1,0,0:0:0:0:
335,225,183414,1,0,0:0:0:0:
341,267,183475,1,0,0:0:0:0:
316,302,183536,1,0,0:0:0:0:
274,311,183597,1,0,0:0:0:0:
230,309,183659,1,0,0:0:0:0:
175,305,183720,1,0,0:0:0:0:
120,300,183781,1,0,0:0:0:0:
65,296,183842,1,0,0:0:0:0:
2,316,183904,6,0,B|6:293|-1:270|-1:270|26:247|43:208,1,110,8|2,0:0|0:0,0:0:0:0:
103,131,184149,1,2,0:0:0:0:
135,236,184272,1,2,0:0:0:0:
221,167,184394,1,2,0:0:0:0:
254,272,184516,1,2,0:0:0:0:
375,175,184639,5,10,0:0:0:0:
329,28,184761,1,2,0:0:0:0:
188,93,184884,1,2,0:0:0:0:
266,169,185006,1,2,0:0:0:0:
188,245,185129,2,0,L|106:324,1,110,2|0,0:0|0:0,0:0:0:0:
80,227,185374,6,0,B|136:192|156:151|156:151|207:167|235:143|260:120|260:120,1,220,10|0,0:0|0:0,0:0:0:0:
352,66,185741,1,2,0:0:0:0:
425,147,185863,1,2,0:0:0:0:
321,181,185986,1,2,0:0:0:0:
394,262,186108,5,10,0:0:0:0:
241,286,186231,1,2,0:0:0:0:
88,310,186353,1,2,0:0:0:0:
176,244,186476,1,2,0:0:0:0:
115,152,186598,1,2,0:0:0:0:
203,86,186720,1,2,0:0:0:0:
102,43,186843,5,8,0:0:0:0:
62,168,186965,1,0,0:0:0:0:
22,293,187088,1,0,0:0:0:0:
142,358,187210,5,8,0:0:0:0:
182,233,187332,1,0,0:0:0:0:
222,108,187455,1,0,0:0:0:0:
412,188,187578,5,8,0:0:0:0:
287,228,187700,1,0,0:0:0:0:
162,268,187823,1,0,0:0:0:0:
97,148,187945,5,8,0:0:0:0:
222,108,188067,1,0,0:0:0:0:
347,68,188190,1,0,0:0:0:0:
478,68,188312,5,2,0:0:0:0:
501,82,188373,1,0,0:0:0:0:
512,104,188434,1,0,0:0:0:0:
512,130,188495,1,0,0:0:0:0:
512,158,188556,1,0,0:0:0:0:
507,181,188618,1,0,0:0:0:0:
486,199,188679,1,0,0:0:0:0:
460,207,188740,1,0,0:0:0:0:
433,205,188801,1,0,0:0:0:0:
405,200,188863,1,0,0:0:0:0:
377,197,188924,1,0,0:0:0:0:
350,201,188985,1,0,0:0:0:0:
313,226,189047,5,8,0:0:0:0:
266,251,189108,1,8,0:0:0:0:
213,241,189169,1,8,0:0:0:0:
180,198,189230,1,8,0:0:0:0:
181,145,189291,1,8,0:0:0:0:
216,104,189353,1,8,0:0:0:0:
267,72,189414,5,2,0:0:0:0:
243,50,189475,1,0,0:0:0:0:
212,38,189536,1,0,0:0:0:0:
180,39,189597,1,0,0:0:0:0:
150,52,189658,1,0,0:0:0:0:
127,76,189720,1,0,0:0:0:0:
77,139,189782,5,8,0:0:0:0:
77,139,190027,2,0,P|109:154|141:147,1,65.9999979858399
215,131,190149,5,2,0:0:0:0:
271,116,190210,1,2,0:0:0:0:
327,134,190271,1,2,0:0:0:0:
363,180,190332,1,2,0:0:0:0:
369,238,190393,1,2,0:0:0:0:
342,290,190455,1,2,0:0:0:0:
291,319,190516,1,2,0:0:0:0:
233,316,190577,1,2,0:0:0:0:
186,281,190638,1,2,0:0:0:0:
128,265,190700,1,2,0:0:0:0:
71,261,190761,1,2,0:0:0:0:
41,309,190822,1,2,0:0:0:0:
68,359,190883,5,2,0:0:0:0:
125,359,190944,1,2,0:0:0:0:
184,351,191006,1,2,0:0:0:0:
243,344,191067,1,2,0:0:0:0:
302,338,191128,1,2,0:0:0:0:
361,331,191189,1,2,0:0:0:0:
420,320,191251,6,0,P|455:311|481:283,1,65.9999979858399,2|0,0:0|0:0,0:0:0:0:
436,290,191374,2,0,P|459:262|464:224,1,65.9999979858399,2|0,0:0|0:0,0:0:0:0:
405,105,191496,6,0,P|370:114|344:142,1,65.9999979858399,2|0,0:0|0:0,0:0:0:0:
389,135,191619,2,0,P|365:162|360:200,1,65.9999979858399,2|0,0:0|0:0,0:0:0:0:
247,259,191741,6,0,P|212:250|186:222,1,65.9999979858399,2|0,0:0|0:0,0:0:0:0:
231,229,191864,2,0,P|207:201|202:163,1,65.9999979858399,2|0,0:0|0:0,0:0:0:0:
68,174,191986,5,8,0:0:0:0:
55,149,192047,1,0,0:0:0:0:
56,123,192108,1,0,0:0:0:0:
71,102,192169,1,0,0:0:0:0:
94,90,192230,1,0,0:0:0:0:
120,93,192292,1,0,0:0:0:0:
147,94,192353,1,0,0:0:0:0:
172,99,192414,1,0,0:0:0:0:
198,98,192475,1,0,0:0:0:0:
222,88,192536,1,0,0:0:0:0:
244,74,192597,1,0,0:0:0:0:
261,54,192659,1,0,0:0:0:0:
306,46,192720,5,2,0:0:0:0:
361,29,192781,1,2,0:0:0:0:
412,55,192842,1,2,0:0:0:0:
431,110,192903,1,2,0:0:0:0:
406,162,192964,1,2,0:0:0:0:
352,183,193026,1,2,0:0:0:0:
281,201,193088,5,2,0:0:0:0:
258,224,193149,1,2,0:0:0:0:
249,255,193210,1,2,0:0:0:0:
256,287,193271,1,2,0:0:0:0:
278,312,193332,1,2,0:0:0:0:
309,323,193394,1,2,0:0:0:0:
383,349,193455,6,0,P|415:353|447:344,1,65.9999979858399,2|0,0:0|0:0,0:0:0:0:
408,307,193578,2,0,P|440:302|468:286,1,65.9999979858399,2|0,0:0|0:0,0:0:0:0:
452,209,193700,5,2,0:0:0:0:
437,152,193761,1,2,0:0:0:0:
397,108,193822,1,2,0:0:0:0:
342,89,193883,1,2,0:0:0:0:
283,97,193944,1,2,0:0:0:0:
236,132,194006,1,2,0:0:0:0:
180,149,194067,1,2,0:0:0:0:
124,131,194128,1,2,0:0:0:0:
49,100,194190,5,2,0:0:0:0:
55,158,194251,1,2,0:0:0:0:
62,217,194312,1,2,0:0:0:0:
73,277,194374,1,2,0:0:0:0:
111,321,194435,1,2,0:0:0:0:
169,332,194496,1,2,0:0:0:0:
220,305,194557,1,2,0:0:0:0:
244,251,194618,1,2,0:0:0:0:
269,196,194680,6,0,L|289:130,1,65.9999979858399,2|0,0:0|0:0,0:0:0:0:
217,29,194802,2,0,L|197:95,1,65.9999979858399,2|0,0:0|0:0,0:0:0:0:
157,191,194925,6,0,P|112:180|86:143,3,65.9999979858399,2|0|2|0,0:0|0:0|0:0|0:0,0:0:0:0:
160,278,195169,2,0,P|201:267|231:230,3,65.9999979858399,2|0|2|0,0:0|0:0|0:0|0:0,0:0:0:0:
68,296,195414,2,0,P|79:337|116:367,3,65.9999979858399,2|0|2|0,0:0|0:0|0:0|0:0,0:0:0:0:
237,338,195659,5,4,0:0:0:0:
245,331,195904,2,0,L|330:261,1,110,10|0,0:0|0:0,0:0:0:0:
416,192,196149,1,0,0:0:0:0:
330,121,196272,1,0,0:0:0:0:
220,194,196394,5,10,0:0:0:0:
117,112,196516,1,0,0:0:0:0:
231,198,196639,1,8,0:0:0:0:
100,192,196761,1,0,0:0:0:0:
243,202,196884,1,8,0:0:0:0:
133,274,197006,1,0,0:0:0:0:
261,209,197129,6,8,B|305:200|330:183|330:183|371:180|396:151|396:151|424:150|468:128,1,220,10|8,0:0|0:0,0:0:0:0:
504,27,197496,2,0,P|477:45|433:43,1,55,2|0,0:0|0:0,0:0:0:0:
375,114,197618,2,0,P|342:113|307:86,1,55,2|0,0:0|0:0,0:0:0:0:
219,111,197741,2,0,P|192:91|179:49,1,55,2|0,0:0|0:0,0:0:0:0:
60,46,197863,6,0,P|69:91|85:109,1,65.9999979858399,2|0,0:0|0:0,0:0:0:0:
123,253,197986,2,0,P|137:209|132:185,1,65.9999979858399,2|0,0:0|0:0,0:0:0:0:
136,41,198108,2,0,P|133:86|143:108,1,65.9999979858399,2|0,0:0|0:0,0:0:0:0:
144,257,198231,2,0,P|169:218|170:194,1,65.9999979858399,2|0,0:0|0:0,0:0:0:0:
211,55,198353,2,0,P|196:98|201:122,1,65.9999979858399,2|0,0:0|0:0,0:0:0:0:
163,266,198476,2,0,P|197:235|205:212,1,65.9999979858399,2|0,0:0|0:0,0:0:0:0:
288,124,198598,6,0,P|350:81|313:209,1,330,10|0,0:0|0:0,0:0:0:0:
177,172,199088,2,0,P|145:156|125:119,1,55
200,104,199210,2,0,P|182:72|187:31,1,55
257,61,199333,6,0,B|296:98|336:91|336:91|368:135|422:147|422:147|442:175|475:190|475:190|437:224|437:224|385:164|302:142|302:142|270:149|266:187|266:187|243:152|186:139,1,605,10|0,0:0|0:0,0:0:0:0:
146,105,200067,5,4,0:0:0:0:
127,92,200312,1,4,0:0:0:0:
108,79,200557,1,4,0:0:0:0:
185,298,200802,6,0,L|109:312,5,76.9999976501466,8|0|2|0|2|0,0:0|0:0|0:0|0:0|0:0|0:0,0:0:0:0:
59,231,201169,2,0,L|134:216,5,76.9999976501466,8|0|2|0|2|0,0:0|0:0|0:0|0:0|0:0|0:0,0:0:0:0:
264,267,201537,5,8,0:0:0:0:
259,214,201598,1,0,0:0:0:0:
237,166,201659,1,0,0:0:0:0:
212,120,201720,1,0,0:0:0:0:
204,69,201781,1,0,0:0:0:0:
237,31,201842,1,0,0:0:0:0:
276,28,201904,5,8,0:0:0:0:
312,40,201965,1,0,0:0:0:0:
331,74,202026,1,0,0:0:0:0:
323,112,202087,1,0,0:0:0:0:
291,134,202148,1,0,0:0:0:0:
253,132,202210,1,0,0:0:0:0:
216,114,202272,5,8,0:0:0:0:
164,116,202333,1,0,0:0:0:0:
130,154,202394,1,0,0:0:0:0:
133,205,202455,1,0,0:0:0:0:
172,238,202516,1,0,0:0:0:0:
223,233,202578,1,0,0:0:0:0:
273,202,202639,5,8,0:0:0:0:
305,196,202700,1,0,0:0:0:0:
338,191,202761,1,0,0:0:0:0:
370,185,202822,1,0,0:0:0:0:
403,180,202883,1,0,0:0:0:0:
435,174,202945,1,0,0:0:0:0:
473,148,203006,5,8,0:0:0:0:
512,178,203067,1,0,0:0:0:0:
512,235,203128,1,0,0:0:0:0:
502,283,203189,1,0,0:0:0:0:
446,294,203250,1,0,0:0:0:0:
398,261,203312,1,0,0:0:0:0:
352,252,203374,5,8,0:0:0:0:
315,239,203435,1,0,0:0:0:0:
276,237,203496,1,0,0:0:0:0:
238,249,203557,1,0,0:0:0:0:
206,272,203618,1,0,0:0:0:0:
184,304,203680,1,0,0:0:0:0:
151,336,203741,6,0,P|120:356|70:342,1,65.9999979858399,8|0,0:0|0:0,0:0:0:0:
26,324,203863,1,0,0:0:0:0:
35,265,203924,1,0,0:0:0:0:
44,206,203985,1,0,0:0:0:0:
53,147,204046,1,0,0:0:0:0:
64,88,204108,1,0,0:0:0:0:
99,42,204169,1,0,0:0:0:0:
157,39,204230,1,0,0:0:0:0:
197,80,204291,1,0,0:0:0:0:
193,138,204352,1,0,0:0:0:0:
147,172,204414,1,0,0:0:0:0:
102,186,204476,5,8,0:0:0:0:
63,209,204537,1,0,0:0:0:0:
48,252,204598,1,0,0:0:0:0:
65,294,204659,1,0,0:0:0:0:
105,315,204720,1,0,0:0:0:0:
149,305,204782,1,0,0:0:0:0:
158,260,204843,5,8,0:0:0:0:
188,226,204904,1,0,0:0:0:0:
233,222,204965,1,0,0:0:0:0:
270,248,205026,1,0,0:0:0:0:
280,292,205087,1,0,0:0:0:0:
258,332,205149,1,0,0:0:0:0:
198,372,205210,6,0,P|173:349|118:348,3,65.9999979858399,8|0|2|0,0:0|0:0|0:0|0:0,0:0:0:0:
315,330,205455,2,0,P|331:300|383:282,3,65.9999979858399,8|0|2|0,0:0|0:0|0:0|0:0,0:0:0:0:
205,269,205700,2,0,P|198:235|154:202,3,65.9999979858399,8|0|2|0,0:0|0:0|0:0|0:0,0:0:0:0:
297,205,205945,5,8,0:0:0:0:
330,165,206006,1,0,0:0:0:0:
329,113,206067,1,0,0:0:0:0:
294,75,206128,1,0,0:0:0:0:
242,70,206189,1,0,0:0:0:0:
200,100,206251,1,0,0:0:0:0:
188,150,206312,1,0,0:0:0:0:
186,203,206374,1,0,0:0:0:0:
180,254,206435,1,0,0:0:0:0:
138,283,206496,1,0,0:0:0:0:
88,271,206557,1,0,0:0:0:0:
65,225,206618,1,0,0:0:0:0:
55,152,206680,5,10,0:0:0:0:
100,157,206741,1,8,0:0:0:0:
146,162,206802,1,8,0:0:0:0:
192,167,206863,1,8,0:0:0:0:
238,172,206924,1,8,0:0:0:0:
284,178,206986,1,8,0:0:0:0:
323,184,207047,1,0,0:0:0:0:
357,202,207108,1,0,0:0:0:0:
373,237,207169,1,0,0:0:0:0:
365,275,207230,1,0,0:0:0:0:
335,301,207291,1,0,0:0:0:0:
296,303,207353,1,0,0:0:0:0:
258,294,207414,5,0,0:0:0:0:
267,249,207475,1,0,0:0:0:0:
254,205,207536,1,0,0:0:0:0:
221,173,207597,1,0,0:0:0:0:
181,149,207659,2,0,P|148:118|143:75,1,65.9999979858399
31,130,207782,6,0,P|62:163|105:168,1,65.9999979858399,8|0,0:0|0:0,0:0:0:0:
154,196,207904,1,0,0:0:0:0:
197,211,207965,1,0,0:0:0:0:
241,226,208026,1,0,0:0:0:0:
284,241,208087,1,0,0:0:0:0:
359,271,208149,5,8,0:0:0:0:
378,312,208210,1,0,0:0:0:0:
367,355,208271,1,0,0:0:0:0:
330,382,208332,1,0,0:0:0:0:
285,378,208393,1,0,0:0:0:0:
253,347,208455,1,0,0:0:0:0:
213,323,208516,5,8,0:0:0:0:
182,289,208577,1,0,0:0:0:0:
152,254,208638,1,0,0:0:0:0:
122,219,208699,1,0,0:0:0:0:
91,184,208760,1,0,0:0:0:0:
61,149,208822,1,0,0:0:0:0:
20,125,208884,5,8,0:0:0:0:
18,73,208945,1,0,0:0:0:0:
56,39,209006,1,0,0:0:0:0:
107,47,209067,1,0,0:0:0:0:
170,106,209129,5,8,0:0:0:0:
216,131,209190,1,0,0:0:0:0:
267,124,209251,1,0,0:0:0:0:
305,88,209312,1,0,0:0:0:0:
348,56,209374,1,0,0:0:0:0:
396,41,209435,1,0,0:0:0:0:
439,70,209496,1,0,0:0:0:0:
442,121,209557,1,0,0:0:0:0:
439,199,209618,5,8,0:0:0:0:
424,256,209679,1,0,0:0:0:0:
378,291,209740,1,0,0:0:0:0:
319,293,209801,1,0,0:0:0:0:
272,259,209862,1,0,0:0:0:0:
254,203,209924,1,0,0:0:0:0:
274,146,209986,1,0,0:0:0:0:
292,91,210047,1,0,0:0:0:0:
265,40,210108,1,0,0:0:0:0:
209,25,210169,1,0,0:0:0:0:
160,55,210230,1,0,0:0:0:0:
148,111,210292,1,0,0:0:0:0:
140,169,210353,6,0,L|129:263,3,65.9999979858399,8|0|2|0,0:0|0:0|0:0|0:0,0:0:0:0:
225,224,210598,2,0,L|214:318,3,65.9999979858399,8|0|2|0,0:0|0:0|0:0|0:0,0:0:0:0:
310,296,210843,5,0,0:0:0:0:
359,307,210904,1,0,0:0:0:0:
402,279,210965,1,0,0:0:0:0:
410,228,211026,1,0,0:0:0:0:
378,188,211087,1,0,0:0:0:0:
327,184,211149,1,0,0:0:0:0:
274,187,211210,1,0,0:0:0:0:
221,191,211271,1,0,0:0:0:0:
169,195,211332,1,0,0:0:0:0:
116,199,211393,1,0,0:0:0:0:
42,204,211455,5,10,0:0:0:0:
51,254,211516,1,2,0:0:0:0:
90,289,211577,1,2,0:0:0:0:
142,292,211638,1,2,0:0:0:0:
185,263,211699,1,2,0:0:0:0:
196,211,211761,1,0,0:0:0:0:
165,167,211823,6,0,P|143:98|274:156,1,329.9999899292,4|0,0:0|0:0,0:0:0:0:
215,113,212190,2,0,P|288:223|327:96,1,329.9999899292,4|0,0:0|0:0,0:0:0:0:
277,150,212557,5,12,0:0:0:0:
253,90,212618,1,0,0:0:0:0:
285,35,212679,1,0,0:0:0:0:
348,26,212740,1,0,0:0:0:0:
395,70,212801,1,0,0:0:0:0:
389,133,212863,1,0,0:0:0:0:
327,96,212924,5,12,0:0:0:0:
321,159,212985,1,0,0:0:0:0:
367,203,213046,1,0,0:0:0:0:
430,194,213107,1,0,0:0:0:0:
462,139,213168,1,0,0:0:0:0:
439,79,213230,1,0,0:0:0:0:
412,10,213292,5,8,0:0:0:0:
385,13,213353,1,0,0:0:0:0:
359,16,213414,1,0,0:0:0:0:
333,19,213475,1,0,0:0:0:0:
307,22,213536,1,0,0:0:0:0:
280,25,213598,1,0,0:0:0:0:
237,42,213659,5,8,0:0:0:0:
270,81,213720,1,0,0:0:0:0:
266,132,213781,1,0,0:0:0:0:
227,166,213842,1,0,0:0:0:0:
175,162,213903,1,0,0:0:0:0:
142,123,213965,1,0,0:0:0:0:
121,81,214027,5,8,0:0:0:0:
108,132,214088,1,0,0:0:0:0:
96,183,214149,1,0,0:0:0:0:
84,235,214210,1,0,0:0:0:0:
71,286,214272,1,0,0:0:0:0:
58,337,214333,1,0,0:0:0:0:
85,373,214394,5,8,0:0:0:0:
129,378,214455,1,0,0:0:0:0:
166,352,214516,1,0,0:0:0:0:
177,308,214577,1,0,0:0:0:0:
156,268,214638,1,0,0:0:0:0:
114,252,214700,1,0,0:0:0:0:
68,252,214761,5,8,0:0:0:0:
55,195,214822,1,0,0:0:0:0:
82,143,214883,1,0,0:0:0:0:
135,120,214944,1,0,0:0:0:0:
191,137,215005,1,0,0:0:0:0:
223,186,215067,1,0,0:0:0:0:
208,230,215129,5,8,0:0:0:0:
216,274,215190,1,0,0:0:0:0:
253,299,215251,1,0,0:0:0:0:
297,291,215312,1,0,0:0:0:0:
323,254,215373,1,0,0:0:0:0:
314,209,215435,1,0,0:0:0:0:
293,169,215496,5,10,0:0:0:0:
237,113,215557,1,2,0:0:0:0:
162,92,215618,1,2,0:0:0:0:
86,109,215679,1,2,0:0:0:0:
28,162,215741,2,0,P|-3:184|-53:177,1,65.9999979858399,2|0,0:0|0:0,0:0:0:0:
39,54,215863,6,0,L|105:19,1,65.9999979858399,8|0,0:0|0:0,0:0:0:0:
204,64,215986,2,0,L|138:99,1,65.9999979858399,8|0,0:0|0:0,0:0:0:0:
83,217,216108,2,0,L|149:182,1,65.9999979858399,8|0,0:0|0:0,0:0:0:0:
230,139,216231,5,8,0:0:0:0:
261,130,216292,1,0,0:0:0:0:
292,139,216353,1,0,0:0:0:0:
314,164,216414,1,0,0:0:0:0:
329,186,216476,5,8,0:0:0:0:
334,225,216537,1,0,0:0:0:0:
339,264,216598,1,0,0:0:0:0:
344,303,216659,1,0,0:0:0:0:
362,322,216720,5,8,0:0:0:0:
396,350,216781,1,0,0:0:0:0:
440,344,216842,1,0,0:0:0:0:
466,308,216903,1,0,0:0:0:0:
465,254,216965,5,8,0:0:0:0:
443,191,217026,1,0,0:0:0:0:
421,129,217087,1,0,0:0:0:0:
392,69,217149,1,0,0:0:0:0:
339,32,217210,1,0,0:0:0:0:
278,50,217271,1,0,0:0:0:0:
215,71,217333,5,8,0:0:0:0:
259,116,217394,1,0,0:0:0:0:
252,180,217455,1,0,0:0:0:0:
198,214,217516,1,0,0:0:0:0:
138,195,217577,1,0,0:0:0:0:
114,135,217639,1,0,0:0:0:0:
93,73,217700,6,0,L|69:2,3,65.9999979858399,8|0|2|0,0:0|0:0|0:0|0:0,0:0:0:0:
210,149,217945,2,0,L|186:78,3,65.9999979858399,8|0|2|0,0:0|0:0|0:0|0:0,0:0:0:0:
327,225,218190,2,0,L|303:154,3,65.9999979858399,8|0|2|0,0:0|0:0|0:0|0:0,0:0:0:0:
436,225,218435,5,8,0:0:0:0:
424,275,218496,1,0,0:0:0:0:
386,311,218557,1,0,0:0:0:0:
335,321,218618,1,0,0:0:0:0:
262,331,218680,5,8,0:0:0:0:
209,335,218741,1,0,0:0:0:0:
156,338,218802,1,0,0:0:0:0:
104,341,218863,1,0,0:0:0:0:
30,344,218925,5,0,0:0:0:0:
57,299,218986,1,0,0:0:0:0:
64,247,219047,1,0,0:0:0:0:
49,197,219108,1,0,0:0:0:0:
24,128,219169,5,8,0:0:0:0:
22,63,219230,1,0,0:0:0:0:
68,19,219291,1,0,0:0:0:0:
132,25,219352,1,0,0:0:0:0:
171,76,219413,1,0,0:0:0:0:
158,139,219475,1,0,0:0:0:0:
133,178,219537,5,8,0:0:0:0:
132,229,219598,1,0,0:0:0:0:
166,268,219659,1,0,0:0:0:0:
217,273,219720,1,0,0:0:0:0:
259,243,219781,1,0,0:0:0:0:
269,192,219843,1,0,0:0:0:0:
261,149,219904,5,8,0:0:0:0:
268,110,219965,1,0,0:0:0:0:
275,71,220026,1,0,0:0:0:0:
283,32,220087,1,0,0:0:0:0:
365,27,220149,5,8,0:0:0:0:
358,66,220210,1,0,0:0:0:0:
351,105,220271,1,0,0:0:0:0:
343,144,220332,1,0,0:0:0:0:
418,188,220394,5,8,0:0:0:0:
425,149,220455,1,0,0:0:0:0:
432,110,220516,1,0,0:0:0:0:
440,71,220577,1,0,0:0:0:0:
365,27,220639,5,8,0:0:0:0:
324,60,220700,1,0,0:0:0:0:
299,106,220761,1,0,0:0:0:0:
291,158,220822,1,0,0:0:0:0:
298,210,220883,1,0,0:0:0:0:
308,262,220945,1,0,0:0:0:0:
317,313,221006,2,0,L|329:380,1,65.9999979858399
402,332,221129,6,0,P|419:289|406:245,1,65.9999979858399,2|0,0:0|0:0,0:0:0:0:
451,192,221251,2,0,P|440:147|404:118,1,65.9999979858399,2|0,0:0|0:0,0:0:0:0:
299,106,221374,6,0,P|309:150|345:179,1,65.9999979858399,2|0,0:0|0:0,0:0:0:0:
260,80,221496,2,0,P|256:126|281:164,1,65.9999979858399,2|0,0:0|0:0,0:0:0:0:
230,43,221618,2,0,P|212:85|224:129,1,65.9999979858399,2|0,0:0|0:0,0:0:0:0:
115,62,221741,5,8,0:0:0:0:
87,79,221802,1,0,0:0:0:0:
67,105,221863,1,0,0:0:0:0:
58,137,221924,1,0,0:0:0:0:
61,170,221985,1,0,0:0:0:0:
75,199,222047,1,0,0:0:0:0:
91,234,222108,6,0,P|99:278|84:313,3,76.9999976501466,8|0|2|0,0:0|0:0|0:0|0:0,0:0:0:0:
171,166,222353,2,0,P|190:206|184:244,3,76.9999976501466,8|0|2|0,0:0|0:0|0:0|0:0,0:0:0:0:
230,79,222598,2,0,P|258:113|263:150,3,76.9999976501466,8|0|2|0,0:0|0:0|0:0|0:0,0:0:0:0:
443,176,222843,6,0,P|435:132|450:97,3,65.9999979858399,8|0|2|0,0:0|0:0|0:0|0:0,0:0:0:0:
363,244,223088,2,0,P|343:203|349:165,3,65.9999979858399,8|0|2|0,0:0|0:0|0:0|0:0,0:0:0:0:
304,331,223333,2,0,P|275:296|270:259,3,65.9999979858399,8|0|2|0,0:0|0:0|0:0|0:0,0:0:0:0:
255,47,223578,6,0,P|251:70|226:103,3,55,8|0|2|0,0:0|0:0|0:0|0:0,0:0:0:0:
172,175,223823,1,4,0:0:0:0:
158,192,224067,1,4,0:0:0:0:
384,94,224312,5,14,0:0:0:0:
159,303,224680,5,2,0:0:0:0:
143,127,225047,5,8,0:0:0:0:
256,192,225108,12,0,229455,0:0:0:0:
130,139,230190,5,0,0:0:0:0:
130,139,230435,5,0,0:0:0:0:
120,170,230557,1,0,0:0:0:0:
110,201,230679,1,0,0:0:0:0:
168,335,230925,6,0,B|224:189|224:189|258:130|258:98|258:98|273:78|276:34|276:34|286:64|319:95|319:95|296:139|288:182|288:182|265:229,1,528,8|4,0:0|0:0,0:0:0:0:
355,311,232027,5,0,0:0:0:0:
372,307,232149,1,0,0:0:0:0:
389,303,232272,1,0,0:0:0:0:
355,311,232761,5,0,0:0:0:0:
380,305,232883,1,0,0:0:0:0:
406,299,233006,1,0,0:0:0:0:
456,186,233129,6,0,B|401:209|331:226|331:226|274:258|241:262|241:262|208:280|184:277|184:277|158:296|118:301|118:301|93:245|93:245|143:246|168:234|168:234|210:220,1,528,8|4,0:0|0:0,0:0:0:0:
281,122,234231,5,0,0:0:0:0:
264,126,234353,1,0,0:0:0:0:
247,130,234476,1,0,0:0:0:0:
281,122,234965,5,0,0:0:0:0:
255,128,235087,1,0,0:0:0:0:
230,134,235210,1,0,0:0:0:0:
154,160,235333,6,0,P|110:223|218:217,1,242,2|0,0:0|0:0,0:0:0:0:
255,156,236067,2,0,B|298:85|298:85|326:62|337:26|337:26|368:24|368:24|374:51|374:51|313:137|395:192,1,362.99998892212
455,236,236802,6,0,B|419:243|395:262|395:262|311:279|244:263|244:263|200:272|159:263|159:263|108:274|56:252|56:252|105:227|105:227|142:233|180:213,1,528,8|4,0:0|0:0,0:0:0:0:
195,87,239006,5,14,0:0:0:0:
317,297,239741,5,14,0:0:0:0:
81,235,241210,5,8,0:0:0:0:
110,253,241271,1,0,0:0:0:0:
144,264,241332,1,0,0:0:0:0:
179,266,241393,1,0,0:0:0:0:
213,259,241454,1,0,0:0:0:0:
245,243,241516,1,0,0:0:0:0:
271,220,241577,1,0,0:0:0:0:
291,191,241638,1,0,0:0:0:0:
290,147,241700,5,8,0:0:0:0:
332,149,241761,1,0,0:0:0:0:
361,181,241822,1,0,0:0:0:0:
360,224,241883,1,0,0:0:0:0:
345,266,241945,5,8,0:0:0:0:
304,249,242006,1,0,0:0:0:0:
260,249,242067,1,0,0:0:0:0:
220,266,242128,1,0,0:0:0:0:
188,282,242190,1,0,0:0:0:0:
157,297,242251,1,0,0:0:0:0:
121,294,242312,1,0,0:0:0:0:
94,274,242373,1,0,0:0:0:0:
79,242,242434,1,0,0:0:0:0:
83,208,242496,1,0,0:0:0:0:
103,180,242557,1,0,0:0:0:0:
135,166,242618,1,0,0:0:0:0:
170,162,242680,6,0,B|251:161|282:138|282:138|323:173|378:146|378:146|442:159|442:159|422:125|429:83|429:83,1,362.99998892212,8|0,0:0|0:0,0:0:0:0:
432,10,243414,1,12,0:0:0:0:
180,68,244884,5,2,0:0:0:0:
120,286,246353,5,2,0:0:0:0:
120,286,246598,5,0,0:0:0:0:
195,261,246720,1,0,0:0:0:0:
270,236,246843,1,0,0:0:0:0:
376,200,247700,5,8,0:0:0:0:
358,171,247761,1,0,0:0:0:0:
341,143,247823,5,8,0:0:0:0:
316,164,247884,1,0,0:0:0:0:
285,177,247945,1,0,0:0:0:0:
253,181,248006,1,0,0:0:0:0:
220,177,248067,1,0,0:0:0:0:
190,164,248129,1,0,0:0:0:0:
164,143,248190,1,0,0:0:0:0:
140,121,248251,1,0,0:0:0:0:
109,109,248312,1,0,0:0:0:0:
78,118,248373,1,0,0:0:0:0:
59,145,248434,1,0,0:0:0:0:
59,177,248495,1,0,0:0:0:0:
64,250,248557,5,10,0:0:0:0:
232,276,249292,5,0,0:0:0:0:
248,91,249537,5,0,0:0:0:0:
264,120,249598,1,0,0:0:0:0:
280,149,249659,1,0,0:0:0:0:
357,299,249782,1,0,0:0:0:0:
79,87,250761,5,0,0:0:0:0:
100,256,252231,5,8,0:0:0:0:
112,225,252292,1,0,0:0:0:0:
124,194,252353,1,0,0:0:0:0:
136,163,252414,1,0,0:0:0:0:
134,110,252476,5,8,0:0:0:0:
161,128,252537,1,0,0:0:0:0:
192,138,252598,1,0,0:0:0:0:
225,138,252659,1,0,0:0:0:0:
277,129,252720,5,8,0:0:0:0:
310,132,252781,1,0,0:0:0:0:
343,136,252842,1,0,0:0:0:0:
375,140,252903,1,0,0:0:0:0:
427,132,252965,5,8,0:0:0:0:
454,116,253026,1,0,0:0:0:0:
458,85,253087,1,0,0:0:0:0:
435,63,253148,1,0,0:0:0:0:
391,38,253210,5,12,0:0:0:0:
335,46,253271,1,0,0:0:0:0:
280,54,253332,1,0,0:0:0:0:
224,63,253393,1,0,0:0:0:0:
169,75,253455,1,0,0:0:0:0:
129,112,253516,1,0,0:0:0:0:
135,165,253577,1,0,0:0:0:0:
181,193,253638,1,0,0:0:0:0:
231,198,253700,5,8,0:0:0:0:
227,224,253761,1,0,0:0:0:0:
215,247,253822,1,0,0:0:0:0:
196,265,253883,1,0,0:0:0:0:
172,276,253944,1,0,0:0:0:0:
146,278,254006,1,0,0:0:0:0:
120,271,254067,1,0,0:0:0:0:
99,256,254128,1,0,0:0:0:0:
84,234,254189,5,4,0:0:0:0:
42,129,254312,1,8,0:0:0:0:
167,171,254435,1,4,0:0:0:0:
377,119,255169,5,0,0:0:0:0:
377,119,255414,1,0,0:0:0:0:
377,119,255659,1,0,0:0:0:0:
192,308,256639,5,0,0:0:0:0:
296,197,258108,5,2,0:0:0:0:
296,197,258353,5,0,0:0:0:0:
177,162,258476,1,0,0:0:0:0:
58,127,258598,1,0,0:0:0:0:
134,280,258843,5,0,0:0:0:0:
134,280,259088,5,2,0:0:0:0:
173,308,259149,1,0,0:0:0:0:
222,312,259210,1,0,0:0:0:0:
266,290,259271,1,0,0:0:0:0:
293,249,259332,1,0,0:0:0:0:
295,200,259394,1,0,0:0:0:0:
277,154,259455,1,0,0:0:0:0:
258,109,259516,1,0,0:0:0:0:
274,63,259577,1,0,0:0:0:0:
316,38,259638,1,0,0:0:0:0:
387,82,259700,5,10,0:0:0:0:
344,117,259761,1,0,0:0:0:0:
290,131,259822,1,0,0:0:0:0:
236,120,259883,1,0,0:0:0:0:
165,89,259945,5,2,0:0:0:0:
116,83,260006,1,0,0:0:0:0:
75,109,260067,1,0,0:0:0:0:
58,155,260128,1,0,0:0:0:0:
72,201,260189,1,0,0:0:0:0:
112,229,260251,1,0,0:0:0:0:
179,264,260312,5,10,0:0:0:0:
394,264,261047,5,0,0:0:0:0:
307,147,261169,1,0,0:0:0:0:
274,289,261292,1,0,0:0:0:0:
336,25,261537,5,0,0:0:0:0:
336,25,261782,1,0,0:0:0:0:
122,315,263251,5,8,0:0:0:0:
142,298,263312,1,0,0:0:0:0:
157,276,263373,1,0,0:0:0:0:
163,251,263434,1,0,0:0:0:0:
152,217,263496,5,8,0:0:0:0:
171,179,263557,1,0,0:0:0:0:
213,169,263618,1,0,0:0:0:0:
247,194,263679,1,0,0:0:0:0:
267,224,263741,5,8,0:0:0:0:
299,236,263802,1,0,0:0:0:0:
330,221,263863,1,0,0:0:0:0:
339,188,263924,1,0,0:0:0:0:
334,152,263986,5,10,0:0:0:0:
328,117,264047,1,0,0:0:0:0:
323,82,264108,1,0,0:0:0:0:
318,47,264169,1,0,0:0:0:0:
249,89,264231,5,8,0:0:0:0:
255,123,264292,1,0,0:0:0:0:
260,158,264353,1,0,0:0:0:0:
265,193,264414,1,0,0:0:0:0:
188,169,264476,5,8,0:0:0:0:
182,134,264537,1,0,0:0:0:0:
177,99,264598,1,0,0:0:0:0:
172,65,264659,1,0,0:0:0:0:
131,4,264720,5,10,0:0:0:0:
88,12,264781,1,0,0:0:0:0:
63,47,264842,1,0,0:0:0:0:
69,90,264903,1,0,0:0:0:0:
64,166,264965,5,8,0:0:0:0:
94,196,265026,1,0,0:0:0:0:
136,205,265087,1,0,0:0:0:0:
177,190,265148,1,0,0:0:0:0:
232,131,265210,5,8,0:0:0:0:
283,130,265271,1,0,0:0:0:0:
318,167,265332,1,0,0:0:0:0:
314,218,265393,1,0,0:0:0:0:
291,268,265455,6,0,P|283:293|293:351,5,65.9999979858399,8|0|2|0|2|0,0:0|0:0|0:0|0:0|0:0|0:0,0:0:0:0:
400,285,265823,2,0,B|403:243|403:243|418:196,5,65.9999979858399,10|0|2|0|2|0,0:0|0:0|0:0|0:0|0:0|0:0,0:0:0:0:
444,110,266190,6,0,L|344:134,5,76.9999976501466,10|0|2|0|2|0,0:0|0:0|0:0|0:0|0:0|0:0,0:0:0:0:
279,56,266557,2,0,L|379:32,5,76.9999976501466,8|0|2|0|2|0,0:0|0:0|0:0|0:0|0:0|0:0,0:0:0:0:
269,152,266925,6,0,P|249:191|248:234,3,88,8|0|2|0,0:0|0:0|0:0|0:0,0:0:0:0:
197,104,267169,2,0,P|166:135|152:176,3,88,8|0|2|0,0:0|0:0|0:0|0:0,0:0:0:0:
143,36,267414,2,0,P|104:56|77:91,3,88,8|0|2|0,0:0|0:0|0:0|0:0,0:0:0:0:
42,177,267659,5,14,0:0:0:0:
26,235,267720,1,0,0:0:0:0:
43,294,267781,1,0,0:0:0:0:
86,336,267842,1,0,0:0:0:0:
146,350,267903,1,0,0:0:0:0:
204,333,267965,1,0,0:0:0:0:
258,326,268027,5,8,0:0:0:0:
216,280,268088,1,0,0:0:0:0:
197,222,268149,1,0,0:0:0:0:
204,162,268210,1,0,0:0:0:0:
236,109,268271,1,0,0:0:0:0:
287,75,268333,1,0,0:0:0:0:
318,52,268394,5,8,0:0:0:0:
348,51,268455,1,0,0:0:0:0:
374,66,268516,1,0,0:0:0:0:
388,93,268577,1,0,0:0:0:0:
384,123,268639,1,0,0:0:0:0:
378,153,268700,1,0,0:0:0:0:
378,183,268761,1,0,0:0:0:0:
386,213,268822,1,0,0:0:0:0:
396,242,268884,5,10,0:0:0:0:
406,285,268945,1,0,0:0:0:0:
382,323,269006,1,0,0:0:0:0:
338,332,269067,1,0,0:0:0:0:
291,328,269129,5,8,0:0:0:0:
214,325,269190,1,0,0:0:0:0:
137,323,269251,1,0,0:0:0:0:
60,320,269312,1,0,0:0:0:0:
0,280,269373,1,0,0:0:0:0:
0,206,269434,1,0,0:0:0:0:
59,167,269495,1,0,0:0:0:0:
126,198,269556,1,0,0:0:0:0:
194,237,269618,1,0,0:0:0:0:
268,250,269679,1,0,0:0:0:0:
335,216,269740,1,0,0:0:0:0:
368,148,269801,1,0,0:0:0:0:
412,83,269863,6,0,P|455:48|484:46,3,76.9999976501466,2|0|2|0,0:0|0:0|0:0|0:0,0:0:0:0:
316,111,270108,2,0,P|283:66|256:56,3,76.9999976501466,2|0|2|0,0:0|0:0|0:0|0:0,0:0:0:0:
246,228,270353,2,0,P|297:208|314:184,3,76.9999976501466,2|0|2|0,0:0|0:0|0:0|0:0,0:0:0:0:
398,161,270598,5,8,0:0:0:0:
399,199,270659,1,0,0:0:0:0:
390,236,270720,1,0,0:0:0:0:
370,269,270781,1,0,0:0:0:0:
342,295,270842,1,0,0:0:0:0:
308,312,270904,1,0,0:0:0:0:
270,319,270965,1,0,0:0:0:0:
232,314,271026,1,0,0:0:0:0:
194,304,271088,2,0,P|156:298|110:313,3,76.9999976501466
46,353,271333,5,8,0:0:0:0:
32,309,271394,1,0,0:0:0:0:
43,265,271455,1,0,0:0:0:0:
65,224,271516,1,0,0:0:0:0:
85,182,271577,1,0,0:0:0:0:
83,137,271638,1,0,0:0:0:0:
70,92,271700,6,0,L|43:16,1,76.9999976501466,8|0,0:0|0:0,0:0:0:0:
176,151,271823,2,0,L|201:78,1,76.9999976501466,8|0,0:0|0:0,0:0:0:0:
130,248,271945,2,0,L|103:172,1,76.9999976501466,8|0,0:0|0:0,0:0:0:0:
108,328,272067,5,8,0:0:0:0:
148,350,272128,1,0,0:0:0:0:
193,355,272189,1,0,0:0:0:0:
238,343,272250,1,0,0:0:0:0:
274,315,272311,1,0,0:0:0:0:
297,275,272373,1,0,0:0:0:0:
303,230,272434,1,0,0:0:0:0:
292,185,272495,1,0,0:0:0:0:
273,142,272557,2,0,P|260:88|269:54,3,76.9999976501466,2|0|2|0,0:0|0:0|0:0|0:0,0:0:0:0:
361,94,272802,5,8,0:0:0:0:
408,143,272863,1,0,0:0:0:0:
418,210,272924,1,0,0:0:0:0:
388,272,272985,1,0,0:0:0:0:
328,304,273046,1,0,0:0:0:0:
260,297,273108,1,0,0:0:0:0:
209,252,273169,1,0,0:0:0:0:
192,185,273230,1,0,0:0:0:0:
200,116,273292,1,0,0:0:0:0:
176,54,273353,1,0,0:0:0:0:
112,34,273414,1,0,0:0:0:0:
56,70,273475,1,0,0:0:0:0:
13,135,273537,5,12,0:0:0:0:
44,167,273598,1,0,0:0:0:0:
86,186,273659,1,0,0:0:0:0:
132,188,273720,1,0,0:0:0:0:
175,173,273781,1,0,0:0:0:0:
210,142,273843,1,0,0:0:0:0:
251,123,273904,1,0,0:0:0:0:
295,114,273965,1,0,0:0:0:0:
334,137,274026,1,0,0:0:0:0:
350,179,274087,1,0,0:0:0:0:
334,221,274148,1,0,0:0:0:0:
293,244,274210,1,0,0:0:0:0:
252,266,274272,5,12,0:0:0:0:
219,308,274333,1,0,0:0:0:0:
229,359,274394,1,0,0:0:0:0:
274,384,274455,1,0,0:0:0:0:
323,365,274516,1,0,0:0:0:0:
340,315,274578,1,0,0:0:0:0:
341,261,274639,1,0,0:0:0:0:
343,207,274700,1,0,0:0:0:0:
358,131,274761,5,8,0:0:0:0:
333,92,274822,1,0,0:0:0:0:
290,78,274883,1,0,0:0:0:0:
248,95,274944,1,0,0:0:0:0:
249,173,275006,5,8,0:0:0:0:
293,191,275067,1,0,0:0:0:0:
336,210,275128,1,0,0:0:0:0:
378,228,275189,1,0,0:0:0:0:
455,234,275251,5,8,0:0:0:0:
442,276,275312,1,0,0:0:0:0:
400,290,275373,1,0,0:0:0:0:
365,263,275434,1,0,0:0:0:0:
299,220,275496,5,8,0:0:0:0:
261,193,275557,1,0,0:0:0:0:
223,166,275618,1,0,0:0:0:0:
185,139,275679,1,0,0:0:0:0:
148,113,275740,1,0,0:0:0:0:
110,86,275802,1,0,0:0:0:0:
70,64,275863,1,0,0:0:0:0:
25,63,275924,1,0,0:0:0:0:
0,96,275985,1,0,0:0:0:0:
0,140,276046,1,0,0:0:0:0:
35,166,276107,1,0,0:0:0:0:
79,157,276169,1,0,0:0:0:0:
123,144,276231,6,0,L|206:117,3,76.9999976501466,2|0|2|0,0:0|0:0|0:0|0:0,0:0:0:0:
35,152,276476,5,8,0:0:0:0:
22,188,276537,1,0,0:0:0:0:
22,226,276598,1,0,0:0:0:0:
35,262,276659,1,0,0:0:0:0:
60,291,276720,1,0,0:0:0:0:
94,309,276782,1,0,0:0:0:0:
131,315,276843,1,0,0:0:0:0:
169,308,276904,1,0,0:0:0:0:
202,288,276965,1,0,0:0:0:0:
226,258,277027,1,0,0:0:0:0:
237,222,277088,1,0,0:0:0:0:
236,183,277149,1,0,0:0:0:0:
236,145,277210,5,8,0:0:0:0:
243,101,277271,1,0,0:0:0:0:
285,89,277332,1,0,0:0:0:0:
314,122,277393,1,0,0:0:0:0:
299,158,277455,5,8,0:0:0:0:
254,146,277516,1,0,0:0:0:0:
209,135,277577,1,0,0:0:0:0:
164,124,277638,1,0,0:0:0:0:
91,96,277700,5,8,0:0:0:0:
105,139,277761,1,0,0:0:0:0:
104,185,277822,1,0,0:0:0:0:
88,228,277883,1,0,0:0:0:0:
55,298,277945,5,0,0:0:0:0:
124,292,278006,1,0,0:0:0:0:
193,285,278067,1,0,0:0:0:0:
262,279,278128,1,0,0:0:0:0:
331,272,278189,1,0,0:0:0:0:
400,266,278251,1,0,0:0:0:0:
468,259,278312,5,0,0:0:0:0:
458,191,278373,1,0,0:0:0:0:
458,121,278435,1,0,0:0:0:0:
433,49,278496,1,0,0:0:0:0:
366,17,278557,1,0,0:0:0:0:
296,43,278618,1,0,0:0:0:0:
265,111,278679,1,0,0:0:0:0:
292,181,278741,1,0,0:0:0:0:
333,246,278802,1,0,0:0:0:0:
358,315,278863,1,0,0:0:0:0:
315,375,278924,1,0,0:0:0:0:
242,372,278985,1,0,0:0:0:0:
203,309,279046,1,0,0:0:0:0:
233,242,279108,1,0,0:0:0:0:
273,176,279169,1,0,0:0:0:0:
297,103,279230,1,0,0:0:0:0:
235,56,279291,1,0,0:0:0:0:
160,75,279352,1,0,0:0:0:0:
104,132,279414,6,0,P|135:175|135:233,3,88,2|0|2|0,2:0|0:0|0:0|0:0,0:0:0:0:
166,375,279659,2,0,P|135:332|135:274,3,88,2|0|2|0,2:0|0:0|0:0|0:0,0:0:0:0:
290,226,279904,2,0,P|247:257|189:257,3,88,2|0|2|0,2:0|0:0|0:0|0:0,0:0:0:0:
407,267,280149,6,0,P|376:224|376:166,3,88,2|0|2|0,2:0|0:0|0:0|0:0,0:0:0:0:
345,24,280394,2,0,P|376:67|376:125,3,88,2|0|2|0,2:0|0:0|0:0|0:0,0:0:0:0:
221,173,280639,2,0,P|264:142|322:142,3,88,2|0|2|0,2:0|0:0|0:0|0:0,0:0:0:0:
437,66,280884,5,14,0:0:0:0:
388,42,280945,1,0,0:0:0:0:
336,49,281006,1,0,0:0:0:0:
294,84,281067,1,0,0:0:0:0:
278,134,281128,1,0,0:0:0:0:
292,186,281190,1,0,0:0:0:0:
306,237,281251,1,0,0:0:0:0:
307,290,281312,1,0,0:0:0:0:
275,331,281373,1,0,0:0:0:0:
223,342,281434,1,0,0:0:0:0:
177,318,281495,1,0,0:0:0:0:
157,269,281557,1,0,0:0:0:0:
169,216,281618,6,0,P|172:185|139:143,1,76.9999976501466,2|0,0:0|0:0,0:0:0:0:
233,272,281741,2,0,P|239:302|284:332,1,76.9999976501466,2|0,0:0|0:0,0:0:0:0:
278,134,281863,6,0,P|254:113|200:116,1,76.9999976501466,2|0,0:0|0:0,0:0:0:0:
360,114,281986,2,0,P|388:125|438:106,1,76.9999976501466,2|0,0:0|0:0,0:0:0:0:
72,161,282108,6,0,P|41:168|13:214,1,76.9999976501466,2|0,0:0|0:0,0:0:0:0:
102,82,282231,2,0,P|128:65|141:13,1,76.9999976501466,2|0,0:0|0:0,0:0:0:0:
90,252,282353,5,8,0:0:0:0:
109,293,282414,1,0,0:0:0:0:
148,316,282475,1,0,0:0:0:0:
194,313,282536,1,0,0:0:0:0:
276,288,282598,5,8,0:0:0:0:
320,276,282659,1,0,0:0:0:0:
365,264,282720,1,0,0:0:0:0:
409,252,282781,1,0,0:0:0:0:
489,221,282843,5,8,0:0:0:0:
496,175,282904,1,0,0:0:0:0:
485,131,282965,1,0,0:0:0:0:
458,94,283026,1,0,0:0:0:0:
387,45,283088,5,10,0:0:0:0:
350,93,283149,1,0,0:0:0:0:
294,117,283210,1,0,0:0:0:0:
233,112,283271,1,0,0:0:0:0:
177,177,283333,5,8,0:0:0:0:
234,199,283394,1,0,0:0:0:0:
295,196,283455,1,0,0:0:0:0:
350,168,283516,1,0,0:0:0:0:
423,211,283578,5,8,0:0:0:0:
398,249,283639,1,0,0:0:0:0:
360,274,283700,1,0,0:0:0:0:
314,281,283761,1,0,0:0:0:0:
267,276,283823,6,0,L|171:265,3,76.9999976501466,2|0|2|0,0:0|0:0|0:0|0:0,0:0:0:0:
382,320,284067,2,0,L|478:331,3,76.9999976501466,2|0|2|0,0:0|0:0|0:0|0:0,0:0:0:0:
349,196,284312,2,0,L|360:100,3,76.9999976501466,2|0|2|0,0:0|0:0|0:0|0:0,0:0:0:0:
454,221,284557,5,10,0:0:0:0:
460,145,284618,1,2,0:0:0:0:
421,80,284679,1,2,0:0:0:0:
352,49,284740,1,2,0:0:0:0:
278,65,284801,1,2,0:0:0:0:
227,121,284863,1,2,0:0:0:0:
185,187,284925,1,2,0:0:0:0:
138,244,284986,1,2,0:0:0:0:
63,240,285047,1,2,0:0:0:0:
23,179,285108,1,2,0:0:0:0:
48,109,285169,1,2,0:0:0:0:
119,88,285231,1,2,0:0:0:0:
187,56,285292,5,8,0:0:0:0:
185,116,285353,1,0,0:0:0:0:
215,169,285414,1,0,0:0:0:0:
268,199,285475,1,0,0:0:0:0:
329,196,285536,1,0,0:0:0:0:
379,162,285598,1,0,0:0:0:0:
307,123,285659,5,12,0:0:0:0:
257,163,285720,1,0,0:0:0:0:
254,228,285781,1,0,0:0:0:0:
298,274,285842,1,0,0:0:0:0:
362,274,285903,1,0,0:0:0:0:
407,228,285965,1,0,0:0:0:0:
441,155,286027,5,8,0:0:0:0:
375,164,286088,1,0,0:0:0:0:
310,174,286149,1,0,0:0:0:0:
245,184,286210,1,0,0:0:0:0:
167,203,286272,5,8,0:0:0:0:
122,249,286333,1,0,0:0:0:0:
133,311,286394,1,0,0:0:0:0:
189,340,286455,1,0,0:0:0:0:
267,347,286516,5,0,0:0:0:0:
255,283,286577,1,0,0:0:0:0:
243,218,286638,1,0,0:0:0:0:
231,153,286699,1,0,0:0:0:0:
210,75,286761,5,2,0:0:0:0:
226,26,286822,1,0,0:0:0:0:
271,0,286883,1,0,0:0:0:0:
322,9,286944,1,0,0:0:0:0:
354,50,287005,1,0,0:0:0:0:
352,102,287067,1,0,0:0:0:0:
342,154,287129,1,0,0:0:0:0:
331,205,287190,1,0,0:0:0:0:
321,257,287251,1,0,0:0:0:0:
313,309,287312,1,0,0:0:0:0:
335,354,287373,1,0,0:0:0:0:
384,353,287434,1,0,0:0:0:0:
462,336,287496,5,2,0:0:0:0:
462,296,287557,1,0,0:0:0:0:
448,259,287618,1,0,0:0:0:0:
421,230,287679,1,0,0:0:0:0:
386,212,287740,1,0,0:0:0:0:
347,207,287802,1,0,0:0:0:0:
310,221,287863,1,0,0:0:0:0:
275,238,287924,1,0,0:0:0:0:
236,235,287985,1,0,0:0:0:0:
204,213,288046,1,0,0:0:0:0:
187,177,288107,1,0,0:0:0:0:
190,138,288169,1,0,0:0:0:0:
218,63,288231,5,2,0:0:0:0:
259,31,288292,1,0,0:0:0:0:
311,26,288353,1,0,0:0:0:0:
357,50,288414,1,0,0:0:0:0:
383,95,288475,1,0,0:0:0:0:
381,147,288537,1,0,0:0:0:0:
371,198,288598,1,0,0:0:0:0:
360,249,288659,1,0,0:0:0:0:
349,301,288720,1,0,0:0:0:0:
322,345,288781,1,0,0:0:0:0:
272,357,288842,1,0,0:0:0:0:
229,330,288903,1,0,0:0:0:0:
168,277,288965,5,2,0:0:0:0:
119,232,289026,1,0,0:0:0:0:
70,187,289087,1,0,0:0:0:0:
22,142,289149,1,0,0:0:0:0:
0,87,289210,1,0,0:0:0:0:
19,30,289271,1,0,0:0:0:0:
81,20,289332,1,0,0:0:0:0:
126,65,289393,1,0,0:0:0:0:
177,107,289455,1,0,0:0:0:0:
235,137,289516,1,0,0:0:0:0:
299,128,289577,1,0,0:0:0:0:
345,82,289638,1,0,0:0:0:0:
400,24,289700,5,12,0:0:0:0:
391,102,289761,1,0,0:0:0:0:
382,181,289822,1,0,0:0:0:0:
374,261,289884,1,0,0:0:0:0:
345,331,289945,1,0,0:0:0:0:
271,351,290006,1,0,0:0:0:0:
210,304,290067,5,12,0:0:0:0:
244,235,290128,1,0,0:0:0:0:
222,161,290189,1,0,0:0:0:0:
155,123,290250,1,0,0:0:0:0:
80,140,290311,1,0,0:0:0:0:
37,205,290373,1,0,0:0:0:0:
0,275,290435,5,10,0:0:0:0:
52,287,290496,1,0,0:0:0:0:
105,281,290557,1,0,0:0:0:0:
153,257,290618,1,0,0:0:0:0:
190,218,290679,1,0,0:0:0:0:
211,169,290741,1,0,0:0:0:0:
242,126,290802,1,0,0:0:0:0:
288,98,290863,1,0,0:0:0:0:
341,100,290924,1,0,0:0:0:0:
386,129,290985,1,0,0:0:0:0:
407,178,291046,1,0,0:0:0:0:
399,230,291108,1,0,0:0:0:0:
367,299,291169,5,10,0:0:0:0:
318,279,291230,1,0,0:0:0:0:
284,237,291291,1,0,0:0:0:0:
275,184,291352,1,0,0:0:0:0:
290,134,291413,1,0,0:0:0:0:
327,96,291475,1,0,0:0:0:0:
370,41,291537,5,10,0:0:0:0:
316,49,291598,1,0,0:0:0:0:
263,57,291659,1,0,0:0:0:0:
210,65,291720,1,0,0:0:0:0:
156,74,291781,1,0,0:0:0:0:
103,82,291843,1,0,0:0:0:0:
3,96,291904,5,8,0:0:0:0:
20,138,291965,1,0,0:0:0:0:
56,168,292026,1,0,0:0:0:0:
101,177,292087,1,0,0:0:0:0:
178,167,292149,5,10,0:0:0:0:
223,157,292210,1,0,0:0:0:0:
268,147,292271,1,0,0:0:0:0:
313,137,292332,1,0,0:0:0:0:
390,127,292394,5,10,0:0:0:0:
378,171,292455,1,0,0:0:0:0:
385,217,292516,1,0,0:0:0:0:
411,255,292577,1,0,0:0:0:0:
466,310,292639,5,10,0:0:0:0:
412,309,292700,1,0,0:0:0:0:
358,309,292761,1,0,0:0:0:0:
303,308,292823,1,0,0:0:0:0:
250,299,292884,1,0,0:0:0:0:
211,263,292945,1,0,0:0:0:0:
189,214,293006,6,0,P|183:170|205:128,1,76.9999976501466,2|0,0:0|0:0,0:0:0:0:
233,299,293129,2,0,P|239:343|217:385,1,76.9999976501466,2|0,0:0|0:0,0:0:0:0:
293,217,293251,2,0,P|332:196|354:154,1,76.9999976501466,2|0,0:0|0:0,0:0:0:0:
388,67,293374,5,8,0:0:0:0:
362,20,293435,1,0,0:0:0:0:
313,1,293496,1,0,0:0:0:0:
263,17,293557,1,0,0:0:0:0:
227,57,293618,5,8,0:0:0:0:
193,98,293679,1,0,0:0:0:0:
142,113,293740,1,0,0:0:0:0:
91,98,293801,1,0,0:0:0:0:
27,68,293863,5,12,0:0:0:0:
36,128,293924,1,0,0:0:0:0:
46,189,293985,1,0,0:0:0:0:
55,250,294046,1,0,0:0:0:0:
70,327,294108,5,8,0:0:0:0:
132,353,294169,1,0,0:0:0:0:
199,340,294230,1,0,0:0:0:0:
246,291,294291,1,0,0:0:0:0:
257,224,294352,1,0,0:0:0:0:
228,162,294414,1,0,0:0:0:0:
226,92,294476,1,0,0:0:0:0:
255,31,294537,1,0,0:0:0:0:
320,13,294598,1,0,0:0:0:0:
376,50,294659,1,0,0:0:0:0:
386,116,294720,1,0,0:0:0:0:
343,168,294782,1,0,0:0:0:0:
285,218,294843,5,8,0:0:0:0:
249,168,294904,1,0,0:0:0:0:
192,150,294965,1,0,0:0:0:0:
135,171,295026,1,0,0:0:0:0:
103,223,295087,1,0,0:0:0:0:
109,283,295149,1,0,0:0:0:0:
150,327,295210,1,0,0:0:0:0:
210,337,295271,1,0,0:0:0:0:
272,334,295333,1,0,0:0:0:0:
333,331,295394,1,0,0:0:0:0:
395,327,295455,1,0,0:0:0:0:
456,323,295516,1,0,0:0:0:0:
510,352,295578,5,8,0:0:0:0:
472,304,295639,1,2,0:0:0:0:
456,245,295700,1,2,0:0:0:0:
466,185,295761,1,2,0:0:0:0:
492,120,295823,5,6,0:0:0:0:
496,53,295884,1,2,0:0:0:0:
446,8,295945,1,2,0:0:0:0:
380,21,296006,1,2,0:0:0:0:
350,81,296067,1,2,0:0:0:0:
355,151,296129,1,2,0:0:0:0:
354,220,296190,1,2,0:0:0:0:
293,253,296251,1,2,0:0:0:0:
224,263,296312,5,8,0:0:0:0:
235,210,296373,1,0,0:0:0:0:
246,157,296434,1,0,0:0:0:0:
257,104,296495,1,0,0:0:0:0:
268,51,296557,5,2,0:0:0:0:
227,7,296618,1,0,0:0:0:0:
168,8,296679,1,0,0:0:0:0:
127,52,296740,1,0,0:0:0:0:
113,105,296802,1,0,0:0:0:0:
99,165,296863,1,0,0:0:0:0:
85,225,296924,1,0,0:0:0:0:
71,285,296985,1,0,0:0:0:0:
58,346,297047,6,0,L|161:335,5,76.9999976501466,2|0|0|0|0|0,0:0|0:0|0:0|0:0|0:0|0:0,0:0:0:0:
286,263,297414,2,0,L|182:273,5,76.9999976501466,2|0|0|0|0|0,0:0|0:0|0:0|0:0|0:0|0:0,0:0:0:0:
58,201,297782,6,0,P|80:157|123:120,3,76.9999976501466,2|0|0|0,0:0|0:0|0:0|0:0,0:0:0:0:
205,112,298027,2,0,P|188:77|163:48,3,76.9999976501466,2|0|2|0,0:0|0:0|0:0|0:0,0:0:0:0:
164,196,298272,2,0,P|193:221|227:237,3,76.9999976501466,2|0|2|0,0:0|0:0|0:0|0:0,0:0:0:0:
294,143,298516,5,8,0:0:0:0:
330,114,298577,1,0,0:0:0:0:
375,107,298638,1,0,0:0:0:0:
417,124,298699,1,0,0:0:0:0:
494,125,298761,5,12,0:0:0:0:
486,186,298822,1,0,0:0:0:0:
478,247,298883,1,0,0:0:0:0:
470,308,298945,1,0,0:0:0:0:
433,354,299006,1,0,0:0:0:0:
373,357,299067,1,0,0:0:0:0:
331,315,299128,1,0,0:0:0:0:
336,255,299189,1,0,0:0:0:0:
352,186,299251,5,2,0:0:0:0:
351,125,299312,1,0,0:0:0:0:
315,76,299373,1,0,0:0:0:0:
258,56,299434,1,0,0:0:0:0:
200,72,299495,1,0,0:0:0:0:
161,119,299557,1,0,0:0:0:0:
156,180,299618,1,0,0:0:0:0:
142,237,299679,1,0,0:0:0:0:
89,263,299740,1,0,0:0:0:0:
35,238,299801,1,0,0:0:0:0:
21,180,299862,1,0,0:0:0:0:
57,133,299924,1,0,0:0:0:0:
126,97,299986,5,10,0:0:0:0:
171,102,300047,1,0,0:0:0:0:
217,108,300108,1,0,0:0:0:0:
263,113,300169,1,0,0:0:0:0:
309,119,300230,1,0,0:0:0:0:
355,124,300292,1,0,0:0:0:0:
400,134,300353,1,0,0:0:0:0:
443,148,300414,1,0,0:0:0:0:
472,183,300475,1,0,0:0:0:0:
479,228,300536,1,0,0:0:0:0:
461,270,300597,1,0,0:0:0:0:
424,296,300659,1,0,0:0:0:0:
349,314,300720,5,2,0:0:0:0:
361,285,300781,1,0,0:0:0:0:
363,255,300842,1,0,0:0:0:0:
356,225,300903,1,0,0:0:0:0:
327,152,300965,5,2,0:0:0:0:
313,108,301026,1,0,0:0:0:0:
315,62,301087,1,0,0:0:0:0:
332,19,301148,1,0,0:0:0:0:
402,68,301210,5,2,0:0:0:0:
354,106,301271,1,0,0:0:0:0:
294,119,301332,1,0,0:0:0:0:
235,106,301393,1,0,0:0:0:0:
163,76,301455,5,10,0:0:0:0:
103,70,301516,1,0,0:0:0:0:
60,111,301577,1,0,0:0:0:0:
63,170,301638,1,0,0:0:0:0:
111,206,301699,5,2,0:0:0:0:
169,185,301761,1,0,0:0:0:0:
230,175,301823,1,0,0:0:0:0:
290,184,301884,1,0,0:0:0:0:
343,213,301945,1,0,0:0:0:0:
403,222,302006,1,0,0:0:0:0:
457,194,302067,1,0,0:0:0:0:
482,138,302128,1,0,0:0:0:0:
484,67,302190,5,12,0:0:0:0:
415,75,302251,1,0,0:0:0:0:
346,83,302312,1,0,0:0:0:0:
277,91,302373,1,0,0:0:0:0:
208,99,302434,1,0,0:0:0:0:
139,107,302496,1,0,0:0:0:0:
62,112,302557,5,12,0:0:0:0:
60,180,302618,1,0,0:0:0:0:
101,234,302679,1,0,0:0:0:0:
167,252,302740,1,0,0:0:0:0:
230,225,302801,1,0,0:0:0:0:
263,166,302863,1,0,0:0:0:0:
188,143,302925,5,14,0:0:0:0:
196,188,302986,1,0,0:0:0:0:
204,233,303047,1,0,0:0:0:0:
213,279,303108,1,0,0:0:0:0:
228,321,303169,1,0,0:0:0:0:
267,345,303230,1,0,0:0:0:0:
336,350,303292,5,8,0:0:0:0:
324,289,303353,1,0,0:0:0:0:
312,229,303414,1,0,0:0:0:0:
300,168,303476,1,0,0:0:0:0:
313,111,303537,1,0,0:0:0:0:
371,99,303598,1,0,0:0:0:0:
376,176,303659,5,10,0:0:0:0:
311,199,303720,1,0,0:0:0:0:
242,194,303781,1,0,0:0:0:0:
177,167,303843,1,0,0:0:0:0:
110,166,303904,1,0,0:0:0:0:
67,218,303965,1,0,0:0:0:0:
45,292,304027,5,10,0:0:0:0:
113,281,304088,1,0,0:0:0:0:
182,271,304149,1,0,0:0:0:0:
250,261,304210,1,0,0:0:0:0:
319,251,304271,1,0,0:0:0:0:
387,241,304333,1,0,0:0:0:0:
459,215,304394,5,12,0:0:0:0:
475,280,304455,1,0,0:0:0:0:
438,336,304516,1,0,0:0:0:0:
372,345,304577,1,0,0:0:0:0:
320,303,304638,1,0,0:0:0:0:
317,235,304700,1,0,0:0:0:0:
336,169,304761,1,0,0:0:0:0:
346,102,304822,1,0,0:0:0:0:
306,48,304883,1,0,0:0:0:0:
239,41,304944,1,0,0:0:0:0:
188,85,305005,1,0,0:0:0:0:
184,152,305067,1,0,0:0:0:0:
146,220,305129,5,10,0:0:0:0:
205,230,305190,1,0,0:0:0:0:
263,209,305251,1,0,0:0:0:0:
301,161,305312,1,0,0:0:0:0:
344,117,305374,1,0,0:0:0:0:
402,103,305435,1,0,0:0:0:0:
456,131,305496,1,0,0:0:0:0:
478,187,305557,1,0,0:0:0:0:
458,244,305618,1,0,0:0:0:0:
399,264,305680,1,0,0:0:0:0:
340,281,305741,1,0,0:0:0:0:
280,296,305802,1,0,0:0:0:0:
216,321,305863,5,10,0:0:0:0:
219,259,305924,1,0,0:0:0:0:
207,199,305985,1,0,0:0:0:0:
179,143,306047,1,0,0:0:0:0:
162,86,306108,1,0,0:0:0:0:
201,42,306169,1,0,0:0:0:0:
277,23,306231,5,12,0:0:0:0:
344,22,306292,1,0,0:0:0:0:
384,76,306353,1,0,0:0:0:0:
364,140,306414,1,0,0:0:0:0:
301,161,306475,1,0,0:0:0:0:
246,122,306537,1,0,0:0:0:0:
189,81,306598,6,0,L|102:15,3,76.9999976501466,2|0|2|0,0:0|0:0|0:0|0:0,0:0:0:0:
127,232,306843,2,0,L|189:186,3,76.9999976501466,2|0|2|0,0:0|0:0|0:0|0:0,0:0:0:0:
339,121,307088,2,0,L|262:131,3,76.9999976501466,2|0|2|0,0:0|0:0|0:0|0:0,0:0:0:0:
122,133,307333,5,12,0:0:0:0:
69,144,307394,1,0,0:0:0:0:
29,179,307455,1,0,0:0:0:0:
9,229,307516,1,0,0:0:0:0:
15,282,307577,1,0,0:0:0:0:
45,326,307639,1,0,0:0:0:0:
92,351,307700,1,0,0:0:0:0:
146,351,307761,1,0,0:0:0:0:
193,327,307822,1,0,0:0:0:0:
223,283,307884,1,0,0:0:0:0:
230,230,307945,1,0,0:0:0:0:
215,178,308006,1,0,0:0:0:0:
184,107,308067,5,2,0:0:0:0:
181,54,308128,1,0,0:0:0:0:
211,10,308189,1,0,0:0:0:0:
262,0,308250,1,0,0:0:0:0:
311,13,308311,1,0,0:0:0:0:
339,58,308373,1,0,0:0:0:0:
334,110,308434,1,0,0:0:0:0:
318,163,308496,1,0,0:0:0:0:
315,216,308557,1,0,0:0:0:0:
347,257,308618,1,0,0:0:0:0:
399,267,308679,1,0,0:0:0:0:
444,239,308740,1,0,0:0:0:0:
490,176,308802,5,8,0:0:0:0:
477,147,308863,1,0,0:0:0:0:
454,128,308924,1,0,0:0:0:0:
425,120,308985,1,0,0:0:0:0:
395,126,309046,1,0,0:0:0:0:
371,144,309108,1,0,0:0:0:0:
304,182,309169,5,8,0:0:0:0:
250,208,309230,1,0,0:0:0:0:
194,187,309291,1,0,0:0:0:0:
172,132,309352,1,0,0:0:0:0:
199,78,309413,1,0,0:0:0:0:
256,61,309475,1,0,0:0:0:0:
322,39,309537,5,8,0:0:0:0:
317,108,309598,1,0,0:0:0:0:
313,177,309659,1,0,0:0:0:0:
309,246,309720,1,0,0:0:0:0:
289,310,309781,1,0,0:0:0:0:
226,333,309842,1,0,0:0:0:0:
157,320,309904,6,0,P|154:281|168:246,3,76.9999976501466,2|0|0|0,0:0|0:0|0:0|0:0,0:0:0:0:
285,168,310149,6,0,P|287:206|273:241,1,76.9999976501466,2|0,0:0|0:0,0:0:0:0:
225,312,310272,5,14,0:0:0:0:
170,364,310333,1,0,0:0:0:0:
95,375,310394,1,0,0:0:0:0:
27,341,310455,1,0,0:0:0:0:
0,274,310516,1,0,0:0:0:0:
1,199,310578,1,0,0:0:0:0:
53,143,310639,1,0,0:0:0:0:
127,127,310700,1,0,0:0:0:0:
197,157,310761,1,0,0:0:0:0:
261,201,310823,1,0,0:0:0:0:
329,231,310884,1,0,0:0:0:0:
400,206,310945,1,0,0:0:0:0:
461,161,311006,5,2,0:0:0:0:
439,89,311067,1,0,0:0:0:0:
374,52,311129,1,0,0:0:0:0:
301,71,311190,1,0,0:0:0:0:
261,134,311251,1,0,0:0:0:0:
268,210,311312,1,0,0:0:0:0:
268,285,311373,1,0,0:0:0:0:
219,342,311434,1,0,0:0:0:0:
144,352,311495,1,0,0:0:0:0:
81,311,311556,1,0,0:0:0:0:
60,239,311618,1,0,0:0:0:0:
91,171,311679,1,0,0:0:0:0:
155,127,311741,5,10,0:0:0:0:
197,110,311802,1,0,0:0:0:0:
243,109,311863,1,0,0:0:0:0:
287,124,311924,1,0,0:0:0:0:
231,179,311986,5,10,0:0:0:0:
184,178,312047,1,0,0:0:0:0:
138,178,312108,1,0,0:0:0:0:
92,177,312169,1,0,0:0:0:0:
19,205,312231,5,10,0:0:0:0:
40,246,312292,1,0,0:0:0:0:
79,269,312353,1,0,0:0:0:0:
124,268,312414,1,0,0:0:0:0:
201,260,312476,5,10,0:0:0:0:
255,254,312537,1,0,0:0:0:0:
308,248,312598,1,0,0:0:0:0:
362,242,312659,1,0,0:0:0:0:
428,204,312720,5,10,0:0:0:0:
397,152,312781,1,0,0:0:0:0:
339,138,312842,1,0,0:0:0:0:
288,170,312903,1,0,0:0:0:0:
223,213,312965,5,10,0:0:0:0:
157,228,313026,1,0,0:0:0:0:
102,189,313087,1,0,0:0:0:0:
93,122,313149,1,0,0:0:0:0:
97,36,313210,5,14,0:0:0:0:
365,333,313578,5,14,0:0:0:0:
79,332,313945,5,14,0:0:0:0:
388,50,314312,5,14,0:0:0:0:
251,189,314680,5,2,0:0:0:0:
