osu file format v14

[General]
AudioFilename: audio.mp3
AudioLeadIn: 0
PreviewTime: 134536
Countdown: 0
SampleSet: Normal
StackLeniency: 0.7
Mode: 0
LetterboxInBreaks: 0
WidescreenStoryboard: 0

[Editor]
DistanceSpacing: 1.4
BeatDivisor: 8
GridSize: 4
TimelineZoom: 2.899999

[Metadata]
Title:Thy Menacing Gaze
TitleUnicode:Thy Menacing Gaze
Artist:Inferi
ArtistUnicode:Inferi
Creator:OlmyBootycheeks
Version:Journey For the Crimson Crown
Source:
Tags:black metal metal symphonic metal death metal melodic death metal symphonic death metal tech death technical death metal thrash metal
BeatmapID:1637576
BeatmapSetID:779877

[Difficulty]
HPDrainRate:0
CircleSize:4
OverallDifficulty:9.5
ApproachRate:10
SliderMultiplier:2.2
SliderTickRate:1

[Events]
//Background and Video events
0,0,"RevenantCover.png",0,0
//Break Periods
//Storyboard Layer 0 (Background)
//Storyboard Layer 1 (Fail)
//Storyboard Layer 2 (Pass)
//Storyboard Layer 3 (Foreground)
//Storyboard Sound Samples

[TimingPoints]
18431,255.31914893617,4,1,0,40,1,0
24558,-166.666666666667,4,1,0,40,0,0
47026,-100,4,1,0,40,0,0
47154,-166.666666666667,4,1,0,40,0,0
49069,-100,4,1,0,40,0,0
61324,-83.3333333333333,4,1,0,40,0,1
73324,255.31914893617,3,1,0,40,1,0
73324,-100,4,1,0,40,0,0
91706,-83.3333333333333,4,1,0,40,0,0
110089,-100,4,1,0,40,0,0
134600,-83.3333333333333,4,1,0,40,0,0
165238,-100,4,1,0,40,0,0
183621,-83.3333333333333,4,1,0,40,0,1
185919,-83.3333333333333,4,1,0,40,0,0
186685,-83.3333333333333,4,1,0,40,0,1
188983,-83.3333333333333,4,1,0,40,0,0
190515,-83.3333333333333,4,1,0,40,0,1
195111,-100,4,1,0,40,0,0
213494,-83.3333333333333,4,1,0,40,0,0
225255,255.31914893617,4,1,0,40,1,0
225255,-125,4,1,0,40,0,0
228773,337.078651685393,3,1,0,40,1,0
228773,-125,3,1,0,40,0,0
230289,248.96265560166,4,1,0,40,1,0
230289,-125,4,1,0,40,0,0
234272,333.333333333333,3,1,0,40,1,0
234272,-100,3,1,0,40,0,0
242272,-83.3333333333333,3,1,0,40,0,0
264251,333.333333333333,4,1,0,40,1,0
264251,-100,4,1,0,40,0,0
266931,342.857142857143,4,1,0,40,1,0
266931,-83.3333333333333,4,1,0,40,0,1
267273,227.272727272727,4,1,0,40,1,0
267273,-83.3333333333333,4,1,0,40,0,1
272931,255.31914893617,4,1,0,40,1,0
272931,-100,4,1,0,40,0,0
278931,255.31914893617,4,1,0,40,1,0
278931,-83.3333333333333,4,1,0,40,0,1
284931,255.31914893617,4,1,0,40,1,0
284931,-100,4,1,0,40,0,0
289952,255.31914893617,4,1,0,40,1,0
293909,255.31914893617,4,1,0,40,1,0
300930,255.31914893617,4,1,0,40,1,0
306802,255.31914893617,4,1,0,40,1,0
306802,-83.3333333333333,4,1,0,40,0,1
318802,255.31914893617,4,1,0,40,1,0
322887,-83.3333333333333,4,1,0,40,0,1
330946,255.31914893617,4,1,0,40,1,0
337924,255.31914893617,4,1,0,40,1,0
342945,255.31914893617,4,1,0,40,1,0
346902,255.31914893617,4,1,0,40,1,0
354945,255.31914893617,4,1,0,40,1,0
357945,255.31914893617,4,1,0,40,1,0
361902,255.31914893617,4,1,0,40,1,0
365859,255.31914893617,4,1,0,40,1,0
365859,-125,4,1,0,40,0,0
370922,255.31914893617,4,1,0,40,1,0
373922,255.31914893617,4,1,0,40,1,0

[Colours]
Combo1 : 66,66,132
Combo2 : 138,138,255
Combo3 : 191,191,223

[HitObjects]
103,133,24558,6,0,B|156:122|202:135|202:135|244:129,1,131.99999597168
357,162,25069,1,0,0:0:0:0:
282,55,25324,6,0,B|253:87|244:120|244:120|218:147|218:147|214:169|203:190|203:190|171:222|137:274,1,263.99999194336
45,317,26090,2,0,P|26:258|58:167,1,131.99999597168
15,61,26601,6,0,P|48:67|85:65,1,65.9999979858399
173,31,26856,1,0,0:0:0:0:
178,121,27111,1,0,0:0:0:0:
197,151,27174,1,0,0:0:0:0:
208,185,27238,1,0,0:0:0:0:
208,222,27302,1,0,0:0:0:0:
197,256,27366,1,0,0:0:0:0:
328,176,27494,1,0,0:0:0:0:
328,176,27558,1,0,0:0:0:0:
328,176,27622,1,0,0:0:0:0:
91,185,27877,5,0,0:0:0:0:
385,135,29154,5,0,0:0:0:0:
385,135,29218,1,0,0:0:0:0:
385,135,29282,1,0,0:0:0:0:
267,75,29409,1,0,0:0:0:0:
149,119,29537,1,0,0:0:0:0:
247,200,29665,6,0,L|279:289,1,65.9999979858399
369,338,29920,1,0,0:0:0:0:
369,338,29984,1,0,0:0:0:0:
369,338,30048,1,0,0:0:0:0:
423,218,30175,1,0,0:0:0:0:
363,99,30303,1,0,0:0:0:0:
290,211,30430,1,0,0:0:0:0:
172,149,30558,1,0,0:0:0:0:
83,194,30686,6,0,P|99:263|147:299,2,131.99999597168
82,282,31452,2,0,P|108:213|245:194,1,197.99999395752
187,280,31962,5,0,0:0:0:0:
187,280,32218,2,0,P|119:217|122:166,1,131.99999597168
216,59,32728,5,0,0:0:0:0:
216,59,32984,2,0,L|192:147,1,65.9999979858399
194,221,33239,1,0,0:0:0:0:
194,221,33303,1,0,0:0:0:0:
194,221,33367,1,0,0:0:0:0:
194,221,33430,1,0,0:0:0:0:
194,221,33494,1,0,0:0:0:0:
418,81,33750,5,0,0:0:0:0:
290,49,34005,1,0,0:0:0:0:
277,79,34068,1,0,0:0:0:0:
275,112,34132,1,0,0:0:0:0:
283,144,34196,1,0,0:0:0:0:
296,174,34260,2,0,P|307:211|290:263,1,65.9999979858399
265,329,34516,1,0,0:0:0:0:
225,217,34643,1,0,0:0:0:0:
97,111,34771,5,0,0:0:0:0:
157,279,34898,1,0,0:0:0:0:
153,113,35026,5,0,0:0:0:0:
158,291,35153,1,0,0:0:0:0:
207,131,35282,5,0,0:0:0:0:
321,253,35409,1,0,0:0:0:0:
438,192,35537,1,0,0:0:0:0:
350,92,35665,1,0,0:0:0:0:
309,213,35792,5,0,0:0:0:0:
286,237,35855,1,0,0:0:0:0:
257,252,35919,1,0,0:0:0:0:
225,257,35983,1,0,0:0:0:0:
193,251,36047,1,0,0:0:0:0:
106,201,36175,1,0,0:0:0:0:
62,90,36303,1,0,0:0:0:0:
180,107,36430,1,0,0:0:0:0:
305,65,36558,1,0,0:0:0:0:
427,115,36686,1,0,0:0:0:0:
471,238,36813,5,0,0:0:0:0:
471,238,37069,1,0,0:0:0:0:
105,118,39367,5,0,0:0:0:0:
123,104,39430,1,0,0:0:0:0:
144,94,39494,1,0,0:0:0:0:
166,87,39558,1,0,0:0:0:0:
189,84,39622,1,0,0:0:0:0:
212,85,39686,1,0,0:0:0:0:
234,89,39749,1,0,0:0:0:0:
256,98,39813,1,0,0:0:0:0:
276,109,39877,1,0,0:0:0:0:
196,215,40133,5,0,0:0:0:0:
147,129,41409,5,0,0:0:0:0:
133,159,41472,1,0,0:0:0:0:
127,191,41536,1,0,0:0:0:0:
129,224,41600,1,0,0:0:0:0:
139,255,41664,1,0,0:0:0:0:
190,340,41792,5,0,0:0:0:0:
286,221,41920,1,0,0:0:0:0:
231,78,42048,1,0,0:0:0:0:
95,104,42175,1,0,0:0:0:0:
73,147,42238,1,0,0:0:0:0:
66,195,42302,1,0,0:0:0:0:
71,244,42366,1,0,0:0:0:0:
90,290,42430,1,0,0:0:0:0:
160,360,42558,5,0,0:0:0:0:
336,288,42686,1,0,0:0:0:0:
199,240,42813,1,0,0:0:0:0:
318,159,42941,5,0,0:0:0:0:
318,159,43196,1,0,0:0:0:0:
318,159,43452,1,0,0:0:0:0:
318,159,43707,1,0,0:0:0:0:
66,278,44218,5,0,0:0:0:0:
66,278,44473,1,0,0:0:0:0:
88,0,44984,5,0,0:0:0:0:
88,0,45239,1,0,0:0:0:0:
88,0,45494,1,0,0:0:0:0:
88,0,45750,1,0,0:0:0:0:
171,287,46005,5,0,0:0:0:0:
266,61,46260,1,0,0:0:0:0:
293,78,46323,1,0,0:0:0:0:
316,102,46387,1,0,0:0:0:0:
332,131,46451,1,0,0:0:0:0:
341,162,46515,1,0,0:0:0:0:
341,195,46579,1,0,0:0:0:0:
334,227,46642,1,0,0:0:0:0:
319,257,46706,1,0,0:0:0:0:
288,292,46771,5,0,0:0:0:0:
278,317,46834,1,0,0:0:0:0:
278,343,46898,1,0,0:0:0:0:
296,361,46962,1,0,0:0:0:0:
318,375,47026,2,0,L|372:372,1,55
426,358,47154,5,0,0:0:0:0:
413,327,47217,1,0,0:0:0:0:
403,295,47281,1,0,0:0:0:0:
397,263,47345,1,0,0:0:0:0:
393,230,47409,1,0,0:0:0:0:
393,197,47473,1,0,0:0:0:0:
401,165,47537,6,0,L|414:103,3,32.99999899292
315,96,47792,2,0,L|321:128,3,32.99999899292
342,209,48048,5,0,0:0:0:0:
341,235,48111,1,0,0:0:0:0:
329,258,48175,1,0,0:0:0:0:
309,275,48239,1,0,0:0:0:0:
295,301,48303,5,0,0:0:0:0:
293,275,48366,1,0,0:0:0:0:
283,250,48430,1,0,0:0:0:0:
267,229,48494,1,0,0:0:0:0:
249,208,48558,1,0,0:0:0:0:
232,181,48621,1,0,0:0:0:0:
225,149,48685,1,0,0:0:0:0:
230,116,48749,1,0,0:0:0:0:
246,87,48813,5,0,0:0:0:0:
94,59,49069,6,0,L|138:181,1,110
167,255,49324,1,0,0:0:0:0:
221,98,49452,1,0,0:0:0:0:
375,153,49579,2,0,L|494:102,1,110
405,47,49835,1,0,0:0:0:0:
373,37,49898,1,0,0:0:0:0:
341,41,49962,1,0,0:0:0:0:
313,58,50026,1,0,0:0:0:0:
286,77,50090,5,0,0:0:0:0:
256,92,50153,1,0,0:0:0:0:
224,97,50217,1,0,0:0:0:0:
191,93,50281,1,0,0:0:0:0:
159,87,50345,1,0,0:0:0:0:
126,82,50408,1,0,0:0:0:0:
94,86,50472,1,0,0:0:0:0:
63,97,50536,1,0,0:0:0:0:
20,82,50601,5,0,0:0:0:0:
19,103,50664,1,0,0:0:0:0:
26,124,50728,1,0,0:0:0:0:
38,142,50792,1,0,0:0:0:0:
56,156,50856,1,0,0:0:0:0:
76,163,50920,1,0,0:0:0:0:
98,164,50983,1,0,0:0:0:0:
119,158,51047,1,0,0:0:0:0:
147,141,51111,5,0,0:0:0:0:
140,173,51174,1,0,0:0:0:0:
143,206,51238,1,0,0:0:0:0:
158,235,51302,1,0,0:0:0:0:
151,267,51367,5,0,0:0:0:0:
173,243,51430,1,0,0:0:0:0:
204,232,51494,1,0,0:0:0:0:
237,237,51558,1,0,0:0:0:0:
256,247,51622,1,0,0:0:0:0:
275,257,51685,1,0,0:0:0:0:
296,263,51749,1,0,0:0:0:0:
318,263,51813,1,0,0:0:0:0:
349,251,51877,5,0,0:0:0:0:
340,244,51940,1,0,0:0:0:0:
332,236,52004,1,0,0:0:0:0:
325,227,52068,1,0,0:0:0:0:
340,197,52133,5,0,0:0:0:0:
342,186,52196,1,0,0:0:0:0:
343,175,52260,1,0,0:0:0:0:
342,164,52324,1,0,0:0:0:0:
303,143,52388,5,0,0:0:0:0:
305,132,52451,1,0,0:0:0:0:
310,122,52515,1,0,0:0:0:0:
316,113,52579,1,0,0:0:0:0:
339,89,52643,5,0,0:0:0:0:
306,96,52706,1,0,0:0:0:0:
273,95,52770,1,0,0:0:0:0:
242,87,52834,1,0,0:0:0:0:
197,45,52899,5,0,0:0:0:0:
165,54,52962,1,0,0:0:0:0:
133,63,53026,1,0,0:0:0:0:
101,72,53090,1,0,0:0:0:0:
68,69,53154,6,0,B|64:100|74:126|74:126|80:160|80:160|99:195,1,110
36,312,53409,2,0,P|49:263|65:244,3,55
107,214,53665,5,0,0:0:0:0:
139,211,53728,1,0,0:0:0:0:
172,209,53792,1,0,0:0:0:0:
205,206,53856,1,0,0:0:0:0:
235,222,53920,5,0,0:0:0:0:
227,201,53983,1,0,0:0:0:0:
229,179,54047,1,0,0:0:0:0:
239,160,54111,1,0,0:0:0:0:
270,128,54175,5,0,0:0:0:0:
277,107,54238,1,0,0:0:0:0:
277,85,54302,1,0,0:0:0:0:
269,65,54366,1,0,0:0:0:0:
275,32,54430,5,0,0:0:0:0:
239,56,54493,1,0,0:0:0:0:
196,68,54557,1,0,0:0:0:0:
153,64,54621,1,0,0:0:0:0:
108,58,54686,1,0,0:0:0:0:
66,50,54749,1,0,0:0:0:0:
36,80,54813,1,0,0:0:0:0:
44,122,54877,1,0,0:0:0:0:
58,163,54941,1,0,0:0:0:0:
69,205,55004,1,0,0:0:0:0:
66,249,55068,1,0,0:0:0:0:
49,289,55132,1,0,0:0:0:0:
32,330,55196,6,0,L|176:348,1,110
244,356,55452,1,0,0:0:0:0:
378,261,55579,1,0,0:0:0:0:
231,228,55707,1,0,0:0:0:0:
326,362,55834,1,0,0:0:0:0:
421,228,55962,1,0,0:0:0:0:
425,212,56025,1,0,0:0:0:0:
426,195,56089,1,0,0:0:0:0:
423,179,56153,1,0,0:0:0:0:
417,163,56217,5,0,0:0:0:0:
408,150,56281,1,0,0:0:0:0:
397,138,56344,1,0,0:0:0:0:
383,129,56408,1,0,0:0:0:0:
372,116,56473,2,0,P|347:59|366:5,1,110
473,55,56728,1,0,0:0:0:0:
350,238,56856,1,0,0:0:0:0:
288,84,56984,1,0,0:0:0:0:
171,271,57112,1,0,0:0:0:0:
350,238,57239,6,0,L|468:248,1,110
400,340,57494,1,0,0:0:0:0:
382,326,57557,1,0,0:0:0:0:
362,317,57621,1,0,0:0:0:0:
340,314,57685,1,0,0:0:0:0:
308,322,57750,5,0,0:0:0:0:
280,323,57813,1,0,0:0:0:0:
254,316,57877,1,0,0:0:0:0:
231,300,57941,1,0,0:0:0:0:
198,298,58005,5,0,0:0:0:0:
205,266,58068,1,0,0:0:0:0:
212,234,58132,1,0,0:0:0:0:
218,202,58196,1,0,0:0:0:0:
213,158,58260,5,0,0:0:0:0:
216,104,58323,1,0,0:0:0:0:
188,56,58387,1,0,0:0:0:0:
140,32,58451,1,0,0:0:0:0:
92,56,58515,1,0,0:0:0:0:
52,92,58579,1,0,0:0:0:0:
28,140,58643,5,0,0:0:0:0:
80,128,58706,1,0,0:0:0:0:
128,156,58770,1,0,0:0:0:0:
168,196,58835,1,0,0:0:0:0:
212,228,58898,1,0,0:0:0:0:
268,216,58962,1,0,0:0:0:0:
312,224,59026,5,0,0:0:0:0:
292,197,59089,1,0,0:0:0:0:
282,166,59153,1,0,0:0:0:0:
285,133,59217,1,0,0:0:0:0:
301,103,59282,5,0,0:0:0:0:
308,66,59345,1,0,0:0:0:0:
287,35,59409,1,0,0:0:0:0:
250,29,59473,1,0,0:0:0:0:
218,38,59537,1,0,0:0:0:0:
186,48,59600,1,0,0:0:0:0:
154,53,59664,1,0,0:0:0:0:
121,52,59728,1,0,0:0:0:0:
98,52,59792,5,0,0:0:0:0:
76,48,59855,1,0,0:0:0:0:
55,53,59919,1,0,0:0:0:0:
36,64,59983,1,0,0:0:0:0:
41,81,60047,1,0,0:0:0:0:
42,103,60111,1,0,0:0:0:0:
36,124,60174,1,0,0:0:0:0:
47,136,60238,1,0,0:0:0:0:
69,134,60302,5,0,0:0:0:0:
78,145,60366,1,0,0:0:0:0:
74,165,60430,1,0,0:0:0:0:
68,186,60494,1,0,0:0:0:0:
66,207,60558,2,0,P|62:242|81:276,3,55
167,309,60813,2,0,P|171:274|152:240,3,55
112,156,61069,2,0,P|121:130|140:111,3,55
203,187,61324,5,0,0:0:0:0:
240,198,61387,1,0,0:0:0:0:
278,188,61451,1,0,0:0:0:0:
305,159,61515,1,0,0:0:0:0:
325,110,61579,5,0,0:0:0:0:
358,131,61642,1,0,0:0:0:0:
391,153,61706,1,0,0:0:0:0:
425,174,61770,1,0,0:0:0:0:
451,178,61835,5,0,0:0:0:0:
436,200,61898,1,0,0:0:0:0:
428,225,61962,1,0,0:0:0:0:
427,251,62026,1,0,0:0:0:0:
432,290,62090,5,0,0:0:0:0:
424,280,62153,1,0,0:0:0:0:
414,271,62217,1,0,0:0:0:0:
403,263,62281,1,0,0:0:0:0:
392,257,62345,1,0,0:0:0:0:
380,252,62409,1,0,0:0:0:0:
367,249,62472,1,0,0:0:0:0:
354,248,62536,1,0,0:0:0:0:
340,251,62601,5,0,0:0:0:0:
312,223,62664,1,0,0:0:0:0:
300,186,62728,1,0,0:0:0:0:
309,147,62792,1,0,0:0:0:0:
338,120,62856,1,0,0:0:0:0:
396,108,62920,1,0,0:0:0:0:
383,93,62983,1,0,0:0:0:0:
366,84,63047,1,0,0:0:0:0:
346,83,63111,6,0,P|287:109|262:168,1,131.99999597168
371,286,63367,2,0,P|380:204|334:149,1,131.99999597168
329,75,63622,2,0,P|407:89|447:150,1,131.99999597168
457,250,63877,5,0,0:0:0:0:
460,262,63940,1,0,0:0:0:0:
462,275,64004,1,0,0:0:0:0:
461,288,64068,1,0,0:0:0:0:
458,301,64133,1,0,0:0:0:0:
431,298,64196,1,0,0:0:0:0:
405,300,64260,1,0,0:0:0:0:
380,309,64324,1,0,0:0:0:0:
357,321,64388,5,0,0:0:0:0:
353,282,64451,1,0,0:0:0:0:
332,249,64515,1,0,0:0:0:0:
297,230,64579,1,0,0:0:0:0:
257,232,64643,5,0,0:0:0:0:
226,209,64706,1,0,0:0:0:0:
212,172,64770,1,0,0:0:0:0:
219,134,64834,1,0,0:0:0:0:
254,115,64899,5,0,0:0:0:0:
240,65,64962,1,0,0:0:0:0:
197,35,65026,1,0,0:0:0:0:
146,39,65090,1,0,0:0:0:0:
108,75,65154,1,0,0:0:0:0:
102,126,65218,1,0,0:0:0:0:
130,170,65281,1,0,0:0:0:0:
179,186,65345,1,0,0:0:0:0:
211,209,65409,5,0,0:0:0:0:
227,244,65472,1,0,0:0:0:0:
218,281,65536,1,0,0:0:0:0:
188,306,65600,1,0,0:0:0:0:
153,327,65665,5,0,0:0:0:0:
178,321,65728,1,0,0:0:0:0:
205,321,65792,1,0,0:0:0:0:
231,325,65856,1,0,0:0:0:0:
248,334,65920,1,0,0:0:0:0:
265,343,65983,1,0,0:0:0:0:
284,350,66047,1,0,0:0:0:0:
303,352,66111,1,0,0:0:0:0:
316,351,66175,1,0,0:0:0:0:
328,348,66238,1,0,0:0:0:0:
341,346,66302,1,0,0:0:0:0:
355,347,66366,1,0,0:0:0:0:
379,357,66430,5,0,0:0:0:0:
361,321,66493,1,0,0:0:0:0:
353,283,66557,1,0,0:0:0:0:
354,243,66621,1,0,0:0:0:0:
368,205,66686,5,0,0:0:0:0:
358,213,66749,1,0,0:0:0:0:
347,220,66813,1,0,0:0:0:0:
334,224,66877,1,0,0:0:0:0:
315,242,66941,5,0,0:0:0:0:
282,222,67004,1,0,0:0:0:0:
264,187,67068,1,0,0:0:0:0:
268,149,67132,1,0,0:0:0:0:
299,106,67196,5,0,0:0:0:0:
253,80,67259,1,0,0:0:0:0:
202,71,67323,1,0,0:0:0:0:
150,80,67387,1,0,0:0:0:0:
129,114,67452,5,0,0:0:0:0:
92,106,67515,1,0,0:0:0:0:
82,70,67579,1,0,0:0:0:0:
109,44,67643,1,0,0:0:0:0:
148,49,67707,5,0,0:0:0:0:
185,60,67770,1,0,0:0:0:0:
225,59,67834,1,0,0:0:0:0:
263,48,67898,1,0,0:0:0:0:
300,36,67962,5,0,0:0:0:0:
290,74,68025,1,0,0:0:0:0:
280,112,68089,1,0,0:0:0:0:
270,151,68153,1,0,0:0:0:0:
258,189,68218,1,0,0:0:0:0:
235,220,68281,1,0,0:0:0:0:
197,228,68345,1,0,0:0:0:0:
164,208,68409,1,0,0:0:0:0:
148,171,68473,5,0,0:0:0:0:
113,189,68536,1,0,0:0:0:0:
92,222,68600,1,0,0:0:0:0:
90,261,68664,1,0,0:0:0:0:
72,296,68728,5,0,0:0:0:0:
108,280,68791,1,0,0:0:0:0:
147,278,68855,1,0,0:0:0:0:
185,289,68919,1,0,0:0:0:0:
219,310,68984,1,0,0:0:0:0:
255,324,69047,1,0,0:0:0:0:
293,316,69111,1,0,0:0:0:0:
321,289,69175,1,0,0:0:0:0:
353,266,69239,6,0,P|433:250|483:292,1,131.99999597168
404,357,69494,2,0,L|269:338,1,131.99999597168
141,316,69750,2,0,P|175:241|250:222,1,131.99999597168
388,245,70005,2,0,P|383:162|321:117,1,131.99999597168
180,112,70260,5,0,0:0:0:0:
172,87,70323,1,0,0:0:0:0:
176,61,70387,1,0,0:0:0:0:
191,40,70451,1,0,0:0:0:0:
214,28,70515,1,0,0:0:0:0:
240,28,70579,1,0,0:0:0:0:
265,37,70643,1,0,0:0:0:0:
289,47,70706,1,0,0:0:0:0:
315,50,70770,1,0,0:0:0:0:
341,47,70834,1,0,0:0:0:0:
365,38,70898,1,0,0:0:0:0:
387,22,70962,1,0,0:0:0:0:
433,25,71026,5,0,0:0:0:0:
411,39,71089,1,0,0:0:0:0:
393,59,71153,1,0,0:0:0:0:
381,82,71217,1,0,0:0:0:0:
375,108,71281,1,0,0:0:0:0:
376,134,71345,1,0,0:0:0:0:
382,160,71408,1,0,0:0:0:0:
395,183,71472,1,0,0:0:0:0:
407,207,71537,1,0,0:0:0:0:
415,231,71600,1,0,0:0:0:0:
416,258,71664,1,0,0:0:0:0:
409,283,71728,1,0,0:0:0:0:
410,323,71792,5,0,0:0:0:0:
370,323,71855,1,0,0:0:0:0:
330,323,71919,1,0,0:0:0:0:
291,324,71983,1,0,0:0:0:0:
250,326,72048,1,0,0:0:0:0:
211,322,72111,1,0,0:0:0:0:
179,299,72175,1,0,0:0:0:0:
163,263,72239,1,0,0:0:0:0:
167,224,72303,1,0,0:0:0:0:
190,193,72367,1,0,0:0:0:0:
215,162,72430,1,0,0:0:0:0:
211,123,72493,1,0,0:0:0:0:
183,104,72558,5,0,0:0:0:0:
186,91,72621,1,0,0:0:0:0:
193,79,72685,1,0,0:0:0:0:
202,70,72749,1,0,0:0:0:0:
228,31,72813,5,0,0:0:0:0:
218,40,72876,1,0,0:0:0:0:
207,47,72940,1,0,0:0:0:0:
195,52,73004,1,0,0:0:0:0:
150,39,73069,5,0,0:0:0:0:
136,40,73132,1,0,0:0:0:0:
123,43,73196,1,0,0:0:0:0:
111,46,73260,1,0,0:0:0:0:
99,52,73324,6,0,B|101:95|101:95|108:127|108:127|104:150|104:150|76:215|98:248|98:248|101:272,1,220
124,339,73706,1,0,0:0:0:0:
189,224,73834,1,0,0:0:0:0:
188,196,73897,1,0,0:0:0:0:
187,169,73961,1,0,0:0:0:0:
179,142,74025,1,0,0:0:0:0:
171,116,74089,5,0,0:0:0:0:
226,46,74217,1,0,0:0:0:0:
306,82,74345,1,0,0:0:0:0:
391,61,74472,1,0,0:0:0:0:
458,117,74600,1,0,0:0:0:0:
421,197,74728,1,0,0:0:0:0:
306,82,74855,5,0,0:0:0:0:
169,75,74983,1,0,0:0:0:0:
230,196,75111,1,0,0:0:0:0:
310,94,75238,1,0,0:0:0:0:
176,64,75366,1,0,0:0:0:0:
217,194,75494,1,0,0:0:0:0:
306,82,75621,6,0,L|416:66,1,110
292,278,75877,2,0,L|183:262,1,110
387,132,76132,2,0,L|398:266,1,110
364,347,76387,5,0,0:0:0:0:
364,347,76515,1,0,0:0:0:0:
364,347,76643,2,0,P|324:271|268:262,1,110
204,220,76898,5,0,3:0:0:0:
204,220,77026,1,0,3:0:0:0:
204,220,77154,2,0,P|262:156|318:162,1,110,0|0,3:0|3:0,3:0:0:0:
390,169,77409,5,0,0:0:0:0:
491,68,77536,1,0,0:0:0:0:
353,31,77664,2,0,L|202:17,1,110
111,29,77919,6,0,B|122:61|120:87|120:87|118:113|118:113|144:158,1,110
30,182,78175,2,0,B|57:201|70:224|70:224|83:246|83:246|131:268,1,110
119,366,78430,2,0,B|152:366|176:377|176:377|200:388|200:388|251:379,1,110
330,353,78685,5,0,0:0:0:0:
310,314,78748,1,0,0:0:0:0:
308,270,78812,1,0,0:0:0:0:
319,227,78877,1,0,0:0:0:0:
324,183,78940,1,0,0:0:0:0:
315,141,79004,1,0,0:0:0:0:
290,104,79068,5,0,0:0:0:0:
181,89,79196,1,0,0:0:0:0:
274,211,79324,1,0,0:0:0:0:
255,54,79451,6,0,B|247:69|243:95|243:95|216:115|189:173,1,110
97,182,79706,1,0,0:0:0:0:
140,33,79834,1,0,0:0:0:0:
254,119,79962,2,0,B|289:117|325:126|325:126|344:115|387:101,1,110
443,253,80217,6,0,L|335:275,1,110
233,318,80472,1,0,0:0:0:0:
100,238,80600,1,0,0:0:0:0:
232,336,80728,1,0,0:0:0:0:
189,186,80856,1,0,0:0:0:0:
228,356,80983,5,0,0:0:0:0:
292,144,81111,1,0,0:0:0:0:
380,344,81238,2,0,B|387:315|388:283|391:246|391:246|404:220,1,110
377,126,81494,1,0,0:0:0:0:
291,57,81621,1,0,0:0:0:0:
184,86,81749,6,0,B|126:92|126:92|87:90|87:90|43:97,1,110
110,196,82004,2,0,B|122:197|122:197|161:195|161:195|219:201,1,110
327,177,82260,1,0,0:0:0:0:
411,245,82387,1,0,0:0:0:0:
330,320,82515,5,0,0:0:0:0:
185,266,82643,1,0,0:0:0:0:
335,331,82770,1,0,0:0:0:0:
426,205,82898,2,0,B|459:129|457:101|457:101|458:78|458:78|476:41|486:-7,1,220
326,71,83281,5,0,0:0:0:0:
274,228,83409,1,0,0:0:0:0:
148,122,83536,1,0,0:0:0:0:
122,111,83599,1,0,0:0:0:0:
95,111,83663,1,0,0:0:0:0:
69,121,83727,1,0,0:0:0:0:
47,139,83792,1,0,0:0:0:0:
42,106,83855,1,0,0:0:0:0:
54,76,83919,1,0,0:0:0:0:
80,56,83983,1,0,0:0:0:0:
118,56,84047,5,0,0:0:0:0:
162,62,84110,1,0,0:0:0:0:
205,67,84174,1,0,0:0:0:0:
249,73,84238,1,0,0:0:0:0:
292,81,84302,2,0,L|275:149,1,55
235,147,84430,1,0,0:0:0:0:
245,189,84493,1,0,0:0:0:0:
256,232,84557,1,0,0:0:0:0:
266,275,84621,1,0,0:0:0:0:
260,317,84684,1,0,0:0:0:0:
225,341,84748,1,0,0:0:0:0:
187,316,84813,5,0,0:0:0:0:
193,272,84877,1,0,0:0:0:0:
235,258,84941,1,0,0:0:0:0:
278,255,85004,1,0,0:0:0:0:
322,252,85068,1,0,0:0:0:0:
366,250,85132,1,0,0:0:0:0:
408,244,85195,1,0,0:0:0:0:
440,215,85259,1,0,0:0:0:0:
448,172,85323,1,0,0:0:0:0:
430,133,85387,1,0,0:0:0:0:
392,113,85451,1,0,0:0:0:0:
349,119,85514,1,0,0:0:0:0:
306,131,85579,6,0,P|277:135|219:118,1,55
220,43,85706,2,0,P|195:56|175:74,1,55
167,169,85834,1,0,0:0:0:0:
272,281,85962,1,0,0:0:0:0:
397,192,86089,2,0,P|419:159|417:117,1,55
360,78,86217,2,0,P|380:60|407:53,1,55
496,86,86345,5,0,0:0:0:0:
509,116,86408,1,0,0:0:0:0:
512,148,86472,1,0,0:0:0:0:
512,181,86536,1,0,0:0:0:0:
503,213,86600,1,0,0:0:0:0:
486,241,86664,1,0,0:0:0:0:
463,265,86728,2,0,L|406:305,1,55
302,332,86855,2,0,P|337:339|371:332,1,55
436,252,86983,2,0,P|455:220|459:186,1,55
438,109,87111,6,0,B|388:84|379:75|379:75|375:72|375:72|346:69|307:55,1,110
206,61,87366,2,0,P|164:84|153:100,1,55
71,99,87494,2,0,P|59:145|63:164,1,55
110,230,87621,2,0,B|169:241|169:241|190:249|201:250|201:250|231:249|258:248,1,110
354,204,87877,5,0,0:0:0:0:
391,182,87940,1,0,0:0:0:0:
435,178,88004,1,0,0:0:0:0:
475,194,88068,1,0,0:0:0:0:
425,246,88132,5,0,0:0:0:0:
399,211,88195,1,0,0:0:0:0:
388,169,88259,1,0,0:0:0:0:
395,125,88323,1,0,0:0:0:0:
423,91,88387,5,0,0:0:0:0:
381,106,88450,1,0,0:0:0:0:
338,109,88514,1,0,0:0:0:0:
295,100,88578,1,0,0:0:0:0:
251,91,88643,6,0,B|239:128|239:128|244:149|241:204,1,110
156,112,88898,2,0,B|153:150|153:150|164:170|175:223,1,110,0|0,3:0|3:0,3:0:0:0:
70,156,89153,2,0,B|78:194|78:194|93:210|117:258,1,110,0|0,3:0|3:0,3:0:0:0:
214,266,89409,6,0,B|226:229|226:229|220:207|224:153,1,110
309,245,89664,2,0,B|311:206|311:206|300:186|289:133,1,110,0|0,3:0|3:0,3:0:0:0:
395,201,89919,2,0,B|386:162|386:162|371:146|347:98,1,110,0|0,3:0|3:0,3:0:0:0:
266,47,90175,5,0,0:0:0:0:
158,170,90302,1,0,0:0:0:0:
376,142,90430,1,0,0:0:0:0:
213,109,90558,5,0,0:0:0:0:
105,232,90685,1,0,0:0:0:0:
323,204,90813,1,0,0:0:0:0:
223,307,90941,5,0,0:0:0:0:
201,304,91004,1,0,0:0:0:0:
180,301,91068,1,0,0:0:0:0:
174,304,91132,1,0,0:0:0:0:
124,308,91196,5,0,0:0:0:0:
142,288,91259,1,0,0:0:0:0:
161,268,91323,1,0,0:0:0:0:
148,244,91387,1,0,0:0:0:0:
174,238,91451,5,0,0:0:0:0:
161,207,91514,1,0,0:0:0:0:
148,176,91578,1,0,0:0:0:0:
135,146,91642,1,0,0:0:0:0:
118,117,91706,6,0,B|202:124|211:121|211:121|228:125|228:125|251:122,1,131.99999597168
313,37,91962,2,0,B|370:98|379:102|379:102|389:116|389:116|408:129,1,131.99999597168
494,188,92217,2,0,B|495:272|499:280|499:280|497:298|497:298|502:320,1,131.99999597168
399,344,92472,5,0,0:0:0:0:
320,205,92600,1,0,0:0:0:0:
401,356,92728,5,0,0:0:0:0:
424,198,92856,1,0,0:0:0:0:
402,367,92983,6,0,B|392:309|387:300|387:300|389:277|389:277|385:265|381:225,1,131.99999597168
295,206,93238,2,0,B|253:164|244:159|244:159|232:139|232:139|222:132|196:101,1,131.99999597168
131,169,93494,2,0,B|73:158|62:160|62:160|41:150|41:150|29:150|-9:140,1,131.99999597168
52,294,93749,2,0,B|87:283|117:266|117:266|144:268|144:268|171:252|191:255|191:255|214:248,1,131.99999597168
263,197,94004,5,0,0:0:0:0:
296,176,94067,1,0,0:0:0:0:
333,161,94131,1,0,0:0:0:0:
372,153,94195,1,0,0:0:0:0:
425,154,94260,5,0,0:0:0:0:
417,135,94323,1,0,0:0:0:0:
415,115,94387,1,0,0:0:0:0:
419,96,94451,1,0,0:0:0:0:
398,47,94515,5,0,0:0:0:0:
387,63,94578,1,0,0:0:0:0:
373,77,94642,1,0,0:0:0:0:
355,86,94706,1,0,0:0:0:0:
301,76,94770,5,0,0:0:0:0:
268,75,94833,1,0,0:0:0:0:
246,98,94897,1,0,0:0:0:0:
246,130,94961,1,0,0:0:0:0:
269,153,95025,1,0,0:0:0:0:
301,152,95089,1,0,0:0:0:0:
328,136,95153,2,0,P|348:106|344:64,1,65.9999979858399
296,32,95281,1,0,0:0:0:0:
283,69,95344,1,0,0:0:0:0:
271,107,95408,1,0,0:0:0:0:
259,145,95472,1,0,0:0:0:0:
236,192,95536,5,0,0:0:0:0:
226,153,95599,1,0,0:0:0:0:
204,120,95663,1,0,0:0:0:0:
173,96,95727,1,0,0:0:0:0:
136,83,95791,1,0,0:0:0:0:
96,83,95855,1,0,0:0:0:0:
43,88,95919,5,0,0:0:0:0:
64,102,95982,1,0,0:0:0:0:
80,123,96046,1,0,0:0:0:0:
89,148,96110,1,0,0:0:0:0:
89,174,96174,1,0,0:0:0:0:
80,199,96238,1,0,0:0:0:0:
72,224,96302,6,0,B|136:234|136:234|144:244|157:244|157:244|175:251|175:251|211:273,1,131.99999597168
317,317,96558,1,0,0:0:0:0:
317,317,96621,1,0,0:0:0:0:
317,317,96685,1,0,0:0:0:0:
317,317,96749,1,0,0:0:0:0:
317,317,96813,1,0,0:0:0:0:
414,71,97068,6,0,P|388:133|386:250,1,131.99999597168
342,281,97323,2,0,B|291:229|299:156|294:159,1,131.99999597168
241,68,97579,2,0,B|247:68|199:124|213:247,1,131.99999597168
214,300,97834,5,0,0:0:0:0:
208,339,97897,1,0,0:0:0:0:
183,368,97961,1,0,0:0:0:0:
145,378,98025,1,0,0:0:0:0:
109,365,98089,1,0,0:0:0:0:
85,335,98153,1,0,0:0:0:0:
91,309,98217,5,0,0:0:0:0:
96,283,98280,1,0,0:0:0:0:
101,257,98344,1,0,0:0:0:0:
106,231,98408,1,0,0:0:0:0:
111,205,98472,1,0,0:0:0:0:
117,180,98536,1,0,0:0:0:0:
105,141,98600,5,0,0:0:0:0:
136,164,98663,1,0,0:0:0:0:
174,172,98727,1,0,0:0:0:0:
213,164,98791,1,0,0:0:0:0:
257,134,98855,5,0,0:0:0:0:
248,173,98918,1,0,0:0:0:0:
239,211,98982,1,0,0:0:0:0:
230,250,99046,1,0,0:0:0:0:
206,298,99111,5,0,0:0:0:0:
242,282,99174,1,0,0:0:0:0:
281,280,99238,1,0,0:0:0:0:
319,290,99302,1,0,0:0:0:0:
388,313,99366,6,0,L|473:340,3,65.9999979858399
442,247,99621,2,0,P|484:241|527:220,3,65.9999979858399
472,151,99877,2,0,B|441:155|441:155|369:172,3,65.9999979858399
323,180,100132,5,0,0:0:0:0:
259,192,100195,1,0,0:0:0:0:
201,163,100259,1,0,0:0:0:0:
140,144,100323,1,0,0:0:0:0:
76,160,100386,1,0,0:0:0:0:
68,224,100450,1,0,0:0:0:0:
88,288,100515,6,0,L|120:360,1,65.9999979858399
207,361,100643,2,0,B|187:289|187:289|187:269|183:257|183:257|179:237|179:237|155:205,1,131.99999597168
210,78,100898,6,0,P|245:90|279:128,5,65.9999979858399
258,194,101281,2,0,P|222:181|188:143,5,65.9999979858399
126,98,101664,5,0,0:0:0:0:
109,133,101727,1,0,0:0:0:0:
106,172,101791,1,0,0:0:0:0:
119,209,101855,1,0,0:0:0:0:
146,239,101919,1,0,0:0:0:0:
181,256,101983,1,0,0:0:0:0:
216,274,102047,2,0,B|265:301|296:319|296:319|321:320|321:320|364:327,1,131.99999597168
425,112,102430,5,0,0:0:0:0:
372,148,102493,1,0,0:0:0:0:
308,156,102557,1,0,0:0:0:0:
244,144,102621,1,0,0:0:0:0:
180,132,102685,1,0,0:0:0:0:
116,140,102748,1,0,0:0:0:0:
64,180,102813,6,0,P|44:208|44:256,1,65.9999979858399
40,304,102941,1,0,0:0:0:0:
85,277,103004,1,0,0:0:0:0:
137,270,103068,1,0,0:0:0:0:
188,282,103132,1,0,0:0:0:0:
244,316,103196,5,0,0:0:0:0:
232,252,103259,1,0,0:0:0:0:
248,188,103323,1,0,0:0:0:0:
284,132,103387,1,0,0:0:0:0:
328,84,103451,1,0,0:0:0:0:
304,24,103514,1,0,0:0:0:0:
236,28,103579,2,0,B|191:69|191:69|149:80|149:80|138:87|115:101|115:101|93:108|93:108|70:122|-3:100,1,263.99999194336
51,202,103962,5,0,0:0:0:0:
95,215,104025,1,0,0:0:0:0:
141,217,104089,1,0,0:0:0:0:
186,207,104153,1,0,0:0:0:0:
227,187,104217,1,0,0:0:0:0:
258,175,104281,1,0,0:0:0:0:
289,165,104344,1,0,0:0:0:0:
323,162,104408,1,0,0:0:0:0:
356,165,104472,1,0,0:0:0:0:
387,173,104536,1,0,0:0:0:0:
416,188,104600,5,0,0:0:0:0:
395,140,104663,1,0,0:0:0:0:
405,89,104728,1,0,0:0:0:0:
393,39,104791,1,0,0:0:0:0:
347,16,104855,1,0,0:0:0:0:
295,28,104919,1,0,0:0:0:0:
245,46,104982,1,0,0:0:0:0:
193,53,105046,1,0,0:0:0:0:
140,48,105111,1,0,0:0:0:0:
89,50,105174,1,0,0:0:0:0:
44,78,105238,6,0,P|24:121|38:171,3,65.9999979858399
100,215,105494,2,0,P|114:174|151:148,3,65.9999979858399
61,95,105749,2,0,P|95:69|141:69,3,65.9999979858399
189,123,106004,2,0,P|232:122|269:148,3,65.9999979858399
330,170,106260,5,0,0:0:0:0:
374,197,106323,1,0,0:0:0:0:
426,192,106387,1,0,0:0:0:0:
464,158,106451,1,0,0:0:0:0:
474,107,106515,1,0,0:0:0:0:
451,60,106579,1,0,0:0:0:0:
405,37,106642,1,0,0:0:0:0:
354,46,106706,1,0,0:0:0:0:
304,65,106770,1,0,0:0:0:0:
253,78,106833,1,0,0:0:0:0:
200,75,106897,1,0,0:0:0:0:
151,57,106961,1,0,0:0:0:0:
98,46,107026,6,0,P|49:52|22:104,1,65.9999979858399
8,163,107153,2,0,P|57:157|84:105,1,65.9999979858399
160,127,107281,1,0,0:0:0:0:
178,121,107344,1,0,0:0:0:0:
198,121,107408,1,0,0:0:0:0:
216,129,107472,1,0,0:0:0:0:
259,159,107536,5,0,0:0:0:0:
270,142,107599,1,0,0:0:0:0:
285,130,107663,1,0,0:0:0:0:
303,121,107727,1,0,0:0:0:0:
347,90,107792,5,0,0:0:0:0:
345,96,107855,1,0,0:0:0:0:
344,102,107919,1,0,0:0:0:0:
343,109,107983,1,0,0:0:0:0:
342,115,108047,1,0,0:0:0:0:
341,122,108111,1,0,0:0:0:0:
340,128,108174,1,0,0:0:0:0:
338,135,108238,1,0,0:0:0:0:
341,161,108302,5,0,0:0:0:0:
302,151,108365,1,0,0:0:0:0:
264,142,108429,1,0,0:0:0:0:
225,132,108493,1,0,0:0:0:0:
189,102,108558,5,0,0:0:0:0:
150,134,108621,1,0,0:0:0:0:
157,184,108685,1,0,0:0:0:0:
204,203,108749,1,0,0:0:0:0:
249,196,108813,5,0,0:0:0:0:
231,231,108876,1,0,0:0:0:0:
213,266,108940,1,0,0:0:0:0:
195,301,109004,1,0,0:0:0:0:
168,347,109068,5,0,0:0:0:0:
159,309,109131,1,0,0:0:0:0:
139,275,109195,1,0,0:0:0:0:
109,250,109259,1,0,0:0:0:0:
69,197,109323,5,0,0:0:0:0:
41,153,109386,1,0,0:0:0:0:
48,101,109450,1,0,0:0:0:0:
86,66,109514,1,0,0:0:0:0:
137,63,109578,1,0,0:0:0:0:
179,94,109642,1,0,0:0:0:0:
224,122,109706,1,0,0:0:0:0:
271,146,109769,1,0,0:0:0:0:
324,147,109833,1,0,0:0:0:0:
376,136,109898,1,0,0:0:0:0:
426,144,109961,1,0,0:0:0:0:
447,190,110025,1,0,0:0:0:0:
443,234,110089,6,0,B|419:302|419:302|407:307|379:338,1,110
279,336,110345,1,0,0:0:0:0:
141,267,110472,1,0,0:0:0:0:
283,350,110600,5,0,3:0:0:0:
209,214,110727,1,0,3:0:0:0:
284,361,110855,6,0,B|282:323|282:323|276:276|276:276|277:258|277:258|271:242,1,110
254,142,111111,1,0,0:0:0:0:
213,40,111238,1,0,0:0:0:0:
143,125,111366,5,0,0:0:0:0:
184,227,111493,1,0,0:0:0:0:
236,323,111621,6,0,B|246:307|246:307|254:298|259:283|259:283|266:273|266:273|273:273|304:217,1,110
328,314,111877,2,0,B|327:295|327:295|328:283|323:268|323:268|323:255|323:255|329:251|322:188,1,110
397,253,112132,2,0,B|385:238|385:238|379:227|367:217|367:217|360:207|360:207|362:201|320:152,1,110
252,59,112387,6,0,P|241:108|167:186,1,110
307,148,112643,2,0,P|283:192|192:248,1,110
336,249,112898,2,0,P|301:285|198:316,1,110,0|0,0:0|0:0,3:0:0:0:
137,321,113153,5,0,0:0:0:0:
8,235,113281,1,0,0:0:0:0:
146,167,113409,1,0,0:0:0:0:
49,145,113536,1,0,0:0:0:0:
185,72,113664,1,0,0:0:0:0:
180,226,113792,1,0,0:0:0:0:
85,50,113919,5,0,0:0:0:0:
248,151,114047,1,0,0:0:0:0:
80,241,114175,1,0,0:0:0:0:
140,36,114302,1,0,0:0:0:0:
231,205,114430,1,0,0:0:0:0:
273,25,114558,1,0,0:0:0:0:
377,191,114685,6,0,B|343:244|337:259|337:259|331:277|331:277|314:302|302:320,1,110
230,345,114941,1,0,0:0:0:0:
122,339,115068,1,0,0:0:0:0:
50,260,115196,1,0,0:0:0:0:
55,152,115323,1,0,0:0:0:0:
153,241,115451,5,0,0:0:0:0:
257,112,115579,1,0,0:0:0:0:
316,266,115706,2,0,B|334:314|340:327|340:327|347:341|349:359|349:359|359:377,1,110
409,247,115962,2,0,P|358:176|328:170,1,110
238,131,116217,5,0,0:0:0:0:
232,129,116280,1,0,0:0:0:0:
227,128,116344,1,0,0:0:0:0:
221,127,116408,1,0,0:0:0:0:
216,126,116472,1,0,0:0:0:0:
211,125,116536,1,0,0:0:0:0:
205,125,116599,1,0,0:0:0:0:
200,125,116663,1,0,0:0:0:0:
194,125,116727,1,0,0:0:0:0:
189,126,116791,1,0,0:0:0:0:
183,127,116855,1,0,0:0:0:0:
178,129,116919,1,0,0:0:0:0:
173,130,116982,1,0,0:0:0:0:
168,132,117046,1,0,0:0:0:0:
163,135,117110,1,0,0:0:0:0:
157,137,117174,1,0,0:0:0:0:
152,139,117238,1,0,0:0:0:0:
147,141,117302,1,0,0:0:0:0:
142,143,117365,1,0,0:0:0:0:
137,145,117429,1,0,0:0:0:0:
132,146,117493,1,0,0:0:0:0:
126,147,117557,1,0,0:0:0:0:
121,146,117621,1,0,0:0:0:0:
115,145,117685,1,0,0:0:0:0:
110,146,117749,5,0,0:0:0:0:
114,148,117812,1,0,0:0:0:0:
119,152,117876,1,0,0:0:0:0:
123,155,117940,1,0,0:0:0:0:
127,158,118004,1,0,0:0:0:0:
131,162,118068,1,0,0:0:0:0:
135,166,118131,1,0,0:0:0:0:
139,170,118195,1,0,0:0:0:0:
142,175,118259,1,0,0:0:0:0:
145,180,118323,1,0,0:0:0:0:
147,184,118387,1,0,0:0:0:0:
149,190,118451,1,0,0:0:0:0:
151,195,118514,1,0,0:0:0:0:
152,200,118578,1,0,0:0:0:0:
153,206,118642,1,0,0:0:0:0:
154,211,118706,1,0,0:0:0:0:
154,217,118770,1,0,0:0:0:0:
154,222,118834,1,0,0:0:0:0:
153,228,118897,1,0,0:0:0:0:
153,233,118961,1,0,0:0:0:0:
153,239,119025,1,0,0:0:0:0:
152,244,119089,1,0,0:0:0:0:
152,249,119153,1,0,0:0:0:0:
151,255,119217,1,0,0:0:0:0:
152,260,119281,5,0,0:0:0:0:
157,258,119344,1,0,0:0:0:0:
162,257,119408,1,0,0:0:0:0:
167,255,119472,1,0,0:0:0:0:
173,255,119536,1,0,0:0:0:0:
178,254,119600,1,0,0:0:0:0:
184,253,119663,1,0,0:0:0:0:
189,253,119727,1,0,0:0:0:0:
195,253,119791,1,0,0:0:0:0:
200,254,119855,1,0,0:0:0:0:
206,255,119919,1,0,0:0:0:0:
211,255,119983,1,0,0:0:0:0:
217,256,120046,1,0,0:0:0:0:
222,257,120110,1,0,0:0:0:0:
227,258,120174,1,0,0:0:0:0:
233,259,120238,1,0,0:0:0:0:
238,260,120302,1,0,0:0:0:0:
244,260,120366,1,0,0:0:0:0:
249,260,120429,1,0,0:0:0:0:
255,259,120493,1,0,0:0:0:0:
260,258,120557,1,0,0:0:0:0:
265,256,120621,1,0,0:0:0:0:
270,254,120685,1,0,0:0:0:0:
275,252,120749,1,0,0:0:0:0:
280,249,120813,5,0,0:0:0:0:
290,245,120876,1,0,0:0:0:0:
301,242,120940,1,0,0:0:0:0:
311,241,121004,1,0,0:0:0:0:
322,243,121068,1,0,0:0:0:0:
333,246,121132,1,0,0:0:0:0:
342,251,121195,1,0,0:0:0:0:
351,259,121259,1,0,0:0:0:0:
357,268,121323,1,0,0:0:0:0:
362,277,121387,1,0,0:0:0:0:
364,288,121451,1,0,0:0:0:0:
364,299,121515,1,0,0:0:0:0:
362,310,121579,5,0,0:0:0:0:
356,319,121642,1,0,0:0:0:0:
348,326,121706,1,0,0:0:0:0:
338,330,121770,1,0,0:0:0:0:
327,332,121834,1,0,0:0:0:0:
316,331,121898,1,0,0:0:0:0:
305,330,121961,1,0,0:0:0:0:
294,327,122025,1,0,0:0:0:0:
283,325,122089,1,0,0:0:0:0:
273,323,122153,1,0,0:0:0:0:
262,322,122217,1,0,0:0:0:0:
251,324,122281,1,0,0:0:0:0:
240,328,122345,6,0,P|195:332|136:292,1,110
40,212,122600,1,0,0:0:0:0:
164,170,122728,1,0,0:0:0:0:
289,209,122855,2,0,B|331:230|361:237|361:237|386:249|396:253|396:253|409:249,1,110
472,176,123111,5,0,0:0:0:0:
297,241,123238,1,0,0:0:0:0:
483,172,123366,5,0,0:0:0:0:
386,331,123494,1,0,0:0:0:0:
296,180,123621,5,0,0:0:0:0:
391,341,123748,1,0,0:0:0:0:
492,168,123877,5,0,0:0:0:0:
383,93,124004,1,0,0:0:0:0:
251,107,124132,2,0,B|141:140|110:137|110:137|81:148|67:147|67:147|24:151|24:151,1,220
96,242,124515,5,0,0:0:0:0:
96,242,124643,1,0,0:0:0:0:
192,288,124770,1,0,0:0:0:0:
293,252,124898,1,0,0:0:0:0:
339,155,125026,2,0,B|385:95|385:95|426:71|446:64|446:64|468:40|482:29|482:29|510:14,1,220
474,157,125409,5,0,0:0:0:0:
474,157,125536,1,0,0:0:0:0:
474,157,125664,1,0,0:0:0:0:
344,36,125791,1,0,0:0:0:0:
304,208,125919,2,0,B|295:283|282:303|282:303|285:321|277:326,1,110
179,230,126175,5,0,0:0:0:0:
115,115,126302,1,0,0:0:0:0:
176,244,126430,5,0,0:0:0:0:
243,131,126557,1,0,0:0:0:0:
174,257,126685,2,0,B|185:204|181:178|181:178|184:167|184:167|181:132,1,110
189,59,126941,5,0,0:0:0:0:
224,36,127004,1,0,0:0:0:0:
264,50,127068,1,0,0:0:0:0:
278,90,127132,1,0,0:0:0:0:
271,134,127196,1,0,0:0:0:0:
266,177,127259,1,0,0:0:0:0:
285,216,127323,1,0,0:0:0:0:
322,237,127387,1,0,0:0:0:0:
351,252,127451,1,0,0:0:0:0:
371,277,127514,1,0,0:0:0:0:
369,309,127578,1,0,0:0:0:0:
344,330,127642,1,0,0:0:0:0:
316,349,127706,6,0,L|268:381,3,55
283,285,127962,2,0,P|226:296|210:310,3,55
250,202,128217,2,0,P|272:186|299:180,3,55
340,96,128472,5,0,0:0:0:0:
334,97,128535,1,0,0:0:0:0:
329,98,128599,1,0,0:0:0:0:
323,99,128663,1,0,0:0:0:0:
318,99,128727,1,0,0:0:0:0:
312,99,128791,1,0,0:0:0:0:
307,99,128854,1,0,0:0:0:0:
301,98,128918,1,0,0:0:0:0:
296,97,128982,1,0,0:0:0:0:
291,95,129046,1,0,0:0:0:0:
286,92,129110,1,0,0:0:0:0:
281,90,129174,1,0,0:0:0:0:
277,87,129237,1,0,0:0:0:0:
272,84,129301,1,0,0:0:0:0:
267,81,129365,1,0,0:0:0:0:
263,78,129429,1,0,0:0:0:0:
258,75,129493,1,0,0:0:0:0:
253,73,129557,1,0,0:0:0:0:
247,72,129620,1,0,0:0:0:0:
242,71,129684,1,0,0:0:0:0:
237,70,129748,1,0,0:0:0:0:
231,70,129812,1,0,0:0:0:0:
226,71,129876,1,0,0:0:0:0:
220,72,129940,1,0,0:0:0:0:
215,75,130004,5,0,0:0:0:0:
217,79,130067,1,0,0:0:0:0:
219,84,130131,1,0,0:0:0:0:
222,89,130195,1,0,0:0:0:0:
223,95,130259,1,0,0:0:0:0:
225,100,130323,1,0,0:0:0:0:
225,105,130386,1,0,0:0:0:0:
226,111,130450,1,0,0:0:0:0:
226,116,130514,1,0,0:0:0:0:
225,122,130578,1,0,0:0:0:0:
223,127,130642,1,0,0:0:0:0:
221,132,130706,1,0,0:0:0:0:
219,137,130769,1,0,0:0:0:0:
217,142,130833,1,0,0:0:0:0:
214,147,130897,1,0,0:0:0:0:
212,152,130961,1,0,0:0:0:0:
210,157,131025,1,0,0:0:0:0:
208,162,131089,1,0,0:0:0:0:
206,168,131152,1,0,0:0:0:0:
205,173,131216,1,0,0:0:0:0:
205,178,131280,1,0,0:0:0:0:
205,184,131344,1,0,0:0:0:0:
206,189,131408,1,0,0:0:0:0:
208,195,131472,1,0,0:0:0:0:
209,200,131536,5,0,0:0:0:0:
212,210,131599,1,0,0:0:0:0:
213,221,131663,1,0,0:0:0:0:
211,232,131727,1,0,0:0:0:0:
207,242,131791,1,0,0:0:0:0:
201,251,131855,1,0,0:0:0:0:
192,258,131918,1,0,0:0:0:0:
182,263,131982,1,0,0:0:0:0:
172,265,132046,1,0,0:0:0:0:
161,265,132110,1,0,0:0:0:0:
150,262,132174,1,0,0:0:0:0:
141,257,132238,1,0,0:0:0:0:
130,253,132302,1,0,0:0:0:0:
119,249,132365,1,0,0:0:0:0:
108,247,132429,1,0,0:0:0:0:
97,246,132493,1,0,0:0:0:0:
86,247,132557,1,0,0:0:0:0:
76,249,132621,1,0,0:0:0:0:
65,252,132684,1,0,0:0:0:0:
56,258,132748,1,0,0:0:0:0:
47,264,132812,1,0,0:0:0:0:
39,272,132876,1,0,0:0:0:0:
32,280,132940,1,0,0:0:0:0:
27,290,133004,1,0,0:0:0:0:
16,309,133068,5,0,0:0:0:0:
37,304,133131,1,0,0:0:0:0:
59,299,133195,1,0,0:0:0:0:
80,295,133259,1,0,0:0:0:0:
102,290,133323,1,0,0:0:0:0:
123,285,133387,1,0,0:0:0:0:
144,279,133451,1,0,0:0:0:0:
164,269,133514,1,0,0:0:0:0:
178,252,133578,1,0,0:0:0:0:
183,231,133642,1,0,0:0:0:0:
179,209,133706,1,0,0:0:0:0:
165,192,133770,1,0,0:0:0:0:
125,172,133834,5,0,0:0:0:0:
136,129,133897,1,0,0:0:0:0:
165,97,133961,1,0,0:0:0:0:
206,82,134025,1,0,0:0:0:0:
250,86,134089,1,0,0:0:0:0:
286,110,134153,1,0,0:0:0:0:
308,147,134216,1,0,0:0:0:0:
311,191,134280,1,0,0:0:0:0:
301,235,134345,1,0,0:0:0:0:
299,278,134408,1,0,0:0:0:0:
331,304,134472,1,0,0:0:0:0:
373,296,134536,1,0,0:0:0:0:
421,305,134600,6,0,B|415:232|415:232|424:212|424:199|417:184|417:184|418:171,1,131.99999597168
367,52,134855,1,0,0:0:0:0:
308,170,134983,1,0,0:0:0:0:
188,226,135111,2,0,B|113:192|98:195|85:186|85:186|76:175|52:165,1,131.99999597168
34,45,135366,6,0,B|49:52|64:54|64:54|74:63|85:66|85:66|93:64|99:65|99:65|113:69|119:71|119:71|133:76|133:76|161:78,1,131.99999597168
288,108,135621,1,0,0:0:0:0:
204,193,135749,1,0,0:0:0:0:
159,78,135877,2,0,P|114:107|88:201,1,131.99999597168
69,282,136132,6,0,P|17:241|-1:179,1,131.99999597168
42,54,136387,1,0,0:0:0:0:
148,132,136515,1,0,0:0:0:0:
152,264,136643,2,0,P|195:322|274:337,1,131.99999597168
253,206,136898,6,0,B|275:158|275:158|274:121|274:121|286:76,1,131.99999597168
388,18,137153,1,0,0:0:0:0:
359,147,137281,1,0,0:0:0:0:
254,206,137409,5,0,0:0:0:0:
388,18,137536,1,0,0:0:0:0:
484,229,137664,6,0,P|461:304|400:325,1,131.99999597168
284,329,137919,2,0,B|244:332|208:338|208:338|186:336|162:327|162:327|130:332,1,131.99999597168
44,251,138175,1,0,0:0:0:0:
117,142,138302,1,0,0:0:0:0:
238,193,138430,6,0,B|281:189|316:207|316:207|382:184,1,131.99999597168
304,71,138685,2,0,L|142:86,1,131.99999597168
165,203,138941,2,0,P|221:266|284:251,1,131.99999597168
363,190,139196,5,0,0:0:0:0:
224,50,139323,1,0,0:0:0:0:
173,241,139451,1,0,0:0:0:0:
90,137,139579,1,0,0:0:0:0:
221,150,139706,1,0,0:0:0:0:
337,87,139834,1,0,0:0:0:0:
467,110,139962,5,0,3:0:0:0:
425,302,140089,1,0,3:0:0:0:
279,170,140217,1,0,3:0:0:0:
390,98,140345,1,0,3:0:0:0:
288,38,140472,1,0,3:0:0:0:
160,66,140600,1,0,3:0:0:0:
51,141,140728,6,0,P|28:217|61:274,1,131.99999597168
133,363,140983,1,0,0:0:0:0:
159,161,141111,2,0,P|214:141|284:176,1,131.99999597168
354,277,141366,1,0,0:0:0:0:
436,141,141494,5,0,0:0:0:0:
279,121,141621,1,0,0:0:0:0:
385,42,141749,5,0,0:0:0:0:
404,199,141877,2,0,B|411:272|411:272|408:293|408:293|415:323|414:352,1,131.99999597168
282,312,142132,5,0,0:0:0:0:
282,312,142260,2,0,L|151:300,1,131.99999597168
245,208,142515,2,0,P|194:249|124:259,1,131.99999597168
174,135,142770,2,0,P|148:196|75:220,1,131.99999597168
76,115,143026,5,0,0:0:0:0:
186,47,143153,1,0,0:0:0:0:
314,63,143281,1,0,0:0:0:0:
405,155,143409,2,0,B|391:224|391:256|391:256|360:286|356:313|356:313|288:278|285:238,1,263.99999194336
196,197,143792,6,0,B|126:189|131:232|60:217,1,131.99999597168
108,92,144047,2,0,B|178:100|173:57|244:72,1,131.99999597168
365,93,144302,1,0,0:0:0:0:
447,196,144430,1,0,0:0:0:0:
288,196,144558,6,0,P|252:194|216:205,1,65.9999979858399
184,132,144685,2,0,P|153:151|130:180,1,65.9999979858399
75,128,144813,2,0,P|60:161|58:198,1,65.9999979858399
9,254,144941,2,0,P|110:248|136:216,1,131.99999597168
173,106,145196,1,0,0:0:0:0:
326,139,145323,5,0,0:0:0:0:
243,319,145451,1,0,0:0:0:0:
128,157,145579,1,0,0:0:0:0:
339,165,145706,5,0,0:0:0:0:
213,317,145834,1,0,0:0:0:0:
143,131,145962,1,0,0:0:0:0:
256,63,146089,5,0,0:0:0:0:
379,89,146216,1,0,0:0:0:0:
417,210,146344,1,0,0:0:0:0:
332,303,146472,2,0,L|186:293,1,131.99999597168,0|0,3:0|3:0,3:0:0:0:
73,256,146728,1,0,0:0:0:0:
173,171,146855,5,0,0:0:0:0:
196,160,146918,1,0,0:0:0:0:
222,154,146982,1,0,0:0:0:0:
249,154,147046,1,0,0:0:0:0:
274,160,147110,1,0,0:0:0:0:
298,171,147174,1,0,0:0:0:0:
319,186,147237,1,0,0:0:0:0:
376,243,147366,1,0,0:0:0:0:
346,330,147494,1,0,0:0:0:0:
260,362,147621,6,0,B|194:362|168:348|168:348|141:344|122:332,1,131.99999597168,0|0,3:0|0:0,0:0:0:0:
25,322,147877,5,0,0:0:0:0:
49,193,148004,1,0,3:0:0:0:
154,269,148131,1,0,3:0:0:0:
282,253,148259,1,0,3:0:0:0:
366,155,148387,6,0,B|402:98|411:78|411:78|423:52|423:52|440:26,1,131.99999597168
412,61,148643,2,0,B|401:71|401:71|383:93|383:93|369:110|320:156,1,131.99999597168
280,149,148898,2,0,B|339:117|357:104|357:104|380:88|380:88|408:74,1,131.99999597168
439,16,149153,5,0,0:0:0:0:
310,48,149281,1,0,0:0:0:0:
181,80,149409,1,0,0:0:0:0:
52,112,149536,1,0,0:0:0:0:
22,145,149599,1,0,0:0:0:0:
36,187,149663,1,0,0:0:0:0:
79,196,149727,1,0,0:0:0:0:
109,164,149791,1,0,0:0:0:0:
143,143,149855,1,0,0:0:0:0:
177,123,149919,6,0,P|252:104|333:115,1,131.99999597168
455,50,150175,5,0,0:0:0:0:
372,257,150302,1,0,0:0:0:0:
372,257,150430,1,0,0:0:0:0:
372,257,150558,1,0,0:0:0:0:
372,257,150685,6,0,L|216:243,1,131.99999597168,0|0,3:0|3:0,3:0:0:0:
108,229,150941,2,0,B|175:174|179:169|179:169|198:163|198:163|218:155|218:155|226:142,1,131.99999597168
346,135,151196,1,0,0:0:0:0:
247,48,151323,1,0,0:0:0:0:
123,95,151451,5,0,0:0:0:0:
190,209,151579,1,0,0:0:0:0:
124,80,151706,5,0,0:0:0:0:
82,233,151834,1,0,0:0:0:0:
82,233,151962,1,0,0:0:0:0:
82,233,152089,1,0,0:0:0:0:
82,233,152217,6,0,B|182:297|198:301|198:301|224:313|224:313|244:331|275:335,1,197.99999395752
250,284,152472,2,0,L|226:148,1,131.99999597168
253,64,152728,2,0,L|276:199,1,131.99999597168
296,297,152983,5,0,0:0:0:0:
181,134,153111,1,0,0:0:0:0:
371,199,153238,1,0,0:0:0:0:
146,201,153366,5,0,0:0:0:0:
332,132,153494,1,0,0:0:0:0:
220,298,153621,1,0,0:0:0:0:
406,228,153749,6,0,P|446:166|445:108,1,131.99999597168
332,41,154004,6,0,B|316:88|316:88|320:113|320:113|289:174,1,131.99999597168
347,285,154260,2,0,B|363:238|363:238|359:213|359:213|390:152,1,131.99999597168
433,39,154515,1,0,0:0:0:0:
470,234,154643,1,0,0:0:0:0:
282,168,154770,1,0,0:0:0:0:
262,37,154898,5,0,0:0:0:0:
136,77,155026,1,0,0:0:0:0:
151,207,155153,1,0,0:0:0:0:
30,154,155281,5,0,0:0:0:0:
68,348,155409,1,0,0:0:0:0:
26,139,155536,2,0,B|62:73|41:65|60:57|60:57|66:27|66:27|70:12,1,131.99999597168
188,8,155792,1,0,0:0:0:0:
159,123,155919,1,0,0:0:0:0:
129,237,156047,6,0,B|120:266|120:266|116:326|116:326|98:368,1,131.99999597168
209,290,156302,1,0,0:0:0:0:
251,96,156430,1,0,0:0:0:0:
291,290,156558,5,0,0:0:0:0:
333,96,156686,1,0,0:0:0:0:
371,289,156813,6,0,L|391:209,1,65.9999979858399
413,95,156941,1,0,0:0:0:0:
268,228,157068,2,0,B|236:264|201:276|201:276|197:313|166:301,1,131.99999597168
48,248,157323,2,0,B|101:201|111:200|111:200|132:194|150:167|150:167|173:158,1,131.99999597168
252,81,157579,5,0,0:0:0:0:
399,164,157706,1,0,0:0:0:0:
275,280,157834,1,0,0:0:0:0:
119,180,157962,1,0,0:0:0:0:
119,180,158089,1,0,0:0:0:0:
119,180,158217,1,0,0:0:0:0:
252,81,158345,6,0,L|316:37,1,65.9999979858399
381,16,158472,2,0,L|387:93,1,65.9999979858399
382,163,158600,2,0,L|311:129,1,65.9999979858399
224,179,158728,6,0,L|217:256,1,65.9999979858399
232,323,158855,2,0,L|302:289,1,65.9999979858399
354,254,158983,2,0,L|289:209,1,65.9999979858399
235,167,159111,6,0,B|170:112|170:112|143:91|143:91|133:74,1,131.99999597168
4,76,159366,1,0,0:0:0:0:
59,224,159494,2,0,B|126:162|126:162|143:154|143:154|151:141|151:141|160:139,1,131.99999597168
289,126,159749,1,0,0:0:0:0:
387,213,159877,6,0,B|422:280|422:280|431:313|431:313|443:334,1,131.99999597168
325,269,160132,2,0,B|314:249|314:249|305:217|305:217|270:149,1,131.99999597168
160,76,160387,1,0,0:0:0:0:
160,76,160515,1,0,0:0:0:0:
160,76,160643,6,0,B|250:81|250:81|276:81|276:81|299:88|299:88|319:88,1,131.99999597168
255,213,160898,2,0,B|325:157|325:157|347:142|347:142|361:123|361:123|378:110,1,131.99999597168
398,32,161153,2,0,P|467:107|467:151,1,131.99999597168
448,236,161409,6,0,P|412:244|384:272,1,65.9999979858399
348,195,161536,2,0,P|320:219|310:258,1,65.9999979858399
259,184,161664,6,0,P|254:151|265:120,1,65.9999979858399
185,110,161792,2,0,P|197:79|221:58,1,65.9999979858399
106,86,161919,6,0,P|101:118|112:149,1,65.9999979858399,0|0,3:0|0:0,0:0:0:0:
39,163,162047,2,0,P|51:193|75:214,1,65.9999979858399,0|0,3:0|0:0,0:0:0:0:
140,249,162175,5,0,0:0:0:0:
187,272,162238,1,0,0:0:0:0:
238,266,162302,1,0,0:0:0:0:
277,231,162366,1,0,0:0:0:0:
289,180,162430,1,0,0:0:0:0:
270,132,162494,1,0,0:0:0:0:
272,92,162558,5,0,0:0:0:0:
237,108,162621,1,0,0:0:0:0:
198,118,162685,1,0,0:0:0:0:
159,120,162749,1,0,0:0:0:0:
120,115,162813,1,0,0:0:0:0:
82,103,162877,1,0,0:0:0:0:
48,82,162941,5,0,0:0:0:0:
58,122,163004,1,0,0:0:0:0:
58,162,163068,1,0,0:0:0:0:
70,198,163132,1,0,0:0:0:0:
80,236,163196,5,0,0:0:0:0:
112,212,163259,1,0,0:0:0:0:
148,196,163323,1,0,0:0:0:0:
184,188,163387,1,0,0:0:0:0:
224,183,163451,6,0,B|261:181|261:181|290:194,1,65.9999979858399
312,270,163579,2,0,B|276:271|276:271|247:258,1,65.9999979858399
176,247,163706,5,0,0:0:0:0:
170,215,163769,1,0,0:0:0:0:
163,182,163833,1,0,0:0:0:0:
157,150,163897,1,0,0:0:0:0:
210,151,163962,5,0,0:0:0:0:
216,119,164025,1,0,0:0:0:0:
223,86,164089,1,0,0:0:0:0:
229,55,164153,1,0,0:0:0:0:
244,18,164217,5,0,0:0:0:0:
209,37,164280,1,0,0:0:0:0:
171,46,164344,1,0,0:0:0:0:
131,42,164408,1,0,0:0:0:0:
94,27,164472,5,0,0:0:0:0:
98,79,164535,1,0,0:0:0:0:
103,132,164599,1,0,0:0:0:0:
108,184,164663,1,0,0:0:0:0:
115,231,164728,1,0,0:0:0:0:
126,276,164791,1,0,0:0:0:0:
154,311,164855,1,0,0:0:0:0:
196,332,164919,1,0,0:0:0:0:
241,332,164983,1,0,0:0:0:0:
283,313,165047,1,0,0:0:0:0:
313,278,165110,1,0,0:0:0:0:
394,203,165238,5,0,0:0:0:0:
503,192,165366,1,0,0:0:0:0:
382,205,165494,1,0,0:0:0:0:
285,185,165621,1,0,0:0:0:0:
198,234,165749,1,0,0:0:0:0:
106,195,165877,1,0,0:0:0:0:
14,156,166004,6,0,B|65:115|65:115|127:84,1,110
204,84,166260,1,0,0:0:0:0:
144,162,166387,1,0,0:0:0:0:
204,240,166515,1,0,0:0:0:0:
144,318,166643,1,0,0:0:0:0:
84,240,166770,5,0,0:0:0:0:
74,228,166833,1,0,0:0:0:0:
67,215,166897,1,0,0:0:0:0:
62,201,166961,1,0,0:0:0:0:
60,186,167025,1,0,0:0:0:0:
60,171,167089,1,0,0:0:0:0:
63,157,167152,1,0,0:0:0:0:
68,143,167216,1,0,0:0:0:0:
76,130,167280,1,0,0:0:0:0:
85,119,167344,1,0,0:0:0:0:
97,109,167408,1,0,0:0:0:0:
109,102,167472,1,0,0:0:0:0:
120,98,167536,6,0,P|165:64|177:45,3,55
245,29,167792,2,0,P|252:55|253:82,3,55
194,141,168047,1,0,0:0:0:0:
195,163,168110,1,0,0:0:0:0:
193,184,168174,1,0,0:0:0:0:
187,205,168238,1,0,0:0:0:0:
181,226,168302,5,0,0:0:0:0:
178,258,168365,1,0,0:0:0:0:
188,289,168429,1,0,0:0:0:0:
210,314,168493,1,0,0:0:0:0:
240,328,168557,1,0,0:0:0:0:
272,330,168621,1,0,0:0:0:0:
303,318,168684,1,0,0:0:0:0:
327,296,168748,1,0,0:0:0:0:
340,266,168812,1,0,0:0:0:0:
341,233,168876,1,0,0:0:0:0:
329,203,168940,1,0,0:0:0:0:
306,180,169004,1,0,0:0:0:0:
282,157,169068,5,0,0:0:0:0:
258,135,169131,1,0,0:0:0:0:
245,105,169195,1,0,0:0:0:0:
247,73,169259,1,0,0:0:0:0:
262,44,169323,1,0,0:0:0:0:
288,24,169387,1,0,0:0:0:0:
320,18,169450,1,0,0:0:0:0:
352,26,169514,1,0,0:0:0:0:
377,47,169578,1,0,0:0:0:0:
391,77,169642,1,0,0:0:0:0:
391,109,169706,1,0,0:0:0:0:
376,139,169770,1,0,0:0:0:0:
347,156,169834,5,0,0:0:0:0:
342,177,169897,1,0,0:0:0:0:
343,199,169961,1,0,0:0:0:0:
349,220,170025,1,0,0:0:0:0:
360,239,170089,1,0,0:0:0:0:
375,255,170153,1,0,0:0:0:0:
396,280,170217,5,0,0:0:0:0:
370,300,170280,1,0,0:0:0:0:
340,314,170344,1,0,0:0:0:0:
307,319,170408,1,0,0:0:0:0:
275,315,170472,1,0,0:0:0:0:
244,302,170536,1,0,0:0:0:0:
173,273,170600,6,0,L|99:286,3,55
51,319,170855,2,0,P|40:284|54:251,1,55
86,188,170983,6,0,L|74:115,3,55
40,66,171238,2,0,P|75:55|108:69,1,55
175,70,171366,6,0,B|262:84|262:84|279:91|279:91|293:90,1,110
392,106,171621,1,0,0:0:0:0:
299,166,171749,2,0,B|311:233|311:233|315:251|315:251|313:269|321:283,1,110
333,372,172004,1,0,0:0:0:0:
403,287,172132,6,0,B|421:251|421:251|417:167,1,110
371,57,172387,1,0,0:0:0:0:
511,120,172515,1,0,0:0:0:0:
362,47,172643,1,0,0:0:0:0:
374,213,172770,1,0,0:0:0:0:
254,311,172898,6,0,B|183:337|183:337|166:349|166:349|152:356|138:355,1,110
48,319,173153,1,0,0:0:0:0:
137,254,173281,6,0,B|171:203|172:176|172:176|191:149,1,110
268,83,173536,1,0,0:0:0:0:
410,166,173664,5,0,0:0:0:0:
330,271,173792,1,0,0:0:0:0:
199,259,173919,1,0,0:0:0:0:
92,337,174047,5,0,0:0:0:0:
22,224,174175,1,0,0:0:0:0:
79,106,174302,1,0,0:0:0:0:
210,117,174430,6,0,B|291:137|291:137|331:163,1,110
423,160,174685,1,0,0:0:0:0:
321,43,174813,6,0,B|246:44|246:44|217:38|217:38|196:48,1,110
110,83,175068,1,0,0:0:0:0:
169,175,175196,6,0,B|222:198|222:198|293:198,1,110
402,164,175451,1,0,0:0:0:0:
297,79,175579,6,0,L|237:121,1,55
134,158,175706,2,0,P|169:155|201:135,1,55
212,40,175834,2,0,L|152:81,1,55
93,98,175962,5,0,0:0:0:0:
65,131,176025,1,0,0:0:0:0:
62,174,176089,1,0,0:0:0:0:
84,212,176153,1,0,0:0:0:0:
124,230,176217,1,0,0:0:0:0:
166,222,176281,1,0,0:0:0:0:
208,209,176345,5,0,0:0:0:0:
250,220,176408,1,0,0:0:0:0:
272,257,176472,1,0,0:0:0:0:
263,299,176536,1,0,0:0:0:0:
228,324,176600,1,0,0:0:0:0:
186,318,176664,1,0,0:0:0:0:
144,302,176728,6,0,L|88:278,3,55
225,280,176983,2,0,L|281:304,3,55
164,229,177238,2,0,P|149:191|156:162,3,55
199,81,177494,5,0,0:0:0:0:
199,81,177558,1,0,0:0:0:0:
199,81,177621,1,0,0:0:0:0:
334,145,177749,1,0,0:0:0:0:
334,145,177877,2,0,B|354:213|354:213|320:298|320:298|340:362,1,220
448,280,178260,5,0,0:0:0:0:
431,227,178323,1,0,0:0:0:0:
414,175,178387,1,0,0:0:0:0:
397,122,178451,1,0,0:0:0:0:
396,78,178515,5,0,0:0:0:0:
363,121,178578,1,0,0:0:0:0:
314,144,178642,1,0,0:0:0:0:
260,140,178706,1,0,0:0:0:0:
229,126,178770,5,0,0:0:0:0:
196,121,178833,1,0,0:0:0:0:
165,128,178897,1,0,0:0:0:0:
136,144,178961,1,0,0:0:0:0:
109,164,179026,6,0,L|10:245,1,110
227,149,179281,6,0,L|326:68,1,110
201,269,179536,6,0,L|115:338,1,110
328,274,179792,5,0,0:0:0:0:
459,175,179919,1,0,0:0:0:0:
320,284,180047,5,0,0:0:0:0:
472,223,180174,1,0,0:0:0:0:
331,158,180302,5,0,0:0:0:0:
392,310,180429,1,0,0:0:0:0:
453,155,180558,6,0,B|467:107|467:107|486:76|486:76|478:38,1,110
271,57,180813,2,0,B|257:105|257:105|238:136|238:136|246:174,1,110
336,253,181068,1,0,0:0:0:0:
373,91,181196,1,0,0:0:0:0:
199,116,181323,5,0,0:0:0:0:
156,305,181451,1,0,0:0:0:0:
269,237,181579,2,0,B|282:158|282:158|291:129|291:129|290:111,1,110
379,31,181834,1,0,0:0:0:0:
439,148,181962,1,0,0:0:0:0:
323,210,182089,5,0,0:0:0:0:
279,207,182152,1,0,0:0:0:0:
235,204,182216,1,0,0:0:0:0:
191,202,182280,1,0,0:0:0:0:
147,199,182344,1,0,0:0:0:0:
28,140,182472,1,0,0:0:0:0:
140,69,182600,1,0,0:0:0:0:
255,133,182728,1,0,0:0:0:0:
372,73,182855,6,0,B|412:111|412:111|421:170,1,110
419,276,183111,1,0,0:0:0:0:
203,351,183238,1,0,0:0:0:0:
282,136,183366,5,0,0:0:0:0:
334,382,183493,1,0,0:0:0:0:
174,219,183621,5,0,0:0:0:0:
153,172,183684,1,0,0:0:0:0:
176,126,183748,1,0,0:0:0:0:
226,116,183812,1,0,0:0:0:0:
279,126,183877,1,0,0:0:0:0:
330,136,183940,1,0,0:0:0:0:
382,146,184004,1,0,0:0:0:0:
434,156,184068,1,0,0:0:0:0:
486,165,184132,1,0,0:0:0:0:
512,147,184195,1,0,0:0:0:0:
512,98,184259,1,0,0:0:0:0:
498,70,184323,1,0,0:0:0:0:
423,43,184387,5,0,0:0:0:0:
426,102,184450,1,0,0:0:0:0:
430,161,184514,1,0,0:0:0:0:
434,220,184578,1,0,0:0:0:0:
438,280,184642,1,0,0:0:0:0:
356,383,184770,1,0,0:0:0:0:
250,264,184898,1,0,0:0:0:0:
406,231,185026,1,0,0:0:0:0:
315,380,185153,6,0,L|164:339,1,131.99999597168
127,197,185409,2,0,L|0:231,1,131.99999597168
241,69,185664,1,0,0:0:0:0:
284,276,185792,1,0,0:0:0:0:
341,140,185919,5,0,0:0:0:0:
461,36,186047,1,0,0:0:0:0:
491,191,186175,1,0,0:0:0:0:
339,116,186302,5,0,0:0:0:0:
482,46,186430,1,0,0:0:0:0:
471,204,186558,1,0,0:0:0:0:
319,247,186685,5,0,0:0:0:0:
254,246,186748,1,0,0:0:0:0:
211,199,186812,1,0,0:0:0:0:
214,135,186876,1,0,0:0:0:0:
263,93,186940,1,0,0:0:0:0:
327,100,187004,1,0,0:0:0:0:
369,152,187068,5,0,0:0:0:0:
310,160,187131,1,0,0:0:0:0:
251,169,187195,1,0,0:0:0:0:
192,178,187259,1,0,0:0:0:0:
133,186,187323,1,0,0:0:0:0:
75,195,187387,1,0,0:0:0:0:
28,193,187451,5,0,0:0:0:0:
0,217,187514,1,0,0:0:0:0:
0,256,187578,1,0,0:0:0:0:
16,287,187642,1,0,0:0:0:0:
54,297,187706,5,0,0:0:0:0:
102,278,187769,1,0,0:0:0:0:
133,236,187833,1,0,0:0:0:0:
135,184,187897,1,0,0:0:0:0:
122,131,187962,1,0,0:0:0:0:
112,80,188025,1,0,0:0:0:0:
143,39,188089,1,0,0:0:0:0:
194,33,188153,1,0,0:0:0:0:
246,30,188217,6,0,L|385:25,1,131.99999597168
483,22,188472,1,0,0:0:0:0:
413,102,188600,1,0,0:0:0:0:
307,107,188728,1,0,0:0:0:0:
284,209,188855,1,0,0:0:0:0:
389,211,188983,5,0,0:0:0:0:
423,229,189046,1,0,0:0:0:0:
436,266,189110,1,0,0:0:0:0:
421,301,189174,1,0,0:0:0:0:
386,318,189238,1,0,0:0:0:0:
258,353,189366,1,0,0:0:0:0:
154,271,189494,1,0,0:0:0:0:
241,172,189621,1,0,0:0:0:0:
339,252,189749,6,0,L|389:201,3,65.9999979858399
300,95,190004,2,0,L|317:158,3,65.9999979858399
373,67,190260,1,0,0:0:0:0:
351,34,190323,1,0,0:0:0:0:
315,17,190387,1,0,0:0:0:0:
276,19,190451,1,0,0:0:0:0:
237,19,190515,5,0,0:0:0:0:
251,83,190578,1,0,0:0:0:0:
265,147,190642,1,0,0:0:0:0:
282,211,190706,1,0,0:0:0:0:
295,273,190769,1,0,0:0:0:0:
249,319,190833,1,0,0:0:0:0:
188,304,190897,1,0,0:0:0:0:
91,257,191026,1,0,0:0:0:0:
173,192,191153,1,0,0:0:0:0:
272,227,191281,6,0,L|399:285,1,131.99999597168
488,325,191536,1,0,0:0:0:0:
474,221,191663,1,0,0:0:0:0:
403,145,191791,1,0,0:0:0:0:
302,124,191918,1,0,0:0:0:0:
203,166,192047,5,0,0:0:0:0:
203,166,192111,1,0,0:0:0:0:
203,166,192175,1,0,0:0:0:0:
297,211,192302,1,0,0:0:0:0:
203,260,192430,1,0,0:0:0:0:
297,308,192558,1,0,0:0:0:0:
203,357,192685,1,0,0:0:0:0:
109,308,192813,6,0,L|73:177,1,131.99999597168
43,79,193068,1,0,0:0:0:0:
139,121,193196,1,0,0:0:0:0:
235,79,193323,1,0,0:0:0:0:
331,121,193451,1,0,0:0:0:0:
427,79,193579,5,0,0:0:0:0:
427,79,193643,1,0,0:0:0:0:
427,79,193706,2,0,L|384:210,1,131.99999597168
344,331,193962,1,0,0:0:0:0:
303,205,194089,1,0,0:0:0:0:
262,79,194217,1,0,0:0:0:0:
189,205,194345,5,0,0:0:0:0:
90,99,194472,1,0,0:0:0:0:
192,220,194600,5,0,0:0:0:0:
213,78,194727,1,0,0:0:0:0:
196,235,194855,6,0,L|227:371,1,131.99999597168
332,284,195111,1,0,0:0:0:0:
337,240,195174,1,0,0:0:0:0:
343,196,195238,1,0,0:0:0:0:
349,153,195302,1,0,0:0:0:0:
355,109,195366,1,0,0:0:0:0:
293,18,195494,5,0,0:0:0:0:
255,120,195621,1,0,0:0:0:0:
233,157,195684,1,0,0:0:0:0:
195,178,195748,1,0,0:0:0:0:
151,177,195812,1,0,0:0:0:0:
115,153,195876,1,0,0:0:0:0:
44,69,196004,5,0,0:0:0:0:
11,174,196132,1,0,0:0:0:0:
56,298,196260,5,0,0:0:0:0:
153,248,196387,1,0,0:0:0:0:
192,228,196450,1,0,0:0:0:0:
231,208,196514,1,0,0:0:0:0:
270,188,196578,1,0,0:0:0:0:
310,168,196643,2,0,P|358:136|366:69,1,110
241,56,196898,5,0,0:0:0:0:
164,134,197025,1,0,0:0:0:0:
87,213,197153,2,0,L|-4:300,1,110
136,321,197409,5,0,0:0:0:0:
243,343,197536,1,0,0:0:0:0:
258,233,197664,1,0,0:0:0:0:
365,255,197792,1,0,0:0:0:0:
380,145,197919,1,0,0:0:0:0:
487,167,198047,1,0,0:0:0:0:
465,274,198175,6,0,B|396:265|396:265|372:268|372:268|355:263|337:265,1,110
258,317,198430,2,0,P|241:257|268:202,1,110
192,125,198685,2,0,L|156:252,1,110
148,341,198941,5,0,0:0:0:0:
148,341,199004,1,0,0:0:0:0:
148,341,199068,1,0,0:0:0:0:
148,341,199132,1,0,0:0:0:0:
148,341,199196,1,0,0:0:0:0:
44,228,199323,1,0,0:0:0:0:
133,102,199451,1,0,0:0:0:0:
261,188,199579,1,0,0:0:0:0:
129,189,199706,6,0,L|96:312,1,110
178,374,199962,1,0,0:0:0:0:
245,261,200089,1,0,0:0:0:0:
368,354,200217,1,0,0:0:0:0:
463,205,200345,1,0,0:0:0:0:
314,110,200472,5,0,0:0:0:0:
274,91,200535,1,0,0:0:0:0:
230,92,200599,1,0,0:0:0:0:
192,112,200663,1,0,0:0:0:0:
166,148,200727,1,0,0:0:0:0:
159,191,200791,1,0,0:0:0:0:
172,232,200854,1,0,0:0:0:0:
247,342,200983,1,0,0:0:0:0:
276,212,201111,1,0,0:0:0:0:
356,342,201238,6,0,L|375:267,1,55
421,202,201366,2,0,P|379:194|348:209,1,55
272,228,201494,2,0,L|206:253,3,55
129,287,201749,6,0,P|157:327|183:338,1,55
262,335,201877,2,0,P|245:293|226:277,1,55
188,227,202004,2,0,L|113:134,1,110
137,9,202260,6,0,P|178:11|207:33,1,55
305,16,202387,2,0,P|264:18|235:40,1,55
143,47,202515,6,0,P|182:59|204:88,1,55
278,50,202642,2,0,P|238:62|216:91,1,55
152,134,202770,5,0,0:0:0:0:
313,205,202898,1,0,0:0:0:0:
141,128,203026,2,0,B|174:147|208:152|208:152|221:163|221:163|244:173,1,110
415,238,203281,5,0,0:0:0:0:
331,82,203409,1,0,0:0:0:0:
419,245,203536,5,0,0:0:0:0:
274,346,203664,1,0,0:0:0:0:
429,241,203792,5,0,0:0:0:0:
256,210,203919,1,0,0:0:0:0:
428,112,204047,5,0,0:0:0:0:
272,352,204175,1,0,0:0:0:0:
242,157,204302,5,0,0:0:0:0:
434,281,204430,1,0,0:0:0:0:
205,316,204558,2,0,P|146:320|90:277,1,110
186,165,204813,2,0,P|245:161|301:204,1,110
