osu file format v14

[General]
AudioFilename: it's 192kbps dw i checked for you.mp3
AudioLeadIn: 0
PreviewTime: 192210
Countdown: 0
SampleSet: Soft
StackLeniency: 0.7
Mode: 3
LetterboxInBreaks: 0
SpecialStyle: 0
WidescreenStoryboard: 0

[Editor]
Bookmarks: 31760,56030,82996,96479,109962,128839,143670,147715,163895,180075,192210,225368,240137,256316,272496,288675,304855,327102,355417
DistanceSpacing: 3.1
BeatDivisor: 4
GridSize: 4
TimelineZoom: 2.1

[Metadata]
Title:The Promethean Kings
TitleUnicode:The Promethean Kings
Artist:Inferi
ArtistUnicode:Inferi
Creator:Litharrale
Version:The Path of Apotheosis
Source:
Tags:melodic technical death metal marathon stamina jumpstream jack
BeatmapID:1431367
BeatmapSetID:676759

[Difficulty]
HPDrainRate:9
CircleSize:4
OverallDifficulty:9
ApproachRate:5
SliderMultiplier:1.4
SliderTickRate:1

[Events]
//Background and Video events
0,0,"prom5.jpg",0,0
//Break Periods
//Storyboard Layer 0 (Background)
//Storyboard Layer 1 (Fail)
//Storyboard Layer 2 (Pass)
//Storyboard Layer 3 (Foreground)
//Storyboard Sound Samples

[TimingPoints]
3446,337.078651685393,4,2,1,30,1,0
7491,337.078651685393,3,2,1,30,1,0
39850,-100,3,2,1,20,0,0
56030,-100,3,2,1,40,0,0
131534,337.078651685393,3,2,1,40,1,0
192208,337.078651685393,4,2,1,40,1,0
192208,-100,4,2,1,50,0,0
194907,230.769230769231,4,2,1,50,1,0
194907,-144.927536231884,4,2,1,50,0,1
203214,-144.927536231884,4,2,1,45,0,1
208753,-144.927536231884,4,2,1,50,0,1
210599,-144.927536231884,4,2,1,45,0,1
211753,-144.927536231884,4,2,1,50,0,1
212503,-144.927536231884,4,2,1,45,0,1
213368,-144.927536231884,4,2,1,45,0,1
214291,-144.927536231884,4,2,1,50,0,1
230907,-144.927536231884,4,2,1,45,0,1
232522,-144.927536231884,4,2,1,50,0,1
236445,-144.927536231884,4,2,1,45,0,1
237368,-144.927536231884,4,2,1,50,0,1
240137,337.078651685393,6,2,1,40,1,0
270474,-100,6,2,1,35,0,0
272496,337.078651685393,3,2,1,35,1,0
288675,-100,3,2,1,30,0,1
321035,-100,3,2,1,30,0,0

[HitObjects]
64,192,6142,5,0,0:0:0:60:boom.wav
448,192,6142,1,2,0:0:0:0:
192,192,6254,1,0,0:0:0:0:
320,192,6254,1,2,0:0:0:0:
64,192,6367,1,2,0:0:0:0:
448,192,6367,1,0,0:0:0:0:
192,192,6479,1,0,0:0:0:60:boom.wav
320,192,6479,128,6,6816:0:0:0:0:
448,192,6479,1,0,0:0:0:50:hardclap.wav
192,192,6816,1,0,0:0:0:60:boom.wav
64,192,6816,1,4,0:0:0:0:
448,192,6816,1,2,0:0:0:0:
320,192,7153,1,0,0:0:0:60:boom.wav
64,192,7153,1,0,0:0:0:0:
320,192,7490,1,0,0:0:0:60:boom.wav
448,192,7490,1,0,0:0:0:0:
192,192,7603,1,2,0:0:0:0:
64,192,7603,1,0,0:0:0:0:
448,192,7715,1,2,0:0:0:0:
320,192,7715,1,0,0:0:0:0:
320,192,7828,1,0,0:0:0:60:boom.wav
192,192,7828,128,6,8165:0:0:0:0:
64,192,7828,1,0,0:0:0:50:hardclap.wav
320,192,8165,1,0,0:0:0:60:boom.wav
448,192,8165,1,6,0:0:0:0:
64,192,8165,1,0,0:0:0:0:
64,192,8502,1,0,0:0:0:0:
320,192,8502,1,0,0:0:0:60:boom.wav
192,192,8614,1,2,0:0:0:0:
448,192,8614,1,0,0:0:0:0:
320,192,8726,1,2,0:0:0:0:
64,192,8726,1,0,0:0:0:0:
192,192,8839,1,0,0:0:0:60:boom.wav
448,192,8839,128,6,9176:0:0:0:0:
64,192,8839,1,0,0:0:0:50:hardclap.wav
320,192,9176,1,0,0:0:0:60:boom.wav
192,192,9176,1,6,0:0:0:0:
64,192,9176,1,0,0:0:0:0:
448,192,9513,1,0,0:0:0:60:boom.wav
64,192,9513,1,2,0:0:0:0:
320,192,9569,1,2,0:0:0:0:
64,192,9625,1,2,0:0:0:0:
192,192,9682,1,2,0:0:0:0:
448,192,9738,1,2,0:0:0:0:
320,192,9794,1,2,0:0:0:0:
64,192,9850,1,0,0:0:0:60:boom.wav
192,192,9906,1,2,0:0:0:0:
448,192,9962,1,2,0:0:0:0:
320,192,10019,1,2,0:0:0:0:
192,192,10075,1,2,0:0:0:0:
64,192,10131,1,2,0:0:0:0:
448,192,10187,1,0,0:0:0:60:boom.wav
320,192,10187,1,0,0:0:0:0:
192,192,10299,1,2,0:0:0:0:
64,192,10412,1,2,0:0:0:0:
320,192,10524,128,0,11198:0:0:0:60:boom.wav
448,192,10524,1,2,0:0:0:0:
64,192,10637,1,2,0:0:0:0:
192,192,10749,1,2,0:0:0:0:
64,192,10861,1,6,0:0:0:0:
448,192,10861,1,0,0:0:0:50:hardclap.wav
192,192,11198,1,2,0:0:0:0:
64,192,11535,128,0,12547:0:0:0:0:
448,192,11535,128,4,12210:0:0:0:0:
320,192,11535,1,0,0:0:0:60:boom.wav
320,192,11648,1,2,0:0:0:0:
192,192,11760,1,2,0:0:0:0:
192,192,11873,1,2,0:0:0:0:
320,192,12210,1,6,0:0:0:0:
448,192,12547,1,2,0:0:0:0:
192,192,12547,128,0,13221:0:0:0:0:
320,192,12659,1,2,0:0:0:0:
64,192,12771,1,2,0:0:0:0:
448,192,12884,1,0,0:0:0:0:
320,192,12884,1,2,0:0:0:0:
448,192,13221,128,2,13558:0:0:0:0:
64,192,13221,1,0,0:0:0:0:
320,192,13558,1,2,0:0:0:0:
64,192,13558,1,0,0:0:0:60:boom.wav
192,192,13614,1,2,0:0:0:0:
64,192,13670,1,2,0:0:0:0:
320,192,13726,1,2,0:0:0:0:
448,192,13783,1,2,0:0:0:0:
192,192,13839,1,2,0:0:0:0:
64,192,13895,1,2,0:0:0:0:
448,192,13951,1,2,0:0:0:0:
320,192,14007,1,2,0:0:0:0:
192,192,14064,1,2,0:0:0:0:
64,192,14120,1,2,0:0:0:0:
448,192,14176,1,2,0:0:0:0:
320,192,14232,1,2,0:0:0:0:
192,192,14232,1,4,0:0:0:0:
64,192,14344,1,2,0:0:0:0:
448,192,14457,1,2,0:0:0:0:
192,192,14569,1,2,0:0:0:0:
320,192,14682,1,2,0:0:0:0:
64,192,14794,1,2,0:0:0:0:
448,192,14906,1,0,0:0:0:0:
320,192,14906,1,6,0:0:0:0:
192,192,15243,1,2,0:0:0:0:
64,192,15580,128,0,15693:0:0:0:60:boom.wav
448,192,15580,1,2,0:0:0:0:
192,192,15693,1,0,0:0:0:0:
320,192,15693,1,2,0:0:0:0:
448,192,15805,1,2,0:0:0:0:
64,192,15805,1,0,0:0:0:0:
192,192,15917,1,2,0:0:0:0:
320,192,15917,128,0,16030:0:0:0:60:boom.wav
64,192,16030,1,0,0:0:0:0:
64,192,16255,128,0,16367:0:0:0:60:boom.wav
448,192,16255,1,0,0:0:0:0:
320,192,16339,1,0,0:0:0:0:
192,192,16423,1,0,0:0:0:0:
448,192,16592,128,0,17603:0:0:0:0:
320,192,16592,1,0,0:0:0:60:boom.wav
192,192,16704,1,2,0:0:0:0:
64,192,16704,1,0,0:0:0:0:
320,192,16816,1,2,0:0:0:0:
64,192,16929,1,0,0:0:0:60:boom.wav
192,192,17013,1,0,0:0:0:0:
64,192,17097,1,0,0:0:0:0:
320,192,17266,1,0,0:0:0:60:boom.wav
192,192,17350,1,0,0:0:0:0:
320,192,17434,1,0,0:0:0:0:
192,192,17603,1,0,0:0:0:60:boom.wav
64,192,17603,128,0,17715:0:0:0:50:hardclap.wav
320,192,17659,1,2,0:0:0:0:
448,192,17715,1,2,0:0:0:0:
320,192,17771,1,2,0:0:0:0:
192,192,17828,1,2,0:0:0:0:
64,192,17884,1,2,0:0:0:0:
448,192,17940,128,0,18052:0:0:0:60:boom.wav
192,192,18052,1,2,0:0:0:0:
320,192,18165,1,2,0:0:0:0:
192,192,18277,128,0,18614:0:0:0:60:boom.wav
448,192,18389,1,2,0:0:0:0:
64,192,18502,1,2,0:0:0:0:
448,192,18614,128,0,19625:0:0:0:60:boom.wav
320,192,18614,1,2,0:0:0:0:
320,192,18726,1,2,0:0:0:0:
64,192,18839,1,2,0:0:0:0:
64,192,18951,1,0,0:0:0:0:
320,192,18951,1,2,0:0:0:0:
192,192,19064,1,2,0:0:0:0:
192,192,19176,1,2,0:0:0:0:
64,192,19288,1,2,0:0:0:0:
320,192,19288,1,0,0:0:0:0:
320,192,19401,1,2,0:0:0:0:
64,192,19485,1,2,0:0:0:0:
192,192,19541,1,2,0:0:0:0:
320,192,19625,1,2,0:0:0:0:
64,192,19625,128,0,20637:0:0:0:0:
192,192,19962,1,0,0:0:0:60:boom.wav
320,192,20047,1,2,0:0:0:0:
192,192,20131,1,2,0:0:0:0:
448,192,20299,1,0,0:0:0:60:boom.wav
320,192,20384,1,2,0:0:0:0:
448,192,20468,1,2,0:0:0:0:
192,192,20637,1,0,0:0:0:60:boom.wav
320,192,20637,128,0,21648:0:0:0:0:
448,192,20721,1,2,0:0:0:0:
192,192,20805,1,2,0:0:0:0:
64,192,20974,1,0,0:0:0:60:boom.wav
448,192,21058,1,2,0:0:0:0:
64,192,21142,1,2,0:0:0:0:
192,192,21311,1,0,0:0:0:60:boom.wav
64,192,21395,1,2,0:0:0:0:
192,192,21479,1,2,0:0:0:0:
448,192,21648,128,0,22659:0:0:0:0:
64,192,21648,1,0,0:0:0:60:boom.wav
192,192,21760,1,2,0:0:0:0:
320,192,21873,1,2,0:0:0:0:
64,192,21985,1,0,0:0:0:60:boom.wav
320,192,22069,1,2,0:0:0:0:
64,192,22153,1,2,0:0:0:0:
320,192,22322,1,0,0:0:0:60:boom.wav
192,192,22406,1,2,0:0:0:0:
320,192,22490,1,2,0:0:0:0:
64,192,22659,1,2,0:0:0:0:
192,192,22659,128,0,23670:0:0:0:60:boom.wav
320,192,22743,1,2,0:0:0:0:
64,192,22828,1,2,0:0:0:0:
448,192,22996,1,0,0:0:0:60:boom.wav
64,192,23080,1,2,0:0:0:0:
448,192,23165,1,2,0:0:0:0:
320,192,23333,1,0,0:0:0:60:boom.wav
448,192,23417,1,2,0:0:0:0:
320,192,23502,1,2,0:0:0:0:
64,192,23670,1,2,0:0:0:0:
448,192,23670,1,0,0:0:0:60:boom.wav
320,192,23783,1,0,0:0:0:0:
192,192,23783,1,2,0:0:0:0:
64,192,23895,1,2,0:0:0:0:
448,192,23895,1,0,0:0:0:0:
192,192,24007,1,6,0:0:0:0:
320,192,24007,128,0,24344:0:0:0:60:boom.wav
448,192,24007,1,0,0:0:0:50:hardclap.wav
64,192,24344,1,6,0:0:0:0:
192,192,24344,1,0,0:0:0:60:boom.wav
448,192,24344,1,0,0:0:0:0:
320,192,24682,1,0,0:0:0:60:boom.wav
448,192,24682,1,2,0:0:0:0:
192,192,24794,1,2,0:0:0:0:
64,192,24794,1,0,0:0:0:0:
320,192,24906,1,2,0:0:0:0:
448,192,24906,1,0,0:0:0:0:
320,192,25019,1,0,0:0:0:60:boom.wav
192,192,25019,128,6,25356:0:0:0:0:
64,192,25019,1,0,0:0:0:50:hardclap.wav
448,192,25356,1,6,0:0:0:0:
320,192,25356,1,0,0:0:0:60:boom.wav
64,192,25356,1,0,0:0:0:0:
64,192,25693,1,2,0:0:0:0:
448,192,25693,1,0,0:0:0:60:boom.wav
192,192,25749,1,2,0:0:0:0:
448,192,25805,1,2,0:0:0:0:
320,192,25861,1,2,0:0:0:0:
64,192,25917,1,2,0:0:0:0:
192,192,25974,1,2,0:0:0:0:
448,192,26030,1,0,0:0:0:60:boom.wav
320,192,26086,1,2,0:0:0:0:
64,192,26142,1,2,0:0:0:0:
192,192,26198,1,2,0:0:0:0:
320,192,26255,1,2,0:0:0:0:
448,192,26311,1,2,0:0:0:0:
64,192,26367,1,0,0:0:0:60:boom.wav
320,192,26479,1,2,0:0:0:0:
192,192,26592,1,2,0:0:0:0:
448,192,26704,1,6,0:0:0:0:
64,192,26704,128,0,27041:0:0:0:60:boom.wav
320,192,26816,1,2,0:0:0:0:
192,192,26929,1,2,0:0:0:0:
448,192,27041,1,6,0:0:0:0:
320,192,27041,1,0,0:0:0:0:
192,192,27378,1,0,0:0:0:60:boom.wav
320,192,27378,1,0,0:0:0:0:
192,192,27715,1,4,0:0:0:0:
448,192,27715,128,0,28726:0:0:0:0:
64,192,27715,128,0,28389:0:0:0:60:boom.wav
192,192,27828,1,2,0:0:0:0:
320,192,27940,1,2,0:0:0:0:
320,192,28052,1,2,0:0:0:0:
192,192,28389,1,2,0:0:0:0:
64,192,28726,1,0,0:0:0:50:boom.wav
192,192,28839,1,2,0:0:0:0:
320,192,28951,1,2,0:0:0:0:
448,192,29064,1,2,0:0:0:0:
320,192,29401,1,2,0:0:0:0:
64,192,29738,1,0,0:0:0:50:boom.wav
448,192,29738,1,8,0:0:0:0:
192,192,29794,1,2,0:0:0:0:
320,192,29850,1,2,0:0:0:0:
448,192,29906,1,2,0:0:0:0:
64,192,29962,1,2,0:0:0:0:
192,192,30019,1,2,0:0:0:0:
448,192,30075,1,2,0:0:0:0:
320,192,30131,1,2,0:0:0:0:
64,192,30187,1,2,0:0:0:0:
192,192,30243,1,2,0:0:0:0:
320,192,30299,1,2,0:0:0:0:
448,192,30356,1,2,0:0:0:0:
64,192,30412,1,6,0:0:0:0:
192,192,30524,1,2,0:0:0:0:
448,192,30637,1,2,0:0:0:0:
320,192,30749,1,2,0:0:0:0:
64,192,30861,1,2,0:0:0:0:
448,192,30974,1,2,0:0:0:0:
192,192,31086,1,2,0:0:0:0:
320,192,31086,1,4,0:0:0:0:
448,192,31423,1,0,0:0:0:50:tomdeep.wav
64,192,31423,1,2,0:0:0:0:
192,192,31760,1,0,0:0:0:0:
320,192,31760,1,6,0:0:0:0:
448,192,31760,128,0,32097:0:0:0:60:boom.wav
64,192,32771,128,0,33108:0:0:0:60:boom.wav
192,192,32771,1,6,0:0:0:0:
320,192,32771,1,0,0:0:0:0:
448,192,33108,1,0,0:0:0:0:
192,192,33165,1,0,0:0:0:0:
320,192,33221,1,0,0:0:0:0:
64,192,33333,1,0,0:0:0:0:
320,192,33446,1,0,0:0:0:0:
64,192,33783,1,2,0:0:0:0:
192,192,33783,1,0,0:0:0:60:boom.wav
320,192,33895,1,0,0:0:0:30:tomdeep.wav
192,192,33951,1,0,0:0:0:30:tomdeep.wav
64,192,34007,1,0,0:0:0:30:tomdeep.wav
448,192,34120,1,0,0:0:0:30:tomdeep.wav
192,192,34232,1,0,0:0:0:30:tomdeep.wav
320,192,34288,1,0,0:0:0:30:tomdeep.wav
448,192,34344,1,0,0:0:0:30:tomdeep.wav
64,192,34457,1,0,0:0:0:30:tomdeep.wav
320,192,34569,1,0,0:0:0:30:tomdeep.wav
192,192,34682,1,0,0:0:0:30:tomdeep.wav
64,192,34794,1,0,0:0:0:60:boom.wav
448,192,34794,1,0,0:0:0:0:
320,192,34906,1,0,0:0:0:50:tomdeep.wav
192,192,34962,1,0,0:0:0:50:tomdeep.wav
64,192,35019,1,0,0:0:0:50:tomdeep.wav
448,192,35131,1,0,0:0:0:50:tomdeep.wav
320,192,35243,1,0,0:0:0:50:tomdeep.wav
64,192,35356,1,0,0:0:0:50:tomdeep.wav
192,192,35468,1,0,0:0:0:50:tomdeep.wav
448,192,35580,1,0,0:0:0:50:tomdeep.wav
320,192,35693,1,0,0:0:0:50:tomdeep.wav
64,192,35805,128,0,36479:0:0:0:60:boom.wav
192,192,35805,1,6,0:0:0:0:
448,192,36816,1,0,0:0:0:0:
320,192,36816,1,0,0:0:0:60:boom.wav
64,192,36929,1,0,0:0:0:40:tomdeep.wav
192,192,36985,1,0,0:0:0:40:tomdeep.wav
320,192,37041,1,0,0:0:0:40:tomdeep.wav
192,192,37153,1,0,0:0:0:40:tomdeep.wav
64,192,37153,1,0,0:0:0:0:
448,192,37266,1,0,0:0:0:40:tomdeep.wav
320,192,37378,1,0,0:0:0:40:tomdeep.wav
64,192,37490,1,0,0:0:0:0:
192,192,37490,1,0,0:0:0:40:tomdeep.wav
448,192,37603,1,0,0:0:0:40:tomdeep.wav
320,192,37715,1,0,0:0:0:40:tomdeep.wav
448,192,37828,128,0,38502:0:0:0:60:boom.wav
64,192,37828,1,2,0:0:0:0:
64,192,38839,1,0,0:0:0:0:
320,192,38839,1,0,0:0:0:60:boom.wav
448,192,39064,1,2,0:0:0:0:
448,192,39176,1,2,0:0:0:0:
192,192,39176,1,8,0:0:0:0:
64,192,39401,1,2,0:0:0:0:
320,192,39513,1,2,0:0:0:0:
64,192,39513,1,8,0:0:0:0:
320,192,39625,1,2,0:0:0:0:
192,192,39738,128,0,39850:0:0:0:0:
64,192,39850,128,0,40187:0:0:0:0:
448,192,40187,128,0,40468:0:0:0:0:
320,192,40468,128,0,40805:0:0:0:0:
64,192,40805,128,0,41142:0:0:0:0:
192,192,41142,128,0,41479:0:0:0:0:
320,192,41479,128,0,41816:0:0:0:0:
448,192,41816,128,0,42153:0:0:0:0:
192,192,42153,128,0,42490:0:0:0:0:
320,192,42490,128,0,42828:0:0:0:0:
64,192,42828,128,0,43165:0:0:0:0:
192,192,43165,128,0,43502:0:0:0:0:
320,192,43502,128,0,43839:0:0:0:0:
448,192,43839,128,0,45187:0:0:0:0:
192,192,45187,128,0,45524:0:0:0:0:
64,192,45524,128,0,45861:0:0:0:0:
320,192,45861,128,0,47603:0:0:0:0:
64,192,47603,1,0,0:0:0:0:
192,192,47659,1,0,0:0:0:0:
448,192,47715,1,0,0:0:0:0:
320,192,47771,1,0,0:0:0:0:
64,192,47828,1,0,0:0:0:0:
192,192,47884,1,0,0:0:0:0:
320,192,47940,128,0,48221:0:0:0:0:
64,192,48221,128,0,48558:0:0:0:0:
192,192,48558,128,0,48895:0:0:0:0:
448,192,48895,128,0,49232:0:0:0:0:
320,192,49232,128,0,49569:0:0:0:0:
64,192,49569,128,0,49906:0:0:0:0:
192,192,49906,128,0,50243:0:0:0:0:
64,192,50243,128,0,50580:0:0:0:0:
320,192,50580,128,0,50917:0:0:0:0:
448,192,50917,128,0,51255:0:0:0:0:
192,192,51255,128,0,51592:0:0:0:0:
320,192,51592,128,0,51816:0:0:0:0:
320,192,51901,128,0,55693:0:0:0:0:
64,192,54007,128,0,56030:0:0:0:0:
192,192,55019,128,0,55861:0:0:0:0:
448,192,56030,1,6,0:0:0:0:
320,192,56030,1,0,0:0:0:0:
192,192,56030,1,0,0:0:0:0:
448,192,56114,1,0,0:0:0:0:
320,192,56198,1,0,0:0:0:0:
192,192,56283,1,0,0:0:0:0:
64,192,56367,1,2,0:0:0:0:
448,192,56367,1,0,0:0:0:0:
192,192,56451,1,8,0:0:0:0:
320,192,56451,1,0,0:0:0:0:
448,192,56535,1,2,0:0:0:0:
64,192,56620,1,0,0:0:0:0:
320,192,56620,1,8,0:0:0:0:
192,192,56704,1,2,0:0:0:0:
320,192,56788,1,8,0:0:0:0:
448,192,56788,1,0,0:0:0:0:
64,192,56873,1,2,0:0:0:0:
192,192,56957,1,8,0:0:0:0:
448,192,56957,1,0,0:0:0:0:
320,192,57041,1,2,0:0:0:0:
448,192,57125,1,8,0:0:0:0:
64,192,57125,1,0,0:0:0:0:
320,192,57210,1,2,0:0:0:0:
192,192,57294,1,8,0:0:0:0:
64,192,57294,1,0,0:0:0:0:
448,192,57378,1,2,0:0:0:0:
320,192,57462,1,8,0:0:0:0:
192,192,57462,1,0,0:0:0:0:
64,192,57547,1,2,0:0:0:0:
448,192,57631,1,0,0:0:0:0:
320,192,57631,1,8,0:0:0:0:
192,192,57715,1,2,0:0:0:0:
64,192,57799,1,8,0:0:0:0:
448,192,57799,1,0,0:0:0:0:
192,192,57884,1,2,0:0:0:0:
320,192,57968,1,2,0:0:0:0:
448,192,57968,1,0,0:0:0:0:
320,192,58052,1,0,0:0:0:40:boom.wav
192,192,58052,1,0,0:0:0:0:
64,192,58137,1,2,0:0:0:0:
448,192,58221,1,2,0:0:0:0:
64,192,58305,1,0,0:0:0:0:
192,192,58305,1,2,0:0:0:0:
192,192,58389,1,0,0:0:0:0:
320,192,58389,1,0,0:0:0:40:boom.wav
448,192,58474,1,2,0:0:0:0:
64,192,58558,1,2,0:0:0:0:
192,192,58642,1,2,0:0:0:0:
320,192,58642,1,0,0:0:0:0:
448,192,58726,1,0,0:0:0:0:
320,192,58726,1,0,0:0:0:40:boom.wav
64,192,58811,1,2,0:0:0:0:
192,192,58895,1,2,0:0:0:0:
320,192,58979,1,2,0:0:0:0:
448,192,58979,1,0,0:0:0:0:
320,192,59064,1,0,0:0:0:40:boom.wav
192,192,59064,1,0,0:0:0:0:
64,192,59148,1,2,0:0:0:0:
448,192,59232,1,2,0:0:0:0:
320,192,59316,1,2,0:0:0:0:
192,192,59316,1,0,0:0:0:0:
192,192,59401,1,0,0:0:0:40:boom.wav
64,192,59401,1,0,0:0:0:0:
448,192,59485,1,0,0:0:0:40:tomdeep.wav
192,192,59569,1,0,0:0:0:40:tomdeep.wav
320,192,59653,1,0,0:0:0:40:tomdeep.wav
64,192,59738,1,0,0:0:0:40:tomdeep.wav
448,192,59822,1,0,0:0:0:40:tomdeep.wav
192,192,59906,1,0,0:0:0:40:tomdeep.wav
320,192,59990,1,0,0:0:0:40:tomdeep.wav
64,192,60075,1,6,0:0:0:0:
448,192,60075,1,0,0:0:0:0:
192,192,60159,1,8,0:0:0:0:
320,192,60159,1,0,0:0:0:0:
448,192,60243,1,2,0:0:0:0:
320,192,60328,1,8,0:0:0:0:
64,192,60328,1,0,0:0:0:0:
192,192,60412,1,2,0:0:0:0:
448,192,60496,1,0,0:0:0:0:
64,192,60496,1,8,0:0:0:0:
320,192,60580,1,2,0:0:0:0:
64,192,60665,1,0,0:0:0:0:
192,192,60665,1,8,0:0:0:0:
448,192,60749,1,2,0:0:0:0:
192,192,60833,1,0,0:0:0:0:
320,192,60833,1,8,0:0:0:0:
64,192,60917,1,2,0:0:0:0:
192,192,61002,1,8,0:0:0:0:
448,192,61002,1,0,0:0:0:0:
320,192,61086,1,2,0:0:0:0:
64,192,61086,1,4,0:0:0:0:
448,192,61170,1,8,0:0:0:0:
192,192,61170,1,0,0:0:0:0:
64,192,61255,1,2,0:0:0:0:
448,192,61339,1,0,0:0:0:0:
320,192,61339,1,8,0:0:0:0:
64,192,61423,1,2,0:0:0:0:
192,192,61507,1,8,0:0:0:0:
320,192,61507,1,0,0:0:0:0:
448,192,61592,1,2,0:0:0:0:
64,192,61676,1,8,0:0:0:0:
192,192,61760,1,8,0:0:0:0:
320,192,61816,1,8,0:0:0:0:
448,192,61873,1,8,0:0:0:0:
64,192,61929,1,8,0:0:0:0:
192,192,61985,1,8,0:0:0:0:
320,192,62041,1,8,0:0:0:0:
448,192,62097,1,0,0:0:0:0:
64,192,62097,1,2,0:0:0:0:
320,192,62153,1,2,0:0:0:0:
64,192,62210,1,2,0:0:0:0:
192,192,62266,1,2,0:0:0:0:
448,192,62322,1,2,0:0:0:0:
320,192,62378,1,2,0:0:0:0:
64,192,62434,1,2,0:0:0:0:
192,192,62434,1,8,0:0:0:0:
448,192,62490,1,2,0:0:0:0:
320,192,62547,1,2,0:0:0:0:
64,192,62603,1,2,0:0:0:0:
192,192,62659,1,2,0:0:0:0:
448,192,62715,1,2,0:0:0:0:
320,192,62771,1,0,0:0:0:40:boom.wav
64,192,62771,1,2,0:0:0:0:
192,192,62828,1,2,0:0:0:0:
320,192,62884,1,2,0:0:0:0:
448,192,62940,1,2,0:0:0:0:
64,192,62996,1,2,0:0:0:0:
192,192,63052,1,2,0:0:0:0:
320,192,63108,1,8,0:0:0:0:
448,192,63108,1,2,0:0:0:0:
64,192,63165,1,2,0:0:0:0:
192,192,63221,1,2,0:0:0:0:
448,192,63277,1,2,0:0:0:0:
320,192,63333,1,2,0:0:0:0:
192,192,63389,1,2,0:0:0:0:
64,192,63446,1,2,0:0:0:0:
448,192,63502,1,0,0:0:0:0:
320,192,63502,1,8,0:0:0:0:
64,192,63558,1,8,0:0:0:0:
448,192,63614,1,8,0:0:0:0:
320,192,63614,1,0,0:0:0:0:
64,192,63670,1,8,0:0:0:0:
320,192,63726,1,0,0:0:0:0:
192,192,63726,1,8,0:0:0:0:
448,192,63783,1,8,0:0:0:0:
64,192,63839,1,8,0:0:0:0:
192,192,63895,1,8,0:0:0:0:
448,192,63951,1,0,0:0:0:40:tomdeep.wav
320,192,64035,1,0,0:0:0:40:tomdeep.wav
192,192,64120,1,0,0:0:0:0:
64,192,64120,1,6,0:0:0:0:
320,192,64204,1,8,0:0:0:0:
448,192,64204,1,0,0:0:0:0:
192,192,64288,1,2,0:0:0:0:
64,192,64373,1,0,0:0:0:0:
320,192,64373,1,8,0:0:0:0:
448,192,64457,1,2,0:0:0:0:
320,192,64541,1,8,0:0:0:0:
192,192,64541,1,0,0:0:0:0:
64,192,64625,1,2,0:0:0:0:
448,192,64710,1,0,0:0:0:0:
320,192,64710,1,8,0:0:0:0:
192,192,64794,1,2,0:0:0:0:
64,192,64878,1,0,0:0:0:0:
320,192,64878,1,8,0:0:0:0:
448,192,64962,1,2,0:0:0:0:
320,192,65047,1,8,0:0:0:0:
192,192,65047,1,0,0:0:0:0:
64,192,65131,1,2,0:0:0:0:
320,192,65215,1,0,0:0:0:0:
448,192,65215,1,8,0:0:0:0:
192,192,65299,1,2,0:0:0:0:
64,192,65384,1,8,0:0:0:0:
448,192,65384,1,0,0:0:0:0:
320,192,65468,1,2,0:0:0:0:
192,192,65552,1,8,0:0:0:0:
64,192,65552,1,0,0:0:0:0:
320,192,65637,1,2,0:0:0:0:
448,192,65721,1,0,0:0:0:0:
192,192,65721,1,8,0:0:0:0:
64,192,65805,1,2,0:0:0:0:
192,192,65889,1,8,0:0:0:0:
320,192,65889,1,0,0:0:0:0:
448,192,65974,1,2,0:0:0:0:
64,192,66058,1,0,0:0:0:0:
320,192,66058,1,8,0:0:0:0:
192,192,66142,1,2,0:0:0:0:
320,192,66226,1,8,0:0:0:0:
448,192,66226,1,0,0:0:0:0:
192,192,66311,1,2,0:0:0:0:
64,192,66395,1,0,0:0:0:0:
448,192,66395,1,8,0:0:0:0:
320,192,66479,1,2,0:0:0:0:
192,192,66564,1,8,0:0:0:0:
64,192,66564,1,0,0:0:0:0:
448,192,66648,1,2,0:0:0:0:
320,192,66732,1,0,0:0:0:0:
192,192,66732,1,8,0:0:0:0:
64,192,66816,128,2,66901:0:0:0:0:
192,192,66901,1,8,0:0:0:0:
448,192,66901,1,0,0:0:0:0:
320,192,66985,1,2,0:0:0:0:
192,192,67069,1,8,0:0:0:0:
64,192,67069,1,0,0:0:0:0:
448,192,67153,128,2,67238:0:0:0:0:
320,192,67238,1,8,0:0:0:0:
64,192,67238,1,0,0:0:0:0:
192,192,67322,1,2,0:0:0:0:
448,192,67406,1,0,0:0:0:0:
320,192,67406,1,8,0:0:0:0:
64,192,67490,128,2,67575:0:0:0:0:
448,192,67575,1,0,0:0:0:0:
192,192,67575,1,8,0:0:0:0:
320,192,67659,1,2,0:0:0:0:
192,192,67743,1,8,0:0:0:0:
64,192,67743,1,0,0:0:0:0:
448,192,67828,128,2,67912:0:0:0:0:
64,192,67912,1,0,0:0:0:0:
320,192,67912,1,8,0:0:0:0:
192,192,67996,1,2,0:0:0:0:
320,192,68080,1,8,0:0:0:0:
448,192,68080,1,0,0:0:0:0:
64,192,68165,128,2,68249:0:0:0:0:
192,192,68249,1,8,0:0:0:0:
448,192,68249,1,0,0:0:0:0:
320,192,68333,1,2,0:0:0:0:
64,192,68417,1,0,0:0:0:0:
192,192,68417,1,8,0:0:0:0:
448,192,68502,128,2,68586:0:0:0:0:
320,192,68586,1,8,0:0:0:0:
64,192,68586,1,0,0:0:0:0:
192,192,68670,1,2,0:0:0:0:
448,192,68755,1,0,0:0:0:0:
320,192,68755,1,8,0:0:0:0:
64,192,68839,128,2,68923:0:0:0:0:
448,192,68923,1,0,0:0:0:0:
192,192,68923,1,8,0:0:0:0:
320,192,69007,1,2,0:0:0:0:
192,192,69092,1,8,0:0:0:0:
64,192,69092,1,0,0:0:0:0:
448,192,69176,128,2,69260:0:0:0:0:
64,192,69260,1,0,0:0:0:0:
320,192,69260,1,8,0:0:0:0:
192,192,69344,1,2,0:0:0:0:
320,192,69429,1,8,0:0:0:0:
448,192,69429,1,0,0:0:0:0:
64,192,69513,1,2,0:0:0:0:
320,192,69597,1,0,0:0:0:0:
192,192,69597,1,8,0:0:0:0:
448,192,69682,1,2,0:0:0:0:
64,192,69766,1,0,0:0:0:0:
320,192,69766,1,8,0:0:0:0:
192,192,69850,1,2,0:0:0:0:
448,192,69934,1,0,0:0:0:0:
64,192,69934,1,8,0:0:0:0:
320,192,70019,1,2,0:0:0:0:
192,192,70103,1,8,0:0:0:0:
64,192,70103,1,0,0:0:0:0:
448,192,70187,1,2,0:0:0:0:
320,192,70271,1,8,0:0:0:0:
192,192,70271,1,0,0:0:0:0:
64,192,70356,1,2,0:0:0:0:
192,192,70440,1,0,0:0:0:0:
320,192,70440,1,8,0:0:0:0:
448,192,70524,1,2,0:0:0:0:
64,192,70608,1,0,0:0:0:0:
320,192,70608,1,8,0:0:0:0:
192,192,70693,1,2,0:0:0:0:
64,192,70777,1,8,0:0:0:0:
448,192,70777,1,0,0:0:0:0:
320,192,70861,1,2,0:0:0:0:
192,192,70946,1,8,0:0:0:0:
64,192,70946,1,0,0:0:0:0:
320,192,71030,1,2,0:0:0:0:
448,192,71114,1,0,0:0:0:0:
192,192,71114,1,8,0:0:0:0:
64,192,71198,1,2,0:0:0:0:
192,192,71283,1,8,0:0:0:0:
320,192,71283,1,0,0:0:0:0:
448,192,71367,1,2,0:0:0:0:
64,192,71451,1,0,0:0:0:0:
192,192,71451,1,8,0:0:0:0:
320,192,71535,1,2,0:0:0:0:
448,192,71620,1,0,0:0:0:0:
192,192,71620,1,8,0:0:0:0:
64,192,71704,1,2,0:0:0:0:
192,192,71788,1,8,0:0:0:0:
320,192,71788,1,0,0:0:0:0:
448,192,71873,1,2,0:0:0:0:
64,192,71957,1,0,0:0:0:0:
320,192,71957,1,8,0:0:0:0:
192,192,72041,1,2,0:0:0:0:
64,192,72125,1,8,0:0:0:0:
448,192,72125,1,0,0:0:0:0:
320,192,72210,128,2,72294:0:0:0:0:
448,192,72294,1,8,0:0:0:0:
192,192,72294,1,0,0:0:0:0:
64,192,72378,1,2,0:0:0:0:
448,192,72462,1,0,0:0:0:0:
320,192,72462,1,8,0:0:0:0:
192,192,72547,128,2,72631:0:0:0:0:
64,192,72631,1,8,0:0:0:0:
448,192,72631,1,0,0:0:0:0:
320,192,72715,1,2,0:0:0:0:
64,192,72799,1,0,0:0:0:0:
192,192,72799,1,8,0:0:0:0:
320,192,72884,128,2,72968:0:0:0:0:
64,192,72968,1,0,0:0:0:0:
448,192,72968,1,8,0:0:0:0:
192,192,73052,1,2,0:0:0:0:
320,192,73137,1,8,0:0:0:0:
448,192,73137,1,0,0:0:0:0:
192,192,73221,128,2,73305:0:0:0:0:
448,192,73305,1,0,0:0:0:0:
64,192,73305,1,8,0:0:0:0:
320,192,73389,1,2,0:0:0:0:
64,192,73474,1,0,0:0:0:0:
448,192,73474,1,8,0:0:0:0:
320,192,73558,1,2,0:0:0:0:
64,192,73642,1,0,0:0:0:0:
192,192,73642,1,8,0:0:0:0:
320,192,73726,1,8,0:0:0:0:
448,192,73726,1,0,0:0:0:0:
192,192,73811,1,8,0:0:0:0:
64,192,73811,1,0,0:0:0:0:
320,192,73895,1,8,0:0:0:0:
448,192,73895,1,0,0:0:0:0:
192,192,73979,1,8,0:0:0:0:
64,192,73979,1,0,0:0:0:0:
448,192,74064,1,2,0:0:0:0:
192,192,74148,1,0,0:0:0:0:
320,192,74148,1,8,0:0:0:0:
64,192,74232,1,0,0:0:0:0:
448,192,74232,1,8,0:0:0:0:
320,192,74316,1,8,0:0:0:0:
192,192,74316,1,0,0:0:0:0:
64,192,74401,1,0,0:0:0:40:tomdeep.wav
320,192,74485,1,8,0:0:0:0:
448,192,74485,1,0,0:0:0:0:
64,192,74569,1,2,0:0:0:0:
192,192,74653,1,0,0:0:0:0:
320,192,74653,1,8,0:0:0:0:
448,192,74738,1,8,0:0:0:0:
64,192,74738,1,0,0:0:0:0:
192,192,74822,1,0,0:0:0:0:
320,192,74822,1,8,0:0:0:0:
64,192,74906,1,2,0:0:0:0:
192,192,74990,1,0,0:0:0:0:
320,192,74990,1,8,0:0:0:0:
448,192,75075,1,2,0:0:0:0:
192,192,75159,1,8,0:0:0:0:
64,192,75159,1,0,0:0:0:0:
448,192,75243,1,2,0:0:0:0:
320,192,75328,1,8,0:0:0:0:
192,192,75328,1,0,0:0:0:0:
64,192,75412,1,2,0:0:0:0:
192,192,75496,1,8,0:0:0:0:
448,192,75496,1,0,0:0:0:0:
320,192,75580,1,2,0:0:0:0:
192,192,75665,1,8,0:0:0:0:
64,192,75665,1,0,0:0:0:0:
448,192,75749,1,2,0:0:0:0:
64,192,75833,1,0,0:0:0:0:
320,192,75833,1,8,0:0:0:0:
192,192,75917,1,2,0:0:0:0:
64,192,76002,1,8,0:0:0:0:
448,192,76002,1,0,0:0:0:0:
192,192,76086,1,2,0:0:0:0:
320,192,76170,1,8,0:0:0:0:
448,192,76170,1,0,0:0:0:0:
64,192,76255,1,2,0:0:0:0:
192,192,76339,1,8,0:0:0:0:
448,192,76339,1,0,0:0:0:0:
320,192,76423,1,2,0:0:0:0:
448,192,76507,1,8,0:0:0:0:
64,192,76507,1,0,0:0:0:0:
320,192,76592,1,2,0:0:0:0:
192,192,76676,1,8,0:0:0:0:
64,192,76676,1,0,0:0:0:0:
448,192,76760,1,2,0:0:0:0:
320,192,76844,1,8,0:0:0:0:
192,192,76844,1,0,0:0:0:0:
64,192,76929,1,2,0:0:0:0:
192,192,77013,1,8,0:0:0:0:
448,192,77013,1,0,0:0:0:0:
320,192,77097,1,2,0:0:0:0:
192,192,77182,1,8,0:0:0:0:
64,192,77182,1,0,0:0:0:0:
448,192,77266,1,2,0:0:0:0:
320,192,77350,1,8,0:0:0:0:
192,192,77350,1,0,0:0:0:0:
64,192,77434,1,2,0:0:0:0:
448,192,77519,1,0,0:0:0:0:
320,192,77519,1,8,0:0:0:0:
64,192,77603,128,2,77687:0:0:0:0:
448,192,77687,1,0,0:0:0:0:
192,192,77687,1,8,0:0:0:0:
320,192,77771,1,2,0:0:0:0:
192,192,77856,1,8,0:0:0:0:
64,192,77856,1,0,0:0:0:0:
320,192,77940,128,2,78024:0:0:0:0:
64,192,78024,1,0,0:0:0:0:
448,192,78024,1,8,0:0:0:0:
192,192,78108,1,2,0:0:0:0:
320,192,78193,1,8,0:0:0:0:
448,192,78193,1,0,0:0:0:0:
64,192,78277,128,2,78361:0:0:0:0:
192,192,78361,1,8,0:0:0:0:
448,192,78361,1,0,0:0:0:0:
320,192,78446,1,2,0:0:0:0:
64,192,78530,1,0,0:0:0:0:
192,192,78530,1,8,0:0:0:0:
320,192,78614,128,2,78698:0:0:0:0:
448,192,78698,1,8,0:0:0:0:
64,192,78698,1,0,0:0:0:0:
192,192,78783,1,2,0:0:0:0:
448,192,78867,1,0,0:0:0:0:
320,192,78867,1,8,0:0:0:0:
64,192,78951,128,2,79035:0:0:0:0:
320,192,79035,1,8,0:0:0:0:
448,192,79035,1,0,0:0:0:0:
192,192,79120,1,2,0:0:0:0:
320,192,79204,1,8,0:0:0:0:
448,192,79204,1,0,0:0:0:0:
64,192,79288,1,0,0:0:0:0:
192,192,79288,1,8,0:0:0:0:
448,192,79344,1,8,0:0:0:0:
320,192,79401,1,8,0:0:0:0:
192,192,79401,1,0,0:0:0:0:
64,192,79457,1,8,0:0:0:0:
448,192,79513,1,0,0:0:0:0:
320,192,79513,1,8,0:0:0:0:
192,192,79569,1,8,0:0:0:0:
448,192,79625,1,0,0:0:0:0:
64,192,79625,1,8,0:0:0:0:
320,192,79710,1,8,0:0:0:0:
64,192,79794,1,0,0:0:0:0:
192,192,79794,1,0,0:0:0:40:tomdeep.wav
448,192,79878,1,0,0:0:0:0:
320,192,79878,1,0,0:0:0:40:tomdeep.wav
192,192,79962,1,0,0:0:0:40:tomdeep.wav
64,192,79962,1,0,0:0:0:0:
448,192,80047,1,0,0:0:0:0:
320,192,80047,1,0,0:0:0:40:tomdeep.wav
192,192,80131,1,0,0:0:0:40:tomdeep.wav
64,192,80131,1,0,0:0:0:0:
320,192,80215,1,0,0:0:0:40:tomdeep.wav
64,192,80299,1,6,0:0:0:0:
192,192,80299,1,0,0:0:0:40:tomdeep.wav
448,192,80299,1,0,0:0:0:0:
320,192,80384,1,8,0:0:0:0:
448,192,80468,1,2,0:0:0:0:
192,192,80552,1,8,0:0:0:0:
64,192,80552,1,0,0:0:0:0:
448,192,80637,1,2,0:0:0:0:
320,192,80721,1,8,0:0:0:0:
64,192,80721,1,0,0:0:0:0:
192,192,80805,1,2,0:0:0:0:
64,192,80889,1,8,0:0:0:0:
448,192,80889,1,0,0:0:0:0:
320,192,80974,1,2,0:0:0:0:
192,192,81058,1,8,0:0:0:0:
64,192,81058,1,0,0:0:0:0:
320,192,81142,1,2,0:0:0:0:
448,192,81226,1,0,0:0:0:0:
192,192,81226,1,8,0:0:0:0:
64,192,81311,1,2,0:0:0:0:
192,192,81395,1,0,0:0:0:0:
320,192,81395,1,8,0:0:0:0:
448,192,81479,1,2,0:0:0:0:
64,192,81564,1,0,0:0:0:0:
192,192,81564,1,8,0:0:0:0:
320,192,81648,1,2,0:0:0:0:
448,192,81732,1,0,0:0:0:0:
192,192,81732,1,8,0:0:0:0:
64,192,81816,1,2,0:0:0:0:
192,192,81901,1,8,0:0:0:0:
320,192,81901,1,0,0:0:0:0:
448,192,81985,1,2,0:0:0:0:
64,192,82069,1,0,0:0:0:0:
320,192,82069,1,8,0:0:0:0:
192,192,82153,1,2,0:0:0:0:
320,192,82238,1,8,0:0:0:0:
448,192,82238,1,0,0:0:0:0:
192,192,82322,1,2,0:0:0:0:
64,192,82406,1,8,0:0:0:0:
448,192,82406,1,0,0:0:0:0:
320,192,82490,1,2,0:0:0:0:
192,192,82575,1,8,0:0:0:0:
64,192,82575,1,0,0:0:0:0:
448,192,82659,1,2,0:0:0:0:
320,192,82743,1,8,0:0:0:0:
192,192,82743,1,0,0:0:0:0:
64,192,82828,1,2,0:0:0:0:
192,192,82912,1,8,0:0:0:0:
448,192,82912,1,0,0:0:0:0:
320,192,82996,128,2,83333:0:0:0:0:
64,192,82996,1,0,0:0:0:0:
192,192,83333,1,0,0:0:0:40:boom.wav
64,192,83333,1,0,0:0:0:0:
448,192,83502,1,0,0:0:0:40:boom.wav
192,192,83502,1,0,0:0:0:0:
320,192,83670,128,0,84007:0:0:0:40:boom.wav
64,192,83670,1,0,0:0:0:0:
192,192,84007,128,2,84344:0:0:0:0:
448,192,84007,1,0,0:0:0:0:
448,192,84344,1,0,0:0:0:0:
320,192,84344,1,10,0:0:0:0:
64,192,84429,1,0,0:0:0:40:tomdeep.wav
320,192,84513,1,0,0:0:0:40:tomdeep.wav
192,192,84597,1,0,0:0:0:40:tomdeep.wav
448,192,84682,128,0,85019:0:0:0:0:
64,192,84682,1,0,0:0:0:40:tomdeep.wav
320,192,84766,1,0,0:0:0:40:tomdeep.wav
192,192,84850,1,0,0:0:0:40:tomdeep.wav
64,192,84850,1,8,0:0:0:0:
320,192,84934,1,0,0:0:0:40:tomdeep.wav
64,192,85019,1,8,0:0:0:0:
192,192,85019,1,0,0:0:0:40:tomdeep.wav
320,192,85103,1,0,0:0:0:40:tomdeep.wav
448,192,85187,1,0,0:0:0:40:tomdeep.wav
192,192,85271,1,0,0:0:0:40:tomdeep.wav
64,192,85356,128,0,85693:0:0:0:0:
320,192,85356,1,0,0:0:0:40:tomdeep.wav
448,192,85440,1,0,0:0:0:40:tomdeep.wav
192,192,85524,1,0,0:0:0:40:tomdeep.wav
320,192,85608,1,0,0:0:0:40:tomdeep.wav
448,192,85693,1,0,0:0:0:40:tomdeep.wav
192,192,85693,1,0,0:0:0:40:tomdeep.wav
320,192,85777,1,2,0:0:0:0:
64,192,85861,1,2,0:0:0:0:
320,192,85946,1,2,0:0:0:0:
64,192,86030,1,2,0:0:0:0:
448,192,86114,1,2,0:0:0:0:
192,192,86198,1,2,0:0:0:0:
448,192,86283,1,2,0:0:0:0:
192,192,86367,1,8,0:0:0:0:
64,192,86367,1,0,0:0:0:0:
448,192,86451,1,2,0:0:0:0:
320,192,86535,1,2,0:0:0:0:
64,192,86620,1,2,0:0:0:0:
448,192,86704,1,2,0:0:0:0:
320,192,86788,1,2,0:0:0:0:
448,192,86873,1,2,0:0:0:0:
192,192,86957,1,2,0:0:0:0:
64,192,87041,1,2,0:0:0:0:
192,192,87125,1,2,0:0:0:0:
64,192,87210,1,2,0:0:0:0:
192,192,87294,1,2,0:0:0:0:
64,192,87378,1,2,0:0:0:0:
192,192,87462,1,2,0:0:0:0:
64,192,87547,1,2,0:0:0:0:
192,192,87631,1,2,0:0:0:0:
320,192,87715,1,8,0:0:0:0:
448,192,87715,1,0,0:0:0:0:
192,192,87799,1,2,0:0:0:0:
64,192,87884,1,2,0:0:0:0:
192,192,87968,1,2,0:0:0:0:
320,192,88052,1,8,0:0:0:0:
448,192,88052,1,0,0:0:0:0:
192,192,88137,1,8,0:0:0:0:
64,192,88137,1,0,0:0:0:0:
320,192,88221,1,0,0:0:0:40:tomdeep.wav
448,192,88221,1,0,0:0:0:0:
320,192,88305,1,0,0:0:0:40:tomdeep.wav
448,192,88305,1,0,0:0:0:0:
64,192,88389,1,6,0:0:0:0:
192,192,88389,1,0,0:0:0:0:
448,192,88474,1,2,0:0:0:0:
320,192,88558,1,2,0:0:0:0:
64,192,88642,1,2,0:0:0:0:
192,192,88726,1,2,0:0:0:0:
448,192,88811,1,2,0:0:0:0:
64,192,88895,1,2,0:0:0:0:
448,192,88979,1,2,0:0:0:0:
192,192,89064,1,0,0:0:0:0:
320,192,89064,1,8,0:0:0:0:
64,192,89148,1,2,0:0:0:0:
192,192,89232,1,2,0:0:0:0:
448,192,89316,1,2,0:0:0:0:
64,192,89401,1,2,0:0:0:0:
192,192,89485,1,2,0:0:0:0:
64,192,89569,1,2,0:0:0:0:
192,192,89653,1,2,0:0:0:0:
320,192,89738,1,2,0:0:0:0:
448,192,89822,1,2,0:0:0:0:
320,192,89906,1,2,0:0:0:0:
448,192,89990,1,2,0:0:0:0:
320,192,90075,1,2,0:0:0:0:
448,192,90159,1,2,0:0:0:0:
320,192,90243,1,2,0:0:0:0:
448,192,90328,1,2,0:0:0:0:
320,192,90412,1,0,0:0:0:0:
192,192,90412,1,8,0:0:0:0:
448,192,90496,1,0,0:0:0:0:
64,192,90496,1,8,0:0:0:0:
320,192,90580,1,0,0:0:0:0:
192,192,90580,1,0,0:0:0:40:tomdeep.wav
64,192,90665,1,0,0:0:0:40:tomdeep.wav
448,192,90665,1,0,0:0:0:0:
320,192,90749,1,0,0:0:0:0:
192,192,90749,1,0,0:0:0:40:tomdeep.wav
64,192,90833,1,0,0:0:0:40:tomdeep.wav
448,192,90833,1,0,0:0:0:0:
320,192,90917,1,0,0:0:0:0:
192,192,90917,1,0,0:0:0:40:tomdeep.wav
64,192,91002,1,0,0:0:0:40:tomdeep.wav
320,192,91086,1,0,0:0:0:0:
192,192,91086,128,6,91423:0:0:0:0:
448,192,91086,1,0,0:0:0:0:
64,192,91170,1,2,0:0:0:0:
448,192,91255,1,2,0:0:0:0:
320,192,91339,1,2,0:0:0:0:
64,192,91423,1,2,0:0:0:0:
448,192,91507,1,2,0:0:0:0:
320,192,91592,1,2,0:0:0:0:
64,192,91676,1,2,0:0:0:0:
192,192,91760,1,2,0:0:0:0:
448,192,91760,1,8,0:0:0:0:
320,192,91844,1,2,0:0:0:0:
448,192,91929,1,2,0:0:0:0:
64,192,92013,1,2,0:0:0:0:
192,192,92097,1,2,0:0:0:0:
448,192,92182,1,2,0:0:0:0:
320,192,92266,1,2,0:0:0:0:
192,192,92350,1,2,0:0:0:0:
64,192,92434,1,2,0:0:0:0:
448,192,92519,1,2,0:0:0:0:
64,192,92603,1,2,0:0:0:0:
448,192,92687,1,2,0:0:0:0:
64,192,92771,1,2,0:0:0:0:
448,192,92856,1,2,0:0:0:0:
64,192,92940,1,2,0:0:0:0:
448,192,93024,1,2,0:0:0:0:
64,192,93108,1,2,0:0:0:0:
192,192,93108,1,8,0:0:0:0:
448,192,93193,1,2,0:0:0:0:
64,192,93277,1,2,0:0:0:0:
448,192,93361,1,2,0:0:0:0:
64,192,93446,1,2,0:0:0:0:
192,192,93446,1,8,0:0:0:0:
448,192,93530,1,2,0:0:0:0:
320,192,93530,1,8,0:0:0:0:
64,192,93614,1,2,0:0:0:0:
448,192,93698,1,2,0:0:0:0:
192,192,93783,1,2,0:0:0:0:
320,192,93867,1,2,0:0:0:0:
192,192,93951,1,2,0:0:0:0:
320,192,94035,1,2,0:0:0:0:
192,192,94120,1,2,0:0:0:0:
320,192,94204,1,2,0:0:0:0:
192,192,94288,1,2,0:0:0:0:
320,192,94373,1,2,0:0:0:0:
192,192,94457,1,2,0:0:0:0:
320,192,94541,1,2,0:0:0:0:
192,192,94625,1,2,0:0:0:0:
320,192,94710,1,2,0:0:0:0:
192,192,94794,1,2,0:0:0:0:
320,192,94878,1,2,0:0:0:0:
192,192,94962,1,2,0:0:0:0:
320,192,95047,1,2,0:0:0:0:
64,192,95131,1,2,0:0:0:0:
192,192,95131,1,8,0:0:0:0:
448,192,95215,1,2,0:0:0:0:
64,192,95299,1,2,0:0:0:0:
192,192,95384,1,0,0:0:0:40:tomdeep.wav
320,192,95468,1,0,0:0:0:40:tomdeep.wav
320,192,95552,1,0,0:0:0:40:tomdeep.wav
192,192,95637,1,0,0:0:0:40:tomdeep.wav
192,192,95721,1,0,0:0:0:40:tomdeep.wav
64,192,95805,1,0,0:0:0:40:tomdeep.wav
64,192,95889,1,0,0:0:0:40:tomdeep.wav
448,192,95974,1,0,0:0:0:40:tomdeep.wav
448,192,96058,1,0,0:0:0:40:tomdeep.wav
320,192,96142,1,0,0:0:0:40:tomdeep.wav
320,192,96226,1,0,0:0:0:40:tomdeep.wav
192,192,96311,1,0,0:0:0:40:tomdeep.wav
192,192,96395,1,0,0:0:0:40:tomdeep.wav
64,192,96479,1,0,0:0:0:0:
320,192,96479,1,6,0:0:0:0:
448,192,96479,1,0,0:0:0:0:
192,192,96816,1,2,0:0:0:0:
320,192,96816,1,0,0:0:0:0:
448,192,96816,1,0,0:0:0:0:
448,192,96901,1,2,0:0:0:0:
64,192,96985,1,0,0:0:0:0:
192,192,96985,1,0,0:0:0:0:
320,192,96985,1,2,0:0:0:0:
192,192,97069,1,2,0:0:0:0:
448,192,97153,1,0,0:0:0:0:
320,192,97153,1,0,0:0:0:50:boom.wav
64,192,97153,1,0,0:0:0:0:
192,192,97490,1,0,0:0:0:0:
320,192,97490,1,2,0:0:0:0:
64,192,97490,1,0,0:0:0:0:
448,192,97575,1,2,0:0:0:0:
320,192,97659,1,2,0:0:0:0:
64,192,97659,1,0,0:0:0:0:
192,192,97659,1,0,0:0:0:0:
448,192,97743,1,2,0:0:0:0:
320,192,97828,1,0,0:0:0:50:boom.wav
64,192,97828,1,0,0:0:0:0:
448,192,97828,128,0,98080:0:0:0:0:
320,192,98165,128,0,98417:0:0:0:0:
192,192,98165,1,2,0:0:0:0:
448,192,98249,1,2,0:0:0:0:
64,192,98333,1,2,0:0:0:0:
448,192,98417,1,2,0:0:0:0:
192,192,98502,128,2,98755:0:0:0:0:
320,192,98502,1,0,0:0:0:0:
448,192,98586,1,2,0:0:0:0:
64,192,98670,1,2,0:0:0:0:
320,192,98755,1,0,0:0:0:0:
64,192,98839,128,2,99092:0:0:0:0:
448,192,98839,1,2,0:0:0:0:
320,192,98923,1,2,0:0:0:0:
192,192,99007,1,2,0:0:0:0:
448,192,99092,1,2,0:0:0:0:
192,192,99176,1,0,0:0:0:0:
320,192,99176,1,6,0:0:0:0:
448,192,99176,1,0,0:0:0:0:
64,192,99513,5,0,0:0:0:0:
192,192,99513,1,0,0:0:0:0:
320,192,99513,1,2,0:0:0:0:
64,192,99597,1,2,0:0:0:0:
192,192,99682,1,0,0:0:0:0:
320,192,99682,1,2,0:0:0:0:
448,192,99682,1,0,0:0:0:0:
320,192,99766,1,2,0:0:0:0:
64,192,99850,5,0,0:0:0:0:
192,192,99850,1,0,0:0:0:50:boom.wav
448,192,99850,1,0,0:0:0:0:
192,192,100187,5,0,0:0:0:0:
320,192,100187,1,2,0:0:0:0:
448,192,100187,1,0,0:0:0:0:
64,192,100271,1,2,0:0:0:0:
448,192,100356,1,0,0:0:0:0:
192,192,100356,1,0,0:0:0:0:
320,192,100356,1,2,0:0:0:0:
64,192,100440,1,2,0:0:0:0:
448,192,100524,1,2,0:0:0:0:
192,192,100524,1,0,0:0:0:50:boom.wav
64,192,100524,128,0,100777:0:0:0:0:
320,192,100608,1,2,0:0:0:0:
192,192,100693,1,2,0:0:0:0:
448,192,100777,1,2,0:0:0:0:
192,192,100861,1,0,0:0:0:0:
320,192,100861,128,2,101114:0:0:0:0:
64,192,100946,1,2,0:0:0:0:
192,192,101030,1,2,0:0:0:0:
448,192,101114,1,2,0:0:0:0:
192,192,101198,128,2,101873:0:0:0:0:
64,192,101198,1,0,0:0:0:0:
320,192,101283,1,2,0:0:0:0:
448,192,101367,1,2,0:0:0:0:
320,192,101451,1,2,0:0:0:0:
64,192,101535,1,2,0:0:0:0:
320,192,101620,128,0,101873:0:0:0:0:
448,192,101704,1,2,0:0:0:0:
64,192,101788,1,2,0:0:0:0:
448,192,101873,1,6,0:0:0:0:
64,192,101873,1,0,0:0:0:0:
64,192,102210,1,2,0:0:0:0:
192,192,102210,1,0,0:0:0:0:
448,192,102210,1,0,0:0:0:0:
192,192,102294,1,2,0:0:0:0:
448,192,102378,1,0,0:0:0:0:
320,192,102378,1,0,0:0:0:0:
64,192,102378,1,2,0:0:0:0:
64,192,102462,1,2,0:0:0:0:
448,192,102547,1,0,0:0:0:0:
320,192,102547,1,0,0:0:0:0:
192,192,102547,1,0,0:0:0:50:boom.wav
64,192,102884,1,2,0:0:0:0:
192,192,102884,1,0,0:0:0:0:
448,192,102884,1,0,0:0:0:0:
320,192,102968,1,2,0:0:0:0:
64,192,103052,1,2,0:0:0:0:
192,192,103052,1,0,0:0:0:0:
448,192,103052,1,0,0:0:0:0:
320,192,103137,1,2,0:0:0:0:
448,192,103221,1,0,0:0:0:0:
192,192,103221,1,0,0:0:0:50:boom.wav
320,192,103221,128,0,103474:0:0:0:0:
64,192,103305,1,2,0:0:0:0:
192,192,103389,1,2,0:0:0:0:
448,192,103474,1,2,0:0:0:0:
192,192,103558,128,2,103811:0:0:0:0:
64,192,103558,1,0,0:0:0:0:
320,192,103642,1,2,0:0:0:0:
448,192,103726,1,2,0:0:0:0:
64,192,103811,1,2,0:0:0:0:
320,192,103895,1,2,0:0:0:0:
448,192,103895,128,2,104148:0:0:0:0:
192,192,103979,1,2,0:0:0:0:
64,192,104064,1,2,0:0:0:0:
320,192,104148,1,2,0:0:0:0:
64,192,104232,128,2,104485:0:0:0:0:
192,192,104232,1,0,0:0:0:0:
448,192,104316,1,2,0:0:0:0:
320,192,104401,1,2,0:0:0:0:
192,192,104485,1,2,0:0:0:0:
448,192,104569,128,2,104653:0:0:0:0:
320,192,104653,128,2,104738:0:0:0:0:
192,192,104738,128,2,104822:0:0:0:0:
64,192,104822,128,2,104906:0:0:0:0:
448,192,104906,128,2,105243:0:0:0:0:
320,192,104906,128,0,105075:0:0:0:0:
192,192,104990,1,0,0:0:0:0:
64,192,105075,1,0,0:0:0:0:
320,192,105159,1,0,0:0:0:0:
64,192,105243,128,2,105328:0:0:0:0:
192,192,105328,128,2,105412:0:0:0:0:
320,192,105412,128,2,105496:0:0:0:0:
448,192,105496,128,2,105580:0:0:0:0:
64,192,105580,128,2,105917:0:0:0:0:
192,192,105580,128,0,105749:0:0:0:0:
320,192,105665,1,0,0:0:0:0:
448,192,105749,1,0,0:0:0:0:
192,192,105833,1,0,0:0:0:0:
320,192,105917,128,8,106002:0:0:0:0:
448,192,105917,1,0,0:0:0:0:
192,192,106002,128,2,106086:0:0:0:0:
64,192,106002,1,0,0:0:0:0:
320,192,106086,128,2,106170:0:0:0:0:
448,192,106086,1,0,0:0:0:0:
192,192,106170,128,2,106255:0:0:0:0:
64,192,106170,1,0,0:0:0:0:
320,192,106255,128,2,106592:0:0:0:0:
448,192,106255,128,0,106423:0:0:0:0:
64,192,106339,1,0,0:0:0:0:
192,192,106423,1,0,0:0:0:0:
448,192,106507,1,0,0:0:0:0:
64,192,106592,128,8,106676:0:0:0:0:
192,192,106592,1,0,0:0:0:0:
448,192,106676,128,2,106760:0:0:0:0:
64,192,106760,128,2,106844:0:0:0:0:
448,192,106844,128,2,106929:0:0:0:0:
64,192,106929,128,2,107266:0:0:0:0:
192,192,106929,128,0,107097:0:0:0:0:
320,192,107013,1,0,0:0:0:0:
448,192,107097,1,0,0:0:0:0:
192,192,107182,1,0,0:0:0:0:
448,192,107266,128,6,108277:0:0:0:0:
320,192,107266,1,0,0:0:0:0:
320,192,107603,128,0,107940:0:0:0:0:
64,192,107940,128,0,108277:0:0:0:0:
192,192,108277,128,0,108614:0:0:0:0:
320,192,108277,1,8,0:0:0:0:
448,192,108614,1,8,0:0:0:0:
64,192,108614,1,0,0:0:0:0:
192,192,108698,1,0,0:0:0:0:
320,192,108698,1,8,0:0:0:0:
448,192,108783,1,0,0:0:0:40:tomdeep.wav
64,192,108867,1,0,0:0:0:40:tomdeep.wav
320,192,108951,1,0,0:0:0:40:tomdeep.wav
192,192,109035,1,0,0:0:0:40:tomdeep.wav
64,192,109120,1,0,0:0:0:40:tomdeep.wav
448,192,109120,1,0,0:0:0:35:ting.wav
320,192,109204,1,0,0:0:0:40:tomdeep.wav
192,192,109288,1,0,0:0:0:40:tomdeep.wav
64,192,109373,1,0,0:0:0:40:tomdeep.wav
448,192,109457,1,0,0:0:0:40:tomdeep.wav
320,192,109541,1,0,0:0:0:40:tomdeep.wav
64,192,109625,1,0,0:0:0:40:tomdeep.wav
192,192,109710,1,0,0:0:0:40:tomdeep.wav
448,192,109794,1,0,0:0:0:40:tomdeep.wav
320,192,109878,1,0,0:0:0:40:tomdeep.wav
192,192,109962,1,6,0:0:0:0:
64,192,109962,1,0,0:0:0:0:
320,192,110131,1,0,0:0:0:0:
320,192,110215,1,0,0:0:0:0:
64,192,110299,1,2,0:0:0:0:
192,192,110384,1,8,0:0:0:0:
320,192,110384,1,0,0:0:0:0:
448,192,110468,1,2,0:0:0:0:
320,192,110552,1,8,0:0:0:0:
64,192,110552,1,0,0:0:0:0:
192,192,110637,1,2,0:0:0:0:
64,192,110721,1,8,0:0:0:0:
448,192,110721,1,0,0:0:0:0:
320,192,110805,1,2,0:0:0:0:
192,192,110889,1,8,0:0:0:0:
64,192,110889,1,0,0:0:0:0:
448,192,110974,1,2,0:0:0:0:
320,192,111058,1,8,0:0:0:0:
192,192,111058,1,0,0:0:0:0:
64,192,111142,1,2,0:0:0:0:
448,192,111226,1,0,0:0:0:0:
320,192,111226,1,8,0:0:0:0:
192,192,111311,1,2,0:0:0:0:
64,192,111395,1,0,0:0:0:0:
320,192,111395,1,8,0:0:0:0:
448,192,111479,1,2,0:0:0:0:
64,192,111564,1,0,0:0:0:0:
192,192,111564,1,8,0:0:0:0:
320,192,111648,1,2,0:0:0:0:
448,192,111732,1,8,0:0:0:0:
64,192,111732,1,0,0:0:0:0:
192,192,111816,1,2,0:0:0:0:
320,192,111901,1,8,0:0:0:0:
448,192,111901,1,0,0:0:0:0:
64,192,111985,1,2,0:0:0:0:
192,192,112069,1,8,0:0:0:0:
320,192,112069,1,0,0:0:0:0:
448,192,112153,1,2,0:0:0:0:
64,192,112238,1,0,0:0:0:0:
320,192,112238,1,8,0:0:0:0:
192,192,112322,1,2,0:0:0:0:
64,192,112406,1,8,0:0:0:0:
448,192,112406,1,0,0:0:0:0:
320,192,112490,1,2,0:0:0:0:
192,192,112575,1,8,0:0:0:0:
448,192,112575,1,0,0:0:0:0:
64,192,112659,128,2,112743:0:0:0:0:
448,192,112743,1,0,0:0:0:0:
192,192,112743,1,8,0:0:0:0:
320,192,112828,1,2,0:0:0:0:
64,192,112912,1,0,0:0:0:0:
192,192,112912,1,8,0:0:0:0:
448,192,112996,128,2,113080:0:0:0:0:
320,192,113080,1,8,0:0:0:0:
64,192,113080,1,0,0:0:0:0:
192,192,113165,1,2,0:0:0:0:
320,192,113249,1,8,0:0:0:0:
448,192,113249,1,0,0:0:0:0:
64,192,113333,128,2,113417:0:0:0:0:
192,192,113417,1,8,0:0:0:0:
448,192,113417,1,0,0:0:0:0:
320,192,113502,1,2,0:0:0:0:
192,192,113586,1,8,0:0:0:0:
64,192,113586,1,0,0:0:0:0:
448,192,113670,128,2,113755:0:0:0:0:
64,192,113755,1,0,0:0:0:0:
320,192,113755,1,8,0:0:0:0:
192,192,113839,1,2,0:0:0:0:
448,192,113923,1,0,0:0:0:0:
320,192,113923,1,8,0:0:0:0:
64,192,114007,128,2,114092:0:0:0:0:
448,192,114092,1,0,0:0:0:0:
192,192,114092,1,8,0:0:0:0:
320,192,114176,1,2,0:0:0:0:
64,192,114260,1,0,0:0:0:0:
192,192,114260,1,8,0:0:0:0:
448,192,114344,1,8,0:0:0:0:
192,192,114401,1,0,0:0:0:0:
320,192,114401,1,8,0:0:0:0:
64,192,114457,1,8,0:0:0:0:
448,192,114513,1,0,0:0:0:0:
320,192,114513,1,8,0:0:0:0:
192,192,114569,1,8,0:0:0:0:
64,192,114625,1,8,0:0:0:0:
448,192,114625,1,0,0:0:0:0:
320,192,114682,1,8,0:0:0:0:
192,192,114766,1,8,0:0:0:0:
64,192,114766,1,0,0:0:0:0:
448,192,114850,1,0,0:0:0:40:tomdeep.wav
192,192,114934,1,0,0:0:0:0:
320,192,114934,1,0,0:0:0:40:tomdeep.wav
64,192,115019,1,0,0:0:0:0:
448,192,115019,1,0,0:0:0:40:tomdeep.wav
320,192,115103,1,0,0:0:0:40:tomdeep.wav
192,192,115103,1,0,0:0:0:0:
448,192,115187,1,0,0:0:0:40:tomdeep.wav
64,192,115187,1,0,0:0:0:0:
320,192,115271,1,0,0:0:0:40:tomdeep.wav
64,192,115356,1,0,0:0:0:0:
448,192,115356,1,6,0:0:0:0:
192,192,115356,1,0,0:0:0:0:
320,192,115440,1,8,0:0:0:0:
192,192,115524,1,2,0:0:0:0:
448,192,115608,1,0,0:0:0:0:
64,192,115608,1,8,0:0:0:0:
448,192,115693,1,0,0:0:0:45:ting.wav
64,192,115777,1,0,0:0:0:0:
320,192,115777,1,8,0:0:0:0:
448,192,115861,1,2,0:0:0:0:
320,192,115946,1,8,0:0:0:0:
192,192,115946,1,0,0:0:0:0:
192,192,116030,1,2,0:0:0:45:ting.wav
64,192,116114,1,8,0:0:0:0:
448,192,116114,1,0,0:0:0:0:
320,192,116198,1,2,0:0:0:0:
192,192,116283,1,8,0:0:0:0:
64,192,116283,1,0,0:0:0:0:
64,192,116367,1,2,0:0:0:45:ting.wav
448,192,116451,1,8,0:0:0:0:
192,192,116451,1,0,0:0:0:0:
320,192,116535,1,2,0:0:0:0:
192,192,116620,1,8,0:0:0:0:
64,192,116620,1,0,0:0:0:0:
64,192,116704,1,2,0:0:0:45:ting.wav
448,192,116788,1,0,0:0:0:0:
192,192,116788,1,8,0:0:0:0:
320,192,116873,1,2,0:0:0:0:
448,192,116957,1,8,0:0:0:0:
64,192,116957,1,0,0:0:0:0:
448,192,117041,1,2,0:0:0:45:ting.wav
320,192,117125,1,8,0:0:0:0:
192,192,117125,1,0,0:0:0:0:
64,192,117210,1,2,0:0:0:0:
192,192,117294,1,8,0:0:0:0:
448,192,117294,1,0,0:0:0:0:
192,192,117378,1,2,0:0:0:45:ting.wav
320,192,117462,1,8,0:0:0:0:
64,192,117462,1,0,0:0:0:0:
448,192,117547,1,2,0:0:0:0:
320,192,117631,1,8,0:0:0:0:
192,192,117631,1,0,0:0:0:0:
320,192,117715,1,2,0:0:0:45:ting.wav
192,192,117799,1,8,0:0:0:0:
448,192,117799,1,0,0:0:0:0:
64,192,117884,1,2,0:0:0:0:
192,192,117968,1,8,0:0:0:0:
320,192,117968,1,0,0:0:0:0:
64,192,118052,128,2,118137:0:0:0:0:
192,192,118137,1,8,0:0:0:0:
448,192,118137,1,0,0:0:0:0:
320,192,118221,1,2,0:0:0:0:
64,192,118305,1,0,0:0:0:0:
448,192,118305,1,8,0:0:0:0:
448,192,118389,128,0,118474:0:0:0:45:ting.wav
320,192,118474,1,2,0:0:0:0:
64,192,118474,1,0,0:0:0:0:
192,192,118558,1,8,0:0:0:0:
320,192,118642,1,8,0:0:0:0:
64,192,118642,1,0,0:0:0:0:
64,192,118726,128,0,118811:0:0:0:45:ting.wav
448,192,118811,1,0,0:0:0:0:
192,192,118811,1,8,0:0:0:0:
320,192,118895,1,2,0:0:0:0:
64,192,118979,1,0,0:0:0:0:
448,192,118979,1,8,0:0:0:0:
448,192,119064,128,0,119148:0:0:0:45:ting.wav
64,192,119148,1,0,0:0:0:0:
320,192,119148,1,8,0:0:0:0:
192,192,119232,1,2,0:0:0:0:
320,192,119316,1,8,0:0:0:0:
448,192,119316,1,0,0:0:0:0:
64,192,119401,128,2,119485:0:0:0:0:
192,192,119485,1,8,0:0:0:0:
448,192,119485,1,0,0:0:0:0:
320,192,119569,1,2,0:0:0:0:
192,192,119653,1,8,0:0:0:0:
64,192,119653,1,0,0:0:0:0:
448,192,119738,128,2,119822:0:0:0:0:
320,192,119822,1,8,0:0:0:0:
64,192,119822,1,0,0:0:0:0:
192,192,119906,1,2,0:0:0:0:
320,192,119990,1,8,0:0:0:0:
448,192,119990,1,0,0:0:0:0:
64,192,120075,128,2,120159:0:0:0:0:
448,192,120159,1,0,0:0:0:0:
192,192,120159,1,8,0:0:0:0:
320,192,120243,1,2,0:0:0:0:
64,192,120328,1,0,0:0:0:0:
192,192,120328,1,8,0:0:0:0:
448,192,120412,128,2,120496:0:0:0:0:
64,192,120496,1,0,0:0:0:0:
320,192,120496,1,8,0:0:0:0:
192,192,120580,1,2,0:0:0:0:
320,192,120665,1,8,0:0:0:0:
448,192,120665,1,0,0:0:0:0:
64,192,120749,1,2,0:0:0:0:
192,192,120833,1,0,0:0:0:0:
320,192,120833,1,8,0:0:0:0:
448,192,120917,1,2,0:0:0:0:
64,192,121002,1,0,0:0:0:0:
192,192,121002,1,8,0:0:0:0:
320,192,121086,1,2,0:0:0:0:
448,192,121170,1,0,0:0:0:0:
192,192,121170,1,8,0:0:0:0:
64,192,121255,1,2,0:0:0:0:
192,192,121339,1,8,0:0:0:0:
320,192,121339,1,0,0:0:0:0:
448,192,121423,1,2,0:0:0:0:
320,192,121507,1,8,0:0:0:0:
64,192,121507,1,0,0:0:0:0:
192,192,121592,1,2,0:0:0:0:
64,192,121676,1,8,0:0:0:0:
448,192,121676,1,0,0:0:0:0:
320,192,121760,1,2,0:0:0:0:
192,192,121844,1,8,0:0:0:0:
64,192,121844,1,0,0:0:0:0:
320,192,121929,1,2,0:0:0:0:
448,192,122013,1,8,0:0:0:0:
64,192,122013,1,0,0:0:0:0:
192,192,122097,1,2,0:0:0:0:
320,192,122182,1,8,0:0:0:0:
448,192,122182,1,0,0:0:0:0:
64,192,122266,1,2,0:0:0:0:
192,192,122350,1,0,0:0:0:0:
320,192,122350,1,8,0:0:0:0:
448,192,122434,1,2,0:0:0:0:
64,192,122519,1,0,0:0:0:0:
320,192,122519,1,8,0:0:0:0:
192,192,122603,1,2,0:0:0:0:
320,192,122687,1,8,0:0:0:0:
448,192,122687,1,0,0:0:0:0:
192,192,122771,1,2,0:0:0:0:
64,192,122856,1,8,0:0:0:0:
448,192,122856,1,0,0:0:0:0:
320,192,122940,1,2,0:0:0:0:
192,192,123024,1,8,0:0:0:0:
64,192,123024,1,0,0:0:0:0:
448,192,123108,1,2,0:0:0:0:
320,192,123193,1,8,0:0:0:0:
192,192,123193,1,0,0:0:0:0:
64,192,123277,1,2,0:0:0:0:
448,192,123361,1,0,0:0:0:0:
320,192,123361,1,8,0:0:0:0:
64,192,123446,128,2,123530:0:0:0:0:
192,192,123530,1,8,0:0:0:0:
448,192,123530,1,0,0:0:0:0:
320,192,123614,1,2,0:0:0:0:
192,192,123698,1,8,0:0:0:0:
64,192,123698,1,0,0:0:0:0:
448,192,123783,128,2,123867:0:0:0:0:
320,192,123867,1,8,0:0:0:0:
64,192,123867,1,0,0:0:0:0:
192,192,123951,1,2,0:0:0:0:
448,192,124035,1,0,0:0:0:0:
320,192,124035,1,8,0:0:0:0:
64,192,124120,128,2,124204:0:0:0:0:
448,192,124204,1,0,0:0:0:0:
192,192,124204,1,8,0:0:0:0:
320,192,124288,1,2,0:0:0:0:
64,192,124373,1,0,0:0:0:0:
192,192,124373,1,8,0:0:0:0:
448,192,124457,128,2,124541:0:0:0:0:
64,192,124541,1,0,0:0:0:0:
320,192,124541,1,8,0:0:0:0:
192,192,124625,1,2,0:0:0:0:
320,192,124710,1,8,0:0:0:0:
448,192,124710,1,0,0:0:0:0:
64,192,124794,128,2,124878:0:0:0:0:
192,192,124878,1,8,0:0:0:0:
448,192,124878,1,0,0:0:0:0:
320,192,124962,1,2,0:0:0:0:
192,192,125047,1,8,0:0:0:0:
64,192,125047,1,0,0:0:0:0:
320,192,125131,1,8,0:0:0:0:
448,192,125131,1,0,0:0:0:0:
64,192,125187,1,8,0:0:0:0:
192,192,125243,1,0,0:0:0:0:
320,192,125243,1,8,0:0:0:0:
448,192,125299,1,8,0:0:0:0:
64,192,125356,1,0,0:0:0:0:
192,192,125356,1,8,0:0:0:0:
320,192,125412,1,8,0:0:0:0:
448,192,125468,1,8,0:0:0:0:
64,192,125468,1,0,0:0:0:0:
192,192,125552,1,8,0:0:0:0:
320,192,125637,1,0,0:0:0:40:tomdeep.wav
448,192,125637,1,0,0:0:0:0:
192,192,125721,1,0,0:0:0:40:tomdeep.wav
64,192,125721,1,0,0:0:0:0:
320,192,125805,1,0,0:0:0:40:tomdeep.wav
448,192,125805,1,0,0:0:0:0:
192,192,125889,1,0,0:0:0:40:tomdeep.wav
64,192,125889,1,0,0:0:0:0:
320,192,125974,1,0,0:0:0:40:tomdeep.wav
448,192,125974,1,0,0:0:0:0:
192,192,126058,1,0,0:0:0:40:tomdeep.wav
64,192,126058,1,0,0:0:0:0:
320,192,126142,1,6,0:0:0:0:
448,192,126142,1,0,0:0:0:0:
192,192,126226,1,8,0:0:0:0:
64,192,126226,1,0,0:0:0:0:
320,192,126311,1,2,0:0:0:0:
448,192,126395,1,0,0:0:0:0:
192,192,126395,1,8,0:0:0:0:
192,192,126479,1,0,0:0:0:45:ting.wav
320,192,126564,1,8,0:0:0:0:
64,192,126564,1,0,0:0:0:0:
448,192,126648,1,2,0:0:0:0:
64,192,126732,1,0,0:0:0:0:
192,192,126732,1,8,0:0:0:0:
192,192,126816,1,0,0:0:0:45:ting.wav
448,192,126901,1,8,0:0:0:0:
64,192,126901,1,0,0:0:0:0:
192,192,126985,1,2,0:0:0:0:
320,192,127069,1,8,0:0:0:0:
448,192,127069,1,0,0:0:0:0:
448,192,127153,1,0,0:0:0:45:ting.wav
64,192,127238,1,0,0:0:0:0:
192,192,127238,1,8,0:0:0:0:
320,192,127322,1,2,0:0:0:0:
192,192,127406,1,0,0:0:0:0:
448,192,127406,1,8,0:0:0:0:
448,192,127490,1,0,0:0:0:45:ting.wav
320,192,127575,1,8,0:0:0:0:
64,192,127575,1,0,0:0:0:0:
192,192,127659,1,2,0:0:0:0:
64,192,127743,1,0,0:0:0:0:
448,192,127743,1,8,0:0:0:0:
64,192,127828,1,0,0:0:0:45:ting.wav
192,192,127912,1,0,0:0:0:0:
448,192,127912,1,8,0:0:0:0:
64,192,127996,1,2,0:0:0:0:
192,192,128080,1,8,0:0:0:0:
320,192,128080,1,0,0:0:0:0:
320,192,128165,1,0,0:0:0:45:ting.wav
64,192,128249,1,0,0:0:0:0:
192,192,128249,1,8,0:0:0:0:
320,192,128333,1,2,0:0:0:0:
448,192,128417,1,0,0:0:0:0:
192,192,128417,1,8,0:0:0:0:
64,192,128502,1,2,0:0:0:0:
448,192,128586,1,0,0:0:0:0:
320,192,128586,1,8,0:0:0:0:
64,192,128670,1,2,0:0:0:0:
320,192,128755,1,8,0:0:0:0:
448,192,128755,1,0,0:0:0:0:
64,192,128839,128,2,129176:0:0:0:0:
192,192,128839,1,0,0:0:0:0:
192,192,129176,128,2,129513:0:0:0:0:
320,192,129176,1,0,0:0:0:0:
448,192,129513,128,2,129850:0:0:0:0:
320,192,129513,1,0,0:0:0:0:
320,192,129850,128,2,130187:0:0:0:0:
192,192,129850,1,0,0:0:0:0:
64,192,130187,1,2,0:0:0:0:
192,192,130271,1,0,0:0:0:40:tomdeep.wav
448,192,130356,1,0,0:0:0:40:tomdeep.wav
320,192,130440,1,0,0:0:0:40:tomdeep.wav
64,192,130524,1,0,0:0:0:40:tomdeep.wav
192,192,130608,1,0,0:0:0:40:tomdeep.wav
64,192,130693,1,0,0:0:0:40:tomdeep.wav
448,192,130693,1,8,0:0:0:0:
320,192,130777,1,0,0:0:0:40:tomdeep.wav
64,192,130861,1,0,0:0:0:40:tomdeep.wav
448,192,130861,1,8,0:0:0:0:
320,192,130946,1,0,0:0:0:40:tomdeep.wav
192,192,131030,1,0,0:0:0:40:tomdeep.wav
64,192,131114,1,0,0:0:0:40:tomdeep.wav
448,192,131198,1,0,0:0:0:40:tomdeep.wav
320,192,131283,1,0,0:0:0:40:tomdeep.wav
192,192,131367,1,0,0:0:0:40:tomdeep.wav
64,192,131451,1,0,0:0:0:40:tomdeep.wav
320,192,131534,1,0,0:0:0:0:
192,192,131534,1,0,0:0:0:0:
448,192,131534,128,6,131618:0:0:0:0:
64,192,131618,1,2,0:0:0:0:
192,192,131702,1,2,0:0:0:0:
448,192,131786,1,2,0:0:0:0:
320,192,131871,1,10,0:0:0:0:
192,192,131871,1,0,0:0:0:0:
64,192,131871,1,0,0:0:0:0:
448,192,131955,1,2,0:0:0:0:
320,192,132039,1,2,0:0:0:0:
192,192,132123,1,2,0:0:0:0:
320,192,132208,1,10,0:0:0:0:
448,192,132208,1,0,0:0:0:0:
64,192,132208,128,0,132292:0:0:0:0:
192,192,132292,1,2,0:0:0:0:
320,192,132376,128,2,132460:0:0:0:0:
448,192,132460,1,2,0:0:0:0:
192,192,132545,128,10,132629:0:0:0:0:
320,192,132545,1,0,0:0:0:0:
64,192,132545,1,0,0:0:0:0:
448,192,132629,1,2,0:0:0:0:
64,192,132713,1,2,0:0:0:0:
320,192,132798,1,2,0:0:0:0:
192,192,132882,1,10,0:0:0:0:
64,192,132882,1,0,0:0:0:0:
448,192,132882,1,0,0:0:0:0:
320,192,132966,1,2,0:0:0:0:
192,192,133050,128,2,133135:0:0:0:0:
64,192,133135,1,2,0:0:0:0:
192,192,133219,1,0,0:0:0:0:
320,192,133219,1,10,0:0:0:0:
448,192,133219,1,0,0:0:0:0:
64,192,133303,1,2,0:0:0:0:
448,192,133387,1,2,0:0:0:0:
320,192,133472,1,2,0:0:0:0:
448,192,133556,128,10,133640:0:0:0:0:
192,192,133556,1,0,0:0:0:0:
64,192,133556,1,0,0:0:0:0:
320,192,133640,1,2,0:0:0:0:
192,192,133725,1,2,0:0:0:0:
64,192,133809,1,2,0:0:0:0:
192,192,133893,1,10,0:0:0:0:
320,192,133893,1,0,0:0:0:0:
448,192,133893,1,0,0:0:0:0:
64,192,133977,1,2,0:0:0:0:
320,192,134062,128,2,134146:0:0:0:0:
192,192,134146,1,2,0:0:0:0:
448,192,134230,128,0,134314:0:0:0:0:
64,192,134230,1,0,0:0:0:0:
320,192,134230,1,10,0:0:0:0:
192,192,134314,1,2,0:0:0:0:
64,192,134399,128,2,134483:0:0:0:0:
448,192,134483,1,2,0:0:0:0:
192,192,134567,128,0,134651:0:0:0:0:
320,192,134567,1,10,0:0:0:0:
64,192,134567,1,0,0:0:0:0:
448,192,134651,1,2,0:0:0:0:
320,192,134736,1,2,0:0:0:0:
64,192,134820,1,2,0:0:0:0:
192,192,134904,1,10,0:0:0:0:
448,192,134904,1,0,0:0:0:0:
320,192,134904,1,0,0:0:0:0:
320,192,135073,1,10,0:0:0:0:
448,192,135073,1,0,0:0:0:0:
64,192,135073,1,0,0:0:0:0:
192,192,135241,1,10,0:0:0:0:
448,192,135241,1,0,0:0:0:0:
64,192,135241,1,0,0:0:0:0:
192,192,135410,1,10,0:0:0:0:
320,192,135410,1,0,0:0:0:0:
64,192,135410,1,0,0:0:0:0:
192,192,135578,1,0,0:0:0:0:
320,192,135578,1,14,0:0:0:0:
64,192,135578,1,0,0:0:0:0:
448,192,135578,128,0,135747:0:0:0:0:
320,192,135747,1,2,0:0:0:0:
192,192,135831,1,2,0:0:0:0:
64,192,135916,1,0,0:0:0:0:
320,192,135916,1,10,0:0:0:0:
448,192,135916,1,0,0:0:0:0:
192,192,136000,1,2,0:0:0:0:
448,192,136084,1,2,0:0:0:0:
320,192,136168,1,2,0:0:0:0:
64,192,136253,1,0,0:0:0:0:
448,192,136253,1,0,0:0:0:0:
192,192,136253,128,10,136337:0:0:0:0:
320,192,136337,1,2,0:0:0:0:
448,192,136421,128,2,136505:0:0:0:0:
64,192,136505,1,2,0:0:0:0:
320,192,136590,128,0,136674:0:0:0:0:
192,192,136590,1,10,0:0:0:0:
448,192,136590,1,0,0:0:0:0:
64,192,136674,1,2,0:0:0:0:
192,192,136758,128,2,136842:0:0:0:0:
320,192,136842,1,2,0:0:0:0:
448,192,136927,1,0,0:0:0:0:
192,192,136927,1,10,0:0:0:0:
64,192,136927,1,0,0:0:0:0:
320,192,137011,1,2,0:0:0:0:
192,192,137095,128,2,137180:0:0:0:0:
64,192,137180,1,2,0:0:0:0:
448,192,137264,1,0,0:0:0:0:
192,192,137264,1,10,0:0:0:0:
320,192,137264,1,0,0:0:0:0:
64,192,137348,1,2,0:0:0:0:
448,192,137432,1,2,0:0:0:0:
320,192,137517,1,2,0:0:0:0:
448,192,137601,1,0,0:0:0:0:
192,192,137601,1,10,0:0:0:0:
64,192,137601,128,0,137685:0:0:0:0:
320,192,137685,1,2,0:0:0:0:
448,192,137769,1,2,0:0:0:0:
64,192,137854,1,2,0:0:0:0:
192,192,137938,1,10,0:0:0:0:
320,192,137938,1,0,0:0:0:0:
448,192,137938,1,0,0:0:0:0:
64,192,138022,1,2,0:0:0:0:
448,192,138107,128,2,138191:0:0:0:0:
320,192,138191,1,2,0:0:0:0:
192,192,138275,1,10,0:0:0:0:
64,192,138275,1,0,0:0:0:0:
448,192,138275,1,0,0:0:0:0:
320,192,138359,1,2,0:0:0:0:
64,192,138444,128,2,138528:0:0:0:0:
320,192,138528,1,2,0:0:0:0:
192,192,138612,128,10,138696:0:0:0:0:
448,192,138612,1,0,0:0:0:0:
64,192,138612,1,0,0:0:0:0:
320,192,138696,1,2,0:0:0:0:
448,192,138781,1,2,0:0:0:0:
64,192,138865,1,2,0:0:0:0:
192,192,138949,128,2,139034:0:0:0:0:
448,192,139034,128,2,139118:0:0:0:0:
192,192,139118,128,2,139202:0:0:0:0:
320,192,139202,128,2,139286:0:0:0:0:
64,192,139286,128,2,139371:0:0:0:0:
448,192,139371,128,2,139455:0:0:0:0:
192,192,139455,128,2,139539:0:0:0:0:
448,192,139539,128,2,139623:0:0:0:0:
320,192,139623,128,6,139792:0:0:0:0:
64,192,139708,1,2,0:0:0:0:
448,192,139792,1,2,0:0:0:0:
64,192,139876,1,2,0:0:0:0:
192,192,139960,1,10,0:0:0:0:
320,192,139960,1,0,0:0:0:0:
448,192,139960,1,0,0:0:0:0:
64,192,140045,1,2,0:0:0:0:
192,192,140129,1,2,0:0:0:0:
320,192,140213,1,2,0:0:0:0:
192,192,140298,1,0,0:0:0:0:
64,192,140298,1,0,0:0:0:0:
448,192,140298,128,10,140382:0:0:0:0:
320,192,140382,1,2,0:0:0:0:
64,192,140466,1,2,0:0:0:0:
192,192,140550,1,2,0:0:0:0:
448,192,140635,1,0,0:0:0:0:
64,192,140635,1,0,0:0:0:0:
320,192,140635,128,10,140719:0:0:0:0:
192,192,140719,1,2,0:0:0:0:
448,192,140803,1,2,0:0:0:0:
64,192,140887,1,2,0:0:0:0:
192,192,140972,1,10,0:0:0:0:
320,192,140972,1,0,0:0:0:0:
448,192,140972,1,0,0:0:0:0:
64,192,141056,1,2,0:0:0:0:
320,192,141140,128,2,141225:0:0:0:0:
192,192,141225,1,2,0:0:0:0:
448,192,141309,1,0,0:0:0:0:
320,192,141309,1,10,0:0:0:0:
64,192,141309,1,0,0:0:0:0:
192,192,141393,1,2,0:0:0:0:
448,192,141477,1,2,0:0:0:0:
320,192,141562,1,2,0:0:0:0:
64,192,141646,1,0,0:0:0:0:
448,192,141646,128,10,141730:0:0:0:0:
192,192,141646,1,0,0:0:0:0:
320,192,141730,1,2,0:0:0:0:
64,192,141814,1,2,0:0:0:0:
192,192,141899,1,2,0:0:0:0:
320,192,141983,1,10,0:0:0:0:
448,192,141983,1,0,0:0:0:0:
64,192,141983,1,0,0:0:0:0:
192,192,142067,1,2,0:0:0:0:
320,192,142151,1,2,0:0:0:0:
448,192,142236,1,2,0:0:0:0:
192,192,142320,1,0,0:0:0:0:
320,192,142320,1,10,0:0:0:0:
64,192,142320,128,0,142404:0:0:0:0:
448,192,142404,1,2,0:0:0:0:
320,192,142489,1,2,0:0:0:0:
64,192,142573,1,2,0:0:0:0:
320,192,142657,1,0,0:0:0:0:
448,192,142657,1,0,0:0:0:0:
192,192,142657,128,10,142741:0:0:0:0:
64,192,142741,1,2,0:0:0:0:
448,192,142826,1,2,0:0:0:0:
192,192,142910,1,2,0:0:0:0:
64,192,142994,1,0,0:0:0:0:
448,192,142994,1,8,0:0:0:0:
192,192,143078,1,0,0:0:0:0:
320,192,143078,1,8,0:0:0:0:
64,192,143163,1,0,0:0:0:0:
448,192,143163,1,0,0:0:0:40:tomdeep.wav
192,192,143247,1,0,0:0:0:0:
320,192,143247,1,0,0:0:0:40:tomdeep.wav
64,192,143331,1,0,0:0:0:0:
448,192,143331,1,0,0:0:0:40:tomdeep.wav
320,192,143416,1,0,0:0:0:40:tomdeep.wav
192,192,143416,1,0,0:0:0:0:
64,192,143500,1,0,0:0:0:0:
448,192,143500,1,0,0:0:0:40:tomdeep.wav
320,192,143584,1,0,0:0:0:40:tomdeep.wav
192,192,143584,1,0,0:0:0:0:
64,192,143668,128,2,143837:0:0:0:0:
448,192,143668,1,0,0:0:0:0:
320,192,143837,1,0,0:0:0:0:
448,192,143837,1,0,0:0:0:0:
192,192,143837,128,10,144005:0:0:0:0:
320,192,144005,1,0,0:0:0:0:
64,192,144005,1,0,0:0:0:0:
448,192,144005,128,10,144174:0:0:0:0:
64,192,144174,1,0,0:0:0:0:
192,192,144174,1,0,0:0:0:0:
320,192,144174,128,10,144342:0:0:0:0:
448,192,144342,1,0,0:0:0:0:
192,192,144342,1,0,0:0:0:0:
64,192,144342,128,10,144511:0:0:0:0:
320,192,144511,1,0,0:0:0:0:
448,192,144511,1,0,0:0:0:0:
192,192,144511,128,10,144680:0:0:0:0:
448,192,144680,1,0,0:0:0:0:
64,192,144680,1,0,0:0:0:0:
320,192,144680,128,0,144848:0:0:0:0:
192,192,144848,1,0,0:0:0:0:
64,192,144848,1,0,0:0:0:0:
448,192,144848,128,10,145017:0:0:0:0:
320,192,145017,1,0,0:0:0:0:
192,192,145017,128,10,145269:0:0:0:0:
64,192,145017,128,0,145269:0:0:0:0:
320,192,145354,128,10,145607:0:0:0:0:
448,192,145354,128,0,145607:0:0:0:0:
192,192,145354,1,0,0:0:0:0:
64,192,145691,128,10,145859:0:0:0:0:
192,192,145691,1,0,0:0:0:0:
320,192,145691,1,0,0:0:0:0:
320,192,145859,128,10,146028:0:0:0:0:
448,192,145859,1,0,0:0:0:0:
192,192,145859,1,0,0:0:0:0:
192,192,146028,128,10,146196:0:0:0:0:
64,192,146028,1,0,0:0:0:0:
448,192,146028,1,0,0:0:0:0:
448,192,146196,128,10,146365:0:0:0:0:
320,192,146196,1,0,0:0:0:0:
64,192,146196,1,0,0:0:0:0:
64,192,146365,128,0,146449:0:0:0:40:tomdeep.wav
320,192,146449,128,0,146534:0:0:0:40:tomdeep.wav
192,192,146534,128,8,146618:0:0:0:0:
448,192,146618,128,8,146702:0:0:0:0:
320,192,146702,128,0,146786:0:0:0:40:tomdeep.wav
64,192,146786,128,0,146871:0:0:0:40:tomdeep.wav
192,192,146871,128,8,146955:0:0:0:0:
448,192,146955,128,8,147039:0:0:0:0:
320,192,147039,128,6,147208:0:0:0:0:
64,192,147039,1,0,0:0:0:0:
192,192,147376,1,8,0:0:0:0:
192,192,147460,1,8,0:0:0:0:
192,192,147545,1,8,0:0:0:0:
192,192,147629,1,8,0:0:0:0:
320,192,147713,1,6,0:0:0:0:
448,192,147713,1,0,0:0:0:0:
64,192,147713,1,0,0:0:0:0:
192,192,147798,1,8,0:0:0:0:
448,192,147882,1,2,0:0:0:0:
320,192,147966,1,8,0:0:0:0:
192,192,147966,1,0,0:0:0:0:
64,192,148050,1,2,0:0:0:0:
192,192,148135,1,8,0:0:0:0:
448,192,148135,1,0,0:0:0:0:
320,192,148219,1,2,0:0:0:0:
192,192,148303,1,8,0:0:0:0:
64,192,148303,1,0,0:0:0:0:
448,192,148387,1,2,0:0:0:0:
64,192,148472,1,0,0:0:0:0:
192,192,148472,1,8,0:0:0:0:
320,192,148556,1,2,0:0:0:0:
448,192,148640,1,8,0:0:0:0:
64,192,148640,1,0,0:0:0:0:
192,192,148725,1,2,0:0:0:0:
320,192,148809,1,8,0:0:0:0:
64,192,148809,1,0,0:0:0:0:
192,192,148893,1,2,0:0:0:0:
320,192,148977,1,8,0:0:0:0:
448,192,148977,1,0,0:0:0:0:
64,192,149062,1,2,0:0:0:0:
192,192,149146,1,8,0:0:0:0:
320,192,149146,1,0,0:0:0:0:
448,192,149230,1,2,0:0:0:0:
320,192,149314,1,8,0:0:0:0:
64,192,149314,1,0,0:0:0:0:
192,192,149399,1,2,0:0:0:0:
64,192,149483,1,0,0:0:0:0:
448,192,149483,1,8,0:0:0:0:
320,192,149567,1,2,0:0:0:0:
192,192,149651,1,8,0:0:0:0:
64,192,149651,1,0,0:0:0:0:
448,192,149736,1,2,0:0:0:0:
320,192,149820,1,8,0:0:0:0:
192,192,149820,1,0,0:0:0:0:
64,192,149904,1,2,0:0:0:0:
448,192,149989,1,0,0:0:0:0:
320,192,149989,1,8,0:0:0:0:
192,192,150073,1,2,0:0:0:0:
64,192,150157,1,8,0:0:0:0:
448,192,150157,1,0,0:0:0:0:
192,192,150241,1,2,0:0:0:0:
320,192,150326,1,8,0:0:0:0:
448,192,150326,1,0,0:0:0:0:
64,192,150410,1,2,0:0:0:0:
192,192,150494,1,8,0:0:0:0:
320,192,150494,1,0,0:0:0:0:
448,192,150578,1,2,0:0:0:0:
64,192,150663,1,8,0:0:0:0:
192,192,150663,1,0,0:0:0:0:
448,192,150747,128,2,150916:0:0:0:0:
320,192,150831,1,8,0:0:0:0:
192,192,150916,128,2,151084:0:0:0:0:
64,192,151000,1,8,0:0:0:0:
320,192,151084,128,2,151253:0:0:0:0:
448,192,151168,1,8,0:0:0:0:
64,192,151253,128,2,151421:0:0:0:0:
192,192,151337,1,8,0:0:0:0:
448,192,151421,128,2,151590:0:0:0:0:
320,192,151505,1,8,0:0:0:0:
64,192,151590,128,2,151758:0:0:0:0:
192,192,151674,1,10,0:0:0:0:
448,192,151758,1,2,0:0:0:0:
320,192,151842,1,8,0:0:0:0:
192,192,151842,1,0,0:0:0:0:
64,192,151927,1,2,0:0:0:0:
192,192,152011,1,8,0:0:0:0:
448,192,152011,1,0,0:0:0:0:
320,192,152095,1,2,0:0:0:0:
192,192,152180,1,8,0:0:0:0:
64,192,152180,1,0,0:0:0:0:
320,192,152264,1,2,0:0:0:0:
448,192,152348,1,8,0:0:0:0:
64,192,152348,1,0,0:0:0:0:
64,192,152432,1,0,0:0:0:55:ting.wav
320,192,152517,1,8,0:0:0:0:
448,192,152517,1,0,0:0:0:0:
64,192,152601,1,2,0:0:0:0:
192,192,152685,1,8,0:0:0:0:
320,192,152685,1,0,0:0:0:0:
320,192,152769,1,0,0:0:0:55:ting.wav
64,192,152854,1,0,0:0:0:0:
192,192,152854,1,8,0:0:0:0:
320,192,152938,1,2,0:0:0:0:
448,192,153022,1,8,0:0:0:0:
64,192,153022,1,0,0:0:0:0:
320,192,153107,1,2,0:0:0:0:
192,192,153191,1,8,0:0:0:0:
64,192,153191,1,0,0:0:0:0:
448,192,153275,1,2,0:0:0:0:
320,192,153359,1,8,0:0:0:0:
192,192,153359,1,0,0:0:0:0:
192,192,153444,1,0,0:0:0:55:ting.wav
64,192,153528,1,8,0:0:0:0:
448,192,153528,1,0,0:0:0:0:
320,192,153612,1,2,0:0:0:0:
192,192,153696,1,8,0:0:0:0:
64,192,153696,1,0,0:0:0:0:
64,192,153781,1,0,0:0:0:55:ting.wav
320,192,153865,1,0,0:0:0:0:
192,192,153865,1,8,0:0:0:0:
64,192,153949,1,2,0:0:0:0:
448,192,154034,1,0,0:0:0:0:
320,192,154034,1,8,0:0:0:0:
192,192,154118,1,2,0:0:0:0:
64,192,154202,1,0,0:0:0:0:
320,192,154202,1,8,0:0:0:0:
192,192,154286,1,2,0:0:0:0:
64,192,154371,1,8,0:0:0:0:
448,192,154371,1,0,0:0:0:0:
448,192,154455,1,0,0:0:0:55:ting.wav
320,192,154539,1,8,0:0:0:0:
64,192,154539,1,0,0:0:0:0:
192,192,154623,1,2,0:0:0:0:
320,192,154708,1,8,0:0:0:0:
448,192,154708,1,0,0:0:0:0:
64,192,154792,1,2,0:0:0:0:
448,192,154876,1,0,0:0:0:0:
320,192,154876,1,8,0:0:0:0:
192,192,154960,1,8,0:0:0:0:
64,192,154960,1,0,0:0:0:0:
320,192,155045,1,8,0:0:0:0:
448,192,155045,1,0,0:0:0:0:
192,192,155129,1,8,0:0:0:0:
64,192,155129,1,0,0:0:0:0:
448,192,155213,1,0,0:0:0:0:
320,192,155213,1,8,0:0:0:0:
192,192,155298,1,0,0:0:0:40:tomdeep.wav
64,192,155382,1,0,0:0:0:40:tomdeep.wav
320,192,155382,1,0,0:0:0:0:
448,192,155466,1,0,0:0:0:0:
192,192,155466,1,0,0:0:0:40:tomdeep.wav
64,192,155550,1,0,0:0:0:40:tomdeep.wav
320,192,155550,1,0,0:0:0:0:
192,192,155635,1,0,0:0:0:40:tomdeep.wav
448,192,155635,1,0,0:0:0:0:
320,192,155719,1,0,0:0:0:0:
64,192,155719,1,0,0:0:0:40:tomdeep.wav
448,192,155803,1,6,0:0:0:0:
192,192,155803,1,0,0:0:0:0:
64,192,155887,1,8,0:0:0:0:
320,192,155887,1,0,0:0:0:0:
448,192,155972,1,2,0:0:0:0:
192,192,156056,1,8,0:0:0:0:
64,192,156056,1,0,0:0:0:0:
448,192,156140,1,2,0:0:0:0:
320,192,156225,1,8,0:0:0:0:
192,192,156225,1,0,0:0:0:0:
64,192,156309,1,2,0:0:0:0:
192,192,156393,1,8,0:0:0:0:
448,192,156393,1,0,0:0:0:0:
64,192,156477,1,2,0:0:0:0:
192,192,156562,1,8,0:0:0:0:
320,192,156562,1,0,0:0:0:0:
448,192,156646,1,2,0:0:0:0:
320,192,156730,1,8,0:0:0:0:
64,192,156730,1,0,0:0:0:0:
192,192,156814,1,2,0:0:0:0:
64,192,156899,1,8,0:0:0:0:
448,192,156899,1,0,0:0:0:0:
320,192,156983,1,2,0:0:0:0:
192,192,157067,1,8,0:0:0:0:
64,192,157067,1,0,0:0:0:0:
320,192,157151,1,2,0:0:0:0:
448,192,157236,1,0,0:0:0:0:
192,192,157236,1,8,0:0:0:0:
64,192,157320,1,2,0:0:0:0:
320,192,157404,1,8,0:0:0:0:
448,192,157404,1,0,0:0:0:0:
192,192,157489,1,2,0:0:0:0:
64,192,157573,1,0,0:0:0:0:
320,192,157573,1,8,0:0:0:0:
448,192,157657,1,2,0:0:0:0:
320,192,157741,1,8,0:0:0:0:
192,192,157741,1,0,0:0:0:0:
64,192,157826,1,2,0:0:0:0:
448,192,157910,1,0,0:0:0:0:
192,192,157910,1,8,0:0:0:0:
320,192,157994,1,2,0:0:0:0:
192,192,158078,1,8,0:0:0:0:
64,192,158078,1,0,0:0:0:0:
448,192,158163,1,2,0:0:0:0:
320,192,158247,1,8,0:0:0:0:
64,192,158247,1,0,0:0:0:0:
192,192,158331,1,2,0:0:0:0:
64,192,158416,1,8,0:0:0:0:
448,192,158416,1,0,0:0:0:0:
320,192,158500,1,2,0:0:0:0:
192,192,158584,1,8,0:0:0:0:
64,192,158584,1,0,0:0:0:0:
320,192,158668,1,2,0:0:0:0:
448,192,158753,1,0,0:0:0:0:
192,192,158753,1,8,0:0:0:0:
64,192,158837,128,2,159005:0:0:0:0:
320,192,158921,1,8,0:0:0:0:
448,192,159005,128,2,159174:0:0:0:0:
192,192,159090,1,8,0:0:0:0:
320,192,159174,128,2,159342:0:0:0:0:
64,192,159258,1,8,0:0:0:0:
192,192,159342,128,2,159511:0:0:0:0:
448,192,159427,1,8,0:0:0:0:
64,192,159511,128,2,159680:0:0:0:0:
320,192,159595,1,8,0:0:0:0:
448,192,159680,128,2,159848:0:0:0:0:
192,192,159764,1,8,0:0:0:0:
64,192,159848,1,2,0:0:0:0:
192,192,159932,1,8,0:0:0:0:
320,192,159932,1,0,0:0:0:0:
448,192,160017,1,2,0:0:0:0:
64,192,160101,1,0,0:0:0:0:
192,192,160101,1,8,0:0:0:0:
320,192,160185,1,2,0:0:0:0:
448,192,160269,1,8,0:0:0:0:
64,192,160269,1,0,0:0:0:0:
192,192,160354,1,2,0:0:0:0:
320,192,160438,1,8,0:0:0:0:
448,192,160438,1,0,0:0:0:0:
320,192,160522,1,0,0:0:0:50:ting.wav
64,192,160607,1,0,0:0:0:0:
448,192,160607,1,8,0:0:0:0:
192,192,160691,1,2,0:0:0:0:
448,192,160775,1,0,0:0:0:0:
64,192,160775,1,8,0:0:0:0:
448,192,160859,1,0,0:0:0:50:ting.wav
320,192,160944,1,0,0:0:0:0:
192,192,160944,1,8,0:0:0:0:
64,192,161028,1,2,0:0:0:0:
448,192,161112,1,0,0:0:0:0:
192,192,161112,1,8,0:0:0:0:
320,192,161196,1,2,0:0:0:0:
64,192,161281,1,0,0:0:0:0:
192,192,161281,1,8,0:0:0:0:
448,192,161365,1,2,0:0:0:0:
320,192,161449,1,8,0:0:0:0:
64,192,161449,1,0,0:0:0:0:
64,192,161533,1,0,0:0:0:50:ting.wav
320,192,161618,1,8,0:0:0:0:
448,192,161618,1,0,0:0:0:0:
64,192,161702,1,2,0:0:0:0:
192,192,161786,1,8,0:0:0:0:
320,192,161786,1,0,0:0:0:0:
320,192,161871,1,0,0:0:0:50:ting.wav
448,192,161955,1,8,0:0:0:0:
64,192,161955,1,0,0:0:0:0:
192,192,162039,1,2,0:0:0:0:
320,192,162123,1,8,0:0:0:0:
448,192,162123,1,0,0:0:0:0:
64,192,162208,1,2,0:0:0:0:
192,192,162292,1,8,0:0:0:0:
320,192,162292,1,0,0:0:0:0:
448,192,162376,1,2,0:0:0:0:
320,192,162460,1,8,0:0:0:0:
64,192,162460,1,0,0:0:0:0:
320,192,162545,1,0,0:0:0:50:ting.wav
192,192,162629,1,8,0:0:0:0:
64,192,162629,1,0,0:0:0:0:
320,192,162713,1,2,0:0:0:0:
448,192,162798,1,0,0:0:0:0:
192,192,162798,1,8,0:0:0:0:
320,192,162882,1,0,0:0:0:50:ting.wav
64,192,162966,1,8,0:0:0:0:
192,192,162966,1,0,0:0:0:0:
448,192,163050,1,8,0:0:0:0:
320,192,163050,1,0,0:0:0:0:
192,192,163135,1,8,0:0:0:0:
64,192,163135,1,0,0:0:0:0:
320,192,163219,1,8,0:0:0:0:
448,192,163219,1,0,0:0:0:0:
64,192,163303,1,8,0:0:0:0:
192,192,163303,1,0,0:0:0:0:
448,192,163387,1,0,0:0:0:45:tomdeep.wav
192,192,163472,1,8,0:0:0:0:
320,192,163472,1,0,0:0:0:0:
64,192,163556,1,0,0:0:0:45:tomdeep.wav
64,192,163640,1,0,0:0:0:45:tomdeep.wav
320,192,163725,1,0,0:0:0:45:tomdeep.wav
320,192,163809,1,0,0:0:0:45:tomdeep.wav
192,192,163893,5,0,0:0:0:0:
448,192,163893,1,8,0:0:0:0:
64,192,163893,1,2,0:0:0:0:
192,192,164062,1,0,0:0:0:0:
64,192,164062,1,2,0:0:0:0:
192,192,164146,1,0,0:0:0:0:
64,192,164146,1,2,0:0:0:0:
64,192,164230,1,2,0:0:0:0:
192,192,164230,1,0,0:0:0:0:
320,192,164399,1,0,0:0:0:0:
192,192,164399,1,2,0:0:0:0:
448,192,164567,1,2,0:0:0:0:
320,192,164567,1,0,0:0:0:0:
320,192,164736,1,0,0:0:0:0:
448,192,164736,1,2,0:0:0:0:
320,192,164904,1,0,0:0:0:0:
64,192,164904,1,0,0:0:0:45:hardclap.wav
448,192,164904,1,2,0:0:0:0:
192,192,165073,1,2,0:0:0:0:
64,192,165073,1,0,0:0:0:0:
64,192,165157,1,0,0:0:0:0:
192,192,165157,1,2,0:0:0:0:
192,192,165241,1,2,0:0:0:0:
64,192,165241,1,0,0:0:0:0:
64,192,165410,1,0,0:0:0:0:
192,192,165410,1,2,0:0:0:0:
448,192,165578,1,0,0:0:0:0:
320,192,165578,1,2,0:0:0:0:
448,192,165747,1,0,0:0:0:0:
320,192,165747,1,2,0:0:0:0:
448,192,165916,1,0,0:0:0:0:
64,192,165916,1,2,0:0:0:0:
192,192,166084,1,0,0:0:0:0:
64,192,166084,1,2,0:0:0:0:
64,192,166168,1,2,0:0:0:0:
192,192,166168,1,0,0:0:0:0:
192,192,166253,1,0,0:0:0:0:
64,192,166253,1,2,0:0:0:0:
192,192,166421,1,0,0:0:0:0:
64,192,166421,1,2,0:0:0:0:
448,192,166590,1,0,0:0:0:0:
320,192,166590,1,2,0:0:0:0:
320,192,166758,1,2,0:0:0:0:
448,192,166758,1,0,0:0:0:0:
320,192,166927,128,8,167095:0:0:0:0:
448,192,167011,1,2,0:0:0:0:
64,192,167095,128,2,167264:0:0:0:0:
192,192,167180,1,2,0:0:0:0:
448,192,167264,128,2,167432:0:0:0:0:
320,192,167348,1,2,0:0:0:0:
192,192,167432,128,2,167601:0:0:0:0:
64,192,167517,1,2,0:0:0:0:
448,192,167601,128,8,167769:0:0:0:0:
320,192,167685,1,2,0:0:0:0:
64,192,167769,128,8,167938:0:0:0:0:
192,192,167854,1,2,0:0:0:0:
320,192,167938,1,0,0:0:0:0:
448,192,167938,1,2,0:0:0:0:
448,192,168022,1,2,0:0:0:0:
320,192,168022,1,0,0:0:0:0:
448,192,168107,1,2,0:0:0:0:
320,192,168107,1,0,0:0:0:0:
320,192,168275,1,0,0:0:0:0:
448,192,168275,1,2,0:0:0:0:
192,192,168444,1,0,0:0:0:0:
64,192,168444,1,2,0:0:0:0:
64,192,168528,1,2,0:0:0:0:
192,192,168528,1,0,0:0:0:0:
192,192,168612,1,0,0:0:0:0:
64,192,168612,1,2,0:0:0:0:
192,192,168781,1,0,0:0:0:0:
64,192,168781,1,2,0:0:0:0:
64,192,168949,1,0,0:0:0:45:hardclap.wav
320,192,168949,1,0,0:0:0:0:
448,192,168949,1,2,0:0:0:0:
448,192,169033,1,2,0:0:0:0:
320,192,169033,1,0,0:0:0:0:
320,192,169118,1,0,0:0:0:0:
448,192,169118,1,2,0:0:0:0:
448,192,169286,1,2,0:0:0:0:
320,192,169286,1,0,0:0:0:0:
192,192,169455,1,0,0:0:0:0:
64,192,169455,1,2,0:0:0:0:
192,192,169539,1,0,0:0:0:0:
64,192,169539,1,2,0:0:0:0:
64,192,169623,1,2,0:0:0:0:
192,192,169623,1,0,0:0:0:0:
64,192,169792,1,2,0:0:0:0:
192,192,169792,1,0,0:0:0:0:
320,192,169960,1,0,0:0:0:0:
448,192,169960,1,2,0:0:0:0:
320,192,170045,1,0,0:0:0:0:
448,192,170045,1,2,0:0:0:0:
320,192,170129,1,0,0:0:0:0:
448,192,170129,1,2,0:0:0:0:
320,192,170298,1,0,0:0:0:0:
448,192,170298,1,2,0:0:0:0:
192,192,170466,1,0,0:0:0:0:
64,192,170466,1,2,0:0:0:0:
192,192,170550,1,0,0:0:0:0:
64,192,170550,1,2,0:0:0:0:
192,192,170635,1,0,0:0:0:0:
64,192,170635,1,2,0:0:0:0:
192,192,170803,1,0,0:0:0:0:
64,192,170803,1,2,0:0:0:0:
320,192,170972,1,0,0:0:0:0:
448,192,170972,1,2,0:0:0:0:
64,192,170972,128,8,171140:0:0:0:0:
192,192,171056,1,2,0:0:0:0:
448,192,171140,128,2,171309:0:0:0:0:
320,192,171225,1,2,0:0:0:0:
192,192,171309,128,2,171477:0:0:0:0:
64,192,171393,1,2,0:0:0:0:
320,192,171477,128,2,171646:0:0:0:0:
448,192,171562,1,2,0:0:0:0:
64,192,171646,128,2,171814:0:0:0:0:
192,192,171730,1,2,0:0:0:0:
448,192,171814,128,8,171983:0:0:0:0:
320,192,171899,1,2,0:0:0:0:
192,192,171983,1,0,0:0:0:0:
64,192,171983,1,2,0:0:0:0:
192,192,172067,1,2,0:0:0:0:
448,192,172151,1,2,0:0:0:0:
320,192,172236,1,2,0:0:0:0:
64,192,172320,1,2,0:0:0:0:
192,192,172320,1,0,0:0:0:0:
64,192,172404,1,2,0:0:0:0:
448,192,172489,1,2,0:0:0:0:
320,192,172573,1,2,0:0:0:0:
192,192,172657,1,2,0:0:0:0:
64,192,172657,1,0,0:0:0:0:
192,192,172741,1,2,0:0:0:0:
448,192,172826,1,2,0:0:0:0:
192,192,172910,1,2,0:0:0:0:
64,192,172994,1,0,0:0:0:0:
320,192,172994,1,10,0:0:0:0:
448,192,172994,1,0,0:0:0:0:
320,192,173078,1,2,0:0:0:0:
448,192,173163,1,2,0:0:0:0:
64,192,173247,1,2,0:0:0:0:
320,192,173331,1,2,0:0:0:0:
192,192,173331,1,0,0:0:0:0:
192,192,173416,1,2,0:0:0:0:
320,192,173500,1,2,0:0:0:0:
64,192,173584,1,2,0:0:0:0:
448,192,173668,1,2,0:0:0:0:
320,192,173668,1,0,0:0:0:0:
320,192,173753,1,2,0:0:0:0:
64,192,173837,1,2,0:0:0:0:
192,192,173921,1,2,0:0:0:0:
320,192,174005,1,0,0:0:0:40:boom.wav
448,192,174005,1,0,0:0:0:0:
448,192,174090,1,2,0:0:0:0:
320,192,174174,1,2,0:0:0:0:
64,192,174258,1,2,0:0:0:0:
448,192,174342,1,2,0:0:0:0:
192,192,174342,1,0,0:0:0:0:
192,192,174427,1,2,0:0:0:0:
320,192,174511,1,2,0:0:0:0:
64,192,174595,1,2,0:0:0:0:
320,192,174680,1,2,0:0:0:0:
448,192,174680,1,0,0:0:0:0:
448,192,174764,1,2,0:0:0:0:
192,192,174848,1,2,0:0:0:0:
320,192,174932,1,2,0:0:0:0:
192,192,175017,1,10,0:0:0:0:
64,192,175017,1,0,0:0:0:0:
448,192,175017,128,2,175185:0:0:0:0:
320,192,175101,1,2,0:0:0:0:
64,192,175185,128,2,175354:0:0:0:0:
192,192,175269,1,2,0:0:0:0:
320,192,175354,128,2,175522:0:0:0:0:
448,192,175438,1,2,0:0:0:0:
192,192,175522,128,2,175691:0:0:0:0:
64,192,175607,1,2,0:0:0:0:
320,192,175691,128,2,175859:0:0:0:0:
448,192,175775,1,2,0:0:0:0:
64,192,175859,128,2,176028:0:0:0:0:
192,192,175944,1,2,0:0:0:0:
320,192,176028,1,2,0:0:0:0:
448,192,176028,1,0,0:0:0:0:
448,192,176112,1,2,0:0:0:0:
320,192,176196,1,2,0:0:0:0:
192,192,176281,1,2,0:0:0:0:
64,192,176365,1,2,0:0:0:0:
448,192,176365,1,0,0:0:0:0:
64,192,176449,1,2,0:0:0:0:
192,192,176533,1,2,0:0:0:0:
320,192,176618,1,2,0:0:0:0:
448,192,176702,1,2,0:0:0:0:
192,192,176702,1,0,0:0:0:0:
192,192,176786,1,2,0:0:0:0:
320,192,176871,1,2,0:0:0:0:
448,192,176955,1,2,0:0:0:0:
64,192,177039,1,0,0:0:0:0:
192,192,177039,1,0,0:0:0:0:
320,192,177039,1,10,0:0:0:0:
320,192,177123,1,2,0:0:0:0:
448,192,177208,1,2,0:0:0:0:
64,192,177292,1,2,0:0:0:0:
320,192,177376,1,2,0:0:0:0:
192,192,177376,1,0,0:0:0:0:
192,192,177460,1,2,0:0:0:0:
448,192,177545,1,2,0:0:0:0:
64,192,177629,1,2,0:0:0:0:
192,192,177713,1,2,0:0:0:0:
320,192,177713,1,0,0:0:0:0:
320,192,177798,1,2,0:0:0:0:
192,192,177882,1,2,0:0:0:0:
64,192,177966,1,2,0:0:0:0:
448,192,178050,1,0,0:0:0:40:boom.wav
320,192,178050,1,0,0:0:0:0:
448,192,178135,1,2,0:0:0:0:
64,192,178219,1,2,0:0:0:0:
320,192,178303,1,2,0:0:0:0:
64,192,178387,1,2,0:0:0:0:
192,192,178387,1,0,0:0:0:0:
192,192,178472,1,2,0:0:0:0:
448,192,178556,1,2,0:0:0:0:
192,192,178640,1,2,0:0:0:0:
320,192,178725,1,2,0:0:0:0:
448,192,178725,1,0,0:0:0:0:
320,192,178809,1,2,0:0:0:0:
64,192,178893,1,2,0:0:0:0:
448,192,178977,1,2,0:0:0:0:
320,192,179062,1,8,0:0:0:0:
192,192,179062,1,0,0:0:0:0:
64,192,179146,1,0,0:0:0:0:
448,192,179146,1,8,0:0:0:0:
320,192,179230,1,0,0:0:0:40:tomdeep.wav
192,192,179314,1,0,0:0:0:40:tomdeep.wav
64,192,179314,1,0,0:0:0:0:
320,192,179399,1,0,0:0:0:40:tomdeep.wav
448,192,179399,1,0,0:0:0:0:
192,192,179483,1,0,0:0:0:40:tomdeep.wav
64,192,179483,1,0,0:0:0:0:
320,192,179567,1,0,0:0:0:40:tomdeep.wav
448,192,179567,1,0,0:0:0:0:
192,192,179651,1,0,0:0:0:40:tomdeep.wav
64,192,179651,1,0,0:0:0:0:
320,192,179736,1,0,0:0:0:40:tomdeep.wav
448,192,179736,1,0,0:0:0:0:
192,192,179820,1,0,0:0:0:40:tomdeep.wav
64,192,179820,1,0,0:0:0:0:
320,192,179904,1,0,0:0:0:40:tomdeep.wav
448,192,179904,1,0,0:0:0:0:
192,192,179989,1,0,0:0:0:40:tomdeep.wav
64,192,179989,1,0,0:0:0:0:
448,192,180073,1,6,0:0:0:0:
320,192,180073,128,0,180157:0:0:0:0:
192,192,180157,1,8,0:0:0:0:
64,192,180157,1,0,0:0:0:0:
448,192,180241,1,2,0:0:0:0:
320,192,180326,1,8,0:0:0:0:
64,192,180326,1,0,0:0:0:0:
192,192,180410,1,2,0:0:0:0:
448,192,180494,1,0,0:0:0:0:
320,192,180494,1,8,0:0:0:0:
64,192,180578,1,2,0:0:0:0:
192,192,180663,1,8,0:0:0:0:
320,192,180663,1,0,0:0:0:0:
64,192,180747,1,2,0:0:0:0:
448,192,180747,128,0,180831:0:0:0:0:
320,192,180831,1,0,0:0:0:0:
192,192,180831,1,8,0:0:0:0:
64,192,180916,1,2,0:0:0:0:
192,192,181000,1,8,0:0:0:0:
448,192,181000,1,0,0:0:0:0:
320,192,181084,1,2,0:0:0:0:
64,192,181084,128,0,181168:0:0:0:0:
192,192,181168,1,8,0:0:0:0:
448,192,181168,1,0,0:0:0:0:
320,192,181253,1,2,0:0:0:0:
192,192,181337,1,8,0:0:0:0:
64,192,181337,1,0,0:0:0:0:
448,192,181421,1,2,0:0:0:0:
320,192,181505,1,8,0:0:0:0:
64,192,181505,1,0,0:0:0:0:
192,192,181590,1,2,0:0:0:0:
64,192,181674,1,8,0:0:0:0:
448,192,181674,1,0,0:0:0:0:
320,192,181758,128,0,181842:0:0:0:0:
192,192,181758,1,2,0:0:0:0:
64,192,181842,1,8,0:0:0:0:
448,192,181842,1,0,0:0:0:0:
320,192,181927,1,2,0:0:0:0:
64,192,182011,1,0,0:0:0:0:
192,192,182011,1,8,0:0:0:0:
320,192,182095,1,2,0:0:0:0:
448,192,182095,128,0,182180:0:0:0:0:
192,192,182180,1,8,0:0:0:0:
64,192,182180,1,0,0:0:0:0:
320,192,182264,1,2,0:0:0:0:
448,192,182348,1,0,0:0:0:0:
192,192,182348,1,8,0:0:0:0:
64,192,182432,1,2,0:0:0:0:
192,192,182517,1,8,0:0:0:0:
320,192,182517,1,0,0:0:0:0:
448,192,182601,1,2,0:0:0:0:
192,192,182685,1,0,0:0:0:0:
320,192,182685,1,8,0:0:0:0:
448,192,182769,128,2,182854:0:0:0:0:
64,192,182769,1,0,0:0:0:0:
192,192,182854,1,0,0:0:0:0:
320,192,182854,1,8,0:0:0:0:
64,192,182938,1,2,0:0:0:0:
320,192,183022,1,8,0:0:0:0:
448,192,183022,1,0,0:0:0:0:
192,192,183107,128,2,183191:0:0:0:0:
64,192,183107,1,0,0:0:0:0:
320,192,183191,1,8,0:0:0:0:
448,192,183191,1,0,0:0:0:0:
64,192,183275,1,2,0:0:0:0:
192,192,183359,1,8,0:0:0:0:
448,192,183359,1,0,0:0:0:0:
320,192,183444,1,2,0:0:0:0:
448,192,183528,1,8,0:0:0:0:
64,192,183528,1,0,0:0:0:0:
192,192,183612,1,2,0:0:0:0:
320,192,183696,1,8,0:0:0:0:
448,192,183696,1,0,0:0:0:0:
192,192,183781,1,2,0:0:0:0:
64,192,183865,1,8,0:0:0:0:
448,192,183865,1,0,0:0:0:0:
320,192,183949,1,2,0:0:0:0:
192,192,184033,1,8,0:0:0:0:
64,192,184033,1,0,0:0:0:0:
448,192,184118,1,0,0:0:0:0:
320,192,184118,128,2,184202:0:0:0:0:
192,192,184202,1,8,0:0:0:0:
64,192,184202,1,0,0:0:0:0:
448,192,184286,1,2,0:0:0:0:
320,192,184371,1,8,0:0:0:0:
192,192,184371,1,0,0:0:0:0:
64,192,184455,1,2,0:0:0:0:
448,192,184539,1,0,0:0:0:0:
192,192,184539,1,8,0:0:0:0:
320,192,184623,1,2,0:0:0:0:
64,192,184708,1,0,0:0:0:0:
448,192,184708,1,8,0:0:0:0:
192,192,184792,128,0,184876:0:0:0:0:
320,192,184792,1,2,0:0:0:0:
448,192,184876,1,8,0:0:0:0:
64,192,184876,1,0,0:0:0:0:
192,192,184960,1,2,0:0:0:0:
320,192,185045,1,8,0:0:0:0:
448,192,185045,1,0,0:0:0:0:
64,192,185129,128,0,185213:0:0:0:0:
192,192,185129,1,2,0:0:0:0:
320,192,185213,1,8,0:0:0:0:
448,192,185213,1,0,0:0:0:0:
192,192,185298,1,2,0:0:0:0:
64,192,185382,1,0,0:0:0:0:
448,192,185382,1,8,0:0:0:0:
320,192,185466,1,2,0:0:0:0:
192,192,185550,1,8,0:0:0:0:
64,192,185550,1,0,0:0:0:0:
448,192,185635,1,2,0:0:0:0:
320,192,185719,1,8,0:0:0:0:
64,192,185719,1,0,0:0:0:0:
192,192,185803,128,0,185887:0:0:0:0:
448,192,185803,1,2,0:0:0:0:
320,192,185887,1,8,0:0:0:0:
64,192,185887,1,0,0:0:0:0:
448,192,185972,1,2,0:0:0:0:
320,192,186056,1,8,0:0:0:0:
192,192,186056,1,0,0:0:0:0:
448,192,186140,128,2,186225:0:0:0:0:
64,192,186140,1,0,0:0:0:0:
192,192,186225,1,0,0:0:0:0:
320,192,186225,1,8,0:0:0:0:
448,192,186309,1,2,0:0:0:0:
192,192,186393,1,8,0:0:0:0:
64,192,186393,1,0,0:0:0:0:
320,192,186477,1,2,0:0:0:0:
448,192,186562,1,8,0:0:0:0:
64,192,186562,1,0,0:0:0:0:
192,192,186646,1,2,0:0:0:0:
320,192,186730,1,8,0:0:0:0:
64,192,186730,1,0,0:0:0:0:
448,192,186814,1,0,0:0:0:0:
192,192,186814,128,2,186899:0:0:0:0:
320,192,186899,1,8,0:0:0:0:
64,192,186899,1,0,0:0:0:0:
448,192,186983,1,2,0:0:0:0:
320,192,187067,1,8,0:0:0:0:
192,192,187151,1,2,0:0:0:0:
64,192,187151,128,0,187236:0:0:0:0:
320,192,187236,1,8,0:0:0:0:
448,192,187236,1,0,0:0:0:0:
192,192,187320,1,8,0:0:0:0:
64,192,187320,1,0,0:0:0:0:
320,192,187404,1,8,0:0:0:0:
448,192,187404,1,0,0:0:0:0:
192,192,187489,1,8,0:0:0:0:
64,192,187489,1,0,0:0:0:0:
320,192,187573,1,8,0:0:0:0:
448,192,187573,1,0,0:0:0:0:
64,192,187657,1,0,0:0:0:40:tomdeep.wav
192,192,187741,1,0,0:0:0:40:tomdeep.wav
320,192,187741,1,0,0:0:0:0:
448,192,187826,1,0,0:0:0:0:
64,192,187826,1,0,0:0:0:40:tomdeep.wav
192,192,187910,1,0,0:0:0:40:tomdeep.wav
320,192,187910,1,0,0:0:0:0:
448,192,187994,1,0,0:0:0:0:
64,192,187994,1,0,0:0:0:40:tomdeep.wav
192,192,188078,1,0,0:0:0:40:tomdeep.wav
320,192,188078,1,0,0:0:0:0:
64,192,188163,1,6,0:0:0:0:
448,192,188163,128,0,188247:0:0:0:0:
320,192,188247,1,0,0:0:0:0:
192,192,188247,1,8,0:0:0:0:
64,192,188331,1,2,0:0:0:0:
192,192,188416,1,8,0:0:0:0:
448,192,188416,1,0,0:0:0:0:
320,192,188500,1,2,0:0:0:0:
448,192,188584,1,8,0:0:0:0:
64,192,188584,1,0,0:0:0:0:
192,192,188668,1,2,0:0:0:0:
320,192,188753,1,8,0:0:0:0:
448,192,188753,1,0,0:0:0:0:
192,192,188837,1,2,0:0:0:0:
64,192,188837,128,0,188921:0:0:0:0:
320,192,188921,1,8,0:0:0:0:
448,192,188921,1,0,0:0:0:0:
192,192,189005,1,2,0:0:0:0:
64,192,189090,1,8,0:0:0:0:
448,192,189090,1,0,0:0:0:0:
320,192,189174,128,0,189258:0:0:0:0:
192,192,189174,1,2,0:0:0:0:
64,192,189258,1,8,0:0:0:0:
448,192,189258,1,0,0:0:0:0:
320,192,189342,1,2,0:0:0:0:
192,192,189427,1,8,0:0:0:0:
64,192,189427,1,0,0:0:0:0:
448,192,189511,1,2,0:0:0:0:
320,192,189595,1,8,0:0:0:0:
192,192,189595,1,0,0:0:0:0:
64,192,189680,1,2,0:0:0:0:
320,192,189764,1,8,0:0:0:0:
448,192,189764,1,0,0:0:0:0:
192,192,189848,128,2,189932:0:0:0:0:
64,192,189848,1,0,0:0:0:0:
320,192,189932,1,8,0:0:0:0:
448,192,189932,1,0,0:0:0:0:
64,192,190017,1,2,0:0:0:0:
192,192,190101,1,8,0:0:0:0:
320,192,190101,1,0,0:0:0:0:
448,192,190185,128,0,190269:0:0:0:0:
64,192,190185,1,2,0:0:0:0:
192,192,190269,1,8,0:0:0:0:
320,192,190269,1,0,0:0:0:0:
64,192,190354,1,2,0:0:0:0:
192,192,190438,1,8,0:0:0:0:
448,192,190438,1,0,0:0:0:0:
320,192,190522,1,2,0:0:0:0:
192,192,190607,1,8,0:0:0:0:
64,192,190607,1,0,0:0:0:0:
448,192,190691,1,2,0:0:0:0:
320,192,190775,1,8,0:0:0:0:
192,192,190775,1,0,0:0:0:0:
448,192,190859,128,2,190944:0:0:0:0:
64,192,190859,1,0,0:0:0:0:
192,192,190944,1,0,0:0:0:0:
320,192,190944,1,8,0:0:0:0:
448,192,191028,5,2,0:0:0:0:
192,192,191112,1,8,0:0:0:0:
64,192,191112,1,0,0:0:0:0:
320,192,191196,128,2,191281:0:0:0:0:
448,192,191196,1,0,0:0:0:0:
192,192,191281,1,8,0:0:0:0:
64,192,191281,1,0,0:0:0:0:
448,192,191365,1,2,0:0:0:0:
320,192,191449,1,8,0:0:0:0:
64,192,191449,1,0,0:0:0:0:
192,192,191533,1,2,0:0:0:0:
320,192,191618,1,8,0:0:0:0:
448,192,191618,1,0,0:0:0:0:
64,192,191702,1,2,0:0:0:0:
192,192,191786,1,8,0:0:0:0:
320,192,191786,1,0,0:0:0:0:
448,192,191871,1,2,0:0:0:0:
320,192,191955,1,8,0:0:0:0:
192,192,191955,1,0,0:0:0:0:
64,192,192039,1,2,0:0:0:0:
192,192,192123,1,8,0:0:0:0:
448,192,192208,5,0,0:0:0:50:boom.wav
320,192,192208,1,0,0:0:0:0:
64,192,192208,1,2,0:0:0:0:
192,192,192376,1,0,0:0:0:0:
448,192,192376,1,0,0:0:0:50:boom.wav
64,192,192376,1,2,0:0:0:0:
320,192,192545,1,0,0:0:0:0:
192,192,192545,1,2,0:0:0:0:
448,192,192545,1,0,0:0:0:50:boom.wav
192,192,192713,1,0,0:0:0:0:
320,192,192713,1,0,0:0:0:50:boom.wav
64,192,192713,1,2,0:0:0:0:
448,192,192882,1,0,0:0:0:50:boom.wav
64,192,192882,1,2,0:0:0:0:
320,192,192882,1,0,0:0:0:0:
192,192,193050,1,0,0:0:0:0:
64,192,193050,1,2,0:0:0:0:
448,192,193050,1,0,0:0:0:50:boom.wav
192,192,193219,1,2,0:0:0:0:
448,192,193219,1,0,0:0:0:50:boom.wav
320,192,193219,1,0,0:0:0:0:
320,192,193387,1,0,0:0:0:0:
448,192,193387,1,0,0:0:0:50:boom.wav
64,192,193387,1,2,0:0:0:0:
64,192,193556,1,0,0:0:0:0:
192,192,193556,1,2,0:0:0:0:
320,192,193556,1,0,0:0:0:55:boom.wav
448,192,193556,1,0,0:0:0:0:
448,192,193893,1,0,0:0:0:55:boom.wav
320,192,193893,1,2,0:0:0:0:
192,192,193893,1,0,0:0:0:0:
64,192,193893,1,0,0:0:0:0:
448,192,194230,1,0,0:0:0:40:boom.wav
320,192,194230,1,2,0:0:0:0:
192,192,194230,1,0,0:0:0:0:
64,192,194230,1,0,0:0:0:0:
192,192,194399,1,2,0:0:0:0:
448,192,194399,1,0,0:0:0:40:boom.wav
320,192,194567,1,0,0:0:0:40:boom.wav
64,192,194567,1,2,0:0:0:0:
64,192,194736,1,2,0:0:0:0:
192,192,194736,1,0,0:0:0:40:boom.wav
448,192,194904,1,0,0:0:0:0:
320,192,194904,1,0,0:0:0:50:tomdeep.wav
192,192,194964,1,0,0:0:0:50:tomdeep.wav
64,192,194964,1,0,0:0:0:0:
320,192,195022,1,0,0:0:0:50:tomdeep.wav
448,192,195022,1,0,0:0:0:0:
192,192,195080,1,0,0:0:0:50:tomdeep.wav
64,192,195080,1,0,0:0:0:0:
320,192,195137,1,0,0:0:0:50:tomdeep.wav
448,192,195137,1,2,0:0:0:0:
192,192,195195,1,0,0:0:0:50:tomdeep.wav
64,192,195195,1,0,0:0:0:0:
320,192,195253,1,0,0:0:0:50:tomdeep.wav
448,192,195253,1,0,0:0:0:0:
192,192,195310,1,0,0:0:0:50:tomdeep.wav
64,192,195310,1,0,0:0:0:0:
320,192,195368,1,0,0:0:0:50:tomdeep.wav
448,192,195368,1,8,0:0:0:0:
192,192,195426,1,0,0:0:0:50:tomdeep.wav
64,192,195426,1,8,0:0:0:0:
320,192,195483,1,0,0:0:0:50:tomdeep.wav
448,192,195483,1,0,0:0:0:0:
192,192,195541,1,0,0:0:0:50:tomdeep.wav
64,192,195541,1,0,0:0:0:0:
320,192,195599,1,0,0:0:0:50:tomdeep.wav
448,192,195599,1,0,0:0:0:0:
192,192,195657,1,0,0:0:0:50:tomdeep.wav
64,192,195657,1,0,0:0:0:0:
320,192,195714,1,0,0:0:0:50:tomdeep.wav
448,192,195714,1,0,0:0:0:0:
192,192,195772,1,0,0:0:0:50:tomdeep.wav
320,192,195830,1,0,0:0:0:50:tomdeep.wav
448,192,195830,1,6,0:0:0:0:
64,192,195830,1,0,0:0:0:0:
192,192,195945,1,10,0:0:0:0:
320,192,195945,1,0,0:0:0:0:
448,192,195945,1,0,0:0:0:0:
320,192,196060,1,2,0:0:0:0:
64,192,196060,1,0,0:0:0:0:
192,192,196176,1,10,0:0:0:0:
448,192,196176,1,0,0:0:0:0:
64,192,196176,1,0,0:0:0:0:
320,192,196291,1,2,0:0:0:0:
448,192,196291,1,0,0:0:0:0:
64,192,196407,1,10,0:0:0:0:
192,192,196407,1,0,0:0:0:0:
320,192,196407,1,0,0:0:0:0:
320,192,196522,1,0,0:0:0:0:
448,192,196522,1,2,0:0:0:0:
192,192,196580,1,2,0:0:0:0:
320,192,196637,1,10,0:0:0:0:
448,192,196637,1,0,0:0:0:0:
64,192,196637,1,0,0:0:0:0:
192,192,196753,1,2,0:0:0:0:
64,192,196753,1,0,0:0:0:0:
448,192,196868,1,0,0:0:0:0:
192,192,196868,1,10,0:0:0:0:
64,192,196868,1,0,0:0:0:0:
320,192,196983,1,2,0:0:0:0:
448,192,196983,1,0,0:0:0:0:
64,192,197099,1,0,0:0:0:0:
320,192,197099,1,10,0:0:0:0:
192,192,197099,1,0,0:0:0:0:
64,192,197214,1,0,0:0:0:0:
448,192,197214,1,2,0:0:0:0:
320,192,197330,1,0,0:0:0:0:
64,192,197330,1,0,0:0:0:0:
192,192,197330,1,10,0:0:0:0:
448,192,197445,1,2,0:0:0:0:
192,192,197445,1,0,0:0:0:0:
320,192,197503,1,2,0:0:0:0:
64,192,197560,1,0,0:0:0:0:
192,192,197560,1,10,0:0:0:0:
448,192,197560,1,0,0:0:0:0:
320,192,197676,1,2,0:0:0:0:
448,192,197676,1,0,0:0:0:0:
64,192,197791,1,0,0:0:0:0:
192,192,197791,1,0,0:0:0:0:
320,192,197791,1,10,0:0:0:0:
192,192,197907,1,2,0:0:0:0:
448,192,197907,1,0,0:0:0:0:
320,192,198022,1,10,0:0:0:0:
64,192,198022,1,0,0:0:0:0:
448,192,198022,1,0,0:0:0:0:
320,192,198137,1,2,0:0:0:0:
192,192,198137,1,0,0:0:0:0:
64,192,198253,1,0,0:0:0:0:
192,192,198253,1,10,0:0:0:0:
448,192,198253,1,0,0:0:0:0:
64,192,198368,1,0,0:0:0:0:
448,192,198368,1,2,0:0:0:0:
320,192,198426,1,2,0:0:0:0:
192,192,198483,1,10,0:0:0:0:
64,192,198483,1,0,0:0:0:0:
448,192,198483,1,0,0:0:0:0:
192,192,198599,1,0,0:0:0:0:
320,192,198599,1,2,0:0:0:0:
64,192,198714,1,0,0:0:0:0:
448,192,198714,1,0,0:0:0:0:
320,192,198714,1,10,0:0:0:0:
192,192,198830,1,2,0:0:0:0:
64,192,198830,1,0,0:0:0:0:
192,192,198945,1,0,0:0:0:0:
320,192,198945,1,10,0:0:0:0:
448,192,198945,1,0,0:0:0:0:
64,192,199060,1,0,0:0:0:0:
320,192,199060,1,2,0:0:0:0:
192,192,199176,1,2,0:0:0:0:
448,192,199176,1,0,0:0:0:0:
320,192,199291,1,0,0:0:0:0:
192,192,199291,1,2,0:0:0:0:
64,192,199407,1,0,0:0:0:0:
192,192,199407,1,2,0:0:0:0:
448,192,199522,128,2,200214:0:0:0:0:
320,192,199522,1,0,0:0:0:0:
64,192,199637,1,0,0:0:0:0:
192,192,199637,1,10,0:0:0:0:
64,192,199753,1,2,0:0:0:0:
192,192,199810,1,2,0:0:0:0:
320,192,199868,1,10,0:0:0:0:
64,192,199868,1,0,0:0:0:0:
192,192,199983,1,2,0:0:0:0:
192,192,200099,1,10,0:0:0:0:
64,192,200099,1,0,0:0:0:0:
320,192,200214,128,2,200330:0:0:0:0:
448,192,200272,1,2,0:0:0:0:
192,192,200330,128,10,200445:0:0:0:0:
64,192,200330,1,0,0:0:0:0:
320,192,200445,128,0,201137:0:0:0:0:
448,192,200445,1,2,0:0:0:0:
64,192,200560,1,0,0:0:0:0:
448,192,200560,1,10,0:0:0:0:
192,192,200676,1,2,0:0:0:0:
448,192,200733,1,2,0:0:0:0:
64,192,200791,1,0,0:0:0:0:
192,192,200791,1,10,0:0:0:0:
448,192,200907,1,2,0:0:0:0:
64,192,201022,1,0,0:0:0:0:
192,192,201022,1,10,0:0:0:0:
192,192,201137,128,2,201253:0:0:0:0:
448,192,201195,1,2,0:0:0:0:
64,192,201253,128,0,201368:0:0:0:0:
320,192,201253,1,10,0:0:0:0:
192,192,201368,128,2,202060:0:0:0:0:
320,192,201483,1,10,0:0:0:0:
64,192,201483,1,0,0:0:0:0:
448,192,201599,1,2,0:0:0:0:
320,192,201657,1,2,0:0:0:0:
64,192,201714,1,0,0:0:0:0:
448,192,201714,1,10,0:0:0:0:
320,192,201830,1,2,0:0:0:0:
320,192,201945,1,10,0:0:0:0:
448,192,201945,1,0,0:0:0:0:
64,192,202060,128,2,202176:0:0:0:0:
448,192,202176,128,10,202291:0:0:0:0:
320,192,202176,1,0,0:0:0:0:
64,192,202291,128,2,202983:0:0:0:0:
192,192,202349,1,2,0:0:0:0:
320,192,202407,1,2,0:0:0:0:
448,192,202464,1,2,0:0:0:0:
192,192,202522,1,2,0:0:0:0:
320,192,202580,1,2,0:0:0:0:
448,192,202637,1,2,0:0:0:0:
192,192,202695,1,2,0:0:0:0:
320,192,202753,1,2,0:0:0:0:
448,192,202810,1,2,0:0:0:0:
192,192,202868,1,2,0:0:0:0:
320,192,202926,1,2,0:0:0:0:
448,192,202983,1,2,0:0:0:0:
192,192,203041,1,2,0:0:0:0:
320,192,203099,1,2,0:0:0:0:
448,192,203157,1,2,0:0:0:0:
64,192,203157,1,2,0:0:0:0:
192,192,203214,128,2,203330:0:0:0:0:
320,192,203330,128,10,203445:0:0:0:0:
64,192,203330,1,0,0:0:0:0:
448,192,203445,128,2,203560:0:0:0:0:
192,192,203560,128,10,203618:0:0:0:0:
320,192,203560,1,0,0:0:0:0:
64,192,203618,128,0,203676:0:0:0:0:
320,192,203676,128,2,203733:0:0:0:0:
192,192,203733,128,0,203791:0:0:0:0:
448,192,203791,128,10,203907:0:0:0:0:
64,192,203791,1,0,0:0:0:0:
64,192,203907,128,2,204022:0:0:0:0:
192,192,204022,128,10,204080:0:0:0:0:
448,192,204022,1,0,0:0:0:0:
320,192,204080,128,0,204137:0:0:0:0:
448,192,204137,128,2,204195:0:0:0:0:
192,192,204195,128,0,204253:0:0:0:0:
320,192,204253,128,10,204310:0:0:0:0:
448,192,204253,1,0,0:0:0:0:
64,192,204310,128,0,204368:0:0:0:0:
448,192,204368,128,2,204426:0:0:0:0:
192,192,204426,128,0,204483:0:0:0:0:
320,192,204483,128,10,204541:0:0:0:0:
448,192,204483,1,0,0:0:0:0:
64,192,204541,128,0,204599:0:0:0:0:
448,192,204599,128,2,204657:0:0:0:0:
192,192,204657,128,0,204714:0:0:0:0:
320,192,204714,128,10,204772:0:0:0:0:
64,192,204714,1,0,0:0:0:0:
448,192,204772,128,0,204830:0:0:0:0:
64,192,204830,128,2,204887:0:0:0:0:
320,192,204887,128,2,204945:0:0:0:0:
192,192,204945,128,10,205060:0:0:0:0:
448,192,204945,1,0,0:0:0:0:
448,192,205060,128,2,205176:0:0:0:0:
320,192,205176,128,10,205233:0:0:0:0:
192,192,205176,1,0,0:0:0:0:
64,192,205233,128,0,205349:0:0:0:0:
192,192,205291,1,2,0:0:0:0:
448,192,205349,128,0,205522:0:0:0:0:
320,192,205407,1,10,0:0:0:0:
192,192,205522,128,2,205580:0:0:0:0:
320,192,205580,128,0,205637:0:0:0:0:
64,192,205637,128,10,205695:0:0:0:0:
448,192,205637,1,0,0:0:0:0:
192,192,205695,128,0,205753:0:0:0:0:
320,192,205753,128,2,205810:0:0:0:0:
448,192,205810,128,0,205868:0:0:0:0:
192,192,205868,128,10,205983:0:0:0:0:
64,192,205868,1,0,0:0:0:0:
320,192,205983,128,2,206041:0:0:0:0:
448,192,206041,128,0,206157:0:0:0:0:
64,192,206099,1,10,0:0:0:0:
320,192,206157,128,0,206214:0:0:0:0:
192,192,206214,128,2,206330:0:0:0:0:
64,192,206330,1,0,0:0:0:0:
448,192,206330,128,10,206445:0:0:0:0:
64,192,206445,128,2,206560:0:0:0:0:
192,192,206445,1,0,0:0:0:0:
320,192,206560,128,10,206907:0:0:0:0:
448,192,206560,1,0,0:0:0:0:
192,192,206676,1,2,0:0:0:0:
64,192,206791,1,10,0:0:0:0:
448,192,206907,128,0,207022:0:0:0:0:
192,192,206907,1,2,0:0:0:0:
192,192,207022,128,10,207137:0:0:0:0:
320,192,207022,1,0,0:0:0:0:
64,192,207137,128,2,207253:0:0:0:0:
192,192,207253,128,10,207368:0:0:0:0:
320,192,207253,1,0,0:0:0:0:
448,192,207368,128,2,207483:0:0:0:0:
320,192,207483,128,10,207599:0:0:0:0:
64,192,207483,1,0,0:0:0:0:
192,192,207599,128,2,207714:0:0:0:0:
320,192,207714,128,10,207830:0:0:0:0:
64,192,207714,1,0,0:0:0:0:
448,192,207830,128,2,207945:0:0:0:0:
192,192,207945,128,10,208060:0:0:0:0:
320,192,207945,1,0,0:0:0:0:
64,192,208060,128,2,208176:0:0:0:0:
448,192,208176,128,10,208291:0:0:0:0:
320,192,208176,1,0,0:0:0:0:
192,192,208291,1,2,0:0:0:0:
320,192,208407,128,10,208522:0:0:0:0:
64,192,208407,1,0,0:0:0:0:
448,192,208522,1,2,0:0:0:0:
64,192,208637,128,0,208753:0:0:0:0:
320,192,208753,1,10,0:0:0:0:
448,192,208753,1,0,0:0:0:0:
192,192,208810,1,2,0:0:0:0:
64,192,208810,1,0,0:0:0:0:
320,192,208868,1,2,0:0:0:0:
448,192,208868,1,0,0:0:0:0:
192,192,208926,1,2,0:0:0:0:
64,192,208926,1,0,0:0:0:0:
320,192,208983,1,2,0:0:0:0:
448,192,208983,1,0,0:0:0:0:
192,192,209041,1,2,0:0:0:0:
64,192,209041,1,0,0:0:0:0:
320,192,209099,1,2,0:0:0:0:
448,192,209099,1,0,0:0:0:0:
192,192,209157,1,2,0:0:0:0:
64,192,209157,1,0,0:0:0:0:
320,192,209214,1,2,0:0:0:0:
448,192,209214,1,0,0:0:0:0:
192,192,209272,1,2,0:0:0:0:
64,192,209272,1,0,0:0:0:0:
320,192,209330,1,2,0:0:0:0:
448,192,209330,1,0,0:0:0:0:
192,192,209387,1,2,0:0:0:0:
64,192,209387,1,0,0:0:0:0:
320,192,209445,1,2,0:0:0:0:
448,192,209445,1,8,0:0:0:0:
192,192,209503,1,2,0:0:0:0:
64,192,209503,1,0,0:0:0:0:
320,192,209560,1,2,0:0:0:0:
448,192,209560,1,0,0:0:0:0:
192,192,209618,1,2,0:0:0:0:
64,192,209618,1,0,0:0:0:0:
320,192,209676,1,2,0:0:0:0:
448,192,209676,1,8,0:0:0:0:
192,192,209733,1,2,0:0:0:0:
64,192,209733,1,0,0:0:0:0:
320,192,209791,1,2,0:0:0:0:
448,192,209791,1,0,0:0:0:0:
192,192,209849,1,2,0:0:0:0:
64,192,209849,1,0,0:0:0:0:
320,192,209907,1,2,0:0:0:0:
448,192,209907,1,0,0:0:0:0:
192,192,209964,1,2,0:0:0:0:
64,192,209964,1,0,0:0:0:0:
320,192,210022,1,2,0:0:0:0:
448,192,210022,1,0,0:0:0:0:
192,192,210080,1,2,0:0:0:0:
64,192,210080,1,0,0:0:0:0:
320,192,210137,1,2,0:0:0:0:
448,192,210137,1,0,0:0:0:0:
192,192,210195,1,10,0:0:0:0:
64,192,210253,1,10,0:0:0:0:
448,192,210253,1,0,0:0:0:0:
320,192,210310,1,0,0:0:0:0:
192,192,210310,1,10,0:0:0:0:
64,192,210368,1,10,0:0:0:0:
448,192,210368,1,0,0:0:0:0:
320,192,210426,1,0,0:0:0:0:
192,192,210426,1,10,0:0:0:0:
64,192,210483,1,10,0:0:0:0:
448,192,210483,1,0,0:0:0:0:
192,192,210541,1,10,0:0:0:0:
64,192,210599,1,14,0:0:0:0:
448,192,210599,1,0,0:0:0:0:
320,192,210599,1,0,0:0:0:0:
192,192,210676,128,0,210753:0:0:0:0:
320,192,210753,128,0,210830:0:0:0:0:
448,192,210830,128,0,210907:0:0:0:0:
64,192,210907,128,0,210983:0:0:0:0:
320,192,210983,128,0,211060:0:0:0:0:
448,192,211060,128,0,211137:0:0:0:0:
64,192,211060,1,8,0:0:0:0:
192,192,211137,128,0,211214:0:0:0:0:
320,192,211214,128,0,211291:0:0:0:0:
64,192,211291,128,0,211368:0:0:0:0:
192,192,211368,128,0,211445:0:0:0:0:
320,192,211445,128,0,211522:0:0:0:0:
448,192,211522,128,0,211599:0:0:0:0:
64,192,211522,1,8,0:0:0:0:
320,192,211599,128,0,211676:0:0:0:0:
192,192,211676,128,0,211753:0:0:0:0:
64,192,211753,1,0,0:0:0:0:
320,192,211753,1,0,0:0:0:0:
448,192,211753,1,10,0:0:0:0:
320,192,211868,1,10,0:0:0:0:
192,192,211868,1,0,0:0:0:0:
64,192,211868,1,0,0:0:0:0:
448,192,211983,1,10,0:0:0:0:
64,192,211983,1,0,0:0:0:0:
192,192,211983,1,0,0:0:0:0:
448,192,212099,1,10,0:0:0:0:
320,192,212099,1,0,0:0:0:0:
64,192,212099,1,0,0:0:0:0:
192,192,212214,1,0,0:0:0:0:
320,192,212214,1,0,0:0:0:0:
448,192,212214,1,10,0:0:0:0:
448,192,212330,1,10,0:0:0:0:
192,192,212330,1,0,0:0:0:0:
64,192,212330,1,0,0:0:0:0:
64,192,212445,1,0,0:0:0:0:
192,192,212445,1,10,0:0:0:0:
320,192,212445,128,0,212522:0:0:0:0:
448,192,212522,128,0,212599:0:0:0:0:
64,192,212599,128,0,212676:0:0:0:0:
320,192,212676,128,0,212753:0:0:0:0:
192,192,212753,128,0,212830:0:0:0:0:
64,192,212830,128,0,212907:0:0:0:0:
448,192,212907,128,0,212983:0:0:0:0:
320,192,212907,1,8,0:0:0:0:
192,192,212983,128,0,213060:0:0:0:0:
320,192,213060,128,0,213137:0:0:0:0:
64,192,213137,128,0,213214:0:0:0:0:
192,192,213214,128,0,213291:0:0:0:0:
320,192,213291,128,0,213368:0:0:0:0:
448,192,213368,128,0,213483:0:0:0:0:
64,192,213368,1,10,0:0:0:0:
192,192,213483,128,0,213599:0:0:0:0:
320,192,213483,1,2,0:0:0:0:
64,192,213599,128,0,213714:0:0:0:0:
448,192,213599,1,10,0:0:0:0:
320,192,213714,128,0,213830:0:0:0:0:
192,192,213714,1,10,0:0:0:0:
448,192,213830,128,0,213945:0:0:0:0:
64,192,213830,1,10,0:0:0:0:
192,192,213945,128,0,214060:0:0:0:0:
320,192,213945,1,2,0:0:0:0:
320,192,214060,128,0,214176:0:0:0:0:
64,192,214060,1,2,0:0:0:0:
64,192,214176,128,0,214291:0:0:0:0:
192,192,214176,1,10,0:0:0:0:
448,192,214291,1,0,0:0:0:0:
192,192,214291,1,10,0:0:0:0:
320,192,214291,1,0,0:0:0:0:
320,192,214407,1,2,0:0:0:0:
64,192,214407,1,0,0:0:0:0:
192,192,214522,1,2,0:0:0:0:
448,192,214522,1,0,0:0:0:0:
64,192,214637,1,0,0:0:0:0:
192,192,214637,1,2,0:0:0:0:
448,192,214753,1,0,0:0:0:0:
320,192,214753,1,10,0:0:0:0:
64,192,214753,1,0,0:0:0:0:
192,192,214868,1,2,0:0:0:0:
448,192,214868,1,0,0:0:0:0:
320,192,214983,1,0,0:0:0:0:
192,192,214983,1,2,0:0:0:0:
320,192,215099,1,2,0:0:0:0:
448,192,215099,1,0,0:0:0:0:
64,192,215214,1,0,0:0:0:0:
192,192,215214,1,10,0:0:0:0:
320,192,215272,1,2,0:0:0:0:
448,192,215330,1,2,0:0:0:0:
64,192,215387,1,2,0:0:0:0:
192,192,215445,1,0,0:0:0:0:
320,192,215445,1,10,0:0:0:0:
448,192,215503,1,2,0:0:0:0:
320,192,215560,1,10,0:0:0:0:
64,192,215560,1,0,0:0:0:0:
192,192,215618,1,2,0:0:0:0:
448,192,215676,1,0,0:0:0:0:
64,192,215676,1,10,0:0:0:0:
320,192,215733,1,2,0:0:0:0:
64,192,215791,1,0,0:0:0:0:
192,192,215791,1,10,0:0:0:0:
320,192,215849,1,2,0:0:0:0:
448,192,215907,1,2,0:0:0:0:
64,192,215964,1,2,0:0:0:0:
192,192,216022,1,2,0:0:0:0:
320,192,216080,1,2,0:0:0:0:
448,192,216137,1,10,0:0:0:0:
64,192,216137,1,0,0:0:0:0:
192,192,216137,1,0,0:0:0:0:
320,192,216195,1,2,0:0:0:0:
192,192,216253,1,2,0:0:0:0:
64,192,216310,1,2,0:0:0:0:
448,192,216368,1,2,0:0:0:0:
320,192,216426,1,2,0:0:0:0:
192,192,216483,1,10,0:0:0:0:
64,192,216483,1,0,0:0:0:0:
448,192,216541,1,2,0:0:0:0:
192,192,216599,1,2,0:0:0:0:
320,192,216657,1,2,0:0:0:0:
64,192,216714,1,2,0:0:0:0:
192,192,216772,1,2,0:0:0:0:
320,192,216830,1,10,0:0:0:0:
64,192,216830,1,0,0:0:0:0:
448,192,216887,1,2,0:0:0:0:
64,192,216945,1,2,0:0:0:0:
192,192,217003,1,2,0:0:0:0:
320,192,217060,1,2,0:0:0:0:
448,192,217060,1,0,0:0:0:0:
192,192,217118,1,10,0:0:0:0:
64,192,217118,1,0,0:0:0:0:
448,192,217176,1,0,0:0:0:0:
320,192,217176,1,10,0:0:0:0:
192,192,217233,1,10,0:0:0:0:
64,192,217233,1,0,0:0:0:0:
320,192,217291,1,10,0:0:0:0:
448,192,217291,1,0,0:0:0:0:
192,192,217349,1,10,0:0:0:0:
64,192,217349,1,0,0:0:0:0:
320,192,217407,1,10,0:0:0:0:
448,192,217407,1,0,0:0:0:0:
192,192,217464,1,10,0:0:0:0:
64,192,217464,1,0,0:0:0:0:
320,192,217522,1,2,0:0:0:0:
448,192,217580,1,2,0:0:0:0:
64,192,217637,1,2,0:0:0:0:
192,192,217695,1,2,0:0:0:0:
448,192,217753,1,10,0:0:0:0:
64,192,217753,1,0,0:0:0:0:
320,192,217868,1,2,0:0:0:0:
192,192,217868,1,0,0:0:0:0:
320,192,217983,1,0,0:0:0:0:
64,192,217983,1,0,0:0:0:0:
448,192,217983,128,14,218445:0:0:0:0:
192,192,218099,1,2,0:0:0:0:
192,192,218214,1,2,0:0:0:0:
192,192,218330,1,2,0:0:0:0:
64,192,218445,1,0,0:0:0:0:
320,192,218445,1,10,0:0:0:0:
448,192,218560,1,0,0:0:0:0:
192,192,218560,1,2,0:0:0:0:
320,192,218676,1,0,0:0:0:0:
192,192,218676,1,2,0:0:0:0:
64,192,218791,1,0,0:0:0:0:
192,192,218791,1,2,0:0:0:0:
320,192,218907,1,10,0:0:0:0:
448,192,218907,1,0,0:0:0:0:
192,192,218964,1,2,0:0:0:0:
64,192,219022,1,2,0:0:0:0:
448,192,219080,1,2,0:0:0:0:
320,192,219137,1,10,0:0:0:0:
192,192,219137,1,0,0:0:0:0:
64,192,219137,1,0,0:0:0:0:
64,192,219253,1,0,0:0:0:0:
448,192,219253,1,0,0:0:0:0:
320,192,219253,1,10,0:0:0:0:
192,192,219368,1,0,0:0:0:0:
320,192,219368,1,10,0:0:0:0:
448,192,219368,1,0,0:0:0:0:
448,192,219483,1,0,0:0:0:0:
192,192,219483,1,10,0:0:0:0:
64,192,219483,1,0,0:0:0:0:
64,192,219599,1,0,0:0:0:0:
320,192,219599,1,0,0:0:0:0:
192,192,219599,1,10,0:0:0:0:
448,192,219714,1,0,0:0:0:0:
320,192,219714,1,10,0:0:0:0:
64,192,219714,1,0,0:0:0:0:
192,192,219830,1,0,0:0:0:0:
320,192,219830,1,0,0:0:0:0:
448,192,219830,128,10,219945:0:0:0:0:
64,192,219945,128,2,220060:0:0:0:0:
320,192,220060,1,2,0:0:0:0:
448,192,220118,1,2,0:0:0:0:
192,192,220176,1,2,0:0:0:0:
64,192,220233,1,2,0:0:0:0:
320,192,220291,1,10,0:0:0:0:
448,192,220291,1,0,0:0:0:0:
192,192,220291,1,0,0:0:0:0:
64,192,220407,1,0,0:0:0:0:
192,192,220407,1,2,0:0:0:0:
320,192,220522,1,2,0:0:0:0:
448,192,220522,1,0,0:0:0:0:
64,192,220580,1,2,0:0:0:0:
192,192,220637,1,2,0:0:0:0:
448,192,220695,1,2,0:0:0:0:
320,192,220753,1,10,0:0:0:0:
192,192,220753,1,0,0:0:0:0:
64,192,220753,1,0,0:0:0:0:
448,192,220868,1,0,0:0:0:0:
192,192,220868,1,2,0:0:0:0:
192,192,220983,1,2,0:0:0:0:
64,192,220983,1,0,0:0:0:0:
64,192,221099,1,0,0:0:0:0:
192,192,221099,1,0,0:0:0:0:
320,192,221099,1,10,0:0:0:0:
64,192,221214,1,0,0:0:0:0:
192,192,221214,1,10,0:0:0:0:
448,192,221214,1,0,0:0:0:0:
192,192,221330,1,0,0:0:0:0:
320,192,221330,1,2,0:0:0:0:
192,192,221445,1,2,0:0:0:0:
448,192,221445,1,0,0:0:0:0:
320,192,221560,1,10,0:0:0:0:
448,192,221560,1,0,0:0:0:0:
64,192,221560,1,0,0:0:0:0:
448,192,221676,1,10,0:0:0:0:
64,192,221676,128,0,221907:0:0:0:0:
320,192,221791,1,0,0:0:0:0:
192,192,221791,1,2,0:0:0:0:
448,192,221907,1,0,0:0:0:0:
192,192,221907,1,2,0:0:0:0:
320,192,222022,1,2,0:0:0:0:
64,192,222022,1,0,0:0:0:0:
192,192,222137,1,0,0:0:0:0:
320,192,222137,1,10,0:0:0:0:
448,192,222137,1,0,0:0:0:0:
64,192,222253,1,0,0:0:0:0:
448,192,222253,1,2,0:0:0:0:
320,192,222368,1,2,0:0:0:0:
64,192,222368,1,0,0:0:0:0:
192,192,222483,1,2,0:0:0:0:
320,192,222483,1,0,0:0:0:0:
64,192,222599,1,0,0:0:0:0:
192,192,222599,1,10,0:0:0:0:
448,192,222599,1,0,0:0:0:0:
320,192,222657,1,2,0:0:0:0:
448,192,222714,1,2,0:0:0:0:
64,192,222772,1,2,0:0:0:0:
192,192,222830,1,10,0:0:0:0:
320,192,222830,1,0,0:0:0:0:
448,192,222830,1,0,0:0:0:0:
448,192,222945,1,0,0:0:0:0:
64,192,222945,1,0,0:0:0:0:
192,192,222945,1,10,0:0:0:0:
64,192,223060,1,0,0:0:0:0:
192,192,223060,1,10,0:0:0:0:
320,192,223060,1,0,0:0:0:0:
320,192,223176,1,10,0:0:0:0:
448,192,223176,1,0,0:0:0:0:
64,192,223176,1,0,0:0:0:0:
448,192,223291,1,0,0:0:0:0:
320,192,223291,1,10,0:0:0:0:
192,192,223291,1,0,0:0:0:0:
64,192,223407,1,0,0:0:0:0:
192,192,223407,1,10,0:0:0:0:
448,192,223407,1,0,0:0:0:0:
64,192,223522,1,0,0:0:0:0:
192,192,223522,1,0,0:0:0:0:
320,192,223522,1,10,0:0:0:0:
448,192,223580,1,2,0:0:0:0:
64,192,223637,1,2,0:0:0:0:
192,192,223695,1,2,0:0:0:0:
320,192,223753,1,2,0:0:0:0:
448,192,223868,1,0,0:0:0:0:
64,192,223868,1,0,0:0:0:0:
192,192,223868,1,10,0:0:0:0:
320,192,223983,1,2,0:0:0:0:
448,192,223983,1,0,0:0:0:0:
64,192,224099,1,0,0:0:0:0:
320,192,224099,1,2,0:0:0:0:
192,192,224214,1,10,0:0:0:0:
448,192,224214,1,0,0:0:0:0:
64,192,224214,1,0,0:0:0:0:
320,192,224330,1,0,0:0:0:0:
192,192,224330,1,2,0:0:0:0:
448,192,224445,1,0,0:0:0:0:
64,192,224445,1,8,0:0:0:0:
192,192,224503,1,8,0:0:0:0:
320,192,224503,1,0,0:0:0:0:
448,192,224560,1,0,0:0:0:0:
64,192,224560,1,8,0:0:0:0:
192,192,224618,1,8,0:0:0:0:
320,192,224618,1,0,0:0:0:0:
448,192,224676,1,0,0:0:0:0:
64,192,224676,1,8,0:0:0:0:
320,192,224733,1,0,0:0:0:0:
192,192,224733,1,8,0:0:0:0:
64,192,224791,1,0,0:0:0:50:tomdeep.wav
192,192,224849,1,0,0:0:0:50:tomdeep.wav
320,192,224907,1,8,0:0:0:0:
448,192,224907,1,0,0:0:0:0:
64,192,224964,1,0,0:0:0:0:
192,192,224964,1,8,0:0:0:0:
448,192,225022,1,0,0:0:0:50:tomdeep.wav
320,192,225080,1,0,0:0:0:50:tomdeep.wav
192,192,225137,1,0,0:0:0:50:tomdeep.wav
64,192,225195,1,0,0:0:0:50:tomdeep.wav
192,192,225253,1,0,0:0:0:50:tomdeep.wav
320,192,225310,1,0,0:0:0:50:tomdeep.wav
448,192,225368,128,0,226060:0:0:0:0:
320,192,226060,128,0,226753:0:0:0:0:
64,192,226753,1,0,0:0:0:50:tomdeep.wav
192,192,226810,1,0,0:0:0:50:tomdeep.wav
320,192,226868,1,8,0:0:0:0:
448,192,226868,1,0,0:0:0:0:
192,192,226926,1,8,0:0:0:0:
64,192,226926,1,0,0:0:0:0:
320,192,226983,1,0,0:0:0:50:tomdeep.wav
448,192,227041,1,0,0:0:0:50:tomdeep.wav
64,192,227099,1,0,0:0:0:0:
192,192,227099,1,8,0:0:0:0:
320,192,227157,1,8,0:0:0:0:
448,192,227157,1,0,0:0:0:0:
192,192,227214,1,0,0:0:0:50:tomdeep.wav
64,192,227272,1,0,0:0:0:50:tomdeep.wav
320,192,227330,1,8,0:0:0:0:
448,192,227330,1,0,0:0:0:0:
192,192,227387,1,8,0:0:0:0:
64,192,227387,1,0,0:0:0:0:
320,192,227445,1,8,0:0:0:0:
448,192,227445,1,0,0:0:0:0:
192,192,227503,1,8,0:0:0:0:
64,192,227503,1,0,0:0:0:0:
320,192,227560,1,8,0:0:0:0:
448,192,227560,1,0,0:0:0:0:
192,192,227618,1,8,0:0:0:0:
64,192,227618,1,0,0:0:0:0:
320,192,227676,1,8,0:0:0:0:
448,192,227676,1,0,0:0:0:0:
192,192,227733,1,8,0:0:0:0:
64,192,227733,1,0,0:0:0:0:
320,192,227791,1,0,0:0:0:50:tomdeep.wav
448,192,227849,1,0,0:0:0:50:tomdeep.wav
64,192,227907,1,0,0:0:0:0:
192,192,227907,1,8,0:0:0:0:
320,192,227964,1,8,0:0:0:0:
448,192,227964,1,0,0:0:0:0:
64,192,228022,1,0,0:0:0:50:tomdeep.wav
192,192,228080,1,0,0:0:0:50:tomdeep.wav
320,192,228137,1,8,0:0:0:0:
448,192,228137,1,0,0:0:0:0:
192,192,228195,1,8,0:0:0:0:
64,192,228195,1,0,0:0:0:0:
448,192,228253,1,0,0:0:0:50:tomdeep.wav
320,192,228310,1,0,0:0:0:50:tomdeep.wav
64,192,228368,1,0,0:0:0:50:tomdeep.wav
192,192,228426,1,0,0:0:0:50:tomdeep.wav
448,192,228483,1,0,0:0:0:50:tomdeep.wav
320,192,228541,1,0,0:0:0:50:tomdeep.wav
64,192,228599,1,0,0:0:0:50:tomdeep.wav
192,192,228657,1,0,0:0:0:50:tomdeep.wav
448,192,228714,1,0,0:0:0:50:tomdeep.wav
320,192,228772,1,0,0:0:0:50:tomdeep.wav
64,192,228830,1,0,0:0:0:0:
192,192,228830,1,10,0:0:0:0:
448,192,228830,1,0,0:0:0:0:
448,192,228945,1,0,0:0:0:0:
320,192,228945,1,10,0:0:0:0:
64,192,228945,1,0,0:0:0:0:
192,192,229060,1,2,0:0:0:0:
320,192,229118,1,10,0:0:0:0:
448,192,229118,1,0,0:0:0:0:
64,192,229176,1,2,0:0:0:0:
192,192,229233,1,10,0:0:0:0:
448,192,229233,1,0,0:0:0:0:
320,192,229291,1,2,0:0:0:0:
192,192,229349,1,10,0:0:0:0:
64,192,229349,1,0,0:0:0:0:
448,192,229407,1,2,0:0:0:0:
320,192,229464,1,10,0:0:0:0:
192,192,229464,1,0,0:0:0:0:
64,192,229522,1,2,0:0:0:0:
448,192,229580,1,0,0:0:0:0:
320,192,229580,1,10,0:0:0:0:
192,192,229637,1,2,0:0:0:0:
64,192,229695,1,10,0:0:0:0:
448,192,229695,1,0,0:0:0:0:
320,192,229753,1,2,0:0:0:0:
192,192,229810,1,10,0:0:0:0:
64,192,229810,1,0,0:0:0:0:
448,192,229868,1,2,0:0:0:0:
320,192,229926,1,10,0:0:0:0:
64,192,229926,1,0,0:0:0:0:
192,192,229983,1,2,0:0:0:0:
448,192,230041,1,0,0:0:0:0:
64,192,230041,1,10,0:0:0:0:
192,192,230099,1,2,0:0:0:0:
320,192,230157,1,10,0:0:0:0:
448,192,230157,1,0,0:0:0:0:
64,192,230214,1,2,0:0:0:0:
192,192,230272,1,10,0:0:0:0:
320,192,230272,1,0,0:0:0:0:
448,192,230330,1,2,0:0:0:0:
64,192,230387,1,0,0:0:0:0:
192,192,230387,1,10,0:0:0:0:
320,192,230445,1,2,0:0:0:0:
448,192,230503,1,0,0:0:0:0:
192,192,230503,1,10,0:0:0:0:
320,192,230560,1,2,0:0:0:0:
64,192,230618,1,0,0:0:0:0:
192,192,230618,1,10,0:0:0:0:
320,192,230676,1,2,0:0:0:0:
448,192,230733,1,10,0:0:0:0:
64,192,230733,1,0,0:0:0:0:
320,192,230791,1,2,0:0:0:0:
192,192,230849,1,10,0:0:0:0:
64,192,230849,1,0,0:0:0:0:
320,192,230907,128,0,230964:0:0:0:0:
448,192,230964,128,0,231022:0:0:0:0:
64,192,231022,128,0,231080:0:0:0:0:
192,192,231080,128,0,231137:0:0:0:0:
320,192,231137,128,0,231195:0:0:0:0:
64,192,231195,128,0,231253:0:0:0:0:
448,192,231253,128,0,231310:0:0:0:0:
320,192,231310,128,0,231368:0:0:0:0:
192,192,231368,128,0,231426:0:0:0:0:
64,192,231426,128,0,231483:0:0:0:0:
448,192,231483,128,0,231599:0:0:0:0:
320,192,231599,128,0,231657:0:0:0:0:
64,192,231657,128,0,231714:0:0:0:0:
192,192,231714,128,0,231772:0:0:0:0:
448,192,231753,128,0,231830:0:0:0:0:
64,192,231830,128,0,231887:0:0:0:0:
320,192,231830,1,0,0:0:0:0:
192,192,231887,128,0,231945:0:0:0:0:
320,192,231945,128,0,232003:0:0:0:0:
448,192,232003,128,0,232060:0:0:0:0:
64,192,232060,128,0,232118:0:0:0:0:
192,192,232118,128,0,232176:0:0:0:0:
320,192,232176,128,0,232233:0:0:0:0:
448,192,232233,128,0,232407:0:0:0:0:
192,192,232407,128,0,232464:0:0:0:0:
320,192,232464,128,0,232522:0:0:0:0:
64,192,232522,1,10,0:0:0:0:
448,192,232522,1,0,0:0:0:0:
320,192,232637,1,0,0:0:0:0:
192,192,232637,1,10,0:0:0:0:
64,192,232753,1,0,0:0:0:0:
320,192,232753,1,2,0:0:0:0:
448,192,232868,1,0,0:0:0:0:
192,192,232868,1,10,0:0:0:0:
320,192,232983,1,2,0:0:0:0:
192,192,233041,1,2,0:0:0:0:
64,192,233099,1,10,0:0:0:0:
448,192,233099,1,0,0:0:0:0:
192,192,233157,1,2,0:0:0:0:
448,192,233214,1,2,0:0:0:0:
320,192,233272,1,2,0:0:0:0:
192,192,233330,1,10,0:0:0:0:
64,192,233330,1,0,0:0:0:0:
448,192,233387,1,2,0:0:0:0:
192,192,233445,1,2,0:0:0:0:
320,192,233503,1,2,0:0:0:0:
64,192,233560,1,0,0:0:0:0:
448,192,233560,1,10,0:0:0:0:
320,192,233618,1,2,0:0:0:0:
64,192,233676,1,2,0:0:0:0:
192,192,233733,1,2,0:0:0:0:
320,192,233791,1,10,0:0:0:0:
448,192,233791,1,0,0:0:0:0:
64,192,233849,1,2,0:0:0:0:
192,192,233907,1,2,0:0:0:0:
448,192,233964,1,2,0:0:0:0:
320,192,234022,1,2,0:0:0:0:
64,192,234022,1,0,0:0:0:0:
192,192,234080,1,2,0:0:0:0:
64,192,234137,1,2,0:0:0:0:
448,192,234195,1,2,0:0:0:0:
320,192,234253,1,0,0:0:0:0:
192,192,234253,1,10,0:0:0:0:
64,192,234310,1,2,0:0:0:0:
448,192,234368,1,2,0:0:0:0:
320,192,234426,1,2,0:0:0:0:
192,192,234483,1,10,0:0:0:0:
448,192,234483,1,0,0:0:0:0:
64,192,234541,1,2,0:0:0:0:
320,192,234599,1,2,0:0:0:0:
448,192,234657,1,2,0:0:0:0:
64,192,234714,1,0,0:0:0:0:
192,192,234714,1,10,0:0:0:0:
320,192,234772,1,2,0:0:0:0:
448,192,234830,1,2,0:0:0:0:
64,192,234887,1,2,0:0:0:0:
192,192,234945,1,10,0:0:0:0:
320,192,234945,1,0,0:0:0:0:
448,192,235003,1,2,0:0:0:0:
64,192,235060,1,2,0:0:0:0:
320,192,235118,1,2,0:0:0:0:
64,192,235176,1,0,0:0:0:0:
448,192,235176,1,10,0:0:0:0:
192,192,235233,1,2,0:0:0:0:
320,192,235291,1,2,0:0:0:0:
448,192,235349,1,2,0:0:0:0:
192,192,235407,1,10,0:0:0:0:
64,192,235407,1,0,0:0:0:0:
320,192,235464,1,2,0:0:0:0:
448,192,235522,1,2,0:0:0:0:
320,192,235580,1,2,0:0:0:0:
192,192,235637,1,10,0:0:0:0:
64,192,235637,1,0,0:0:0:0:
448,192,235695,1,2,0:0:0:0:
192,192,235753,1,2,0:0:0:0:
320,192,235810,1,2,0:0:0:0:
64,192,235868,1,0,0:0:0:0:
448,192,235868,1,10,0:0:0:0:
192,192,235926,1,2,0:0:0:0:
448,192,235983,1,2,0:0:0:0:
320,192,236041,1,2,0:0:0:0:
64,192,236099,1,0,0:0:0:0:
192,192,236099,1,10,0:0:0:0:
448,192,236157,1,2,0:0:0:0:
192,192,236214,1,2,0:0:0:0:
448,192,236272,1,2,0:0:0:0:
320,192,236330,1,10,0:0:0:0:
64,192,236330,1,0,0:0:0:0:
192,192,236387,1,2,0:0:0:0:
448,192,236445,128,0,236503:0:0:0:0:
320,192,236503,128,0,236560:0:0:0:0:
192,192,236560,128,0,236618:0:0:0:0:
64,192,236560,1,0,0:0:0:0:
448,192,236618,128,0,236676:0:0:0:0:
320,192,236676,128,0,236733:0:0:0:0:
192,192,236733,128,0,236791:0:0:0:0:
320,192,236791,128,0,236849:0:0:0:0:
192,192,236849,128,0,236907:0:0:0:0:
64,192,236907,128,0,236964:0:0:0:0:
192,192,236964,128,0,237022:0:0:0:0:
320,192,237022,128,0,237080:0:0:0:0:
448,192,237022,1,0,0:0:0:0:
64,192,237080,128,0,237137:0:0:0:0:
448,192,237137,128,0,237195:0:0:0:0:
320,192,237195,128,0,237253:0:0:0:0:
64,192,237253,128,0,237310:0:0:0:0:
448,192,237253,1,0,0:0:0:0:
192,192,237310,128,0,237599:0:0:0:0:
320,192,237368,1,2,0:0:0:0:
448,192,237426,1,2,0:0:0:0:
320,192,237483,1,10,0:0:0:0:
64,192,237483,1,0,0:0:0:0:
448,192,237541,1,2,0:0:0:0:
320,192,237599,1,2,0:0:0:0:
64,192,237657,1,2,0:0:0:0:
320,192,237714,1,0,0:0:0:0:
192,192,237714,1,10,0:0:0:0:
448,192,237772,1,2,0:0:0:0:
64,192,237830,1,2,0:0:0:0:
192,192,237887,1,2,0:0:0:0:
320,192,237945,1,10,0:0:0:0:
448,192,237945,1,0,0:0:0:0:
192,192,238003,1,2,0:0:0:0:
64,192,238060,1,2,0:0:0:0:
448,192,238118,1,2,0:0:0:0:
320,192,238176,1,10,0:0:0:0:
192,192,238176,1,0,0:0:0:0:
64,192,238233,1,2,0:0:0:0:
448,192,238291,1,2,0:0:0:0:
320,192,238349,1,2,0:0:0:0:
192,192,238407,1,10,0:0:0:0:
64,192,238407,1,0,0:0:0:0:
448,192,238464,1,2,0:0:0:0:
320,192,238522,1,2,0:0:0:0:
192,192,238580,1,2,0:0:0:0:
64,192,238637,1,10,0:0:0:0:
448,192,238637,1,0,0:0:0:0:
320,192,238695,1,2,0:0:0:0:
192,192,238753,1,2,0:0:0:0:
64,192,238810,1,2,0:0:0:0:
320,192,238868,1,10,0:0:0:0:
448,192,238868,1,0,0:0:0:0:
192,192,238926,1,2,0:0:0:0:
64,192,238983,1,2,0:0:0:0:
448,192,239041,1,2,0:0:0:0:
320,192,239099,1,10,0:0:0:0:
192,192,239099,1,0,0:0:0:0:
64,192,239157,1,2,0:0:0:0:
448,192,239214,1,2,0:0:0:0:
320,192,239272,1,2,0:0:0:0:
192,192,239330,1,10,0:0:0:0:
64,192,239330,1,0,0:0:0:0:
448,192,239387,1,2,0:0:0:0:
320,192,239445,1,2,0:0:0:0:
192,192,239503,1,2,0:0:0:0:
64,192,239560,1,10,0:0:0:0:
448,192,239560,1,0,0:0:0:0:
320,192,239618,1,2,0:0:0:0:
192,192,239676,1,10,0:0:0:0:
64,192,239676,1,0,0:0:0:0:
320,192,239733,1,10,0:0:0:0:
448,192,239733,1,0,0:0:0:0:
192,192,239791,1,10,0:0:0:0:
64,192,239791,1,0,0:0:0:0:
320,192,239849,1,10,0:0:0:0:
448,192,239849,1,0,0:0:0:0:
192,192,239907,1,10,0:0:0:0:
64,192,239907,1,0,0:0:0:0:
320,192,239964,1,10,0:0:0:0:
448,192,239964,1,0,0:0:0:0:
192,192,240022,1,10,0:0:0:0:
64,192,240022,1,0,0:0:0:0:
320,192,240080,1,10,0:0:0:0:
448,192,240080,1,0,0:0:0:0:
64,192,240137,128,2,242159:0:0:0:0:
320,192,242159,128,6,242496:0:0:0:0:
192,192,242159,1,0,0:0:0:0:
448,192,242496,1,10,0:0:0:0:
64,192,242496,1,0,0:0:0:0:
192,192,242665,1,2,0:0:0:0:
320,192,242749,1,2,0:0:0:0:
64,192,242833,1,0,0:0:0:0:
448,192,242833,1,2,0:0:0:0:
448,192,243170,1,0,0:0:0:0:
192,192,243170,128,6,243507:0:0:0:0:
320,192,243507,1,2,0:0:0:0:
320,192,243676,1,2,0:0:0:0:
320,192,243844,1,2,0:0:0:0:
320,192,244013,1,2,0:0:0:0:
64,192,244181,128,6,245530:0:0:0:0:
192,192,244181,1,0,0:0:0:0:
320,192,244519,1,10,0:0:0:0:
448,192,244519,1,0,0:0:0:0:
192,192,244603,1,2,0:0:0:0:
320,192,244687,1,10,0:0:0:0:
448,192,244687,1,0,0:0:0:0:
192,192,244771,1,2,0:0:0:0:
320,192,244856,1,10,0:0:0:0:
448,192,244856,1,0,0:0:0:0:
192,192,244940,1,2,0:0:0:0:
320,192,245024,1,10,0:0:0:0:
448,192,245024,1,0,0:0:0:0:
192,192,245108,1,2,0:0:0:0:
320,192,245193,1,10,0:0:0:0:
448,192,245193,1,0,0:0:0:0:
192,192,245277,1,2,0:0:0:0:
320,192,245361,1,10,0:0:0:0:
448,192,245361,1,0,0:0:0:0:
192,192,245445,1,2,0:0:0:0:
320,192,245530,1,10,0:0:0:0:
448,192,245530,1,0,0:0:0:0:
192,192,245698,1,2,0:0:0:0:
64,192,245698,1,0,0:0:0:0:
64,192,245867,1,0,0:0:0:0:
192,192,245867,1,2,0:0:0:0:
64,192,246035,1,0,0:0:0:0:
192,192,246035,1,2,0:0:0:0:
448,192,246204,128,6,246878:0:0:0:0:
320,192,246204,1,2,0:0:0:0:
192,192,246288,1,2,0:0:0:0:
64,192,246372,1,2,0:0:0:0:
192,192,246457,1,2,0:0:0:0:
320,192,246541,1,8,0:0:0:0:
64,192,246541,1,2,0:0:0:0:
192,192,246625,1,2,0:0:0:0:
64,192,246710,1,2,0:0:0:0:
320,192,246794,1,2,0:0:0:0:
192,192,246878,1,8,0:0:0:0:
64,192,246878,1,2,0:0:0:0:
64,192,246962,1,2,0:0:0:0:
320,192,247047,1,10,0:0:0:0:
448,192,247047,1,0,0:0:0:0:
448,192,247131,1,2,0:0:0:0:
192,192,247215,128,6,247889:0:0:0:0:
64,192,247215,1,0,0:0:0:0:
320,192,247299,1,2,0:0:0:0:
448,192,247384,1,2,0:0:0:0:
64,192,247468,1,2,0:0:0:0:
320,192,247552,1,10,0:0:0:0:
448,192,247552,1,0,0:0:0:0:
64,192,247637,1,8,0:0:0:0:
448,192,247721,1,0,0:0:0:50:tomdeep.wav
64,192,247805,1,0,0:0:0:50:tomdeep.wav
320,192,247889,1,0,0:0:0:50:tomdeep.wav
448,192,247974,1,0,0:0:0:50:tomdeep.wav
64,192,248058,1,0,0:0:0:50:tomdeep.wav
192,192,248142,1,0,0:0:0:50:tomdeep.wav
448,192,248226,128,6,251597:0:0:0:0:
320,192,248226,1,2,0:0:0:0:
192,192,248311,1,10,0:0:0:0:
64,192,248311,1,0,0:0:0:0:
320,192,248395,1,2,0:0:0:0:
192,192,248479,1,10,0:0:0:0:
64,192,248479,1,0,0:0:0:0:
320,192,248563,1,2,0:0:0:0:
192,192,248648,1,10,0:0:0:0:
64,192,248648,1,0,0:0:0:0:
320,192,248732,1,2,0:0:0:0:
192,192,248816,1,10,0:0:0:0:
64,192,248816,1,0,0:0:0:0:
320,192,248901,1,2,0:0:0:0:
192,192,248985,1,10,0:0:0:0:
64,192,248985,1,0,0:0:0:0:
320,192,249069,1,2,0:0:0:0:
64,192,249153,1,0,0:0:0:0:
192,192,249153,1,10,0:0:0:0:
320,192,249238,1,2,0:0:0:0:
192,192,249322,1,10,0:0:0:0:
64,192,249322,1,0,0:0:0:0:
320,192,249406,1,2,0:0:0:0:
192,192,249490,1,10,0:0:0:0:
64,192,249490,1,0,0:0:0:0:
320,192,249575,1,2,0:0:0:0:
192,192,249659,1,10,0:0:0:0:
64,192,249659,1,0,0:0:0:0:
320,192,249743,1,2,0:0:0:0:
192,192,249828,1,10,0:0:0:0:
64,192,249828,1,0,0:0:0:0:
320,192,249912,1,2,0:0:0:0:
192,192,249996,1,10,0:0:0:0:
64,192,249996,1,0,0:0:0:0:
320,192,250080,1,2,0:0:0:0:
64,192,250165,1,0,0:0:0:0:
192,192,250165,1,10,0:0:0:0:
320,192,250249,1,2,0:0:0:0:
64,192,250333,1,0,0:0:0:0:
192,192,250333,1,10,0:0:0:0:
320,192,250417,1,2,0:0:0:0:
64,192,250502,1,0,0:0:0:0:
192,192,250502,1,10,0:0:0:0:
320,192,250586,1,2,0:0:0:0:
64,192,250670,1,0,0:0:0:0:
192,192,250670,1,10,0:0:0:0:
320,192,250754,1,2,0:0:0:0:
64,192,250839,1,0,0:0:0:0:
192,192,250839,1,10,0:0:0:0:
320,192,250923,1,2,0:0:0:0:
192,192,251007,1,10,0:0:0:0:
64,192,251007,1,0,0:0:0:0:
320,192,251092,1,2,0:0:0:0:
192,192,251176,1,10,0:0:0:0:
64,192,251176,1,0,0:0:0:0:
320,192,251260,1,2,0:0:0:0:
192,192,251344,1,10,0:0:0:0:
64,192,251344,1,0,0:0:0:0:
320,192,251429,1,2,0:0:0:0:
192,192,251513,1,10,0:0:0:0:
64,192,251513,1,0,0:0:0:0:
320,192,251597,1,2,0:0:0:0:
192,192,251681,1,10,0:0:0:0:
448,192,251766,1,0,0:0:0:0:
64,192,251766,1,10,0:0:0:0:
320,192,251850,1,2,0:0:0:0:
192,192,251934,1,0,0:0:0:40:tomdeep.wav
64,192,251934,1,0,0:0:0:0:
448,192,252019,1,2,0:0:0:0:
320,192,252103,1,0,0:0:0:0:
192,192,252103,1,0,0:0:0:40:tomdeep.wav
64,192,252187,1,0,0:0:0:0:
448,192,252187,1,2,0:0:0:0:
320,192,252271,1,0,0:0:0:0:
192,192,252271,128,6,253620:0:0:0:0:
64,192,252356,1,2,0:0:0:0:
448,192,252440,1,2,0:0:0:0:
64,192,252524,1,2,0:0:0:0:
320,192,252608,1,10,0:0:0:0:
448,192,252608,1,0,0:0:0:0:
64,192,252693,1,2,0:0:0:0:
320,192,252777,1,10,0:0:0:0:
448,192,252777,1,0,0:0:0:0:
64,192,252861,1,2,0:0:0:0:
320,192,252945,1,10,0:0:0:0:
448,192,252945,1,0,0:0:0:0:
64,192,253030,1,2,0:0:0:0:
320,192,253114,1,10,0:0:0:0:
448,192,253114,1,0,0:0:0:0:
64,192,253198,1,2,0:0:0:0:
320,192,253283,1,10,0:0:0:0:
448,192,253283,1,0,0:0:0:0:
64,192,253367,1,2,0:0:0:0:
320,192,253451,1,10,0:0:0:0:
448,192,253451,1,0,0:0:0:0:
64,192,253535,1,2,0:0:0:0:
320,192,253620,1,10,0:0:0:0:
448,192,253620,1,0,0:0:0:0:
64,192,253704,1,2,0:0:0:0:
192,192,253788,1,10,0:0:0:0:
320,192,253788,1,0,0:0:0:0:
448,192,253872,1,2,0:0:0:0:
64,192,253957,1,0,0:0:0:0:
192,192,253957,1,10,0:0:0:0:
448,192,254041,1,2,0:0:0:0:
320,192,254125,1,2,0:0:0:0:
64,192,254210,1,2,0:0:0:0:
448,192,254294,128,6,254968:0:0:0:0:
320,192,254294,1,2,0:0:0:0:
192,192,254378,1,2,0:0:0:0:
64,192,254462,1,2,0:0:0:0:
320,192,254547,1,2,0:0:0:0:
192,192,254631,1,10,0:0:0:0:
64,192,254631,1,0,0:0:0:0:
320,192,254715,1,2,0:0:0:0:
192,192,254799,1,2,0:0:0:0:
64,192,254884,1,2,0:0:0:0:
192,192,254968,1,10,0:0:0:0:
320,192,254968,1,0,0:0:0:0:
448,192,255052,1,2,0:0:0:0:
320,192,255137,1,2,0:0:0:0:
64,192,255137,1,0,0:0:0:0:
192,192,255221,1,2,0:0:0:0:
64,192,255305,128,6,255979:0:0:0:0:
448,192,255305,1,8,0:0:0:0:
320,192,255389,1,8,0:0:0:0:
448,192,255474,1,8,0:0:0:0:
192,192,255558,1,8,0:0:0:0:
320,192,255642,1,8,0:0:0:0:
192,192,255726,1,8,0:0:0:0:
448,192,255811,1,0,0:0:0:40:tomdeep.wav
320,192,255895,1,0,0:0:0:40:tomdeep.wav
192,192,255979,1,0,0:0:0:40:tomdeep.wav
320,192,256063,1,0,0:0:0:40:tomdeep.wav
448,192,256148,1,0,0:0:0:40:tomdeep.wav
320,192,256232,1,0,0:0:0:40:tomdeep.wav
192,192,256316,1,2,0:0:0:0:
64,192,256401,1,8,0:0:0:0:
448,192,256401,1,0,0:0:0:0:
192,192,256485,1,2,0:0:0:0:
320,192,256569,1,8,0:0:0:0:
448,192,256569,1,0,0:0:0:0:
320,192,256653,1,0,0:0:0:45:ting.wav
192,192,256738,1,8,0:0:0:0:
64,192,256738,1,0,0:0:0:0:
448,192,256822,1,2,0:0:0:0:
320,192,256906,1,8,0:0:0:0:
192,192,256906,1,0,0:0:0:0:
192,192,256990,1,0,0:0:0:45:ting.wav
64,192,257075,1,0,0:0:0:0:
448,192,257075,1,8,0:0:0:0:
320,192,257159,1,2,0:0:0:0:
192,192,257243,1,8,0:0:0:0:
448,192,257243,1,0,0:0:0:0:
448,192,257328,1,0,0:0:0:45:ting.wav
64,192,257412,1,0,0:0:0:0:
320,192,257412,1,8,0:0:0:0:
192,192,257496,1,2,0:0:0:0:
320,192,257580,1,8,0:0:0:0:
448,192,257580,1,0,0:0:0:0:
320,192,257665,1,0,0:0:0:45:ting.wav
64,192,257749,1,0,0:0:0:0:
448,192,257749,1,8,0:0:0:0:
320,192,257833,1,2,0:0:0:0:
192,192,257917,1,8,0:0:0:0:
64,192,257917,1,0,0:0:0:0:
64,192,258002,1,0,0:0:0:45:ting.wav
448,192,258086,1,0,0:0:0:0:
192,192,258086,1,8,0:0:0:0:
320,192,258170,1,2,0:0:0:0:
192,192,258254,1,8,0:0:0:0:
64,192,258254,1,0,0:0:0:0:
192,192,258339,1,0,0:0:0:45:ting.wav
448,192,258423,1,0,0:0:0:0:
320,192,258423,1,8,0:0:0:0:
64,192,258507,1,2,0:0:0:0:
448,192,258592,1,0,0:0:0:0:
192,192,258592,1,8,0:0:0:0:
448,192,258676,1,0,0:0:0:45:ting.wav
320,192,258760,1,8,0:0:0:0:
192,192,258760,1,0,0:0:0:0:
64,192,258844,1,2,0:0:0:0:
320,192,258929,1,8,0:0:0:0:
448,192,258929,1,0,0:0:0:0:
320,192,259013,1,0,0:0:0:45:ting.wav
64,192,259097,1,0,0:0:0:0:
192,192,259097,1,8,0:0:0:0:
448,192,259181,1,2,0:0:0:0:
320,192,259266,1,8,0:0:0:0:
192,192,259266,1,0,0:0:0:0:
320,192,259350,1,0,0:0:0:45:ting.wav
64,192,259434,1,0,0:0:0:0:
448,192,259434,1,8,0:0:0:0:
192,192,259519,1,2,0:0:0:0:
320,192,259603,1,8,0:0:0:0:
64,192,259603,1,0,0:0:0:0:
64,192,259687,1,0,0:0:0:45:ting.wav
192,192,259771,1,8,0:0:0:0:
448,192,259771,1,0,0:0:0:0:
320,192,259856,1,2,0:0:0:0:
64,192,259940,1,0,0:0:0:0:
448,192,259940,1,8,0:0:0:0:
448,192,260024,1,0,0:0:0:45:ting.wav
320,192,260108,1,8,0:0:0:0:
192,192,260108,1,0,0:0:0:0:
64,192,260193,1,2,0:0:0:0:
192,192,260277,1,8,0:0:0:0:
448,192,260277,1,0,0:0:0:0:
320,192,260361,1,2,0:0:0:0:
192,192,260445,1,8,0:0:0:0:
64,192,260445,1,0,0:0:0:0:
448,192,260530,1,2,0:0:0:0:
320,192,260614,1,8,0:0:0:0:
192,192,260614,1,0,0:0:0:0:
320,192,260698,1,0,0:0:0:45:ting.wav
448,192,260783,1,8,0:0:0:0:
64,192,260783,1,0,0:0:0:0:
320,192,260867,1,2,0:0:0:0:
192,192,260951,1,8,0:0:0:0:
64,192,260951,1,0,0:0:0:0:
64,192,261035,1,0,0:0:0:45:ting.wav
448,192,261120,1,0,0:0:0:0:
192,192,261120,1,8,0:0:0:0:
320,192,261204,1,2,0:0:0:0:
448,192,261288,1,8,0:0:0:0:
64,192,261288,1,0,0:0:0:0:
448,192,261372,1,0,0:0:0:45:ting.wav
320,192,261457,1,8,0:0:0:0:
192,192,261457,1,0,0:0:0:0:
64,192,261541,1,2,0:0:0:0:
192,192,261625,1,8,0:0:0:0:
448,192,261625,1,0,0:0:0:0:
192,192,261710,1,0,0:0:0:45:ting.wav
320,192,261794,1,8,0:0:0:0:
64,192,261794,1,0,0:0:0:0:
192,192,261878,1,2,0:0:0:0:
320,192,261962,1,8,0:0:0:0:
448,192,261962,1,0,0:0:0:0:
320,192,262047,1,0,0:0:0:45:ting.wav
448,192,262131,1,2,0:0:0:0:
64,192,262131,1,0,0:0:0:0:
320,192,262215,1,2,0:0:0:0:
64,192,262299,1,0,0:0:0:0:
192,192,262299,1,8,0:0:0:0:
64,192,262384,1,0,0:0:0:45:ting.wav
192,192,262468,1,8,0:0:0:0:
448,192,262468,1,0,0:0:0:0:
320,192,262552,1,2,0:0:0:0:
448,192,262637,1,8,0:0:0:0:
64,192,262637,1,0,0:0:0:0:
448,192,262721,1,0,0:0:0:45:ting.wav
320,192,262805,1,2,0:0:0:0:
192,192,262805,1,0,0:0:0:0:
64,192,262889,1,2,0:0:0:0:
192,192,262974,1,8,0:0:0:0:
448,192,262974,1,0,0:0:0:0:
320,192,263058,128,2,263395:0:0:0:0:
64,192,263058,1,0,0:0:0:0:
192,192,263395,128,2,263732:0:0:0:0:
448,192,263395,1,0,0:0:0:0:
64,192,263732,128,10,264069:0:0:0:0:
320,192,263732,1,0,0:0:0:0:
448,192,264069,128,2,264406:0:0:0:0:
192,192,264069,1,0,0:0:0:0:
64,192,264406,1,2,0:0:0:0:
192,192,264490,1,8,0:0:0:0:
320,192,264490,1,0,0:0:0:0:
64,192,264575,1,2,0:0:0:0:
448,192,264659,1,0,0:0:0:0:
320,192,264659,1,8,0:0:0:0:
320,192,264743,1,0,0:0:0:45:ting.wav
64,192,264828,1,0,0:0:0:0:
448,192,264828,1,8,0:0:0:0:
320,192,264912,1,2,0:0:0:0:
192,192,264996,1,8,0:0:0:0:
64,192,264996,1,0,0:0:0:0:
192,192,265080,1,0,0:0:0:45:ting.wav
320,192,265165,1,8,0:0:0:0:
64,192,265165,1,0,0:0:0:0:
448,192,265249,1,2,0:0:0:0:
320,192,265333,1,8,0:0:0:0:
64,192,265333,1,0,0:0:0:0:
64,192,265417,1,0,0:0:0:45:ting.wav
192,192,265502,1,8,0:0:0:0:
448,192,265502,1,0,0:0:0:0:
320,192,265586,1,2,0:0:0:0:
64,192,265670,1,0,0:0:0:0:
448,192,265670,1,8,0:0:0:0:
448,192,265754,1,0,0:0:0:45:ting.wav
320,192,265839,1,8,0:0:0:0:
192,192,265839,1,0,0:0:0:0:
64,192,265923,1,2,0:0:0:0:
192,192,266007,1,8,0:0:0:0:
448,192,266007,1,0,0:0:0:0:
192,192,266092,1,0,0:0:0:45:ting.wav
64,192,266176,1,8,0:0:0:0:
448,192,266176,1,0,0:0:0:0:
320,192,266260,1,2,0:0:0:0:
192,192,266344,1,8,0:0:0:0:
64,192,266344,1,0,0:0:0:0:
64,192,266429,1,0,0:0:0:45:ting.wav
192,192,266513,1,8,0:0:0:0:
320,192,266513,1,0,0:0:0:0:
448,192,266597,1,2,0:0:0:0:
320,192,266681,1,8,0:0:0:0:
64,192,266681,1,0,0:0:0:0:
320,192,266766,1,0,0:0:0:45:ting.wav
192,192,266850,1,8,0:0:0:0:
64,192,266850,1,0,0:0:0:0:
448,192,266934,1,2,0:0:0:0:
320,192,267019,1,8,0:0:0:0:
192,192,267019,1,0,0:0:0:0:
192,192,267103,1,0,0:0:0:45:ting.wav
64,192,267187,1,0,0:0:0:0:
448,192,267187,1,8,0:0:0:0:
192,192,267271,1,2,0:0:0:0:
320,192,267356,1,8,0:0:0:0:
448,192,267356,1,0,0:0:0:0:
448,192,267440,1,0,0:0:0:45:ting.wav
192,192,267524,1,8,0:0:0:0:
64,192,267524,1,0,0:0:0:0:
320,192,267608,1,2,0:0:0:0:
448,192,267693,1,8,0:0:0:0:
64,192,267693,1,0,0:0:0:0:
64,192,267777,1,0,0:0:0:45:ting.wav
192,192,267861,1,0,0:0:0:0:
320,192,267861,1,8,0:0:0:0:
448,192,267945,1,2,0:0:0:0:
64,192,268030,1,0,0:0:0:0:
320,192,268030,1,8,0:0:0:0:
320,192,268114,1,0,0:0:0:45:ting.wav
448,192,268198,1,8,0:0:0:0:
64,192,268198,1,0,0:0:0:0:
320,192,268283,1,2,0:0:0:0:
192,192,268367,1,8,0:0:0:0:
64,192,268367,1,0,0:0:0:0:
448,192,268451,1,2,0:0:0:0:
320,192,268535,1,8,0:0:0:0:
192,192,268535,1,0,0:0:0:0:
64,192,268620,1,2,0:0:0:0:
192,192,268704,1,8,0:0:0:0:
448,192,268704,1,0,0:0:0:0:
192,192,268788,1,0,0:0:0:45:ting.wav
320,192,268872,1,8,0:0:0:0:
448,192,268872,1,0,0:0:0:0:
64,192,268957,1,2,0:0:0:0:
192,192,269041,1,8,0:0:0:0:
320,192,269041,1,0,0:0:0:0:
320,192,269125,1,0,0:0:0:45:ting.wav
448,192,269210,1,0,0:0:0:0:
64,192,269210,1,8,0:0:0:0:
320,192,269294,1,2,0:0:0:0:
192,192,269378,1,8,0:0:0:0:
64,192,269378,1,0,0:0:0:0:
64,192,269462,1,0,0:0:0:45:ting.wav
192,192,269547,1,8,0:0:0:0:
448,192,269547,1,0,0:0:0:0:
320,192,269631,1,2,0:0:0:0:
64,192,269715,1,0,0:0:0:0:
448,192,269715,1,8,0:0:0:0:
448,192,269799,1,0,0:0:0:45:ting.wav
320,192,269884,1,2,0:0:0:0:
192,192,269884,1,0,0:0:0:0:
192,192,269968,1,0,0:0:0:45:ting.wav
64,192,270052,1,0,0:0:0:0:
448,192,270052,1,2,0:0:0:0:
64,192,270137,1,0,0:0:0:45:ting.wav
192,192,270221,1,0,0:0:0:0:
320,192,270221,1,2,0:0:0:0:
320,192,270305,1,0,0:0:0:45:ting.wav
448,192,270389,1,8,0:0:0:0:
64,192,270389,1,0,0:0:0:0:
320,192,270474,1,0,0:0:0:50:tomdeep.wav
192,192,270474,128,0,271990:0:0:0:0:
448,192,270642,1,2,0:0:0:0:
448,192,270726,1,2,0:0:0:0:
320,192,270811,1,2,0:0:0:0:
64,192,270811,1,0,0:0:0:0:
448,192,270979,1,2,0:0:0:0:
320,192,270979,1,0,0:0:0:0:
64,192,271148,1,2,0:0:0:0:
64,192,271232,1,2,0:0:0:0:
320,192,271316,1,2,0:0:0:0:
448,192,271316,1,0,0:0:0:0:
64,192,271485,1,2,0:0:0:0:
320,192,271653,1,2,0:0:0:0:
320,192,271738,1,2,0:0:0:0:
448,192,271822,1,0,0:0:0:0:
64,192,271822,1,2,0:0:0:0:
320,192,271990,1,0,0:0:0:0:
64,192,271990,1,2,0:0:0:0:
448,192,271990,1,0,0:0:0:0:
64,192,272496,1,0,0:0:0:0:
448,192,272496,1,0,0:0:0:0:
320,192,272496,1,14,0:0:0:0:
192,192,273001,1,0,0:0:0:0:
64,192,273001,1,2,0:0:0:0:
448,192,273338,1,0,0:0:0:0:
192,192,273338,1,2,0:0:0:0:
320,192,273507,1,0,0:0:0:0:
64,192,273507,1,2,0:0:0:0:
192,192,273507,128,0,273675:0:0:0:0:
320,192,274012,1,0,0:0:0:0:
448,192,274012,1,2,0:0:0:0:
320,192,274349,1,0,0:0:0:0:
448,192,274349,1,2,0:0:0:0:
192,192,274518,128,2,274855:0:0:0:0:
64,192,274518,1,0,0:0:0:0:
64,192,274855,128,2,275192:0:0:0:0:
320,192,275024,1,0,0:0:0:0:
192,192,275024,1,2,0:0:0:0:
192,192,275192,128,2,275529:0:0:0:0:
448,192,275361,1,2,0:0:0:0:
64,192,275361,1,0,0:0:0:0:
320,192,275529,128,2,275698:0:0:0:0:
192,192,275698,128,2,275866:0:0:0:0:
448,192,275698,1,0,0:0:0:0:
64,192,275866,128,2,276035:0:0:0:0:
448,192,276035,128,2,276203:0:0:0:0:
192,192,276035,1,0,0:0:0:0:
320,192,276203,128,2,276372:0:0:0:0:
192,192,276372,128,2,276540:0:0:0:0:
64,192,276372,1,0,0:0:0:0:
448,192,276540,1,2,0:0:0:0:
64,192,276878,1,0,0:0:0:0:
320,192,276878,1,2,0:0:0:0:
192,192,277046,1,0,0:0:0:0:
448,192,277046,1,2,0:0:0:0:
320,192,277130,1,2,0:0:0:0:
192,192,277215,1,2,0:0:0:0:
64,192,277215,1,0,0:0:0:0:
320,192,277552,1,10,0:0:0:0:
448,192,277552,1,0,0:0:0:0:
64,192,277552,1,0,0:0:0:0:
192,192,277889,1,2,0:0:0:0:
320,192,277889,1,0,0:0:0:0:
64,192,278057,1,2,0:0:0:0:
192,192,278142,1,2,0:0:0:0:
320,192,278226,1,2,0:0:0:0:
448,192,278226,1,0,0:0:0:0:
64,192,278563,1,0,0:0:0:0:
192,192,278563,1,2,0:0:0:0:
448,192,278900,1,0,0:0:0:0:
320,192,278900,1,2,0:0:0:0:
64,192,279069,1,2,0:0:0:0:
320,192,279153,1,2,0:0:0:0:
192,192,279237,1,2,0:0:0:0:
448,192,279237,1,0,0:0:0:0:
64,192,279574,1,0,0:0:0:0:
448,192,279574,1,0,0:0:0:0:
192,192,279574,128,2,279743:0:0:0:0:
64,192,279743,128,2,279911:0:0:0:0:
320,192,279743,1,0,0:0:0:0:
192,192,279911,128,2,280080:0:0:0:0:
448,192,279911,1,0,0:0:0:0:
320,192,280080,128,2,280248:0:0:0:0:
64,192,280080,1,0,0:0:0:0:
448,192,280248,128,2,280417:0:0:0:0:
192,192,280248,1,0,0:0:0:0:
64,192,280417,128,2,280585:0:0:0:0:
320,192,280417,1,0,0:0:0:0:
448,192,280585,1,2,0:0:0:0:
320,192,280670,1,2,0:0:0:0:
192,192,280754,1,2,0:0:0:0:
64,192,280754,1,0,0:0:0:0:
320,192,281091,1,2,0:0:0:0:
448,192,281091,1,0,0:0:0:0:
64,192,281428,1,0,0:0:0:0:
320,192,281428,1,2,0:0:0:0:
192,192,281597,1,2,0:0:0:0:
64,192,281597,1,0,0:0:0:0:
448,192,281597,128,10,281765:0:0:0:0:
64,192,282102,1,0,0:0:0:0:
448,192,282102,1,2,0:0:0:0:
64,192,282439,1,0,0:0:0:0:
448,192,282439,1,2,0:0:0:0:
192,192,282608,1,0,0:0:0:0:
320,192,282608,1,2,0:0:0:0:
192,192,283113,1,0,0:0:0:0:
448,192,283113,1,2,0:0:0:0:
192,192,283451,1,0,0:0:0:0:
320,192,283451,1,2,0:0:0:0:
64,192,283619,1,0,0:0:0:0:
448,192,283619,128,10,283788:0:0:0:0:
192,192,283619,1,0,0:0:0:0:
192,192,283788,128,2,283956:0:0:0:0:
320,192,283956,128,2,284125:0:0:0:0:
64,192,284125,128,2,284293:0:0:0:0:
448,192,284125,1,0,0:0:0:0:
448,192,284293,128,2,284462:0:0:0:0:
320,192,284462,128,2,284630:0:0:0:0:
192,192,284462,1,0,0:0:0:0:
64,192,284630,1,2,0:0:0:0:
448,192,284799,1,2,0:0:0:0:
192,192,284883,1,2,0:0:0:0:
64,192,284967,1,0,0:0:0:0:
448,192,284967,1,2,0:0:0:0:
192,192,285136,1,0,0:0:0:0:
320,192,285136,1,2,0:0:0:0:
448,192,285304,1,0,0:0:0:0:
320,192,285304,1,2,0:0:0:0:
192,192,285473,1,2,0:0:0:0:
64,192,285473,1,0,0:0:0:0:
320,192,285642,1,10,0:0:0:0:
448,192,285642,1,0,0:0:0:0:
64,192,285642,1,0,0:0:0:0:
192,192,285810,1,2,0:0:0:0:
448,192,285894,1,2,0:0:0:0:
64,192,285979,1,0,0:0:0:0:
320,192,285979,1,2,0:0:0:0:
192,192,286147,1,2,0:0:0:0:
448,192,286147,1,0,0:0:0:0:
320,192,286316,1,2,0:0:0:0:
192,192,286316,1,0,0:0:0:0:
64,192,286484,1,0,0:0:0:0:
448,192,286484,1,2,0:0:0:0:
320,192,286653,1,2,0:0:0:0:
192,192,286653,1,0,0:0:0:0:
64,192,286821,1,0,0:0:0:0:
320,192,286821,1,2,0:0:0:0:
448,192,286906,1,2,0:0:0:0:
192,192,286990,1,2,0:0:0:0:
448,192,287158,1,0,0:0:0:0:
64,192,287158,1,2,0:0:0:0:
320,192,287327,1,0,0:0:0:0:
192,192,287327,1,2,0:0:0:0:
320,192,287496,1,2,0:0:0:0:
448,192,287496,1,0,0:0:0:0:
192,192,287664,1,2,0:0:0:0:
64,192,287664,1,0,0:0:0:0:
448,192,287833,1,0,0:0:0:0:
192,192,287833,1,2,0:0:0:0:
64,192,288001,1,0,0:0:0:0:
320,192,288001,128,2,288170:0:0:0:0:
192,192,288170,128,2,288338:0:0:0:0:
448,192,288338,128,2,288507:0:0:0:0:
64,192,288507,128,2,288675:0:0:0:0:
320,192,288507,1,0,0:0:0:0:
192,192,288675,128,2,289349:0:0:0:0:
448,192,288675,1,8,0:0:0:0:
320,192,288760,1,8,0:0:0:0:
64,192,288844,1,2,0:0:0:0:
448,192,288928,1,8,0:0:0:0:
64,192,289012,1,2,0:0:0:0:
320,192,289097,1,8,0:0:0:0:
448,192,289181,1,2,0:0:0:0:
64,192,289265,1,8,0:0:0:0:
448,192,289349,128,2,289687:0:0:0:0:
320,192,289349,1,0,0:0:0:0:
192,192,289434,1,8,0:0:0:0:
64,192,289518,1,2,0:0:0:0:
320,192,289602,1,8,0:0:0:0:
192,192,289687,1,0,0:0:0:0:
64,192,289687,128,2,290361:0:0:0:0:
448,192,289771,1,8,0:0:0:0:
192,192,289855,1,2,0:0:0:0:
320,192,289939,1,8,0:0:0:0:
448,192,290024,1,2,0:0:0:0:
192,192,290108,1,8,0:0:0:0:
320,192,290192,1,2,0:0:0:0:
448,192,290276,1,8,0:0:0:0:
320,192,290361,128,2,290698:0:0:0:0:
192,192,290361,1,0,0:0:0:0:
64,192,290445,1,8,0:0:0:0:
448,192,290529,1,2,0:0:0:0:
192,192,290613,1,8,0:0:0:0:
64,192,290698,128,2,290782:0:0:0:0:
448,192,290698,1,0,0:0:0:0:
192,192,290782,128,0,290866:0:0:0:0:
448,192,290866,128,0,290951:0:0:0:0:
320,192,290951,128,0,291035:0:0:0:0:
192,192,291035,128,0,291119:0:0:0:0:
64,192,291119,128,0,291203:0:0:0:0:
448,192,291203,128,0,291288:0:0:0:0:
320,192,291288,128,0,291372:0:0:0:0:
192,192,291372,128,0,291456:0:0:0:0:
64,192,291456,128,0,291540:0:0:0:0:
448,192,291540,128,0,291625:0:0:0:0:
320,192,291625,128,0,291709:0:0:0:0:
192,192,291709,128,0,292215:0:0:0:0:
64,192,291793,1,8,0:0:0:0:
320,192,291878,1,2,0:0:0:0:
448,192,291962,1,8,0:0:0:0:
320,192,292046,1,2,0:0:0:0:
64,192,292130,1,8,0:0:0:0:
448,192,292215,128,0,292299:0:0:0:0:
320,192,292299,128,0,292383:0:0:0:0:
64,192,292383,128,0,292467:0:0:0:0:
192,192,292467,128,0,292552:0:0:0:0:
448,192,292552,128,0,292636:0:0:0:0:
320,192,292636,128,0,292720:0:0:0:0:
64,192,292720,128,2,292973:0:0:0:0:
192,192,292720,1,0,0:0:0:0:
448,192,292804,1,8,0:0:0:0:
192,192,292889,1,2,0:0:0:0:
320,192,292973,1,8,0:0:0:0:
448,192,293057,128,0,293310:0:0:0:0:
192,192,293057,1,2,0:0:0:0:
64,192,293142,1,8,0:0:0:0:
192,192,293226,1,2,0:0:0:0:
320,192,293310,1,8,0:0:0:0:
192,192,293394,128,2,293647:0:0:0:0:
64,192,293394,1,0,0:0:0:0:
448,192,293479,1,8,0:0:0:0:
320,192,293563,1,2,0:0:0:0:
64,192,293647,1,8,0:0:0:0:
320,192,293731,128,2,293984:0:0:0:0:
448,192,293731,1,0,0:0:0:0:
192,192,293816,1,8,0:0:0:0:
64,192,293900,1,2,0:0:0:0:
448,192,293984,1,8,0:0:0:0:
64,192,294069,128,2,294321:0:0:0:0:
192,192,294153,1,8,0:0:0:0:
320,192,294237,1,2,0:0:0:0:
448,192,294321,1,8,0:0:0:0:
192,192,294406,128,2,294658:0:0:0:0:
320,192,294406,1,0,0:0:0:0:
64,192,294490,1,8,0:0:0:0:
448,192,294574,1,2,0:0:0:0:
320,192,294658,1,8,0:0:0:0:
448,192,294743,128,0,294996:0:0:0:0:
64,192,294743,1,2,0:0:0:0:
320,192,294827,1,8,0:0:0:0:
192,192,294911,1,2,0:0:0:0:
64,192,294996,1,8,0:0:0:0:
320,192,295080,128,0,295333:0:0:0:0:
192,192,295164,1,8,0:0:0:0:
448,192,295248,1,2,0:0:0:0:
64,192,295333,1,8,0:0:0:0:
448,192,295417,128,2,295670:0:0:0:0:
192,192,295417,1,2,0:0:0:0:
64,192,295501,1,8,0:0:0:0:
192,192,295585,1,2,0:0:0:0:
320,192,295670,1,8,0:0:0:0:
64,192,295754,128,2,295838:0:0:0:0:
192,192,295754,1,0,0:0:0:0:
320,192,295838,128,0,295922:0:0:0:0:
192,192,295922,128,0,296007:0:0:0:0:
448,192,296007,128,0,296091:0:0:0:0:
64,192,296091,128,0,296175:0:0:0:0:
192,192,296175,128,0,296260:0:0:0:0:
320,192,296260,128,0,296344:0:0:0:0:
448,192,296344,128,0,296428:0:0:0:0:
64,192,296428,128,0,296512:0:0:0:0:
192,192,296512,128,0,296597:0:0:0:0:
320,192,296597,128,0,296681:0:0:0:0:
448,192,296681,128,0,296765:0:0:0:0:
64,192,296765,128,6,297271:0:0:0:0:
192,192,296765,1,0,0:0:0:0:
320,192,296849,1,8,0:0:0:0:
448,192,296934,1,2,0:0:0:0:
192,192,297018,1,8,0:0:0:0:
320,192,297102,1,2,0:0:0:0:
448,192,297187,1,8,0:0:0:0:
320,192,297271,128,0,297355:0:0:0:0:
192,192,297355,128,0,297439:0:0:0:0:
448,192,297439,128,0,297524:0:0:0:0:
320,192,297524,128,0,297608:0:0:0:0:
192,192,297608,128,0,297692:0:0:0:0:
64,192,297692,128,0,297776:0:0:0:0:
320,192,297776,128,2,298282:0:0:0:0:
448,192,297776,1,0,0:0:0:0:
192,192,297861,1,8,0:0:0:0:
448,192,297945,1,2,0:0:0:0:
64,192,298029,1,8,0:0:0:0:
192,192,298113,1,2,0:0:0:0:
448,192,298198,1,8,0:0:0:0:
64,192,298282,128,0,298366:0:0:0:0:
192,192,298366,128,0,298451:0:0:0:0:
448,192,298451,128,0,298535:0:0:0:0:
320,192,298535,128,0,298619:0:0:0:0:
64,192,298619,128,0,298703:0:0:0:0:
448,192,298703,128,0,298788:0:0:0:0:
192,192,298788,128,2,299462:0:0:0:0:
320,192,298788,1,0,0:0:0:0:
64,192,298872,1,8,0:0:0:0:
320,192,298956,1,2,0:0:0:0:
448,192,299040,1,8,0:0:0:0:
320,192,299125,1,2,0:0:0:0:
64,192,299209,1,8,0:0:0:0:
448,192,299293,1,2,0:0:0:0:
320,192,299378,1,8,0:0:0:0:
64,192,299462,128,0,299799:0:0:0:0:
448,192,299462,1,2,0:0:0:0:
192,192,299546,1,8,0:0:0:0:
320,192,299630,1,2,0:0:0:0:
448,192,299715,1,8,0:0:0:0:
320,192,299799,128,0,300304:0:0:0:0:
192,192,299883,1,8,0:0:0:0:
64,192,299967,1,2,0:0:0:0:
448,192,300052,1,8,0:0:0:0:
192,192,300136,1,2,0:0:0:0:
64,192,300220,1,8,0:0:0:0:
448,192,300304,128,0,300389:0:0:0:0:
192,192,300389,128,0,300473:0:0:0:0:
320,192,300473,128,0,300557:0:0:0:0:
64,192,300557,128,0,300642:0:0:0:0:
448,192,300642,128,0,300726:0:0:0:0:
320,192,300726,128,0,300810:0:0:0:0:
192,192,300810,128,0,300894:0:0:0:0:
64,192,300894,128,0,300979:0:0:0:0:
448,192,300979,128,0,301063:0:0:0:0:
320,192,301063,128,0,301147:0:0:0:0:
192,192,301147,128,0,301231:0:0:0:0:
64,192,301231,128,0,301316:0:0:0:0:
192,192,301316,128,0,301400:0:0:0:0:
320,192,301400,128,0,301484:0:0:0:0:
448,192,301484,128,0,301569:0:0:0:0:
64,192,301569,128,0,301653:0:0:0:0:
192,192,301653,128,0,301737:0:0:0:0:
320,192,301737,128,0,301821:0:0:0:0:
448,192,301821,128,0,301906:0:0:0:0:
192,192,301906,128,0,301990:0:0:0:0:
64,192,301990,128,0,302074:0:0:0:0:
192,192,302074,128,0,302158:0:0:0:0:
320,192,302158,128,0,302243:0:0:0:0:
64,192,302243,128,0,302327:0:0:0:0:
448,192,302327,128,0,302411:0:0:0:0:
320,192,302411,128,0,302496:0:0:0:0:
192,192,302496,128,0,302580:0:0:0:0:
64,192,302580,128,0,302664:0:0:0:0:
192,192,302664,128,0,302748:0:0:0:0:
320,192,302748,128,0,302833:0:0:0:0:
448,192,302833,128,0,302917:0:0:0:0:
192,192,302917,128,0,303001:0:0:0:0:
64,192,303001,128,0,303085:0:0:0:0:
320,192,303085,128,0,303170:0:0:0:0:
192,192,303170,128,0,303254:0:0:0:0:
64,192,303254,128,0,303338:0:0:0:0:
448,192,303338,128,0,303422:0:0:0:0:
320,192,303422,128,0,303507:0:0:0:0:
192,192,303507,128,0,303591:0:0:0:0:
64,192,303591,128,0,303675:0:0:0:0:
448,192,303675,128,0,303760:0:0:0:0:
320,192,303760,128,0,303844:0:0:0:0:
64,192,303844,128,0,303928:0:0:0:0:
448,192,303928,128,0,304012:0:0:0:0:
192,192,304012,128,0,304097:0:0:0:0:
320,192,304097,128,0,304181:0:0:0:0:
448,192,304181,128,0,304265:0:0:0:0:
192,192,304265,128,0,304349:0:0:0:0:
320,192,304349,128,0,304434:0:0:0:0:
448,192,304434,128,0,304518:0:0:0:0:
64,192,304518,128,0,304602:0:0:0:0:
192,192,304602,128,0,304687:0:0:0:0:
320,192,304687,128,0,304771:0:0:0:0:
448,192,304771,128,0,304855:0:0:0:0:
64,192,304855,128,0,304939:0:0:0:0:
192,192,304855,1,0,0:0:0:0:
192,192,305024,128,0,305108:0:0:0:0:
320,192,305024,1,0,0:0:0:0:
320,192,305192,128,0,305276:0:0:0:0:
64,192,305192,1,0,0:0:0:0:
192,192,305361,128,0,305445:0:0:0:0:
448,192,305361,1,0,0:0:0:0:
320,192,305529,128,0,305613:0:0:0:0:
64,192,305529,1,0,0:0:0:0:
448,192,305698,128,0,305866:0:0:0:0:
192,192,305698,1,0,0:0:0:0:
64,192,305866,1,0,0:0:0:0:
192,192,305866,1,10,0:0:0:0:
64,192,305951,1,2,0:0:0:0:
192,192,305951,1,0,0:0:0:0:
448,192,306035,1,2,0:0:0:0:
320,192,306035,1,0,0:0:0:0:
192,192,306203,1,0,0:0:0:0:
64,192,306203,1,10,0:0:0:0:
192,192,306288,1,2,0:0:0:0:
64,192,306288,1,0,0:0:0:0:
320,192,306372,1,2,0:0:0:0:
448,192,306372,1,0,0:0:0:0:
64,192,306540,1,0,0:0:0:0:
192,192,306540,1,10,0:0:0:0:
64,192,306625,1,2,0:0:0:0:
192,192,306625,1,0,0:0:0:0:
448,192,306709,1,2,0:0:0:0:
320,192,306709,1,0,0:0:0:0:
320,192,306878,1,0,0:0:0:0:
192,192,306878,1,10,0:0:0:0:
320,192,307046,1,2,0:0:0:0:
64,192,307046,1,0,0:0:0:0:
448,192,307215,1,0,0:0:0:0:
64,192,307215,1,10,0:0:0:0:
320,192,307383,1,0,0:0:0:0:
192,192,307383,1,2,0:0:0:0:
64,192,307552,1,0,0:0:0:0:
192,192,307552,1,10,0:0:0:0:
192,192,307720,1,2,0:0:0:0:
320,192,307720,1,0,0:0:0:0:
320,192,307889,1,10,0:0:0:0:
448,192,307889,1,0,0:0:0:0:
448,192,308057,1,0,0:0:0:0:
192,192,308057,1,2,0:0:0:0:
192,192,308226,1,2,0:0:0:0:
320,192,308226,1,0,0:0:0:0:
64,192,308394,1,2,0:0:0:0:
448,192,308394,1,0,0:0:0:0:
64,192,308563,1,2,0:0:0:0:
320,192,308563,1,0,0:0:0:0:
192,192,308731,1,0,0:0:0:0:
64,192,308731,1,2,0:0:0:0:
448,192,308900,1,0,0:0:0:0:
320,192,308900,1,2,0:0:0:0:
320,192,308956,1,0,0:0:0:0:
448,192,308956,1,2,0:0:0:0:
192,192,309012,1,0,0:0:0:0:
64,192,309012,1,2,0:0:0:0:
64,192,309069,1,2,0:0:0:0:
192,192,309069,1,0,0:0:0:0:
320,192,309237,1,2,0:0:0:0:
448,192,309237,1,0,0:0:0:0:
320,192,309293,1,0,0:0:0:0:
448,192,309293,1,2,0:0:0:0:
64,192,309349,1,2,0:0:0:0:
192,192,309349,1,0,0:0:0:0:
192,192,309406,1,0,0:0:0:0:
64,192,309406,1,2,0:0:0:0:
448,192,309574,1,0,0:0:0:0:
320,192,309574,1,2,0:0:0:0:
448,192,309630,1,2,0:0:0:0:
320,192,309630,1,0,0:0:0:0:
192,192,309687,1,0,0:0:0:0:
64,192,309687,1,2,0:0:0:0:
64,192,309743,1,2,0:0:0:0:
192,192,309743,1,0,0:0:0:0:
320,192,309911,1,2,0:0:0:0:
448,192,309911,1,0,0:0:0:0:
320,192,309967,1,0,0:0:0:0:
448,192,309967,1,2,0:0:0:0:
64,192,310024,1,2,0:0:0:0:
192,192,310024,1,0,0:0:0:0:
192,192,310080,1,0,0:0:0:0:
64,192,310080,1,2,0:0:0:0:
320,192,310248,1,2,0:0:0:0:
448,192,310248,1,0,0:0:0:0:
448,192,310304,1,2,0:0:0:0:
320,192,310304,1,0,0:0:0:0:
192,192,310361,1,0,0:0:0:0:
64,192,310361,1,2,0:0:0:0:
64,192,310417,1,2,0:0:0:0:
192,192,310417,1,0,0:0:0:0:
320,192,310585,1,2,0:0:0:0:
448,192,310585,1,0,0:0:0:0:
320,192,310642,1,0,0:0:0:0:
448,192,310642,1,2,0:0:0:0:
64,192,310698,1,2,0:0:0:0:
192,192,310698,1,0,0:0:0:0:
192,192,310754,1,0,0:0:0:0:
64,192,310754,1,2,0:0:0:0:
448,192,310922,1,2,0:0:0:0:
192,192,310922,1,0,0:0:0:0:
320,192,311007,1,2,0:0:0:0:
64,192,311007,1,0,0:0:0:0:
64,192,311091,1,2,0:0:0:0:
192,192,311091,1,0,0:0:0:0:
192,192,311175,1,2,0:0:0:0:
320,192,311175,1,0,0:0:0:0:
448,192,311260,128,8,311428:0:0:0:0:
320,192,311260,1,2,0:0:0:0:
64,192,311260,1,0,0:0:0:0:
192,192,311428,128,0,311597:0:0:0:0:
320,192,311597,128,10,311934:0:0:0:0:
64,192,311597,1,0,0:0:0:0:
64,192,311934,1,2,0:0:0:0:
192,192,311934,1,0,0:0:0:0:
192,192,312018,1,2,0:0:0:0:
448,192,312018,1,0,0:0:0:0:
448,192,312102,1,2,0:0:0:0:
320,192,312102,1,0,0:0:0:0:
320,192,312187,1,8,0:0:0:0:
192,192,312187,1,0,0:0:0:0:
64,192,312271,128,10,312608:0:0:0:0:
448,192,312271,1,0,0:0:0:0:
192,192,312439,1,8,0:0:0:0:
448,192,312439,1,0,0:0:0:0:
320,192,312608,128,2,312945:0:0:0:0:
64,192,312945,1,10,0:0:0:0:
448,192,312945,1,0,0:0:0:0:
320,192,313113,1,2,0:0:0:0:
448,192,313113,1,0,0:0:0:0:
448,192,313282,1,0,0:0:0:0:
192,192,313282,1,10,0:0:0:0:
320,192,313451,1,0,0:0:0:0:
192,192,313451,1,2,0:0:0:0:
320,192,313619,1,10,0:0:0:0:
64,192,313619,1,0,0:0:0:0:
192,192,313788,1,2,0:0:0:0:
64,192,313788,1,0,0:0:0:0:
320,192,313956,1,10,0:0:0:0:
448,192,313956,1,0,0:0:0:0:
448,192,314040,1,2,0:0:0:0:
320,192,314040,1,0,0:0:0:0:
64,192,314125,1,2,0:0:0:0:
192,192,314125,1,0,0:0:0:0:
320,192,314293,1,0,0:0:0:0:
448,192,314293,1,10,0:0:0:0:
448,192,314378,1,0,0:0:0:0:
320,192,314378,1,2,0:0:0:0:
192,192,314462,1,2,0:0:0:0:
64,192,314462,1,0,0:0:0:0:
320,192,314630,1,10,0:0:0:0:
448,192,314630,1,0,0:0:0:0:
320,192,314715,1,2,0:0:0:0:
448,192,314715,1,0,0:0:0:0:
192,192,314799,1,2,0:0:0:0:
64,192,314799,1,0,0:0:0:0:
320,192,314967,1,10,0:0:0:0:
192,192,314967,1,0,0:0:0:0:
192,192,315136,1,2,0:0:0:0:
448,192,315136,1,0,0:0:0:0:
320,192,315304,1,10,0:0:0:0:
64,192,315304,1,0,0:0:0:0:
192,192,315473,1,0,0:0:0:0:
320,192,315473,1,2,0:0:0:0:
448,192,315642,1,10,0:0:0:0:
64,192,315642,1,0,0:0:0:0:
448,192,315810,1,2,0:0:0:0:
192,192,315810,1,0,0:0:0:0:
320,192,315979,1,0,0:0:0:0:
448,192,315979,1,10,0:0:0:0:
320,192,316147,1,2,0:0:0:0:
192,192,316147,1,0,0:0:0:0:
64,192,316316,1,0,0:0:0:0:
448,192,316316,1,10,0:0:0:0:
320,192,316484,1,2,0:0:0:0:
448,192,316484,1,0,0:0:0:0:
320,192,316653,1,2,0:0:0:0:
192,192,316653,1,0,0:0:0:0:
192,192,316821,1,2,0:0:0:0:
64,192,316821,1,0,0:0:0:0:
64,192,316990,1,0,0:0:0:0:
192,192,316990,1,2,0:0:0:0:
64,192,317046,1,2,0:0:0:0:
192,192,317046,1,0,0:0:0:0:
320,192,317102,1,0,0:0:0:0:
448,192,317102,1,2,0:0:0:0:
448,192,317158,1,2,0:0:0:0:
320,192,317158,1,0,0:0:0:0:
192,192,317327,1,2,0:0:0:0:
64,192,317327,1,0,0:0:0:0:
64,192,317383,1,2,0:0:0:0:
192,192,317383,1,0,0:0:0:0:
448,192,317439,1,2,0:0:0:0:
320,192,317439,1,0,0:0:0:0:
320,192,317496,1,0,0:0:0:0:
448,192,317496,1,2,0:0:0:0:
64,192,317664,1,0,0:0:0:0:
192,192,317664,1,2,0:0:0:0:
192,192,317720,1,0,0:0:0:0:
64,192,317720,1,2,0:0:0:0:
320,192,317776,1,0,0:0:0:0:
448,192,317776,1,2,0:0:0:0:
448,192,317833,1,2,0:0:0:0:
320,192,317833,1,0,0:0:0:0:
192,192,318001,1,10,0:0:0:0:
64,192,318001,1,0,0:0:0:0:
64,192,318057,1,2,0:0:0:0:
192,192,318057,1,0,0:0:0:0:
448,192,318113,1,2,0:0:0:0:
320,192,318113,1,0,0:0:0:0:
320,192,318170,1,0,0:0:0:0:
448,192,318170,1,2,0:0:0:0:
64,192,318338,1,0,0:0:0:0:
192,192,318338,1,2,0:0:0:0:
192,192,318394,1,0,0:0:0:0:
64,192,318394,1,2,0:0:0:0:
320,192,318451,1,0,0:0:0:0:
448,192,318451,1,2,0:0:0:0:
448,192,318507,1,2,0:0:0:0:
320,192,318507,1,0,0:0:0:0:
192,192,318675,1,2,0:0:0:0:
64,192,318675,1,0,0:0:0:0:
64,192,318731,1,2,0:0:0:0:
192,192,318731,1,0,0:0:0:0:
448,192,318788,1,2,0:0:0:0:
320,192,318788,1,0,0:0:0:0:
320,192,318844,1,0,0:0:0:0:
448,192,318844,1,2,0:0:0:0:
320,192,319012,128,2,319181:0:0:0:0:
64,192,319012,1,0,0:0:0:0:
448,192,319181,128,2,319349:0:0:0:0:
192,192,319181,1,0,0:0:0:0:
64,192,319349,128,2,319518:0:0:0:0:
320,192,319349,1,0,0:0:0:0:
192,192,319518,1,0,0:0:0:0:
320,192,319518,1,2,0:0:0:0:
448,192,319687,1,2,0:0:0:0:
64,192,319687,1,0,0:0:0:0:
320,192,319771,1,0,0:0:0:0:
192,192,319771,1,0,0:0:0:0:
64,192,319855,1,0,0:0:0:0:
448,192,319855,1,0,0:0:0:0:
64,192,320024,128,0,320192:0:0:0:0:
192,192,320192,128,0,320361:0:0:0:0:
448,192,320361,128,0,320529:0:0:0:0:
320,192,320529,1,2,0:0:0:0:
64,192,320529,1,0,0:0:0:0:
192,192,320698,1,0,0:0:0:0:
448,192,320698,1,2,0:0:0:0:
320,192,320782,1,0,0:0:0:0:
64,192,320782,1,0,0:0:0:0:
448,192,320866,1,0,0:0:0:0:
192,192,320866,1,0,0:0:0:0:
320,192,321035,1,0,0:0:0:0:
448,192,321035,128,6,321203:0:0:0:0:
192,192,321203,1,0,0:0:0:0:
320,192,321203,128,2,321372:0:0:0:0:
64,192,321372,1,0,0:0:0:0:
192,192,321372,128,2,321540:0:0:0:0:
320,192,321540,1,0,0:0:0:0:
448,192,321540,1,10,0:0:0:0:
64,192,321709,1,0,0:0:0:0:
192,192,321793,1,0,0:0:0:0:
320,192,321793,1,10,0:0:0:0:
448,192,321878,1,0,0:0:0:0:
64,192,322046,1,0,0:0:0:0:
448,192,322215,1,0,0:0:0:0:
64,192,322299,1,0,0:0:0:0:
320,192,322299,1,10,0:0:0:0:
192,192,322383,1,0,0:0:0:0:
448,192,322552,1,10,0:0:0:0:
64,192,322552,1,0,0:0:0:0:
192,192,322720,1,0,0:0:0:0:
320,192,322804,1,10,0:0:0:0:
448,192,322804,1,0,0:0:0:0:
192,192,322889,1,10,0:0:0:0:
64,192,322889,1,0,0:0:0:0:
448,192,322973,1,0,0:0:0:0:
320,192,323057,128,6,323226:0:0:0:0:
192,192,323226,128,0,323394:0:0:0:0:
448,192,323394,128,0,323563:0:0:0:0:
192,192,323563,1,0,0:0:0:0:
64,192,323563,128,10,323731:0:0:0:0:
320,192,323731,128,0,323900:0:0:0:0:
448,192,323900,128,0,324069:0:0:0:0:
64,192,324069,1,0,0:0:0:0:
192,192,324237,1,10,0:0:0:0:
448,192,324237,1,0,0:0:0:0:
320,192,324406,128,0,324574:0:0:0:0:
64,192,324574,1,10,0:0:0:0:
448,192,324743,1,0,0:0:0:0:
320,192,324743,1,0,0:0:0:0:
192,192,324911,128,0,325080:0:0:0:0:
448,192,325080,1,0,0:0:0:0:
64,192,325248,1,0,0:0:0:0:
448,192,325417,128,0,325585:0:0:0:0:
64,192,325585,1,0,0:0:0:0:
192,192,325585,1,10,0:0:0:0:
448,192,325754,1,0,0:0:0:0:
320,192,325838,1,0,0:0:0:0:
192,192,325922,1,2,0:0:0:0:
64,192,325922,1,0,0:0:0:0:
448,192,326091,1,2,0:0:0:0:
64,192,326260,1,0,0:0:0:0:
192,192,326344,1,0,0:0:0:0:
320,192,326428,1,10,0:0:0:0:
448,192,326428,1,0,0:0:0:0:
64,192,326597,1,0,0:0:0:0:
192,192,326597,1,10,0:0:0:0:
320,192,326765,1,0,0:0:0:0:
192,192,326849,1,0,0:0:0:0:
64,192,326934,1,2,0:0:0:0:
448,192,326934,1,0,0:0:0:0:
192,192,327102,1,2,0:0:0:0:
320,192,327187,1,2,0:0:0:0:
448,192,327271,1,2,0:0:0:0:
64,192,327355,1,2,0:0:0:0:
192,192,327439,1,2,0:0:0:0:
448,192,327524,1,2,0:0:0:0:
320,192,327608,1,10,0:0:0:0:
192,192,327608,1,0,0:0:0:0:
64,192,327692,1,2,0:0:0:0:
448,192,327776,1,2,0:0:0:0:
320,192,327861,1,2,0:0:0:0:
192,192,327945,1,2,0:0:0:0:
64,192,328029,1,2,0:0:0:0:
320,192,328113,1,2,0:0:0:0:
192,192,328198,1,2,0:0:0:0:
448,192,328282,1,2,0:0:0:0:
320,192,328366,1,2,0:0:0:0:
64,192,328451,1,2,0:0:0:0:
192,192,328535,1,2,0:0:0:0:
320,192,328619,1,10,0:0:0:0:
448,192,328619,1,0,0:0:0:0:
64,192,328703,1,2,0:0:0:0:
192,192,328788,1,2,0:0:0:0:
448,192,328872,1,2,0:0:0:0:
320,192,328956,1,2,0:0:0:0:
192,192,329040,1,2,0:0:0:0:
64,192,329125,1,2,0:0:0:0:
320,192,329209,1,2,0:0:0:0:
192,192,329293,1,2,0:0:0:0:
448,192,329378,1,2,0:0:0:0:
64,192,329462,1,2,0:0:0:0:
320,192,329546,1,2,0:0:0:0:
448,192,329630,1,0,0:0:0:0:
192,192,329630,1,10,0:0:0:0:
64,192,329715,1,2,0:0:0:0:
320,192,329799,1,2,0:0:0:0:
192,192,329883,1,2,0:0:0:0:
448,192,329967,1,2,0:0:0:0:
64,192,330052,1,2,0:0:0:0:
192,192,330136,1,2,0:0:0:0:
320,192,330220,1,2,0:0:0:0:
448,192,330304,1,2,0:0:0:0:
64,192,330389,1,2,0:0:0:0:
320,192,330473,1,2,0:0:0:0:
192,192,330557,1,2,0:0:0:0:
448,192,330642,1,0,0:0:0:0:
64,192,330642,1,10,0:0:0:0:
320,192,330726,1,2,0:0:0:0:
192,192,330810,1,2,0:0:0:0:
64,192,330810,1,0,0:0:0:0:
320,192,330894,1,2,0:0:0:0:
448,192,330894,1,0,0:0:0:0:
192,192,330979,1,2,0:0:0:0:
64,192,330979,1,0,0:0:0:0:
448,192,331147,128,0,331316:0:0:0:0:
192,192,331316,128,0,331484:0:0:0:0:
320,192,331484,128,0,331653:0:0:0:0:
64,192,331653,128,0,331821:0:0:0:0:
448,192,331653,1,10,0:0:0:0:
192,192,331821,128,0,331990:0:0:0:0:
448,192,331990,128,0,332158:0:0:0:0:
64,192,332158,1,0,0:0:0:0:
192,192,332327,1,0,0:0:0:0:
448,192,332495,128,0,332664:0:0:0:0:
64,192,332664,1,0,0:0:0:0:
320,192,332664,1,10,0:0:0:0:
192,192,332833,1,0,0:0:0:0:
64,192,333001,128,0,333170:0:0:0:0:
320,192,333170,1,0,0:0:0:0:
192,192,333338,1,0,0:0:0:0:
448,192,333507,128,0,333675:0:0:0:0:
192,192,333675,1,10,0:0:0:0:
64,192,333675,1,0,0:0:0:0:
320,192,333844,1,0,0:0:0:0:
192,192,333928,1,0,0:0:0:0:
64,192,334012,1,0,0:0:0:0:
448,192,334012,1,2,0:0:0:0:
192,192,334181,1,0,0:0:0:0:
448,192,334349,1,0,0:0:0:0:
64,192,334434,1,0,0:0:0:0:
192,192,334518,1,2,0:0:0:0:
448,192,334518,1,0,0:0:0:0:
320,192,334687,1,10,0:0:0:0:
64,192,334687,1,0,0:0:0:0:
448,192,334855,1,0,0:0:0:0:
320,192,334939,1,0,0:0:0:0:
192,192,335024,1,2,0:0:0:0:
64,192,335024,1,0,0:0:0:0:
448,192,335192,128,0,335361:0:0:0:0:
320,192,335361,128,0,335529:0:0:0:0:
192,192,335529,128,0,335698:0:0:0:0:
64,192,335698,1,0,0:0:0:0:
448,192,335698,1,10,0:0:0:0:
320,192,335866,1,0,0:0:0:0:
192,192,335951,1,0,0:0:0:0:
64,192,336035,1,0,0:0:0:0:
448,192,336035,1,2,0:0:0:0:
192,192,336203,128,0,336372:0:0:0:0:
320,192,336372,128,0,336540:0:0:0:0:
448,192,336540,128,0,336709:0:0:0:0:
64,192,336709,1,0,0:0:0:0:
192,192,336709,1,10,0:0:0:0:
320,192,336878,1,0,0:0:0:0:
448,192,336962,1,0,0:0:0:0:
192,192,337046,1,2,0:0:0:0:
64,192,337046,1,0,0:0:0:0:
320,192,337215,128,0,337383:0:0:0:0:
64,192,337383,128,0,337552:0:0:0:0:
192,192,337552,128,0,337720:0:0:0:0:
320,192,337720,1,10,0:0:0:0:
448,192,337720,1,0,0:0:0:0:
64,192,337889,1,0,0:0:0:0:
192,192,337973,1,0,0:0:0:0:
320,192,338057,1,2,0:0:0:0:
448,192,338057,1,0,0:0:0:0:
64,192,338226,1,0,0:0:0:0:
192,192,338394,1,0,0:0:0:0:
448,192,338479,1,0,0:0:0:0:
320,192,338563,1,2,0:0:0:0:
64,192,338563,1,0,0:0:0:0:
192,192,338731,1,10,0:0:0:0:
448,192,338731,1,0,0:0:0:0:
320,192,338900,1,0,0:0:0:0:
192,192,338984,1,0,0:0:0:0:
64,192,339069,1,2,0:0:0:0:
448,192,339069,1,0,0:0:0:0:
320,192,339237,128,0,339406:0:0:0:0:
192,192,339406,128,0,339574:0:0:0:0:
64,192,339574,128,0,339743:0:0:0:0:
192,192,339743,1,10,0:0:0:0:
448,192,339743,1,0,0:0:0:0:
320,192,339911,128,0,340080:0:0:0:0:
448,192,340080,128,0,340248:0:0:0:0:
64,192,340248,1,0,0:0:0:0:
192,192,340417,1,0,0:0:0:0:
320,192,340585,128,0,340754:0:0:0:0:
448,192,340754,1,10,0:0:0:0:
320,192,340922,1,0,0:0:0:0:
64,192,341091,128,0,341260:0:0:0:0:
192,192,341260,1,0,0:0:0:0:
320,192,341428,1,0,0:0:0:0:
448,192,341597,128,0,341765:0:0:0:0:
192,192,341765,1,10,0:0:0:0:
64,192,341765,1,0,0:0:0:0:
320,192,341934,1,0,0:0:0:0:
192,192,342018,1,0,0:0:0:0:
64,192,342102,1,2,0:0:0:0:
448,192,342102,1,0,0:0:0:0:
192,192,342271,1,2,0:0:0:0:
320,192,342439,1,0,0:0:0:0:
448,192,342524,1,0,0:0:0:0:
192,192,342608,1,2,0:0:0:0:
64,192,342608,1,0,0:0:0:0:
320,192,342776,1,10,0:0:0:0:
448,192,342776,1,0,0:0:0:0:
64,192,342945,1,0,0:0:0:0:
192,192,343029,1,0,0:0:0:0:
448,192,343113,1,0,0:0:0:0:
320,192,343113,1,2,0:0:0:0:
64,192,343282,1,2,0:0:0:0:
192,192,343366,1,2,0:0:0:0:
448,192,343451,1,2,0:0:0:0:
320,192,343535,1,2,0:0:0:0:
192,192,343619,1,2,0:0:0:0:
64,192,343703,1,2,0:0:0:0:
448,192,343788,1,0,0:0:0:0:
320,192,343788,1,10,0:0:0:0:
192,192,343872,1,2,0:0:0:0:
64,192,343956,1,2,0:0:0:0:
320,192,344040,1,2,0:0:0:0:
192,192,344125,1,2,0:0:0:0:
320,192,344209,1,2,0:0:0:0:
448,192,344293,1,2,0:0:0:0:
64,192,344378,1,2,0:0:0:0:
192,192,344462,1,2,0:0:0:0:
320,192,344546,1,2,0:0:0:0:
448,192,344630,1,2,0:0:0:0:
64,192,344715,1,2,0:0:0:0:
192,192,344799,1,10,0:0:0:0:
320,192,344799,1,0,0:0:0:0:
448,192,344883,1,2,0:0:0:0:
64,192,344967,1,10,0:0:0:0:
192,192,345052,1,10,0:0:0:0:
320,192,345052,1,0,0:0:0:0:
448,192,345136,1,0,0:0:0:0:
64,192,345136,1,10,0:0:0:0:
320,192,345220,1,0,0:0:0:0:
192,192,345220,1,10,0:0:0:0:
64,192,345304,1,10,0:0:0:0:
448,192,345304,1,0,0:0:0:0:
320,192,345389,1,2,0:0:0:0:
64,192,345473,1,2,0:0:0:0:
192,192,345557,1,2,0:0:0:0:
448,192,345642,1,2,0:0:0:0:
320,192,345726,1,2,0:0:0:0:
64,192,345810,1,0,0:0:0:0:
192,192,345810,1,10,0:0:0:0:
448,192,345894,1,2,0:0:0:0:
192,192,345979,1,2,0:0:0:0:
320,192,346063,1,2,0:0:0:0:
64,192,346147,1,2,0:0:0:0:
448,192,346231,1,2,0:0:0:0:
320,192,346316,1,2,0:0:0:0:
192,192,346400,1,2,0:0:0:0:
64,192,346484,1,2,0:0:0:0:
320,192,346569,1,2,0:0:0:0:
192,192,346653,1,2,0:0:0:0:
448,192,346737,1,2,0:0:0:0:
320,192,346821,1,10,0:0:0:0:
64,192,346821,1,0,0:0:0:0:
192,192,346906,1,2,0:0:0:0:
448,192,346990,1,2,0:0:0:0:
320,192,347074,1,2,0:0:0:0:
64,192,347158,1,2,0:0:0:0:
192,192,347243,1,2,0:0:0:0:
448,192,347327,1,2,0:0:0:0:
192,192,347411,1,2,0:0:0:0:
320,192,347495,1,2,0:0:0:0:
64,192,347580,1,2,0:0:0:0:
192,192,347664,1,2,0:0:0:0:
320,192,347748,1,2,0:0:0:0:
448,192,347833,1,8,0:0:0:0:
64,192,347833,1,2,0:0:0:0:
192,192,347917,1,2,0:0:0:0:
320,192,348001,1,2,0:0:0:0:
448,192,348085,1,2,0:0:0:0:
192,192,348170,1,2,0:0:0:0:
320,192,348254,1,2,0:0:0:0:
64,192,348338,128,0,348507:0:0:0:0:
192,192,348507,128,0,348675:0:0:0:0:
448,192,348675,128,0,348844:0:0:0:0:
320,192,348844,1,10,0:0:0:0:
64,192,348844,1,0,0:0:0:0:
192,192,349012,1,0,0:0:0:0:
448,192,349181,128,0,349349:0:0:0:0:
64,192,349349,1,0,0:0:0:0:
192,192,349518,1,0,0:0:0:0:
320,192,349687,128,0,349855:0:0:0:0:
448,192,349855,1,0,0:0:0:0:
64,192,349855,1,10,0:0:0:0:
192,192,350024,1,0,0:0:0:0:
320,192,350108,1,0,0:0:0:0:
64,192,350192,1,0,0:0:0:0:
192,192,350192,1,2,0:0:0:0:
448,192,350361,1,0,0:0:0:0:
320,192,350529,1,0,0:0:0:0:
192,192,350613,1,0,0:0:0:0:
64,192,350698,1,0,0:0:0:0:
448,192,350698,1,2,0:0:0:0:
320,192,350866,1,10,0:0:0:0:
192,192,350866,1,0,0:0:0:0:
448,192,351035,1,0,0:0:0:0:
320,192,351119,1,0,0:0:0:0:
192,192,351203,1,2,0:0:0:0:
64,192,351203,1,0,0:0:0:0:
448,192,351372,1,2,0:0:0:0:
320,192,351456,1,2,0:0:0:0:
64,192,351540,1,2,0:0:0:0:
192,192,351625,1,2,0:0:0:0:
448,192,351709,1,2,0:0:0:0:
320,192,351793,1,2,0:0:0:0:
192,192,351878,1,10,0:0:0:0:
64,192,351878,1,0,0:0:0:0:
448,192,351962,1,2,0:0:0:0:
320,192,352046,1,2,0:0:0:0:
64,192,352130,1,2,0:0:0:0:
192,192,352215,5,2,0:0:0:0:
320,192,352299,1,2,0:0:0:0:
448,192,352383,1,2,0:0:0:0:
64,192,352467,1,2,0:0:0:0:
192,192,352552,1,2,0:0:0:0:
448,192,352636,1,2,0:0:0:0:
320,192,352720,1,2,0:0:0:0:
64,192,352804,1,2,0:0:0:0:
192,192,352889,1,10,0:0:0:0:
320,192,352889,1,0,0:0:0:0:
448,192,352973,1,2,0:0:0:0:
64,192,353057,1,2,0:0:0:0:
192,192,353142,1,2,0:0:0:0:
320,192,353226,1,2,0:0:0:0:
448,192,353310,1,2,0:0:0:0:
192,192,353394,128,6,355417:0:0:0:0:
64,192,353394,1,0,0:0:0:0:
