osu file format v14

[General]
AudioFilename: audio.mp3
AudioLeadIn: 0
PreviewTime: 69160
Countdown: 0
SampleSet: Normal
StackLeniency: 0.7
Mode: 1
LetterboxInBreaks: 0
WidescreenStoryboard: 1

[Editor]
Bookmarks: 28379,173754,276254,279754
DistanceSpacing: 1.1
BeatDivisor: 8
GridSize: 16
TimelineZoom: 8

[Metadata]
Title:The Ancients of Shattered Thrones
TitleUnicode:The Ancients of Shattered Thrones
Artist:Inferi
ArtistUnicode:Inferi
Creator:LZD
Version:Lost in Eternity
Source:
Tags:featured artist technical death metal the path of apotheosis
BeatmapID:2105776
BeatmapSetID:1006161

[Difficulty]
HPDrainRate:3.6
CircleSize:5
OverallDifficulty:6.8
ApproachRate:5
SliderMultiplier:1.4
SliderTickRate:1

[Events]
//Background and Video events
0,0,"bg_shattered.jpg",0,-30
//Break Periods
//Storyboard Layer 0 (Background)
//Storyboard Layer 1 (Fail)
//Storyboard Layer 2 (Pass)
//Storyboard Layer 3 (Foreground)
//Storyboard Sound Samples

[TimingPoints]
129,250,3,1,0,50,1,0
879,250,4,1,0,70,1,0
16129,-125,4,1,0,70,0,0
16379,-142.857142857142,4,1,0,70,0,0
16879,-100,4,1,0,70,0,0
28379,250,4,1,0,50,1,0
32254,250,4,1,0,70,1,0
39254,250,5,1,0,70,1,0
40504,250,4,1,0,70,1,0
52504,250,3,1,0,70,1,0
55504,250,4,1,0,70,1,0
57504,250,3,1,0,70,1,0
60504,250,4,1,0,70,1,0
62504,250,3,1,0,70,1,0
63254,-95.2380952380952,3,1,0,70,0,0
64004,-90.9090909090909,3,1,0,70,0,0
64754,-86.9565217391304,3,1,0,70,0,0
65504,-100,3,1,0,70,0,0
68879,-90.9090909090909,3,1,0,70,0,0
69004,-83.3333333333333,3,1,0,70,0,0
69129,-76.9230769230769,3,1,0,70,0,0
69254,250,4,1,0,70,1,0
69254,-71.4285714285714,4,1,0,70,0,0
69629,-90.9090909090909,4,1,0,70,0,0
70004,-95.2380952380952,4,1,0,70,0,0
70379,-100,4,1,0,70,0,0
71629,-90.9090909090909,4,1,0,70,0,0
72004,-100,4,1,0,70,0,0
112004,-111.111111111111,4,1,0,70,0,0
112254,-125,4,1,0,70,0,0
112504,-142.857142857143,4,1,0,70,0,0
112754,-166.666666666667,4,1,0,70,0,0
113254,-100,4,1,0,70,0,0
127379,-100,4,1,0,60,0,0
127879,-100,4,1,0,55,0,0
128129,-100,4,1,0,50,0,0
128379,-100,4,1,0,55,0,0
128504,-100,4,1,0,60,0,0
129254,-100,4,1,0,70,0,1
149254,-100,4,1,0,70,0,0
152254,250,3,1,0,70,1,0
153754,250,4,1,0,70,1,1
165754,-100,4,1,0,70,0,0
173754,250,3,1,0,50,1,0
176754,250,4,1,0,50,1,0
178754,250,3,1,0,70,1,0
181754,250,4,1,0,70,1,0
183754,250,3,1,0,70,1,0
184504,-95.2380952380952,4,1,0,70,0,0
185254,-90.9090909090909,4,1,0,70,0,0
186004,-86.9565217391304,4,1,0,70,0,0
186754,-100,4,1,0,70,0,0
190129,-90.9090909090909,4,1,0,70,0,0
190254,-83.3333333333333,4,1,0,70,0,0
190379,-76.9230769230769,4,1,0,70,0,0
190504,250,7,1,0,70,1,0
190504,-71.4285714285714,7,1,0,70,0,0
194004,-100,7,1,0,70,0,0
195754,-166.666666666667,7,1,0,70,0,0
196504,-166.666666666667,7,1,0,55,0,0
197504,-125,7,1,0,55,0,0
204504,-100,7,1,0,65,0,0
208004,-100,7,1,0,70,0,0
209754,250,4,1,0,70,1,0
211879,-100,4,1,0,65,0,0
217504,-100,4,1,0,68,0,0
217754,-100,7,1,0,70,0,0
219879,-100,4,1,0,65,0,0
225504,-100,4,1,0,68,0,0
225754,-100,7,1,0,70,0,0
227754,250,6,1,0,70,1,0
239754,250,3,1,0,70,1,0
251754,250,5,1,0,70,1,0
255504,250,6,1,0,70,1,0
257004,250,5,1,0,70,1,0
260754,250,6,1,0,70,1,0
262254,250,5,1,0,70,1,0
266004,250,6,1,0,70,1,0
267504,250,5,1,0,70,1,0
271254,250,6,1,0,70,1,0
272754,250,7,1,0,70,1,0
285004,250,4,1,0,70,1,0
287754,-153.846153846153,4,1,0,40,0,0
294379,-133.333333333333,4,1,0,55,0,0
294754,-100,4,1,0,70,0,0
295754,-153.846153846153,4,1,0,40,0,0
300004,-133.333333333333,4,1,0,40,0,0
300504,-117.647058823529,4,1,0,40,0,0
300879,-111.111111111111,4,1,0,40,0,0
301004,-100,4,1,0,50,0,0
302754,-100,4,1,0,70,0,0
303379,-125,4,1,0,50,0,0
310754,-125,4,1,0,70,0,0
311379,-125,4,1,0,50,0,0
314004,-117.647058823529,4,1,0,54,0,0
314379,-111.111111111111,4,1,0,58,0,0
314754,-105.263157894737,4,1,0,62,0,0
315004,-100,4,1,0,65,0,0
317004,-100,4,1,0,70,0,0
318994,250,4,1,0,70,1,0
318994,-71.4285714285714,4,1,0,70,0,1
319494,-95.2380952380952,4,1,0,70,0,1
322494,-90.9090909090909,4,1,0,70,0,1
322660,-83.3333333333333,4,1,0,70,0,1
322827,-76.9230769230769,4,1,0,70,0,1
322994,-71.4285714285714,4,1,0,70,0,1
323327,-95.2380952380952,4,1,0,70,0,1
325494,-95.2380952380952,4,1,0,70,0,1
325660,-94.6969696969697,4,1,0,70,0,1
325827,-93.4579439252336,4,1,0,70,0,1
325994,-90.9090909090909,4,1,0,70,0,1
326160,-89.2857142857143,4,1,0,70,0,1
326327,-87.719298245614,4,1,0,70,0,1
326494,-83.3333333333333,4,1,0,70,0,1
326660,-80.6451612903226,4,1,0,70,0,1
326827,-78.125,4,1,0,70,0,1
326994,-71.4285714285714,4,1,0,70,0,1
327494,-95.2380952380952,4,1,0,70,0,1
330494,-90.9090909090909,4,1,0,70,0,1
330660,-83.3333333333333,4,1,0,70,0,1
330827,-76.9230769230769,4,1,0,70,0,1
330994,-71.4285714285714,4,1,0,70,0,1
331327,-95.2380952380952,4,1,0,70,0,1
333494,-90.9090909090909,4,1,0,70,0,1
333660,-83.3333333333333,4,1,0,70,0,1
333827,-76.9230769230769,4,1,0,70,0,1
333994,-80,4,1,0,70,0,1
334077,-81.9672131147541,4,1,0,70,0,1
334160,-83.3333333333333,4,1,0,70,0,1
334243,-84.7457627118644,4,1,0,70,0,1
334327,-86.2068965517241,4,1,0,70,0,1
334410,-87.719298245614,4,1,0,70,0,1
334494,-89.2857142857143,4,1,0,70,0,1
334577,-90.9090909090909,4,1,0,70,0,1
334660,-91.743119266055,4,1,0,70,0,1
334744,-92.5925925925926,4,1,0,70,0,1
334827,-93.4579439252336,4,1,0,70,0,1
334910,-94.3396226415094,4,1,0,70,0,1
334994,-95.2380952380952,4,1,0,70,0,1
335494,-95.2380952380952,4,1,0,70,0,1
338494,-90.8677873693776,4,1,0,70,0,1
338660,-83.298625572678,4,1,0,70,0,1
338827,-76.8935024990388,4,1,0,70,0,1
338994,-71.4030703320243,4,1,0,70,0,1
339327,-95.2380952380952,4,1,0,70,0,1
341494,-95.2380952380952,4,1,0,70,0,1
341660,-94.6969696969697,4,1,0,70,0,1
341827,-93.4579439252336,4,1,0,70,0,1
341994,-90.9090909090909,4,1,0,70,0,1
342160,-89.2857142857143,4,1,0,70,0,1
342327,-87.719298245614,4,1,0,70,0,1
342494,-83.3333333333333,4,1,0,70,0,1
342660,-80.6451612903226,4,1,0,70,0,1
342827,-78.125,4,1,0,70,0,1
342994,-71.4285714285714,4,1,0,70,0,1
343494,-95.2380952380952,4,1,0,70,0,1
346660,-97.0873786407767,4,1,0,70,0,1
346827,-100,4,1,0,70,0,1
346994,-92.5925925925926,4,1,0,70,0,1
350494,-90.9090909090909,4,1,0,70,0,1
350556,-89.2857142857143,4,1,0,70,0,1
350619,-87.719298245614,4,1,0,70,0,1
350681,-86.2068965517241,4,1,0,70,0,1
350744,-84.7457627118644,4,1,0,70,0,1
350806,-83.3333333333333,4,1,0,70,0,1
350869,-81.9672131147541,4,1,0,70,0,1
350931,-79.3650793650794,4,1,0,70,0,1
350994,-75.7575757575758,4,1,0,70,0,0

[HitObjects]
96,128,129,5,0,0:0:0:0:
164,162,191,1,0,0:0:0:0:
164,162,254,1,0,0:0:0:0:
198,180,316,1,0,0:0:0:0:
233,197,379,1,0,0:0:0:0:
267,214,441,1,0,0:0:0:0:
302,232,504,5,0,0:0:0:0:
336,249,566,1,0,0:0:0:0:
370,267,629,1,0,0:0:0:0:
404,284,691,1,0,0:0:0:0:
439,302,754,1,0,0:0:0:0:
473,319,816,1,0,0:0:0:0:
508,336,879,5,8,0:0:0:0:
443,294,1004,1,8,0:0:0:0:
372,263,1129,1,0,0:0:0:0:
341,239,1191,1,0,0:0:0:0:
312,211,1254,1,8,0:0:0:0:
238,187,1379,1,0,0:0:0:0:
164,164,1504,1,8,0:0:0:0:
90,142,1629,1,0,0:0:0:0:
53,43,1754,1,8,0:0:0:0:
85,62,1816,1,0,0:0:0:0:
117,85,1879,1,8,0:0:0:0:
143,157,2004,1,0,0:0:0:0:
120,123,2066,1,0,0:0:0:0:
117,85,2129,1,8,0:0:0:0:
143,157,2254,5,0,0:0:0:0:
117,85,2379,1,8,0:0:0:0:
117,85,2504,1,8,0:0:0:0:
143,157,2629,1,8,0:0:0:0:
170,130,2691,1,8,0:0:0:0:
143,157,2754,1,0,0:0:0:0:
170,130,2816,1,0,0:0:0:0:
117,85,2879,1,8,0:0:0:0:
143,157,3004,1,8,0:0:0:0:
143,157,3129,1,0,0:0:0:0:
127,122,3191,1,0,0:0:0:0:
143,157,3254,1,0,0:0:0:0:
131,140,3379,1,8,0:0:0:0:
131,140,3504,1,8,0:0:0:0:
143,157,3629,5,0,0:0:0:0:
127,122,3691,1,0,0:0:0:0:
143,157,3754,1,0,0:0:0:0:
131,140,3879,1,8,0:0:0:0:
143,157,4004,1,0,0:0:0:0:
131,140,4129,1,8,0:0:0:0:
131,140,4254,1,0,0:0:0:0:
148,142,4379,5,8,0:0:0:0:
148,142,4441,1,8,0:0:0:0:
148,142,4504,1,0,0:0:0:0:
148,142,4566,1,0,0:0:0:0:
148,142,4629,5,8,0:0:0:0:
148,142,4691,1,8,0:0:0:0:
148,142,4754,1,8,0:0:0:0:
148,142,4816,1,8,0:0:0:0:
148,142,4879,5,0,0:0:0:0:
101,80,5004,1,0,0:0:0:0:
142,144,5129,1,0,0:0:0:0:
312,211,5254,1,8,0:0:0:0:
238,187,5379,1,0,0:0:0:0:
164,164,5504,1,8,0:0:0:0:
90,142,5629,1,0,0:0:0:0:
53,43,5754,1,8,0:0:0:0:
117,85,5879,1,8,0:0:0:0:
143,157,6004,1,0,0:0:0:0:
117,85,6129,1,8,0:0:0:0:
143,157,6254,1,0,0:0:0:0:
117,85,6379,1,8,0:0:0:0:
86,108,6441,1,8,0:0:0:0:
55,131,6504,1,8,0:0:0:0:
55,131,6566,1,8,0:0:0:0:
55,131,6629,1,8,0:0:0:0:
55,131,6691,1,8,0:0:0:0:
55,131,6754,1,0,0:0:0:0:
148,142,6879,5,8,0:0:0:0:
225,173,6941,1,8,0:0:0:0:
71,138,7004,1,8,0:0:0:0:
49,63,7129,1,0,0:0:0:0:
59,99,7191,1,0,0:0:0:0:
59,99,7254,1,0,0:0:0:0:
71,138,7379,1,8,0:0:0:0:
59,99,7504,5,0,0:0:0:0:
59,99,7566,1,0,0:0:0:0:
59,99,7629,1,8,0:0:0:0:
59,99,7754,1,0,0:0:0:0:
59,99,7879,1,8,0:0:0:0:
59,99,7941,1,0,0:0:0:0:
59,99,8004,1,0,0:0:0:0:
123,126,8129,1,8,0:0:0:0:
123,126,8191,1,8,0:0:0:0:
123,126,8254,1,0,0:0:0:0:
109,170,8316,1,0,0:0:0:0:
123,126,8379,5,8,0:0:0:0:
123,126,8441,1,0,0:0:0:0:
123,126,8504,1,8,0:0:0:0:
123,126,8566,1,0,0:0:0:0:
123,126,8629,5,8,0:0:0:0:
123,126,8691,1,8,0:0:0:0:
123,126,8754,1,0,0:0:0:0:
123,126,8816,1,0,0:0:0:0:
508,336,8879,5,8,0:0:0:0:
443,294,9004,1,8,0:0:0:0:
372,263,9129,1,0,0:0:0:0:
320,256,9191,1,0,0:0:0:0:
312,211,9254,1,8,0:0:0:0:
238,187,9379,1,0,0:0:0:0:
164,164,9504,1,8,0:0:0:0:
90,142,9629,1,0,0:0:0:0:
53,43,9754,1,8,0:0:0:0:
64,96,9816,1,0,0:0:0:0:
117,85,9879,1,8,0:0:0:0:
143,157,10004,1,0,0:0:0:0:
105,149,10066,1,0,0:0:0:0:
117,85,10129,1,8,0:0:0:0:
143,157,10254,5,0,0:0:0:0:
117,85,10379,1,8,0:0:0:0:
117,85,10504,1,8,0:0:0:0:
143,157,10629,1,8,0:0:0:0:
128,192,10691,1,8,0:0:0:0:
143,157,10754,1,0,0:0:0:0:
128,192,10816,1,0,0:0:0:0:
117,85,10879,1,8,0:0:0:0:
143,157,11004,1,8,0:0:0:0:
143,157,11129,1,0,0:0:0:0:
117,85,11191,1,0,0:0:0:0:
143,157,11254,1,0,0:0:0:0:
131,140,11379,1,8,0:0:0:0:
131,140,11504,1,8,0:0:0:0:
143,157,11629,5,0,0:0:0:0:
117,85,11691,1,0,0:0:0:0:
143,157,11754,1,0,0:0:0:0:
131,140,11879,1,8,0:0:0:0:
143,157,12004,1,0,0:0:0:0:
131,140,12129,1,8,0:0:0:0:
131,140,12254,1,0,0:0:0:0:
148,142,12379,5,8,0:0:0:0:
148,142,12441,1,8,0:0:0:0:
148,142,12504,1,0,0:0:0:0:
148,142,12566,1,0,0:0:0:0:
148,142,12629,5,8,0:0:0:0:
148,142,12691,1,8,0:0:0:0:
148,142,12754,1,8,0:0:0:0:
148,142,12816,1,8,0:0:0:0:
148,142,12879,5,0,0:0:0:0:
101,80,13004,1,0,0:0:0:0:
142,144,13129,1,0,0:0:0:0:
312,211,13254,1,8,0:0:0:0:
238,187,13379,1,0,0:0:0:0:
164,164,13504,1,8,0:0:0:0:
90,142,13629,1,0,0:0:0:0:
53,43,13754,1,8,0:0:0:0:
117,85,13879,1,8,0:0:0:0:
143,157,14004,1,0,0:0:0:0:
117,85,14129,1,8,0:0:0:0:
143,157,14254,1,0,0:0:0:0:
117,85,14379,5,8,0:0:0:0:
86,108,14441,1,8,0:0:0:0:
55,131,14504,1,8,0:0:0:0:
55,131,14566,1,8,0:0:0:0:
55,131,14629,1,8,0:0:0:0:
55,131,14691,1,8,0:0:0:0:
55,131,14754,1,0,0:0:0:0:
148,142,14879,5,8,0:0:0:0:
94,247,14941,1,8,0:0:0:0:
71,138,15004,1,8,0:0:0:0:
49,63,15129,1,0,0:0:0:0:
59,99,15191,1,0,0:0:0:0:
59,99,15254,1,0,0:0:0:0:
71,138,15379,1,8,0:0:0:0:
59,99,15504,1,0,0:0:0:0:
89,121,15566,1,0,0:0:0:0:
59,99,15629,1,0,0:0:0:0:
59,99,15691,1,0,0:0:0:0:
59,99,15754,1,0,0:0:0:0:
59,99,15879,5,12,0:0:0:0:
123,126,16129,5,4,0:0:0:0:
160,160,16379,5,12,0:0:0:0:
32,160,16879,5,8,0:0:0:0:
32,160,16962,1,8,0:0:0:0:
32,160,17045,1,8,0:0:0:0:
32,160,17129,1,0,0:0:0:0:
224,224,17212,1,0,0:0:0:0:
224,224,17295,1,0,0:0:0:0:
32,160,17379,1,8,0:0:0:0:
32,160,17462,1,8,0:0:0:0:
128,128,17545,1,0,0:0:0:0:
128,96,17629,1,8,0:0:0:0:
128,128,17712,5,0,0:0:0:0:
128,128,17795,1,0,0:0:0:0:
128,96,17879,1,8,0:0:0:0:
0,128,17962,1,8,0:0:0:0:
32,128,18045,1,8,0:0:0:0:
96,96,18129,1,8,0:0:0:0:
96,96,18212,1,0,0:0:0:0:
96,96,18295,1,0,0:0:0:0:
32,160,18379,1,8,0:0:0:0:
32,160,18462,1,8,0:0:0:0:
128,160,18545,1,0,0:0:0:0:
128,160,18629,1,8,0:0:0:0:
128,160,18712,5,0,0:0:0:0:
128,160,18795,1,0,0:0:0:0:
224,192,18879,1,8,0:0:0:0:
224,192,18941,1,0,0:0:0:0:
224,192,19004,1,8,0:0:0:0:
224,192,19066,1,0,0:0:0:0:
32,128,19129,1,8,0:0:0:0:
32,128,19191,1,8,0:0:0:0:
32,128,19254,1,0,0:0:0:0:
32,128,19316,1,0,0:0:0:0:
32,128,19379,5,8,0:0:0:0:
151,163,19504,1,8,0:0:0:0:
151,163,19629,1,0,0:0:0:0:
151,163,19754,1,0,0:0:0:0:
144,164,19879,1,8,0:0:0:0:
145,162,20004,1,8,0:0:0:0:
145,162,20129,1,0,0:0:0:0:
145,162,20254,1,8,0:0:0:0:
123,194,20379,1,0,0:0:0:0:
123,194,20441,1,0,0:0:0:0:
123,199,20504,1,0,0:0:0:0:
123,199,20566,1,0,0:0:0:0:
123,201,20629,1,0,0:0:0:0:
125,205,20691,1,0,0:0:0:0:
125,205,20754,1,0,0:0:0:0:
125,205,20816,1,0,0:0:0:0:
125,205,20879,5,8,0:0:0:0:
128,128,20962,1,8,0:0:0:0:
128,128,21045,1,0,0:0:0:0:
128,128,21129,1,8,0:0:0:0:
128,128,21212,1,0,0:0:0:0:
128,128,21295,1,0,0:0:0:0:
128,128,21379,5,8,0:0:0:0:
128,128,21462,1,8,0:0:0:0:
157,173,21545,1,8,0:0:0:0:
128,128,21629,1,0,0:0:0:0:
157,173,21712,1,0,0:0:0:0:
157,173,21795,1,0,0:0:0:0:
111,154,21879,5,8,0:0:0:0:
153,147,21962,1,8,0:0:0:0:
155,153,22045,1,0,0:0:0:0:
157,156,22129,1,8,0:0:0:0:
171,180,22212,1,0,0:0:0:0:
173,182,22295,1,0,0:0:0:0:
170,178,22379,5,8,0:0:0:0:
175,192,22441,1,0,0:0:0:0:
175,192,22504,1,8,0:0:0:0:
175,192,22566,1,0,0:0:0:0:
175,192,22629,1,8,0:0:0:0:
177,197,22691,1,0,0:0:0:0:
177,195,22754,1,8,0:0:0:0:
177,197,22879,5,0,0:0:0:0:
160,160,22941,1,0,0:0:0:0:
160,160,23004,1,0,0:0:0:0:
160,192,23129,1,0,0:0:0:0:
160,192,23254,1,0,0:0:0:0:
174,205,23379,5,8,0:0:0:0:
176,207,23441,1,8,0:0:0:0:
176,206,23504,1,8,0:0:0:0:
176,205,23629,1,0,0:0:0:0:
176,206,23754,1,0,0:0:0:0:
174,204,23879,5,8,0:0:0:0:
128,192,23962,1,8,0:0:0:0:
64,160,24045,1,8,0:0:0:0:
64,160,24129,1,0,0:0:0:0:
64,160,24212,1,0,0:0:0:0:
64,160,24295,1,0,0:0:0:0:
64,160,24379,1,8,0:0:0:0:
64,160,24462,1,0,0:0:0:0:
64,160,24545,1,0,0:0:0:0:
64,160,24629,1,8,0:0:0:0:
64,160,24712,1,0,0:0:0:0:
64,160,24795,1,0,0:0:0:0:
64,160,24879,5,8,0:0:0:0:
64,160,24941,1,8,0:0:0:0:
64,160,25004,1,0,0:0:0:0:
64,160,25066,1,0,0:0:0:0:
64,160,25129,1,8,0:0:0:0:
64,160,25191,1,8,0:0:0:0:
64,160,25254,1,0,0:0:0:0:
64,160,25316,1,0,0:0:0:0:
64,160,25379,5,8,0:0:0:0:
128,128,25441,1,0,0:0:0:0:
160,128,25504,1,8,0:0:0:0:
96,128,25566,1,0,0:0:0:0:
57,133,25629,1,8,0:0:0:0:
57,133,25691,1,8,0:0:0:0:
256,256,25754,1,0,0:0:0:0:
160,128,25879,5,8,0:0:0:0:
160,128,25941,1,8,0:0:0:0:
160,128,26004,1,8,0:0:0:0:
128,192,26129,1,0,0:0:0:0:
128,192,26254,1,0,0:0:0:0:
96,160,26379,1,8,0:0:0:0:
96,160,26504,1,8,0:0:0:0:
96,160,26629,1,0,0:0:0:0:
96,160,26754,1,0,0:0:0:0:
128,160,26879,5,8,0:0:0:0:
128,160,26941,1,8,0:0:0:0:
128,160,27004,1,8,0:0:0:0:
128,160,27129,1,0,0:0:0:0:
128,160,27254,1,0,0:0:0:0:
256,224,27379,1,12,0:0:0:0:
256,224,27879,5,4,0:0:0:0:
224,192,28379,1,8,0:0:0:0:
224,192,28504,1,8,0:0:0:0:
160,160,28629,1,0,0:0:0:0:
189,184,28691,1,0,0:0:0:0:
160,160,28754,1,0,0:0:0:0:
189,184,28816,1,0,0:0:0:0:
224,192,28879,1,8,0:0:0:0:
160,160,29004,1,0,0:0:0:0:
109,151,29066,1,0,0:0:0:0:
160,160,29129,1,0,0:0:0:0:
224,192,29254,1,8,0:0:0:0:
160,160,29379,1,0,0:0:0:0:
160,160,29441,1,0,0:0:0:0:
160,160,29504,1,0,0:0:0:0:
189,184,29566,1,0,0:0:0:0:
128,128,29629,1,8,0:0:0:0:
160,160,29754,1,0,0:0:0:0:
160,160,29816,1,0,0:0:0:0:
96,128,29879,1,8,0:0:0:0:
160,224,30004,1,8,0:0:0:0:
160,224,30129,1,0,0:0:0:0:
160,224,30254,1,8,0:0:0:0:
160,224,30379,1,0,0:0:0:0:
130,143,30441,1,0,0:0:0:0:
96,256,30504,1,0,0:0:0:0:
96,256,30566,1,0,0:0:0:0:
96,128,30629,1,8,0:0:0:0:
130,143,30691,1,0,0:0:0:0:
96,256,30754,1,8,0:0:0:0:
130,143,30816,1,8,0:0:0:0:
130,143,30879,1,0,0:0:0:0:
130,143,30941,1,0,0:0:0:0:
192,224,31004,1,8,0:0:0:0:
192,224,31066,1,0,0:0:0:0:
192,224,31129,1,8,0:0:0:0:
130,143,31191,1,8,0:0:0:0:
192,224,31254,1,0,0:0:0:0:
192,224,31316,1,0,0:0:0:0:
192,224,31379,1,8,0:0:0:0:
416,320,31441,1,8,0:0:0:0:
416,320,31504,1,0,0:0:0:0:
128,160,31566,1,0,0:0:0:0:
192,224,31629,1,8,0:0:0:0:
160,192,31754,1,8,0:0:0:0:
160,192,32254,1,12,0:0:0:0:
160,192,32379,1,0,0:0:0:0:
128,163,32504,1,8,0:0:0:0:
160,192,32629,1,0,0:0:0:0:
160,192,32754,1,0,0:0:0:0:
127,169,32879,1,8,0:0:0:0:
160,192,33004,1,0,0:0:0:0:
126,169,33129,1,0,0:0:0:0:
126,169,33254,1,8,0:0:0:0:
202,179,33379,1,0,0:0:0:0:
123,174,33504,1,8,0:0:0:0:
199,182,33629,1,0,0:0:0:0:
275,192,33754,1,0,0:0:0:0:
114,188,33879,1,8,0:0:0:0:
114,186,34004,1,8,0:0:0:0:
114,188,34129,1,0,0:0:0:0:
114,188,34254,1,8,0:0:0:0:
190,186,34379,1,0,0:0:0:0:
203,167,34504,1,8,0:0:0:0:
265,212,34629,1,0,0:0:0:0:
202,166,34754,1,0,0:0:0:0:
196,164,34879,1,8,0:0:0:0:
192,160,35004,1,0,0:0:0:0:
260,206,35129,1,8,0:0:0:0:
117,178,35254,1,0,0:0:0:0:
128,128,35379,1,8,0:0:0:0:
128,128,35504,1,0,0:0:0:0:
128,160,35629,1,0,0:0:0:0:
128,160,35754,1,8,0:0:0:0:
96,160,35879,1,8,0:0:0:0:
96,160,36004,1,0,0:0:0:0:
96,160,36129,1,0,0:0:0:0:
128,128,36254,1,8,0:0:0:0:
194,166,36379,1,0,0:0:0:0:
128,128,36504,1,8,0:0:0:0:
194,166,36629,1,0,0:0:0:0:
260,204,36754,1,0,0:0:0:0:
128,128,36879,1,8,0:0:0:0:
235,189,37004,1,0,0:0:0:0:
235,189,37129,1,0,0:0:0:0:
128,128,37254,1,8,0:0:0:0:
235,189,37379,1,0,0:0:0:0:
96,128,37504,1,8,0:0:0:0:
235,189,37629,1,0,0:0:0:0:
235,189,37754,1,0,0:0:0:0:
96,128,37879,1,8,0:0:0:0:
96,128,38004,1,8,0:0:0:0:
96,128,38129,1,0,0:0:0:0:
96,128,38254,1,8,0:0:0:0:
235,189,38379,1,0,0:0:0:0:
96,128,38504,1,8,0:0:0:0:
235,189,38629,1,0,0:0:0:0:
235,189,38754,1,0,0:0:0:0:
128,128,38879,1,8,0:0:0:0:
128,128,39004,1,0,0:0:0:0:
235,189,39129,1,8,0:0:0:0:
69,178,39254,1,0,0:0:0:0:
128,128,39379,1,8,0:0:0:0:
109,202,39504,1,0,0:0:0:0:
128,128,39629,1,0,0:0:0:0:
128,128,39754,1,8,0:0:0:0:
320,288,39879,1,8,0:0:0:0:
320,288,40004,1,0,0:0:0:0:
81,235,40066,1,0,0:0:0:0:
81,235,40129,1,0,0:0:0:0:
82,240,40254,1,8,0:0:0:0:
81,235,40316,1,8,0:0:0:0:
83,240,40379,1,8,0:0:0:0:
64,160,40504,1,0,0:0:0:0:
64,160,40566,1,0,0:0:0:0:
64,160,40629,1,0,0:0:0:0:
64,160,40691,1,0,0:0:0:0:
64,160,40754,1,0,0:0:0:0:
71,163,40816,1,0,0:0:0:0:
71,163,40879,1,0,0:0:0:0:
71,163,40941,1,0,0:0:0:0:
71,163,41004,1,0,0:0:0:0:
71,163,41066,1,0,0:0:0:0:
71,163,41129,1,0,0:0:0:0:
71,163,41191,1,0,0:0:0:0:
64,160,41254,1,8,0:0:0:0:
64,160,41316,1,8,0:0:0:0:
64,160,41379,1,8,0:0:0:0:
64,160,41441,1,8,0:0:0:0:
71,163,41504,1,0,0:0:0:0:
71,163,41566,1,0,0:0:0:0:
71,163,41629,1,0,0:0:0:0:
71,163,41691,1,0,0:0:0:0:
64,160,41754,1,8,0:0:0:0:
64,160,41816,1,8,0:0:0:0:
64,160,41879,1,8,0:0:0:0:
64,160,41941,1,8,0:0:0:0:
71,163,42004,1,0,0:0:0:0:
71,163,42066,1,0,0:0:0:0:
71,163,42129,1,0,0:0:0:0:
71,163,42191,1,0,0:0:0:0:
71,163,42254,1,0,0:0:0:0:
71,163,42316,1,0,0:0:0:0:
71,163,42379,1,0,0:0:0:0:
71,163,42441,1,0,0:0:0:0:
82,246,42504,1,8,0:0:0:0:
129,163,42629,1,0,0:0:0:0:
129,163,42691,1,0,0:0:0:0:
131,168,42754,1,0,0:0:0:0:
131,168,42816,1,0,0:0:0:0:
131,168,42879,1,0,0:0:0:0:
131,168,42941,1,0,0:0:0:0:
138,127,43004,1,8,0:0:0:0:
456,357,43129,1,0,0:0:0:0:
456,357,43191,1,0,0:0:0:0:
456,357,43254,1,0,0:0:0:0:
456,357,43316,1,0,0:0:0:0:
459,365,43379,1,0,0:0:0:0:
459,365,43441,1,0,0:0:0:0:
459,365,43504,1,0,0:0:0:0:
136,145,43629,1,8,0:0:0:0:
224,160,43754,1,0,0:0:0:0:
224,160,43816,1,0,0:0:0:0:
224,160,43879,1,0,0:0:0:0:
224,160,43941,1,0,0:0:0:0:
224,160,44004,1,8,0:0:0:0:
224,160,44129,1,0,0:0:0:0:
224,160,44191,1,0,0:0:0:0:
224,160,44254,1,8,0:0:0:0:
160,128,44379,1,0,0:0:0:0:
160,96,44504,1,8,0:0:0:0:
206,157,44629,1,0,0:0:0:0:
96,128,44754,1,8,0:0:0:0:
166,158,44879,1,0,0:0:0:0:
236,188,45004,1,0,0:0:0:0:
192,96,45129,1,8,0:0:0:0:
236,188,45254,1,0,0:0:0:0:
192,96,45379,1,0,0:0:0:0:
192,96,45504,1,8,0:0:0:0:
236,188,45629,1,0,0:0:0:0:
192,96,45754,1,8,0:0:0:0:
236,188,45879,1,0,0:0:0:0:
236,188,46004,1,0,0:0:0:0:
192,96,46129,1,8,0:0:0:0:
192,96,46254,1,8,0:0:0:0:
192,96,46379,1,0,0:0:0:0:
192,96,46504,1,8,0:0:0:0:
236,188,46629,1,0,0:0:0:0:
192,128,46754,1,8,0:0:0:0:
236,188,46879,1,0,0:0:0:0:
236,188,47004,1,0,0:0:0:0:
236,188,47129,1,8,0:0:0:0:
192,128,47254,1,0,0:0:0:0:
236,188,47379,1,8,0:0:0:0:
123,92,47504,1,0,0:0:0:0:
187,125,47629,1,8,0:0:0:0:
118,90,47754,1,0,0:0:0:0:
192,128,47879,1,0,0:0:0:0:
192,128,48004,1,8,0:0:0:0:
96,160,48129,1,8,0:0:0:0:
96,160,48254,1,0,0:0:0:0:
96,160,48379,1,0,0:0:0:0:
96,160,48504,1,8,0:0:0:0:
171,174,48629,1,0,0:0:0:0:
96,160,48754,1,8,0:0:0:0:
171,174,48879,1,0,0:0:0:0:
246,189,49004,1,0,0:0:0:0:
96,160,49129,1,8,0:0:0:0:
171,174,49254,1,0,0:0:0:0:
96,160,49379,1,0,0:0:0:0:
96,160,49504,1,8,0:0:0:0:
171,174,49629,1,0,0:0:0:0:
96,160,49754,1,8,0:0:0:0:
171,174,49879,1,0,0:0:0:0:
246,189,50004,1,0,0:0:0:0:
321,204,50129,1,8,0:0:0:0:
160,96,50254,1,8,0:0:0:0:
160,96,50379,1,0,0:0:0:0:
160,96,50504,1,8,0:0:0:0:
207,156,50629,1,0,0:0:0:0:
160,96,50754,1,8,0:0:0:0:
207,156,50879,1,0,0:0:0:0:
253,217,51004,1,0,0:0:0:0:
192,128,51129,1,8,0:0:0:0:
192,128,51254,1,0,0:0:0:0:
233,192,51379,1,8,0:0:0:0:
160,96,51504,1,0,0:0:0:0:
54,57,51629,1,8,0:0:0:0:
160,96,51754,1,0,0:0:0:0:
192,160,51879,1,0,0:0:0:0:
192,160,52004,1,8,0:0:0:0:
192,160,52129,1,8,0:0:0:0:
192,160,52254,1,0,0:0:0:0:
192,160,52379,1,0,0:0:0:0:
192,160,52504,1,8,0:0:0:0:
123,136,52566,1,8,0:0:0:0:
123,136,52629,1,0,0:0:0:0:
123,136,52691,1,0,0:0:0:0:
123,136,52754,1,8,0:0:0:0:
123,136,52879,1,0,0:0:0:0:
128,96,52941,1,0,0:0:0:0:
123,136,53004,1,8,0:0:0:0:
123,136,53129,1,0,0:0:0:0:
123,136,53254,1,8,0:0:0:0:
123,136,53316,1,8,0:0:0:0:
123,136,53379,1,8,0:0:0:0:
123,136,53441,1,8,0:0:0:0:
123,136,53504,1,8,0:0:0:0:
123,136,53566,1,8,0:0:0:0:
123,136,53629,1,0,0:0:0:0:
123,136,53691,1,0,0:0:0:0:
123,136,53754,1,8,0:0:0:0:
123,136,53879,1,0,0:0:0:0:
123,136,54004,1,8,0:0:0:0:
123,136,54066,1,8,0:0:0:0:
123,136,54129,1,8,0:0:0:0:
123,136,54191,1,8,0:0:0:0:
123,136,54254,1,8,0:0:0:0:
123,136,54316,1,8,0:0:0:0:
123,136,54379,1,8,0:0:0:0:
123,136,54441,1,8,0:0:0:0:
123,136,54504,1,0,0:0:0:0:
123,136,54629,1,0,0:0:0:0:
123,136,54754,1,8,0:0:0:0:
140,169,54816,1,8,0:0:0:0:
140,169,54879,1,8,0:0:0:0:
140,169,54941,1,8,0:0:0:0:
140,169,55004,1,8,0:0:0:0:
140,169,55066,1,8,0:0:0:0:
140,169,55129,1,8,0:0:0:0:
140,169,55191,1,8,0:0:0:0:
140,169,55254,1,8,0:0:0:0:
140,169,55316,1,8,0:0:0:0:
140,169,55379,1,0,0:0:0:0:
160,64,55504,1,8,0:0:0:0:
160,64,55566,1,8,0:0:0:0:
160,64,55629,1,8,0:0:0:0:
160,64,55754,1,0,0:0:0:0:
160,64,55879,1,0,0:0:0:0:
160,64,56004,1,8,0:0:0:0:
160,64,56066,1,8,0:0:0:0:
160,64,56129,1,8,0:0:0:0:
128,96,56191,1,8,0:0:0:0:
128,96,56254,1,0,0:0:0:0:
64,160,56379,1,0,0:0:0:0:
64,160,56504,1,8,0:0:0:0:
64,160,56566,1,0,0:0:0:0:
64,160,56629,1,8,0:0:0:0:
64,128,56754,1,0,0:0:0:0:
105,95,56816,1,8,0:0:0:0:
64,128,56879,1,0,0:0:0:0:
64,128,56941,1,0,0:0:0:0:
64,128,57004,1,8,0:0:0:0:
64,128,57129,1,8,0:0:0:0:
160,32,57254,1,0,0:0:0:0:
160,32,57379,1,8,0:0:0:0:
32,160,57504,1,0,0:0:0:0:
192,224,57566,1,0,0:0:0:0:
192,224,57629,1,0,0:0:0:0:
192,224,57691,1,0,0:0:0:0:
192,224,57754,1,0,0:0:0:0:
192,224,57816,1,0,0:0:0:0:
160,224,57879,1,8,0:0:0:0:
192,224,58004,1,0,0:0:0:0:
192,224,58129,1,8,0:0:0:0:
192,224,58254,1,0,0:0:0:0:
192,224,58316,1,0,0:0:0:0:
192,224,58379,1,0,0:0:0:0:
192,224,58441,1,0,0:0:0:0:
192,224,58504,1,0,0:0:0:0:
192,224,58566,1,0,0:0:0:0:
192,224,58629,1,8,0:0:0:0:
64,160,58754,1,0,0:0:0:0:
64,160,58879,1,8,0:0:0:0:
128,128,59004,1,0,0:0:0:0:
128,128,59066,1,0,0:0:0:0:
128,128,59129,1,0,0:0:0:0:
128,128,59191,1,0,0:0:0:0:
128,128,59254,1,0,0:0:0:0:
128,128,59316,1,0,0:0:0:0:
128,128,59379,1,8,0:0:0:0:
113,192,59504,1,0,0:0:0:0:
113,192,59629,1,8,0:0:0:0:
113,192,59754,1,0,0:0:0:0:
113,192,59816,1,0,0:0:0:0:
113,192,59879,1,8,0:0:0:0:
113,192,59941,1,8,0:0:0:0:
113,192,60004,1,0,0:0:0:0:
113,192,60066,1,0,0:0:0:0:
113,192,60129,1,8,0:0:0:0:
113,192,60191,1,8,0:0:0:0:
113,192,60254,1,8,0:0:0:0:
113,192,60316,1,8,0:0:0:0:
113,192,60379,1,0,0:0:0:0:
128,128,60504,1,8,0:0:0:0:
128,128,60566,1,8,0:0:0:0:
128,128,60629,1,8,0:0:0:0:
128,128,60754,1,0,0:0:0:0:
128,128,60879,1,0,0:0:0:0:
128,128,61004,1,8,0:0:0:0:
128,128,61066,1,8,0:0:0:0:
128,128,61129,1,8,0:0:0:0:
128,128,61191,1,8,0:0:0:0:
128,128,61254,1,0,0:0:0:0:
128,160,61379,1,0,0:0:0:0:
128,160,61504,1,8,0:0:0:0:
128,160,61566,1,0,0:0:0:0:
128,160,61629,1,8,0:0:0:0:
64,160,61754,1,0,0:0:0:0:
77,167,61816,1,8,0:0:0:0:
64,160,61879,1,0,0:0:0:0:
64,160,61941,1,0,0:0:0:0:
77,167,62004,1,8,0:0:0:0:
52,130,62129,1,8,0:0:0:0:
52,130,62254,1,0,0:0:0:0:
52,130,62379,1,0,0:0:0:0:
86,141,62504,1,8,0:0:0:0:
123,146,62566,1,8,0:0:0:0:
79,140,62629,1,8,0:0:0:0:
116,145,62691,1,8,0:0:0:0:
82,142,62754,1,0,0:0:0:0:
86,141,62816,1,0,0:0:0:0:
86,141,62879,1,0,0:0:0:0:
86,141,62941,1,0,0:0:0:0:
86,141,63004,1,8,0:0:0:0:
127,183,63254,1,8,0:0:0:0:
127,183,63316,1,8,0:0:0:0:
127,183,63379,1,8,0:0:0:0:
127,183,63441,1,8,0:0:0:0:
82,147,63504,1,0,0:0:0:0:
73,251,63566,1,8,0:0:0:0:
73,251,63629,1,0,0:0:0:0:
73,251,63691,1,0,0:0:0:0:
73,251,63754,1,8,0:0:0:0:
133,182,64004,1,8,0:0:0:0:
133,182,64066,1,8,0:0:0:0:
133,182,64129,1,8,0:0:0:0:
133,182,64191,1,8,0:0:0:0:
133,182,64254,1,0,0:0:0:0:
133,182,64316,1,0,0:0:0:0:
133,182,64379,1,0,0:0:0:0:
133,182,64441,1,0,0:0:0:0:
133,182,64504,1,8,0:0:0:0:
257,227,64754,1,8,0:0:0:0:
257,227,64816,1,8,0:0:0:0:
257,227,64879,1,8,0:0:0:0:
257,227,64941,1,8,0:0:0:0:
257,227,65004,1,0,0:0:0:0:
257,227,65066,1,8,0:0:0:0:
257,227,65129,1,0,0:0:0:0:
257,227,65191,1,0,0:0:0:0:
257,227,65254,1,8,0:0:0:0:
192,121,65504,1,8,0:0:0:0:
192,121,65566,1,8,0:0:0:0:
187,117,65629,1,8,0:0:0:0:
187,117,65691,1,8,0:0:0:0:
187,117,65754,1,0,0:0:0:0:
187,117,65816,1,0,0:0:0:0:
186,116,65879,1,8,0:0:0:0:
181,115,65941,1,0,0:0:0:0:
184,117,66004,1,8,0:0:0:0:
181,115,66066,1,8,0:0:0:0:
181,115,66129,1,0,0:0:0:0:
181,115,66191,1,0,0:0:0:0:
181,117,66254,1,8,0:0:0:0:
181,117,66316,1,8,0:0:0:0:
181,117,66379,1,0,0:0:0:0:
181,117,66441,1,8,0:0:0:0:
181,117,66504,1,0,0:0:0:0:
181,117,66566,1,0,0:0:0:0:
181,117,66629,1,8,0:0:0:0:
56,152,66691,1,8,0:0:0:0:
56,152,66754,1,0,0:0:0:0:
56,152,66816,1,0,0:0:0:0:
56,152,66879,1,8,0:0:0:0:
56,152,66941,1,0,0:0:0:0:
179,124,67004,1,8,0:0:0:0:
179,124,67066,1,8,0:0:0:0:
179,124,67129,1,0,0:0:0:0:
179,124,67191,1,0,0:0:0:0:
179,124,67254,1,8,0:0:0:0:
179,124,67316,1,8,0:0:0:0:
181,121,67379,1,8,0:0:0:0:
179,124,67441,1,8,0:0:0:0:
179,124,67504,1,0,0:0:0:0:
179,124,67566,1,0,0:0:0:0:
179,124,67629,1,8,0:0:0:0:
179,124,67691,1,0,0:0:0:0:
179,124,67754,1,8,0:0:0:0:
174,130,67816,1,8,0:0:0:0:
174,130,67879,1,8,0:0:0:0:
174,130,67941,1,8,0:0:0:0:
174,130,68004,1,8,0:0:0:0:
174,130,68066,1,8,0:0:0:0:
174,130,68129,1,8,0:0:0:0:
175,134,68191,1,8,0:0:0:0:
175,134,68254,1,0,0:0:0:0:
175,134,68316,1,8,0:0:0:0:
175,134,68379,1,0,0:0:0:0:
175,132,68441,1,0,0:0:0:0:
175,132,68504,1,8,0:0:0:0:
61,135,68566,1,8,0:0:0:0:
61,135,68629,1,8,0:0:0:0:
61,135,68691,1,8,0:0:0:0:
175,137,68754,1,0,0:0:0:0:
175,137,68879,1,8,0:0:0:0:
74,134,69004,1,0,0:0:0:0:
74,134,69129,1,0,0:0:0:0:
74,134,69254,1,12,0:0:0:0:
199,97,69629,1,12,0:0:0:0:
196,89,70004,1,12,0:0:0:0:
200,91,70379,1,12,0:0:0:0:
81,151,70754,1,8,0:0:0:0:
81,151,70837,1,8,0:0:0:0:
81,151,70920,1,0,0:0:0:0:
81,151,71004,1,8,0:0:0:0:
208,136,71087,1,0,0:0:0:0:
187,72,71170,1,0,0:0:0:0:
187,72,71254,1,12,0:0:0:0:
209,147,71629,1,12,0:0:0:0:
195,146,72004,1,12,0:0:0:0:
320,235,72254,1,0,0:0:0:0:
350,257,72316,1,0,0:0:0:0:
381,279,72379,1,8,0:0:0:0:
381,279,72441,1,0,0:0:0:0:
381,279,72504,1,8,0:0:0:0:
381,279,72566,1,8,0:0:0:0:
381,279,72629,1,0,0:0:0:0:
381,279,72691,1,0,0:0:0:0:
381,279,72754,1,8,0:0:0:0:
352,256,72816,1,0,0:0:0:0:
320,288,72879,1,8,0:0:0:0:
288,256,72941,1,0,0:0:0:0:
267,257,73004,1,8,0:0:0:0:
267,257,73066,1,8,0:0:0:0:
267,257,73129,1,0,0:0:0:0:
267,257,73191,1,0,0:0:0:0:
198,154,73254,1,8,0:0:0:0:
157,219,73379,1,0,0:0:0:0:
106,276,73504,1,0,0:0:0:0:
61,338,73629,1,0,0:0:0:0:
198,154,73754,1,8,0:0:0:0:
154,217,73879,1,8,0:0:0:0:
59,221,74004,1,0,0:0:0:0:
93,204,74066,1,0,0:0:0:0:
128,187,74129,1,0,0:0:0:0:
128,187,74191,1,0,0:0:0:0:
192,144,74254,1,8,0:0:0:0:
154,211,74379,1,0,0:0:0:0:
117,278,74504,1,0,0:0:0:0:
80,345,74629,1,0,0:0:0:0:
62,162,74754,1,8,0:0:0:0:
78,237,74879,1,8,0:0:0:0:
95,311,75004,1,0,0:0:0:0:
95,311,75129,1,0,0:0:0:0:
67,162,75254,1,8,0:0:0:0:
143,169,75379,1,0,0:0:0:0:
66,162,75504,1,0,0:0:0:0:
142,168,75629,1,0,0:0:0:0:
67,162,75754,1,8,0:0:0:0:
140,185,75879,1,0,0:0:0:0:
67,162,76004,1,8,0:0:0:0:
140,185,76129,1,8,0:0:0:0:
197,243,76254,1,0,0:0:0:0:
164,222,76316,1,0,0:0:0:0:
130,201,76379,1,0,0:0:0:0:
130,201,76504,1,8,0:0:0:0:
130,201,76629,1,0,0:0:0:0:
130,201,76691,1,0,0:0:0:0:
130,201,76754,1,8,0:0:0:0:
56,177,76879,1,8,0:0:0:0:
128,204,77004,1,0,0:0:0:0:
92,190,77066,1,0,0:0:0:0:
92,190,77129,1,0,0:0:0:0:
92,190,77191,1,0,0:0:0:0:
272,258,77254,1,8,0:0:0:0:
203,223,77379,1,8,0:0:0:0:
168,206,77504,1,0,0:0:0:0:
168,206,77629,1,0,0:0:0:0:
106,253,77754,1,8,0:0:0:0:
106,253,77816,1,8,0:0:0:0:
106,253,77879,1,8,0:0:0:0:
106,253,77941,1,8,0:0:0:0:
107,214,78004,1,0,0:0:0:0:
108,175,78066,1,0,0:0:0:0:
109,136,78129,1,0,0:0:0:0:
108,175,78191,1,0,0:0:0:0:
66,160,78254,1,8,0:0:0:0:
107,214,78379,1,0,0:0:0:0:
107,214,78504,1,0,0:0:0:0:
66,160,78629,1,8,0:0:0:0:
107,214,78754,1,0,0:0:0:0:
107,214,78879,1,0,0:0:0:0:
167,123,79004,1,8,0:0:0:0:
107,214,79129,1,0,0:0:0:0:
107,214,79254,1,0,0:0:0:0:
87,142,79379,1,8,0:0:0:0:
107,214,79504,1,0,0:0:0:0:
107,214,79566,1,0,0:0:0:0:
107,214,79629,1,0,0:0:0:0:
107,214,79754,1,8,0:0:0:0:
153,192,79837,1,8,0:0:0:0:
107,214,79920,1,0,0:0:0:0:
107,214,80004,1,8,0:0:0:0:
153,193,80087,1,0,0:0:0:0:
199,172,80170,1,0,0:0:0:0:
93,117,80254,1,8,0:0:0:0:
128,212,80379,1,0,0:0:0:0:
101,117,80504,1,0,0:0:0:0:
101,117,80629,1,8,0:0:0:0:
101,117,80754,1,0,0:0:0:0:
101,117,80879,1,0,0:0:0:0:
103,118,81004,1,8,0:0:0:0:
101,117,81129,1,8,0:0:0:0:
106,122,81254,1,0,0:0:0:0:
129,152,81316,1,0,0:0:0:0:
153,182,81379,1,8,0:0:0:0:
176,212,81441,1,0,0:0:0:0:
199,242,81504,1,8,0:0:0:0:
222,272,81566,1,8,0:0:0:0:
222,272,81629,1,0,0:0:0:0:
222,272,81691,1,0,0:0:0:0:
222,272,81754,1,8,0:0:0:0:
192,256,81816,1,0,0:0:0:0:
160,224,81879,1,8,0:0:0:0:
192,256,81941,1,0,0:0:0:0:
222,272,82004,1,8,0:0:0:0:
222,272,82066,1,8,0:0:0:0:
222,272,82129,1,0,0:0:0:0:
222,272,82191,1,0,0:0:0:0:
106,124,82254,1,8,0:0:0:0:
152,185,82379,1,0,0:0:0:0:
199,245,82504,1,0,0:0:0:0:
151,184,82629,1,0,0:0:0:0:
106,124,82754,1,8,0:0:0:0:
152,185,82879,1,8,0:0:0:0:
199,245,83004,1,0,0:0:0:0:
175,214,83066,1,0,0:0:0:0:
175,214,83129,1,0,0:0:0:0:
175,214,83191,1,0,0:0:0:0:
106,124,83254,1,8,0:0:0:0:
175,214,83379,1,0,0:0:0:0:
175,214,83504,1,0,0:0:0:0:
175,214,83629,1,0,0:0:0:0:
112,123,83754,1,8,0:0:0:0:
175,214,83879,1,8,0:0:0:0:
175,214,84004,1,0,0:0:0:0:
175,214,84129,1,0,0:0:0:0:
112,123,84254,1,8,0:0:0:0:
112,123,84379,1,0,0:0:0:0:
112,123,84504,1,0,0:0:0:0:
112,123,84629,1,0,0:0:0:0:
112,123,84754,1,8,0:0:0:0:
112,123,84879,1,0,0:0:0:0:
90,138,85004,1,8,0:0:0:0:
90,138,85129,1,8,0:0:0:0:
106,123,85254,1,0,0:0:0:0:
132,150,85316,1,0,0:0:0:0:
158,178,85379,1,0,0:0:0:0:
209,234,85504,1,8,0:0:0:0:
157,177,85629,1,0,0:0:0:0:
182,205,85691,1,0,0:0:0:0:
105,120,85754,1,8,0:0:0:0:
182,205,85879,1,8,0:0:0:0:
182,205,86004,1,0,0:0:0:0:
182,205,86066,1,0,0:0:0:0:
182,205,86129,1,0,0:0:0:0:
182,205,86191,1,0,0:0:0:0:
182,205,86254,1,8,0:0:0:0:
203,223,86379,1,8,0:0:0:0:
168,206,86504,1,8,0:0:0:0:
168,206,86629,1,8,0:0:0:0:
106,253,86754,1,8,0:0:0:0:
106,253,86879,1,8,0:0:0:0:
107,214,87004,1,0,0:0:0:0:
109,136,87129,1,0,0:0:0:0:
66,160,87254,1,8,0:0:0:0:
127,121,87379,1,0,0:0:0:0:
127,121,87504,1,0,0:0:0:0:
127,121,87629,1,8,0:0:0:0:
127,121,87754,1,0,0:0:0:0:
127,121,87879,1,8,0:0:0:0:
127,121,88004,1,8,0:0:0:0:
94,140,88129,1,0,0:0:0:0:
94,140,88254,1,8,0:0:0:0:
94,140,88379,1,0,0:0:0:0:
94,140,88504,1,8,0:0:0:0:
94,140,88629,1,8,0:0:0:0:
94,140,88754,1,0,0:0:0:0:
94,140,88879,1,8,0:0:0:0:
94,140,89004,1,8,0:0:0:0:
94,140,89129,1,0,0:0:0:0:
94,140,89254,1,8,0:0:0:0:
94,140,89379,1,0,0:0:0:0:
0,207,89504,1,8,0:0:0:0:
94,140,89629,1,8,0:0:0:0:
94,140,89754,1,0,0:0:0:0:
170,146,89879,1,0,0:0:0:0:
93,138,90004,1,8,0:0:0:0:
169,145,90129,1,0,0:0:0:0:
92,139,90254,1,8,0:0:0:0:
152,91,90379,1,0,0:0:0:0:
167,77,90441,1,8,0:0:0:0:
167,77,90504,1,0,0:0:0:0:
167,77,90566,1,0,0:0:0:0:
167,77,90629,1,8,0:0:0:0:
179,152,90754,1,0,0:0:0:0:
194,227,90879,1,8,0:0:0:0:
201,267,90941,1,0,0:0:0:0:
197,305,91004,1,8,0:0:0:0:
186,228,91129,1,0,0:0:0:0:
176,151,91254,1,8,0:0:0:0:
139,140,91316,1,8,0:0:0:0:
139,140,91379,1,8,0:0:0:0:
139,140,91441,1,8,0:0:0:0:
139,140,91504,1,8,0:0:0:0:
139,140,91566,1,8,0:0:0:0:
139,140,91629,1,8,0:0:0:0:
139,140,91691,1,8,0:0:0:0:
139,140,91754,1,8,0:0:0:0:
139,140,91816,1,8,0:0:0:0:
139,140,91879,1,8,0:0:0:0:
139,140,91941,1,8,0:0:0:0:
139,140,92004,1,8,0:0:0:0:
139,140,92066,1,8,0:0:0:0:
139,140,92129,1,8,0:0:0:0:
139,140,92191,1,8,0:0:0:0:
230,142,92254,1,0,0:0:0:0:
191,141,92316,1,0,0:0:0:0:
155,162,92379,1,0,0:0:0:0:
123,139,92441,1,0,0:0:0:0:
155,162,92504,1,0,0:0:0:0:
155,162,92566,1,0,0:0:0:0:
155,162,92629,1,0,0:0:0:0:
155,162,92691,1,0,0:0:0:0:
155,162,92754,1,0,0:0:0:0:
155,162,92816,1,0,0:0:0:0:
155,162,92879,1,0,0:0:0:0:
155,162,92941,1,0,0:0:0:0:
155,162,93004,1,8,0:0:0:0:
155,162,93129,1,8,0:0:0:0:
230,142,93254,1,0,0:0:0:0:
155,162,93316,1,0,0:0:0:0:
155,162,93379,1,0,0:0:0:0:
155,162,93441,1,0,0:0:0:0:
155,162,93504,1,8,0:0:0:0:
155,162,93629,1,0,0:0:0:0:
49,86,93754,1,8,0:0:0:0:
49,86,93816,1,0,0:0:0:0:
49,86,93879,1,8,0:0:0:0:
230,142,94004,1,0,0:0:0:0:
230,142,94129,1,0,0:0:0:0:
153,153,94254,1,8,0:0:0:0:
118,147,94316,1,8,0:0:0:0:
212,202,94379,1,8,0:0:0:0:
241,226,94441,1,8,0:0:0:0:
270,251,94504,1,8,0:0:0:0:
270,251,94566,1,8,0:0:0:0:
270,251,94629,1,8,0:0:0:0:
270,251,94691,1,8,0:0:0:0:
270,251,94754,1,8,0:0:0:0:
270,251,94816,1,8,0:0:0:0:
270,251,94879,1,8,0:0:0:0:
270,251,94941,1,8,0:0:0:0:
270,251,95004,1,8,0:0:0:0:
270,251,95066,1,8,0:0:0:0:
270,251,95129,1,8,0:0:0:0:
270,251,95191,1,8,0:0:0:0:
192,128,95254,1,0,0:0:0:0:
84,132,95316,1,0,0:0:0:0:
84,132,95379,1,0,0:0:0:0:
84,132,95441,1,0,0:0:0:0:
84,132,95504,1,0,0:0:0:0:
84,132,95566,1,0,0:0:0:0:
84,132,95629,1,0,0:0:0:0:
84,132,95691,1,0,0:0:0:0:
84,132,95754,1,0,0:0:0:0:
84,132,95816,1,0,0:0:0:0:
84,132,95879,1,0,0:0:0:0:
84,132,95941,1,0,0:0:0:0:
84,132,96004,1,0,0:0:0:0:
84,132,96066,1,0,0:0:0:0:
84,132,96129,1,0,0:0:0:0:
84,132,96191,1,0,0:0:0:0:
84,132,96254,1,8,0:0:0:0:
84,132,96379,1,0,0:0:0:0:
84,132,96504,1,8,0:0:0:0:
84,132,96566,1,0,0:0:0:0:
84,132,96629,1,8,0:0:0:0:
113,60,96754,1,0,0:0:0:0:
84,131,96879,1,0,0:0:0:0:
84,132,97004,1,8,0:0:0:0:
47,142,97066,1,8,0:0:0:0:
146,87,97129,1,0,0:0:0:0:
111,102,97191,1,0,0:0:0:0:
508,336,97254,1,8,0:0:0:0:
443,294,97379,1,8,0:0:0:0:
372,263,97504,1,0,0:0:0:0:
312,211,97629,1,8,0:0:0:0:
238,187,97754,1,0,0:0:0:0:
164,164,97879,1,8,0:0:0:0:
90,142,98004,1,0,0:0:0:0:
53,43,98129,1,8,0:0:0:0:
117,85,98254,1,8,0:0:0:0:
143,157,98379,1,0,0:0:0:0:
120,123,98441,1,0,0:0:0:0:
117,85,98504,1,8,0:0:0:0:
143,157,98629,1,0,0:0:0:0:
117,85,98754,1,8,0:0:0:0:
117,85,98879,1,8,0:0:0:0:
143,157,99004,1,8,0:0:0:0:
143,157,99129,1,0,0:0:0:0:
117,85,99254,1,8,0:0:0:0:
143,157,99379,1,8,0:0:0:0:
143,157,99504,1,0,0:0:0:0:
127,122,99566,1,0,0:0:0:0:
143,157,99629,1,0,0:0:0:0:
131,140,99754,1,8,0:0:0:0:
131,140,99879,1,8,0:0:0:0:
143,157,100004,1,0,0:0:0:0:
127,122,100066,1,0,0:0:0:0:
143,157,100129,1,0,0:0:0:0:
131,140,100254,1,8,0:0:0:0:
143,157,100379,1,0,0:0:0:0:
131,140,100504,1,8,0:0:0:0:
131,140,100629,1,0,0:0:0:0:
128,224,100754,1,8,0:0:0:0:
128,224,100816,1,8,0:0:0:0:
128,224,100879,1,0,0:0:0:0:
128,224,100941,1,0,0:0:0:0:
128,224,101004,1,8,0:0:0:0:
128,224,101066,1,8,0:0:0:0:
128,224,101129,1,8,0:0:0:0:
128,224,101191,1,8,0:0:0:0:
148,142,101254,1,0,0:0:0:0:
101,80,101379,1,0,0:0:0:0:
142,144,101504,1,0,0:0:0:0:
312,211,101629,1,8,0:0:0:0:
238,187,101754,1,0,0:0:0:0:
164,164,101879,1,8,0:0:0:0:
90,142,102004,1,0,0:0:0:0:
53,43,102129,1,8,0:0:0:0:
117,85,102254,1,8,0:0:0:0:
143,157,102379,1,0,0:0:0:0:
117,85,102504,1,8,0:0:0:0:
143,157,102629,1,0,0:0:0:0:
117,85,102754,1,8,0:0:0:0:
86,108,102816,1,8,0:0:0:0:
55,131,102879,1,8,0:0:0:0:
55,131,102941,1,8,0:0:0:0:
55,131,103004,1,8,0:0:0:0:
55,131,103066,1,8,0:0:0:0:
55,131,103129,1,0,0:0:0:0:
148,142,103254,1,8,0:0:0:0:
94,288,103316,1,8,0:0:0:0:
71,138,103379,1,8,0:0:0:0:
49,63,103504,1,0,0:0:0:0:
59,99,103566,1,0,0:0:0:0:
59,99,103629,1,0,0:0:0:0:
71,138,103754,1,8,0:0:0:0:
59,99,103879,1,0,0:0:0:0:
59,99,103941,1,0,0:0:0:0:
59,99,104004,1,8,0:0:0:0:
59,99,104129,1,0,0:0:0:0:
59,99,104254,1,8,0:0:0:0:
59,99,104316,1,0,0:0:0:0:
59,99,104379,1,0,0:0:0:0:
123,126,104504,1,8,0:0:0:0:
123,126,104566,1,8,0:0:0:0:
123,126,104629,1,0,0:0:0:0:
54,145,104691,1,0,0:0:0:0:
123,126,104754,1,8,0:0:0:0:
123,126,104816,1,0,0:0:0:0:
123,126,104879,1,8,0:0:0:0:
123,126,104941,1,0,0:0:0:0:
123,126,105004,1,8,0:0:0:0:
123,126,105066,1,8,0:0:0:0:
123,126,105129,1,0,0:0:0:0:
123,126,105191,1,0,0:0:0:0:
508,336,105254,1,8,0:0:0:0:
443,294,105379,1,8,0:0:0:0:
372,263,105504,1,0,0:0:0:0:
96,292,105566,1,0,0:0:0:0:
312,211,105629,1,8,0:0:0:0:
238,187,105754,1,0,0:0:0:0:
164,164,105879,1,8,0:0:0:0:
90,142,106004,1,0,0:0:0:0:
53,43,106129,1,8,0:0:0:0:
96,292,106191,1,0,0:0:0:0:
117,85,106254,1,8,0:0:0:0:
143,157,106379,1,0,0:0:0:0:
105,149,106441,1,0,0:0:0:0:
117,85,106504,1,8,0:0:0:0:
143,157,106629,1,0,0:0:0:0:
117,85,106754,1,8,0:0:0:0:
117,85,106879,1,8,0:0:0:0:
143,157,107004,1,8,0:0:0:0:
96,293,107066,1,8,0:0:0:0:
143,157,107129,1,0,0:0:0:0:
96,293,107191,1,0,0:0:0:0:
117,85,107254,1,8,0:0:0:0:
143,157,107379,1,8,0:0:0:0:
143,157,107504,1,0,0:0:0:0:
117,85,107566,1,0,0:0:0:0:
143,157,107629,1,0,0:0:0:0:
131,140,107754,1,8,0:0:0:0:
131,140,107879,1,8,0:0:0:0:
143,157,108004,1,0,0:0:0:0:
117,85,108066,1,0,0:0:0:0:
143,157,108129,1,0,0:0:0:0:
131,140,108254,1,8,0:0:0:0:
143,157,108379,1,0,0:0:0:0:
131,140,108504,1,8,0:0:0:0:
131,140,108629,1,0,0:0:0:0:
148,142,108754,1,8,0:0:0:0:
148,142,108816,1,8,0:0:0:0:
148,142,108879,1,0,0:0:0:0:
148,142,108941,1,0,0:0:0:0:
148,142,109004,1,8,0:0:0:0:
148,142,109066,1,8,0:0:0:0:
148,142,109129,1,8,0:0:0:0:
148,142,109191,1,8,0:0:0:0:
148,142,109254,1,0,0:0:0:0:
101,80,109379,1,0,0:0:0:0:
142,144,109504,1,0,0:0:0:0:
312,211,109629,1,8,0:0:0:0:
238,187,109754,1,0,0:0:0:0:
164,164,109879,1,8,0:0:0:0:
90,142,110004,1,0,0:0:0:0:
53,43,110129,1,8,0:0:0:0:
117,85,110254,1,8,0:0:0:0:
143,157,110379,1,0,0:0:0:0:
117,85,110504,1,8,0:0:0:0:
143,157,110629,1,0,0:0:0:0:
117,85,110754,1,8,0:0:0:0:
86,108,110816,1,8,0:0:0:0:
55,131,110879,1,8,0:0:0:0:
55,131,110941,1,8,0:0:0:0:
55,131,111004,1,8,0:0:0:0:
55,131,111066,1,8,0:0:0:0:
55,131,111129,1,0,0:0:0:0:
148,142,111254,1,8,0:0:0:0:
396,327,111316,1,8,0:0:0:0:
71,138,111379,1,8,0:0:0:0:
49,63,111504,1,0,0:0:0:0:
59,99,111566,1,0,0:0:0:0:
59,99,111629,1,0,0:0:0:0:
71,138,111754,1,12,0:0:0:0:
59,99,112004,1,4,0:0:0:0:
59,99,112254,1,12,0:0:0:0:
123,126,112504,1,4,0:0:0:0:
160,160,112754,1,12,0:0:0:0:
160,192,113254,1,8,0:0:0:0:
160,192,113379,1,0,0:0:0:0:
156,153,113441,1,0,0:0:0:0:
128,163,113504,1,8,0:0:0:0:
160,192,113629,1,0,0:0:0:0:
142,158,113754,1,0,0:0:0:0:
127,169,113879,1,8,0:0:0:0:
160,192,114004,1,0,0:0:0:0:
120,126,114066,1,0,0:0:0:0:
126,169,114129,1,0,0:0:0:0:
126,169,114254,1,8,0:0:0:0:
202,179,114379,1,0,0:0:0:0:
164,172,114441,1,0,0:0:0:0:
123,174,114504,1,8,0:0:0:0:
199,182,114629,1,0,0:0:0:0:
275,192,114754,1,0,0:0:0:0:
114,188,114879,1,8,0:0:0:0:
114,186,115004,1,8,0:0:0:0:
122,148,115066,1,8,0:0:0:0:
114,188,115129,1,0,0:0:0:0:
122,150,115191,1,0,0:0:0:0:
114,188,115254,1,8,0:0:0:0:
190,186,115379,1,0,0:0:0:0:
122,148,115441,1,0,0:0:0:0:
203,167,115504,1,8,0:0:0:0:
265,212,115629,1,0,0:0:0:0:
202,166,115754,1,0,0:0:0:0:
196,164,115879,1,8,0:0:0:0:
192,160,116004,1,0,0:0:0:0:
260,206,116129,1,8,0:0:0:0:
117,178,116254,1,0,0:0:0:0:
128,128,116379,1,8,0:0:0:0:
128,128,116504,1,0,0:0:0:0:
160,128,116566,1,0,0:0:0:0:
128,160,116629,1,0,0:0:0:0:
160,128,116691,1,0,0:0:0:0:
128,160,116754,1,8,0:0:0:0:
96,160,116879,1,8,0:0:0:0:
96,160,117004,1,0,0:0:0:0:
160,128,117066,1,0,0:0:0:0:
96,160,117129,1,0,0:0:0:0:
128,128,117254,1,8,0:0:0:0:
194,166,117379,1,0,0:0:0:0:
176,132,117441,1,0,0:0:0:0:
128,128,117504,1,8,0:0:0:0:
194,166,117629,1,0,0:0:0:0:
260,204,117754,1,0,0:0:0:0:
128,128,117879,1,8,0:0:0:0:
235,189,118004,1,0,0:0:0:0:
211,159,118066,1,0,0:0:0:0:
235,189,118129,1,0,0:0:0:0:
128,128,118254,1,8,0:0:0:0:
235,189,118379,1,0,0:0:0:0:
212,158,118441,1,0,0:0:0:0:
96,128,118504,1,8,0:0:0:0:
235,189,118629,1,0,0:0:0:0:
235,189,118754,1,0,0:0:0:0:
96,128,118879,1,8,0:0:0:0:
96,128,119004,1,8,0:0:0:0:
120,98,119066,1,8,0:0:0:0:
96,128,119129,1,0,0:0:0:0:
120,98,119191,1,0,0:0:0:0:
96,128,119254,1,8,0:0:0:0:
235,189,119379,1,0,0:0:0:0:
96,128,119504,1,0,0:0:0:0:
128,128,119566,1,8,0:0:0:0:
160,96,119629,1,0,0:0:0:0:
210,159,119691,1,0,0:0:0:0:
235,189,119754,1,8,0:0:0:0:
128,128,119879,1,0,0:0:0:0:
120,98,119941,1,0,0:0:0:0:
128,128,120004,1,0,0:0:0:0:
235,189,120129,1,8,0:0:0:0:
69,178,120254,1,0,0:0:0:0:
128,128,120379,1,8,0:0:0:0:
109,202,120504,1,0,0:0:0:0:
96,160,120566,1,0,0:0:0:0:
128,128,120629,1,0,0:0:0:0:
128,96,120691,1,0,0:0:0:0:
128,128,120754,1,8,0:0:0:0:
320,288,120879,1,8,0:0:0:0:
320,288,121004,1,0,0:0:0:0:
81,235,121066,1,0,0:0:0:0:
81,235,121129,1,0,0:0:0:0:
160,192,121254,1,8,0:0:0:0:
160,192,121379,1,0,0:0:0:0:
128,160,121441,1,0,0:0:0:0:
128,163,121504,1,8,0:0:0:0:
160,192,121629,1,0,0:0:0:0:
160,192,121754,1,0,0:0:0:0:
127,169,121879,1,8,0:0:0:0:
160,192,122004,1,0,0:0:0:0:
128,160,122066,1,0,0:0:0:0:
126,169,122129,1,0,0:0:0:0:
126,169,122254,1,8,0:0:0:0:
202,179,122379,1,0,0:0:0:0:
160,160,122441,1,0,0:0:0:0:
123,174,122504,1,8,0:0:0:0:
199,182,122629,1,0,0:0:0:0:
275,192,122754,1,0,0:0:0:0:
114,188,122879,1,8,0:0:0:0:
114,186,123004,1,8,0:0:0:0:
96,160,123066,1,8,0:0:0:0:
114,188,123129,1,0,0:0:0:0:
96,160,123191,1,0,0:0:0:0:
96,128,123254,1,8,0:0:0:0:
190,186,123379,1,0,0:0:0:0:
192,96,123441,1,0,0:0:0:0:
203,167,123504,1,8,0:0:0:0:
192,96,123629,1,0,0:0:0:0:
202,166,123754,1,0,0:0:0:0:
196,164,123879,1,8,0:0:0:0:
192,160,124004,1,0,0:0:0:0:
260,206,124129,1,8,0:0:0:0:
117,178,124254,1,0,0:0:0:0:
128,128,124379,1,8,0:0:0:0:
128,128,124504,1,0,0:0:0:0:
160,128,124566,1,0,0:0:0:0:
51,133,124629,1,0,0:0:0:0:
96,128,124691,1,0,0:0:0:0:
51,133,124754,1,8,0:0:0:0:
58,207,124879,5,8,0:0:0:0:
58,207,125004,1,0,0:0:0:0:
96,192,125066,1,0,0:0:0:0:
80,133,125129,1,0,0:0:0:0:
160,192,125254,1,8,0:0:0:0:
160,192,125379,1,0,0:0:0:0:
128,160,125441,1,0,0:0:0:0:
128,128,125504,1,8,0:0:0:0:
160,192,125629,1,0,0:0:0:0:
160,192,125754,1,0,0:0:0:0:
127,169,125879,1,8,0:0:0:0:
160,192,126004,1,0,0:0:0:0:
128,160,126066,1,0,0:0:0:0:
128,128,126129,1,0,0:0:0:0:
126,169,126254,1,8,0:0:0:0:
202,179,126379,1,0,0:0:0:0:
160,160,126441,1,0,0:0:0:0:
123,174,126504,1,8,0:0:0:0:
199,182,126629,1,0,0:0:0:0:
275,192,126754,1,0,0:0:0:0:
114,188,126879,1,8,0:0:0:0:
114,186,127004,1,8,0:0:0:0:
96,160,127066,1,8,0:0:0:0:
114,188,127129,1,0,0:0:0:0:
96,160,127191,1,0,0:0:0:0:
114,188,127254,1,8,0:0:0:0:
190,186,127379,1,0,0:0:0:0:
153,175,127441,1,0,0:0:0:0:
203,167,127504,1,8,0:0:0:0:
166,156,127566,1,0,0:0:0:0:
265,212,127629,1,8,0:0:0:0:
230,196,127691,1,8,0:0:0:0:
202,166,127754,1,0,0:0:0:0:
196,164,127879,1,8,0:0:0:0:
159,154,127941,1,8,0:0:0:0:
192,160,128004,1,0,0:0:0:0:
260,206,128129,1,8,0:0:0:0:
101,143,128191,1,0,0:0:0:0:
117,178,128254,1,0,0:0:0:0:
128,128,128379,1,8,0:0:0:0:
230,196,128441,1,0,0:0:0:0:
128,128,128504,1,8,0:0:0:0:
230,196,128566,1,8,0:0:0:0:
51,133,128629,1,0,0:0:0:0:
87,145,128691,1,0,0:0:0:0:
51,133,128754,1,8,0:0:0:0:
87,145,128816,1,0,0:0:0:0:
58,207,128879,5,0,0:0:0:0:
95,202,128941,1,0,0:0:0:0:
58,207,129004,1,8,0:0:0:0:
230,196,129129,1,0,0:0:0:0:
58,207,129254,1,8,0:0:0:0:
101,143,129379,1,0,0:0:0:0:
101,143,129441,1,0,0:0:0:0:
101,143,129504,1,8,0:0:0:0:
138,149,129566,1,0,0:0:0:0:
213,162,129629,1,8,0:0:0:0:
213,162,129691,1,8,0:0:0:0:
213,162,129754,1,0,0:0:0:0:
213,162,129816,1,0,0:0:0:0:
213,162,129879,1,8,0:0:0:0:
213,162,129941,1,8,0:0:0:0:
213,162,130004,1,0,0:0:0:0:
213,162,130066,1,0,0:0:0:0:
213,162,130129,1,8,0:0:0:0:
213,162,130191,1,0,0:0:0:0:
213,162,130254,1,8,0:0:0:0:
213,162,130316,1,8,0:0:0:0:
213,162,130379,1,8,0:0:0:0:
213,162,130441,1,8,0:0:0:0:
213,162,130504,1,0,0:0:0:0:
213,162,130566,1,0,0:0:0:0:
213,162,130629,1,0,0:0:0:0:
213,162,130691,1,8,0:0:0:0:
213,162,130754,1,8,0:0:0:0:
213,162,130816,1,8,0:0:0:0:
213,162,130879,1,8,0:0:0:0:
213,162,130941,1,0,0:0:0:0:
213,162,131004,1,0,0:0:0:0:
213,162,131066,1,0,0:0:0:0:
213,162,131129,1,8,0:0:0:0:
213,162,131191,1,0,0:0:0:0:
213,162,131254,1,8,0:0:0:0:
213,162,131316,1,8,0:0:0:0:
213,162,131379,1,0,0:0:0:0:
213,162,131441,1,0,0:0:0:0:
213,162,131504,1,8,0:0:0:0:
213,162,131566,1,0,0:0:0:0:
213,162,131629,1,8,0:0:0:0:
213,162,131691,1,0,0:0:0:0:
213,162,131754,1,8,0:0:0:0:
213,162,131816,1,8,0:0:0:0:
213,162,131879,1,0,0:0:0:0:
213,162,131941,1,0,0:0:0:0:
213,162,132004,1,8,0:0:0:0:
213,162,132066,1,8,0:0:0:0:
213,162,132129,1,8,0:0:0:0:
213,162,132191,1,0,0:0:0:0:
213,162,132254,1,8,0:0:0:0:
213,162,132316,1,8,0:0:0:0:
213,162,132379,1,8,0:0:0:0:
213,162,132441,1,8,0:0:0:0:
213,162,132504,1,0,0:0:0:0:
213,162,132566,1,0,0:0:0:0:
213,162,132629,1,8,0:0:0:0:
213,162,132691,1,0,0:0:0:0:
130,154,132754,1,8,0:0:0:0:
130,154,132816,1,8,0:0:0:0:
130,154,132879,1,0,0:0:0:0:
130,154,132941,1,0,0:0:0:0:
130,154,133004,1,8,0:0:0:0:
130,154,133066,1,8,0:0:0:0:
130,154,133129,1,0,0:0:0:0:
130,154,133191,1,0,0:0:0:0:
130,154,133254,1,8,0:0:0:0:
58,124,133379,1,0,0:0:0:0:
128,154,133504,1,0,0:0:0:0:
326,33,133629,1,8,0:0:0:0:
255,64,133754,1,0,0:0:0:0:
184,95,133879,1,0,0:0:0:0:
30,162,134004,1,8,0:0:0:0:
30,162,134087,1,8,0:0:0:0:
30,162,134170,1,8,0:0:0:0:
10,160,134254,1,0,0:0:0:0:
84,138,134379,1,8,0:0:0:0:
84,138,134504,1,0,0:0:0:0:
84,138,134629,1,0,0:0:0:0:
84,138,134754,1,8,0:0:0:0:
104,212,134879,1,8,0:0:0:0:
96,174,135004,1,0,0:0:0:0:
96,174,135129,1,0,0:0:0:0:
96,174,135254,1,8,0:0:0:0:
96,174,135379,1,0,0:0:0:0:
96,174,135504,1,0,0:0:0:0:
96,174,135629,1,8,0:0:0:0:
96,174,135754,1,8,0:0:0:0:
96,174,135879,1,0,0:0:0:0:
146,232,136004,1,8,0:0:0:0:
196,290,136129,1,0,0:0:0:0:
246,348,136254,1,8,0:0:0:0:
195,289,136379,1,0,0:0:0:0:
97,180,136504,5,8,0:0:0:0:
97,180,136629,1,8,0:0:0:0:
53,115,136754,1,0,0:0:0:0:
8,53,136879,1,8,0:0:0:0:
53,115,137004,1,0,0:0:0:0:
53,115,137129,1,0,0:0:0:0:
85,104,137254,5,8,0:0:0:0:
97,180,137379,1,0,0:0:0:0:
91,142,137441,1,0,0:0:0:0:
91,142,137504,1,0,0:0:0:0:
91,142,137566,1,0,0:0:0:0:
348,48,137629,1,8,0:0:0:0:
279,83,137754,1,0,0:0:0:0:
244,100,137816,1,0,0:0:0:0:
140,152,137879,1,0,0:0:0:0:
91,142,137941,1,0,0:0:0:0:
209,117,138004,1,8,0:0:0:0:
71,187,138129,1,0,0:0:0:0:
91,142,138254,1,8,0:0:0:0:
91,142,138316,1,8,0:0:0:0:
91,142,138379,1,0,0:0:0:0:
91,142,138441,1,0,0:0:0:0:
91,142,138504,1,8,0:0:0:0:
91,142,138566,1,0,0:0:0:0:
91,142,138629,1,8,0:0:0:0:
91,142,138691,1,8,0:0:0:0:
91,142,138754,1,8,0:0:0:0:
129,139,138816,1,0,0:0:0:0:
148,193,138879,1,0,0:0:0:0:
143,76,138941,1,8,0:0:0:0:
144,115,139004,1,8,0:0:0:0:
143,76,139066,1,0,0:0:0:0:
148,193,139129,1,0,0:0:0:0:
148,193,139191,1,0,0:0:0:0:
148,193,139254,1,8,0:0:0:0:
148,193,139316,1,8,0:0:0:0:
148,193,139379,1,0,0:0:0:0:
148,193,139441,1,0,0:0:0:0:
148,193,139504,1,8,0:0:0:0:
129,159,139566,1,0,0:0:0:0:
148,193,139629,1,8,0:0:0:0:
157,156,139691,1,8,0:0:0:0:
167,118,139754,1,8,0:0:0:0:
167,118,139816,1,0,0:0:0:0:
167,118,139879,1,0,0:0:0:0:
167,118,139941,1,8,0:0:0:0:
167,118,140004,1,8,0:0:0:0:
167,118,140066,1,0,0:0:0:0:
167,118,140129,1,0,0:0:0:0:
167,118,140191,1,0,0:0:0:0:
167,118,140254,1,8,0:0:0:0:
131,132,140316,1,0,0:0:0:0:
131,132,140379,1,8,0:0:0:0:
131,132,140441,1,0,0:0:0:0:
131,132,140504,1,0,0:0:0:0:
131,132,140566,1,0,0:0:0:0:
199,79,140629,1,8,0:0:0:0:
199,79,140691,1,8,0:0:0:0:
199,79,140754,1,0,0:0:0:0:
131,132,140816,1,0,0:0:0:0:
131,132,140879,1,8,0:0:0:0:
131,132,140941,1,8,0:0:0:0:
131,132,141004,1,0,0:0:0:0:
56,150,141129,1,0,0:0:0:0:
256,192,141254,5,8,0:0:0:0:
256,192,141337,1,8,0:0:0:0:
256,192,141420,1,8,0:0:0:0:
297,222,141504,1,8,0:0:0:0:
337,252,141587,1,0,0:0:0:0:
378,282,141670,1,0,0:0:0:0:
419,313,141754,1,8,0:0:0:0:
376,285,141837,1,8,0:0:0:0:
114,118,141920,1,0,0:0:0:0:
289,229,142004,1,8,0:0:0:0:
246,201,142087,1,0,0:0:0:0:
114,118,142170,1,0,0:0:0:0:
158,146,142254,1,8,0:0:0:0:
114,118,142337,1,8,0:0:0:0:
114,118,142420,1,8,0:0:0:0:
114,118,142504,1,8,0:0:0:0:
114,118,142587,1,0,0:0:0:0:
114,118,142670,1,0,0:0:0:0:
114,118,142754,1,8,0:0:0:0:
114,118,142837,1,8,0:0:0:0:
114,118,142920,1,0,0:0:0:0:
114,118,143004,1,8,0:0:0:0:
114,118,143087,1,0,0:0:0:0:
114,118,143170,1,0,0:0:0:0:
114,118,143254,1,8,0:0:0:0:
114,118,143337,1,8,0:0:0:0:
114,118,143420,1,8,0:0:0:0:
114,118,143504,1,8,0:0:0:0:
114,118,143587,1,0,0:0:0:0:
114,118,143670,1,0,0:0:0:0:
114,118,143754,1,8,0:0:0:0:
114,118,143837,1,8,0:0:0:0:
114,118,143920,1,0,0:0:0:0:
114,118,144004,1,8,0:0:0:0:
114,118,144087,1,0,0:0:0:0:
103,167,144170,1,0,0:0:0:0:
114,118,144254,1,8,0:0:0:0:
182,83,144379,1,8,0:0:0:0:
142,121,144504,1,0,0:0:0:0:
142,121,144629,1,0,0:0:0:0:
142,121,144754,1,8,0:0:0:0:
189,60,144879,1,8,0:0:0:0:
142,121,145004,1,0,0:0:0:0:
189,60,145129,1,0,0:0:0:0:
291,190,145254,1,8,0:0:0:0:
291,190,145316,1,8,0:0:0:0:
291,190,145379,1,0,0:0:0:0:
268,159,145441,1,0,0:0:0:0:
268,159,145504,1,0,0:0:0:0:
268,159,145566,1,0,0:0:0:0:
268,159,145629,1,0,0:0:0:0:
268,159,145691,1,0,0:0:0:0:
178,33,145754,1,8,0:0:0:0:
200,64,145816,1,8,0:0:0:0:
193,87,145879,1,0,0:0:0:0:
182,123,145941,1,0,0:0:0:0:
268,159,146004,1,0,0:0:0:0:
154,185,146066,1,0,0:0:0:0:
154,185,146129,1,0,0:0:0:0:
154,185,146191,1,0,0:0:0:0:
154,185,146254,1,8,0:0:0:0:
154,185,146316,1,8,0:0:0:0:
154,185,146379,1,0,0:0:0:0:
154,185,146441,1,0,0:0:0:0:
154,185,146504,1,8,0:0:0:0:
154,185,146566,1,8,0:0:0:0:
154,185,146629,1,0,0:0:0:0:
154,185,146691,1,0,0:0:0:0:
114,169,146754,1,8,0:0:0:0:
114,169,146816,1,0,0:0:0:0:
114,169,146879,1,8,0:0:0:0:
114,169,146941,1,8,0:0:0:0:
114,169,147004,1,0,0:0:0:0:
114,169,147066,1,0,0:0:0:0:
114,169,147129,1,8,0:0:0:0:
114,169,147191,1,0,0:0:0:0:
114,169,147254,1,8,0:0:0:0:
154,185,147316,1,8,0:0:0:0:
114,169,147379,1,0,0:0:0:0:
114,169,147441,1,0,0:0:0:0:
114,169,147504,1,0,0:0:0:0:
114,169,147566,1,0,0:0:0:0:
114,169,147629,1,0,0:0:0:0:
114,169,147691,1,0,0:0:0:0:
154,185,147754,1,8,0:0:0:0:
154,185,147816,1,8,0:0:0:0:
114,169,147879,1,0,0:0:0:0:
114,169,147941,1,0,0:0:0:0:
114,169,148004,1,0,0:0:0:0:
114,169,148066,1,0,0:0:0:0:
114,169,148129,1,0,0:0:0:0:
114,169,148191,1,0,0:0:0:0:
154,185,148254,1,8,0:0:0:0:
154,185,148316,1,8,0:0:0:0:
114,169,148379,1,0,0:0:0:0:
114,169,148441,1,0,0:0:0:0:
154,185,148504,1,8,0:0:0:0:
154,185,148566,1,8,0:0:0:0:
154,185,148629,1,0,0:0:0:0:
154,185,148691,1,0,0:0:0:0:
114,169,148754,1,8,0:0:0:0:
114,169,148816,1,0,0:0:0:0:
114,169,148879,1,0,0:0:0:0:
114,169,148941,1,0,0:0:0:0:
154,185,149004,1,8,0:0:0:0:
154,185,149066,1,8,0:0:0:0:
154,185,149129,1,8,0:0:0:0:
154,185,149191,1,8,0:0:0:0:
154,185,149254,1,0,0:0:0:0:
131,111,149379,1,0,0:0:0:0:
161,181,149504,1,0,0:0:0:0:
130,110,149629,1,8,0:0:0:0:
76,165,149754,1,8,0:0:0:0:
118,100,149879,1,0,0:0:0:0:
98,125,150004,1,8,0:0:0:0:
136,80,150129,1,8,0:0:0:0:
136,80,150254,1,8,0:0:0:0:
136,80,150379,1,0,0:0:0:0:
136,80,150504,1,0,0:0:0:0:
136,80,150629,1,0,0:0:0:0:
136,80,150754,1,8,0:0:0:0:
136,80,150879,1,8,0:0:0:0:
136,80,151004,1,8,0:0:0:0:
136,80,151129,1,0,0:0:0:0:
153,104,151254,1,8,0:0:0:0:
153,104,151337,1,0,0:0:0:0:
153,104,151420,1,8,0:0:0:0:
153,104,151504,1,8,0:0:0:0:
153,104,151587,1,0,0:0:0:0:
153,104,151670,1,0,0:0:0:0:
153,104,151754,1,8,0:0:0:0:
153,104,151837,1,0,0:0:0:0:
153,104,151920,1,0,0:0:0:0:
153,104,152004,1,8,0:0:0:0:
153,104,152087,1,8,0:0:0:0:
153,104,152170,1,0,0:0:0:0:
153,104,152254,1,8,0:0:0:0:
145,76,152379,1,0,0:0:0:0:
145,76,152504,1,8,0:0:0:0:
145,76,152629,1,8,0:0:0:0:
145,76,152754,1,0,0:0:0:0:
145,76,152879,1,0,0:0:0:0:
153,104,153004,5,8,0:0:0:0:
153,104,153066,1,8,0:0:0:0:
153,104,153129,1,8,0:0:0:0:
183,126,153191,1,8,0:0:0:0:
274,196,153379,1,0,0:0:0:0:
334,243,153504,1,8,0:0:0:0:
303,219,153566,1,8,0:0:0:0:
256,224,153629,1,0,0:0:0:0:
224,192,153754,5,8,0:0:0:0:
192,160,153816,1,8,0:0:0:0:
160,160,153879,1,8,0:0:0:0:
160,160,153941,1,8,0:0:0:0:
160,160,154004,5,8,0:0:0:0:
160,160,154066,1,8,0:0:0:0:
160,160,154129,1,8,0:0:0:0:
160,128,154191,1,8,0:0:0:0:
192,96,154254,5,8,0:0:0:0:
160,128,154316,1,8,0:0:0:0:
192,96,154379,1,8,0:0:0:0:
160,128,154441,1,8,0:0:0:0:
192,96,154504,5,8,0:0:0:0:
160,128,154566,1,8,0:0:0:0:
192,96,154629,1,8,0:0:0:0:
160,128,154691,1,8,0:0:0:0:
160,96,154754,5,0,0:0:0:0:
160,96,154816,1,0,0:0:0:0:
160,96,154879,1,0,0:0:0:0:
160,96,154941,1,0,0:0:0:0:
160,96,155004,5,0,0:0:0:0:
160,96,155066,1,0,0:0:0:0:
160,96,155129,1,0,0:0:0:0:
160,96,155191,1,0,0:0:0:0:
160,96,155254,5,0,0:0:0:0:
160,96,155316,1,0,0:0:0:0:
160,96,155379,1,0,0:0:0:0:
160,96,155441,1,0,0:0:0:0:
160,96,155504,5,0,0:0:0:0:
160,96,155566,1,0,0:0:0:0:
160,96,155629,1,0,0:0:0:0:
160,96,155691,1,0,0:0:0:0:
160,160,155754,1,8,0:0:0:0:
128,224,155879,1,8,0:0:0:0:
160,160,156004,5,0,0:0:0:0:
160,192,156066,1,0,0:0:0:0:
160,192,156129,1,0,0:0:0:0:
128,64,156191,1,0,0:0:0:0:
128,96,156254,1,8,0:0:0:0:
128,96,156379,1,8,0:0:0:0:
96,160,156504,1,0,0:0:0:0:
96,160,156566,1,0,0:0:0:0:
96,160,156629,1,0,0:0:0:0:
192,96,156754,5,8,0:0:0:0:
160,128,156816,1,8,0:0:0:0:
128,160,156879,1,8,0:0:0:0:
96,160,156941,1,8,0:0:0:0:
64,192,157004,1,8,0:0:0:0:
32,224,157066,1,8,0:0:0:0:
0,256,157129,1,8,0:0:0:0:
192,96,157191,1,8,0:0:0:0:
192,96,157254,5,8,0:0:0:0:
192,96,157316,1,8,0:0:0:0:
192,96,157379,1,8,0:0:0:0:
192,96,157441,1,8,0:0:0:0:
192,96,157504,1,8,0:0:0:0:
192,96,157566,1,8,0:0:0:0:
192,96,157629,1,8,0:0:0:0:
192,96,157691,1,8,0:0:0:0:
160,128,157754,5,0,0:0:0:0:
192,96,157816,1,0,0:0:0:0:
160,128,157879,1,0,0:0:0:0:
192,96,157941,1,0,0:0:0:0:
160,128,158004,1,0,0:0:0:0:
192,96,158066,1,0,0:0:0:0:
160,128,158129,1,0,0:0:0:0:
192,96,158191,1,0,0:0:0:0:
160,128,158254,5,0,0:0:0:0:
192,96,158316,1,0,0:0:0:0:
160,128,158379,1,0,0:0:0:0:
192,96,158441,1,0,0:0:0:0:
160,128,158504,1,0,0:0:0:0:
192,96,158566,1,0,0:0:0:0:
160,128,158629,1,0,0:0:0:0:
192,96,158691,1,0,0:0:0:0:
160,96,158754,1,8,0:0:0:0:
96,128,158879,5,0,0:0:0:0:
64,160,158941,1,8,0:0:0:0:
64,160,159004,1,0,0:0:0:0:
64,160,159066,1,0,0:0:0:0:
64,160,159129,1,8,0:0:0:0:
96,128,159254,5,0,0:0:0:0:
96,128,159379,1,0,0:0:0:0:
64,160,159504,1,8,0:0:0:0:
96,128,159566,1,8,0:0:0:0:
64,160,159629,1,0,0:0:0:0:
192,96,159754,5,8,0:0:0:0:
160,128,159816,1,8,0:0:0:0:
192,96,159879,1,8,0:0:0:0:
160,128,159941,1,8,0:0:0:0:
192,96,160004,1,8,0:0:0:0:
192,96,160066,1,8,0:0:0:0:
192,96,160129,1,8,0:0:0:0:
192,96,160191,1,8,0:0:0:0:
192,96,160254,1,8,0:0:0:0:
192,96,160316,1,8,0:0:0:0:
192,96,160379,1,8,0:0:0:0:
192,96,160441,1,8,0:0:0:0:
192,96,160504,1,8,0:0:0:0:
192,96,160566,1,8,0:0:0:0:
192,96,160629,1,8,0:0:0:0:
192,96,160691,1,8,0:0:0:0:
160,128,160754,5,0,0:0:0:0:
192,96,160816,1,0,0:0:0:0:
160,128,160879,1,0,0:0:0:0:
192,96,160941,1,0,0:0:0:0:
160,128,161004,1,0,0:0:0:0:
192,96,161066,1,0,0:0:0:0:
160,128,161129,1,0,0:0:0:0:
192,96,161191,1,0,0:0:0:0:
160,128,161254,1,0,0:0:0:0:
192,96,161316,1,0,0:0:0:0:
160,128,161379,1,0,0:0:0:0:
192,96,161441,1,0,0:0:0:0:
160,128,161504,1,0,0:0:0:0:
192,96,161566,1,0,0:0:0:0:
160,128,161629,1,0,0:0:0:0:
192,96,161691,1,0,0:0:0:0:
192,96,161754,5,8,0:0:0:0:
128,128,161879,1,8,0:0:0:0:
64,160,162004,1,0,0:0:0:0:
64,160,162066,1,0,0:0:0:0:
64,160,162129,1,0,0:0:0:0:
64,160,162191,1,0,0:0:0:0:
64,160,162254,5,8,0:0:0:0:
128,128,162379,1,8,0:0:0:0:
64,160,162504,1,0,0:0:0:0:
96,128,162566,1,0,0:0:0:0:
96,128,162629,1,0,0:0:0:0:
192,128,162754,5,8,0:0:0:0:
192,128,162816,1,8,0:0:0:0:
192,128,162879,1,8,0:0:0:0:
192,128,162941,1,8,0:0:0:0:
192,128,163004,1,8,0:0:0:0:
192,128,163066,1,8,0:0:0:0:
192,128,163129,1,8,0:0:0:0:
160,128,163191,1,8,0:0:0:0:
160,128,163254,1,8,0:0:0:0:
160,128,163316,1,8,0:0:0:0:
160,128,163379,1,8,0:0:0:0:
160,128,163441,1,8,0:0:0:0:
160,128,163504,1,8,0:0:0:0:
160,128,163566,1,8,0:0:0:0:
160,128,163629,1,8,0:0:0:0:
160,128,163691,1,8,0:0:0:0:
160,128,163754,5,0,0:0:0:0:
160,128,163816,1,0,0:0:0:0:
192,128,163879,1,0,0:0:0:0:
192,128,163941,1,0,0:0:0:0:
192,128,164004,1,0,0:0:0:0:
192,128,164066,1,0,0:0:0:0:
192,128,164129,1,0,0:0:0:0:
192,128,164191,1,0,0:0:0:0:
192,128,164254,1,0,0:0:0:0:
192,128,164316,1,0,0:0:0:0:
192,128,164379,1,0,0:0:0:0:
192,128,164441,1,0,0:0:0:0:
192,128,164504,1,0,0:0:0:0:
192,128,164566,1,0,0:0:0:0:
192,128,164629,1,0,0:0:0:0:
192,128,164691,1,0,0:0:0:0:
192,96,164754,5,8,0:0:0:0:
96,128,164879,1,0,0:0:0:0:
96,128,164941,1,8,0:0:0:0:
96,128,165004,1,0,0:0:0:0:
96,128,165066,1,0,0:0:0:0:
96,128,165129,1,8,0:0:0:0:
96,128,165254,5,0,0:0:0:0:
32,160,165379,1,0,0:0:0:0:
32,160,165504,1,8,0:0:0:0:
32,160,165566,1,8,0:0:0:0:
32,160,165629,1,0,0:0:0:0:
32,160,165691,1,0,0:0:0:0:
32,160,165754,5,8,0:0:0:0:
32,160,165879,1,8,0:0:0:0:
96,128,166004,1,8,0:0:0:0:
160,160,166129,1,8,0:0:0:0:
96,128,166254,1,8,0:0:0:0:
160,160,166379,1,8,0:0:0:0:
416,64,166504,1,0,0:0:0:0:
480,64,166629,1,0,0:0:0:0:
480,64,166754,1,8,0:0:0:0:
128,128,166879,1,8,0:0:0:0:
128,128,167004,1,8,0:0:0:0:
128,128,167129,1,8,0:0:0:0:
128,128,167254,1,8,0:0:0:0:
128,128,167379,1,8,0:0:0:0:
128,128,167504,1,0,0:0:0:0:
128,128,167629,1,0,0:0:0:0:
128,128,167754,5,8,0:0:0:0:
128,128,167879,1,0,0:0:0:0:
128,128,168004,1,8,0:0:0:0:
128,128,168129,1,8,0:0:0:0:
128,128,168254,1,0,0:0:0:0:
128,128,168379,1,8,0:0:0:0:
128,128,168504,1,8,0:0:0:0:
128,128,168629,1,8,0:0:0:0:
128,128,168754,1,8,0:0:0:0:
128,128,168879,1,0,0:0:0:0:
128,128,169004,1,8,0:0:0:0:
128,128,169129,1,8,0:0:0:0:
128,128,169254,1,0,0:0:0:0:
128,128,169379,1,0,0:0:0:0:
128,128,169504,5,8,0:0:0:0:
128,128,169629,1,0,0:0:0:0:
86,186,169754,5,8,0:0:0:0:
86,186,169816,1,8,0:0:0:0:
86,186,169879,1,8,0:0:0:0:
86,186,170004,1,0,0:0:0:0:
86,186,170129,1,8,0:0:0:0:
86,186,170191,1,8,0:0:0:0:
86,186,170254,1,8,0:0:0:0:
134,245,170379,1,0,0:0:0:0:
109,215,170504,5,8,0:0:0:0:
109,215,170566,1,8,0:0:0:0:
109,215,170629,1,8,0:0:0:0:
109,215,170691,1,8,0:0:0:0:
76,194,170754,1,0,0:0:0:0:
0,192,170879,1,0,0:0:0:0:
64,128,171004,1,8,0:0:0:0:
0,192,171129,1,0,0:0:0:0:
32,171,171191,1,0,0:0:0:0:
64,128,171254,5,8,0:0:0:0:
64,128,171379,1,0,0:0:0:0:
64,96,171441,1,0,0:0:0:0:
64,96,171504,1,0,0:0:0:0:
64,96,171629,1,8,0:0:0:0:
64,96,171754,1,0,0:0:0:0:
32,192,171879,1,8,0:0:0:0:
0,192,172004,1,0,0:0:0:0:
35,178,172066,1,8,0:0:0:0:
0,192,172129,1,0,0:0:0:0:
35,178,172191,1,0,0:0:0:0:
32,192,172254,1,8,0:0:0:0:
32,192,172379,1,8,0:0:0:0:
32,192,172504,1,0,0:0:0:0:
123,136,172566,1,0,0:0:0:0:
32,192,172629,1,0,0:0:0:0:
131,177,172754,5,8,0:0:0:0:
131,177,172879,1,8,0:0:0:0:
131,177,173004,1,0,0:0:0:0:
123,136,173066,1,0,0:0:0:0:
131,177,173129,1,8,0:0:0:0:
131,177,173254,1,0,0:0:0:0:
123,136,173316,1,0,0:0:0:0:
131,177,173379,1,0,0:0:0:0:
131,177,173504,1,8,0:0:0:0:
131,177,173629,1,0,0:0:0:0:
192,160,173754,5,8,0:0:0:0:
123,136,173816,1,8,0:0:0:0:
123,136,173879,1,0,0:0:0:0:
123,136,173941,1,0,0:0:0:0:
123,136,174004,1,8,0:0:0:0:
123,136,174129,1,0,0:0:0:0:
123,136,174191,1,0,0:0:0:0:
123,136,174254,5,8,0:0:0:0:
123,136,174379,1,0,0:0:0:0:
123,136,174504,1,8,0:0:0:0:
123,136,174566,1,8,0:0:0:0:
123,136,174629,1,8,0:0:0:0:
123,136,174691,1,8,0:0:0:0:
123,136,174754,5,8,0:0:0:0:
123,136,174816,1,8,0:0:0:0:
123,136,174879,1,0,0:0:0:0:
123,136,174941,1,0,0:0:0:0:
123,136,175004,1,8,0:0:0:0:
123,136,175129,1,0,0:0:0:0:
123,136,175254,5,8,0:0:0:0:
123,136,175316,1,8,0:0:0:0:
123,136,175379,1,8,0:0:0:0:
123,136,175441,1,8,0:0:0:0:
123,136,175504,1,8,0:0:0:0:
123,136,175566,1,8,0:0:0:0:
123,136,175629,1,8,0:0:0:0:
123,136,175691,1,8,0:0:0:0:
123,136,175754,5,0,0:0:0:0:
123,136,175879,1,0,0:0:0:0:
123,136,176004,1,8,0:0:0:0:
140,169,176066,1,8,0:0:0:0:
140,169,176129,1,8,0:0:0:0:
140,169,176191,1,8,0:0:0:0:
140,169,176254,5,8,0:0:0:0:
140,169,176316,1,8,0:0:0:0:
140,169,176379,1,8,0:0:0:0:
140,169,176441,1,8,0:0:0:0:
140,169,176504,1,8,0:0:0:0:
140,169,176566,1,8,0:0:0:0:
140,169,176629,1,0,0:0:0:0:
160,64,176754,5,8,0:0:0:0:
160,64,176816,1,8,0:0:0:0:
160,64,176879,1,8,0:0:0:0:
160,64,177004,1,0,0:0:0:0:
160,64,177129,1,0,0:0:0:0:
160,64,177254,5,8,0:0:0:0:
160,64,177316,1,8,0:0:0:0:
160,64,177379,1,8,0:0:0:0:
128,96,177441,1,8,0:0:0:0:
128,96,177504,1,0,0:0:0:0:
64,160,177629,1,0,0:0:0:0:
64,160,177754,5,8,0:0:0:0:
64,160,177816,1,0,0:0:0:0:
64,160,177879,1,8,0:0:0:0:
64,128,178004,1,0,0:0:0:0:
105,95,178066,1,8,0:0:0:0:
64,128,178129,1,0,0:0:0:0:
64,128,178191,1,0,0:0:0:0:
64,128,178254,1,8,0:0:0:0:
64,128,178379,1,8,0:0:0:0:
160,32,178504,1,0,0:0:0:0:
160,32,178629,1,8,0:0:0:0:
32,160,178754,5,0,0:0:0:0:
192,224,178816,1,0,0:0:0:0:
192,224,178879,1,0,0:0:0:0:
192,224,178941,1,0,0:0:0:0:
192,224,179004,1,0,0:0:0:0:
192,224,179066,1,0,0:0:0:0:
160,224,179129,1,8,0:0:0:0:
192,224,179254,1,0,0:0:0:0:
192,224,179379,1,8,0:0:0:0:
192,224,179504,5,0,0:0:0:0:
192,224,179566,1,0,0:0:0:0:
192,224,179629,1,0,0:0:0:0:
192,224,179691,1,0,0:0:0:0:
192,224,179754,1,0,0:0:0:0:
192,224,179816,1,0,0:0:0:0:
192,224,179879,1,8,0:0:0:0:
64,160,180004,1,0,0:0:0:0:
64,160,180129,1,8,0:0:0:0:
128,128,180254,5,0,0:0:0:0:
128,128,180316,1,0,0:0:0:0:
128,128,180379,1,0,0:0:0:0:
128,128,180441,1,0,0:0:0:0:
128,128,180504,1,0,0:0:0:0:
128,128,180566,1,0,0:0:0:0:
128,128,180629,1,8,0:0:0:0:
113,192,180754,1,0,0:0:0:0:
113,192,180879,1,8,0:0:0:0:
113,192,181004,5,0,0:0:0:0:
113,192,181066,1,0,0:0:0:0:
113,192,181129,1,8,0:0:0:0:
113,192,181191,1,8,0:0:0:0:
113,192,181254,1,0,0:0:0:0:
113,192,181316,1,0,0:0:0:0:
113,192,181379,5,8,0:0:0:0:
113,192,181441,1,8,0:0:0:0:
113,192,181504,1,8,0:0:0:0:
113,192,181566,1,8,0:0:0:0:
113,192,181629,1,0,0:0:0:0:
128,128,181754,1,8,0:0:0:0:
128,128,181816,1,8,0:0:0:0:
128,128,181879,1,8,0:0:0:0:
128,128,182004,1,0,0:0:0:0:
128,128,182129,1,0,0:0:0:0:
128,128,182254,5,8,0:0:0:0:
128,128,182316,1,8,0:0:0:0:
128,128,182379,1,8,0:0:0:0:
128,128,182441,1,8,0:0:0:0:
128,128,182504,1,0,0:0:0:0:
128,160,182629,1,0,0:0:0:0:
128,160,182754,1,8,0:0:0:0:
128,160,182816,1,0,0:0:0:0:
128,160,182879,1,8,0:0:0:0:
64,160,183004,1,0,0:0:0:0:
77,167,183066,1,8,0:0:0:0:
64,160,183129,1,0,0:0:0:0:
64,160,183191,1,0,0:0:0:0:
77,167,183254,1,8,0:0:0:0:
52,130,183379,1,8,0:0:0:0:
52,130,183504,1,0,0:0:0:0:
52,130,183629,1,0,0:0:0:0:
86,141,183754,1,8,0:0:0:0:
69,175,183816,1,8,0:0:0:0:
79,140,183879,1,8,0:0:0:0:
69,175,183941,1,8,0:0:0:0:
82,142,184004,1,0,0:0:0:0:
86,141,184066,1,0,0:0:0:0:
86,141,184129,1,0,0:0:0:0:
86,141,184191,1,0,0:0:0:0:
86,141,184254,1,8,0:0:0:0:
127,183,184504,1,8,0:0:0:0:
127,183,184566,1,8,0:0:0:0:
127,183,184629,1,8,0:0:0:0:
127,183,184691,1,8,0:0:0:0:
82,147,184754,1,0,0:0:0:0:
73,251,184816,1,8,0:0:0:0:
73,251,184879,1,0,0:0:0:0:
73,251,184941,1,0,0:0:0:0:
73,251,185004,1,8,0:0:0:0:
133,182,185254,1,8,0:0:0:0:
133,182,185316,1,8,0:0:0:0:
133,182,185379,1,8,0:0:0:0:
133,182,185441,1,8,0:0:0:0:
133,182,185504,1,0,0:0:0:0:
133,182,185566,1,0,0:0:0:0:
133,182,185629,1,0,0:0:0:0:
133,182,185691,1,0,0:0:0:0:
133,182,185754,1,8,0:0:0:0:
257,227,186004,1,8,0:0:0:0:
257,227,186066,1,8,0:0:0:0:
257,227,186129,1,8,0:0:0:0:
257,227,186191,1,8,0:0:0:0:
257,227,186254,1,0,0:0:0:0:
257,227,186316,1,8,0:0:0:0:
257,227,186379,1,0,0:0:0:0:
257,227,186441,1,0,0:0:0:0:
257,227,186504,1,8,0:0:0:0:
192,121,186754,1,8,0:0:0:0:
192,121,186816,1,8,0:0:0:0:
187,117,186879,1,8,0:0:0:0:
187,117,186941,1,8,0:0:0:0:
187,117,187004,1,0,0:0:0:0:
187,117,187066,1,0,0:0:0:0:
186,116,187129,1,8,0:0:0:0:
181,115,187191,1,0,0:0:0:0:
184,117,187254,1,8,0:0:0:0:
181,115,187316,1,8,0:0:0:0:
181,115,187379,1,0,0:0:0:0:
181,115,187441,1,0,0:0:0:0:
181,117,187504,1,8,0:0:0:0:
181,117,187566,1,8,0:0:0:0:
181,117,187629,1,0,0:0:0:0:
181,117,187691,1,8,0:0:0:0:
181,117,187754,1,0,0:0:0:0:
181,117,187816,1,0,0:0:0:0:
181,117,187879,1,8,0:0:0:0:
56,152,187941,1,8,0:0:0:0:
56,152,188004,1,0,0:0:0:0:
56,152,188066,1,0,0:0:0:0:
56,152,188129,1,8,0:0:0:0:
56,152,188191,1,0,0:0:0:0:
179,124,188254,1,8,0:0:0:0:
179,124,188316,1,8,0:0:0:0:
179,124,188379,1,0,0:0:0:0:
179,124,188441,1,0,0:0:0:0:
179,124,188504,1,8,0:0:0:0:
179,124,188566,1,8,0:0:0:0:
181,121,188629,1,8,0:0:0:0:
179,124,188691,1,8,0:0:0:0:
179,124,188754,1,0,0:0:0:0:
179,124,188816,1,0,0:0:0:0:
179,124,188879,1,8,0:0:0:0:
179,124,188941,1,0,0:0:0:0:
179,124,189004,1,8,0:0:0:0:
174,130,189066,1,8,0:0:0:0:
174,130,189129,1,8,0:0:0:0:
174,130,189191,1,8,0:0:0:0:
174,130,189254,1,8,0:0:0:0:
174,130,189316,1,8,0:0:0:0:
174,130,189379,1,8,0:0:0:0:
175,134,189441,1,8,0:0:0:0:
175,134,189504,1,0,0:0:0:0:
175,134,189566,1,8,0:0:0:0:
175,134,189629,1,0,0:0:0:0:
175,132,189691,1,0,0:0:0:0:
175,132,189754,1,8,0:0:0:0:
61,135,189816,1,8,0:0:0:0:
61,135,189879,1,8,0:0:0:0:
61,135,189941,1,8,0:0:0:0:
175,137,190004,1,0,0:0:0:0:
175,137,190129,1,8,0:0:0:0:
74,134,190254,1,0,0:0:0:0:
74,134,190379,1,0,0:0:0:0:
135,181,190504,5,12,0:0:0:0:
135,180,194004,1,12,0:0:0:0:
149,186,196504,1,0,0:0:0:0:
149,186,196629,1,0,0:0:0:0:
149,186,196754,1,8,0:0:0:0:
157,196,196879,1,8,0:0:0:0:
149,186,197004,1,0,0:0:0:0:
149,186,197129,1,0,0:0:0:0:
149,186,197254,1,8,0:0:0:0:
157,196,197379,1,0,0:0:0:0:
135,180,197504,1,8,0:0:0:0:
289,249,197629,1,8,0:0:0:0:
293,251,197754,1,0,0:0:0:0:
293,251,197879,1,0,0:0:0:0:
151,201,198004,1,8,0:0:0:0:
299,255,198129,1,0,0:0:0:0:
299,255,198254,1,0,0:0:0:0:
115,147,198379,1,8,0:0:0:0:
299,255,198504,1,0,0:0:0:0:
134,165,198629,1,8,0:0:0:0:
299,255,198754,1,0,0:0:0:0:
148,173,198879,1,8,0:0:0:0:
299,255,199004,1,0,0:0:0:0:
299,255,199129,1,0,0:0:0:0:
152,184,199254,1,8,0:0:0:0:
302,259,199379,1,8,0:0:0:0:
302,259,199504,1,0,0:0:0:0:
302,259,199629,1,0,0:0:0:0:
152,184,199754,1,8,0:0:0:0:
302,259,199879,1,0,0:0:0:0:
302,259,200004,1,0,0:0:0:0:
152,184,200129,1,8,0:0:0:0:
302,259,200254,1,0,0:0:0:0:
155,187,200379,1,8,0:0:0:0:
302,259,200504,1,0,0:0:0:0:
155,187,200629,1,8,0:0:0:0:
302,259,200754,1,0,0:0:0:0:
302,259,200879,1,0,0:0:0:0:
155,187,201004,1,8,0:0:0:0:
302,259,201129,1,8,0:0:0:0:
302,259,201254,1,0,0:0:0:0:
302,259,201379,1,0,0:0:0:0:
155,187,201504,1,8,0:0:0:0:
302,259,201629,1,0,0:0:0:0:
302,259,201754,1,0,0:0:0:0:
160,190,201879,1,8,0:0:0:0:
302,259,202004,1,0,0:0:0:0:
160,190,202129,1,8,0:0:0:0:
302,259,202254,1,0,0:0:0:0:
160,190,202379,1,8,0:0:0:0:
302,259,202504,1,0,0:0:0:0:
302,259,202629,1,0,0:0:0:0:
160,190,202754,1,8,0:0:0:0:
302,259,202879,1,8,0:0:0:0:
302,259,203004,1,0,0:0:0:0:
302,259,203129,1,0,0:0:0:0:
160,190,203254,1,8,0:0:0:0:
302,259,203379,1,0,0:0:0:0:
302,259,203504,1,0,0:0:0:0:
160,190,203629,1,8,0:0:0:0:
302,259,203754,1,0,0:0:0:0:
160,190,203879,1,8,0:0:0:0:
302,259,204004,1,0,0:0:0:0:
160,190,204129,1,8,0:0:0:0:
302,259,204254,1,0,0:0:0:0:
302,259,204379,1,0,0:0:0:0:
160,190,204504,1,8,0:0:0:0:
117,158,204629,1,8,0:0:0:0:
117,158,204754,1,0,0:0:0:0:
117,158,204879,1,0,0:0:0:0:
117,158,205004,1,8,0:0:0:0:
117,158,205129,1,0,0:0:0:0:
117,158,205254,1,0,0:0:0:0:
117,158,205379,1,8,0:0:0:0:
108,160,205504,1,0,0:0:0:0:
122,155,205629,1,8,0:0:0:0:
108,160,205754,1,0,0:0:0:0:
122,155,205879,1,8,0:0:0:0:
106,159,206004,1,0,0:0:0:0:
122,155,206129,1,0,0:0:0:0:
122,155,206254,1,8,0:0:0:0:
116,136,206379,1,8,0:0:0:0:
116,137,206504,1,0,0:0:0:0:
116,137,206629,1,0,0:0:0:0:
116,137,206754,1,8,0:0:0:0:
129,150,206879,1,0,0:0:0:0:
129,150,207004,1,0,0:0:0:0:
116,136,207129,1,8,0:0:0:0:
136,156,207254,1,0,0:0:0:0:
122,144,207379,1,8,0:0:0:0:
136,156,207504,1,0,0:0:0:0:
122,144,207629,1,8,0:0:0:0:
82,132,207754,1,0,0:0:0:0:
82,132,207879,1,0,0:0:0:0:
122,144,208004,1,8,0:0:0:0:
136,117,208066,1,8,0:0:0:0:
99,147,208129,1,8,0:0:0:0:
136,117,208191,1,8,0:0:0:0:
136,117,208254,1,0,0:0:0:0:
136,117,208316,1,0,0:0:0:0:
136,117,208379,1,8,0:0:0:0:
136,117,208441,1,0,0:0:0:0:
105,148,208504,1,8,0:0:0:0:
101,153,208566,1,8,0:0:0:0:
101,153,208629,1,8,0:0:0:0:
101,153,208691,1,8,0:0:0:0:
101,153,208754,1,0,0:0:0:0:
117,137,208816,1,0,0:0:0:0:
105,166,208879,1,8,0:0:0:0:
117,137,209004,1,0,0:0:0:0:
117,137,209066,1,0,0:0:0:0:
105,166,209129,1,8,0:0:0:0:
117,137,209254,1,0,0:0:0:0:
66,159,209316,1,0,0:0:0:0:
105,166,209379,1,8,0:0:0:0:
66,159,209504,1,0,0:0:0:0:
66,159,209629,1,0,0:0:0:0:
82,134,209754,1,8,0:0:0:0:
73,164,209816,1,8,0:0:0:0:
73,164,209879,1,8,0:0:0:0:
73,164,209941,1,8,0:0:0:0:
73,164,210004,1,0,0:0:0:0:
73,164,210066,1,0,0:0:0:0:
73,164,210129,1,8,0:0:0:0:
73,164,210191,1,0,0:0:0:0:
88,156,210254,1,8,0:0:0:0:
161,197,210316,1,8,0:0:0:0:
161,197,210379,1,8,0:0:0:0:
161,197,210441,1,8,0:0:0:0:
161,197,210504,1,0,0:0:0:0:
161,197,210566,1,0,0:0:0:0:
43,173,210629,1,8,0:0:0:0:
161,197,210754,1,0,0:0:0:0:
161,197,210816,1,0,0:0:0:0:
43,173,210879,1,8,0:0:0:0:
43,142,211004,1,0,0:0:0:0:
43,142,211066,1,0,0:0:0:0:
105,50,211129,1,8,0:0:0:0:
43,173,211254,1,0,0:0:0:0:
50,117,211379,1,8,0:0:0:0:
50,117,211441,1,0,0:0:0:0:
50,117,211504,1,8,0:0:0:0:
50,117,211629,1,0,0:0:0:0:
53,181,211754,1,8,0:0:0:0:
129,193,211879,1,0,0:0:0:0:
204,206,212004,1,8,0:0:0:0:
279,220,212129,1,0,0:0:0:0:
279,220,212254,1,8,0:0:0:0:
214,261,212379,1,0,0:0:0:0:
149,303,212504,1,8,0:0:0:0:
225,234,212629,1,8,0:0:0:0:
225,234,212754,1,8,0:0:0:0:
225,234,212879,1,8,0:0:0:0:
225,234,213004,1,8,0:0:0:0:
225,234,213129,1,8,0:0:0:0:
225,234,213254,1,8,0:0:0:0:
225,234,213379,1,8,0:0:0:0:
225,234,213504,1,0,0:0:0:0:
225,234,213629,1,0,0:0:0:0:
225,234,213754,1,8,0:0:0:0:
195,162,213879,1,8,0:0:0:0:
195,162,214004,1,8,0:0:0:0:
195,162,214129,1,8,0:0:0:0:
195,162,214254,1,8,0:0:0:0:
195,162,214379,1,8,0:0:0:0:
195,162,214504,1,0,0:0:0:0:
195,162,214629,1,0,0:0:0:0:
131,229,214754,1,8,0:0:0:0:
131,229,214837,1,8,0:0:0:0:
131,229,214920,1,0,0:0:0:0:
131,229,215004,1,8,0:0:0:0:
131,229,215087,1,0,0:0:0:0:
131,229,215170,1,0,0:0:0:0:
131,229,215254,1,8,0:0:0:0:
131,229,215337,1,8,0:0:0:0:
131,229,215420,1,0,0:0:0:0:
131,229,215504,1,8,0:0:0:0:
131,229,215587,1,0,0:0:0:0:
131,229,215670,1,0,0:0:0:0:
131,229,215754,1,8,0:0:0:0:
151,154,215879,1,8,0:0:0:0:
172,80,216004,1,8,0:0:0:0:
152,154,216129,1,8,0:0:0:0:
156,169,216254,1,0,0:0:0:0:
156,169,216379,1,0,0:0:0:0:
156,169,216504,1,8,0:0:0:0:
156,169,216629,1,8,0:0:0:0:
156,169,216754,1,8,0:0:0:0:
156,169,216879,1,8,0:0:0:0:
156,169,217004,1,8,0:0:0:0:
156,169,217129,1,8,0:0:0:0:
156,169,217254,1,8,0:0:0:0:
156,169,217379,1,8,0:0:0:0:
156,169,217504,1,0,0:0:0:0:
156,169,217566,1,0,0:0:0:0:
156,169,217629,1,0,0:0:0:0:
156,169,217754,1,8,0:0:0:0:
117,168,217816,1,8,0:0:0:0:
117,168,217879,1,8,0:0:0:0:
137,136,217941,1,0,0:0:0:0:
158,103,218004,1,8,0:0:0:0:
158,103,218066,1,8,0:0:0:0:
158,103,218129,1,0,0:0:0:0:
158,103,218191,1,0,0:0:0:0:
158,103,218254,1,8,0:0:0:0:
158,103,218379,1,0,0:0:0:0:
158,103,218504,1,8,0:0:0:0:
158,103,218566,1,8,0:0:0:0:
158,103,218629,1,0,0:0:0:0:
158,103,218754,1,8,0:0:0:0:
112,127,218816,1,0,0:0:0:0:
112,127,218879,1,8,0:0:0:0:
112,127,218941,1,8,0:0:0:0:
113,165,219004,1,0,0:0:0:0:
113,165,219066,1,0,0:0:0:0:
117,242,219129,1,8,0:0:0:0:
119,203,219191,1,0,0:0:0:0:
121,164,219254,1,0,0:0:0:0:
124,125,219316,1,0,0:0:0:0:
124,88,219379,1,8,0:0:0:0:
121,164,219504,1,8,0:0:0:0:
122,125,219566,1,8,0:0:0:0:
122,125,219629,1,0,0:0:0:0:
122,125,219691,1,0,0:0:0:0:
53,181,219754,1,8,0:0:0:0:
129,193,219879,1,0,0:0:0:0:
204,206,220004,1,8,0:0:0:0:
279,220,220129,1,0,0:0:0:0:
279,220,220254,1,8,0:0:0:0:
214,261,220379,1,0,0:0:0:0:
149,303,220504,1,8,0:0:0:0:
225,234,220629,1,8,0:0:0:0:
225,234,220754,1,8,0:0:0:0:
225,234,220879,1,8,0:0:0:0:
225,234,221004,1,8,0:0:0:0:
225,234,221129,1,8,0:0:0:0:
225,234,221254,1,8,0:0:0:0:
225,234,221379,1,8,0:0:0:0:
225,234,221504,1,0,0:0:0:0:
225,234,221629,1,0,0:0:0:0:
225,234,221754,1,8,0:0:0:0:
195,162,221879,1,8,0:0:0:0:
195,162,222004,1,8,0:0:0:0:
195,162,222129,1,8,0:0:0:0:
195,162,222254,1,8,0:0:0:0:
195,162,222379,1,8,0:0:0:0:
195,162,222504,1,0,0:0:0:0:
195,162,222629,1,0,0:0:0:0:
131,229,222754,1,8,0:0:0:0:
87,202,222837,1,8,0:0:0:0:
34,171,222920,1,0,0:0:0:0:
34,171,223004,1,8,0:0:0:0:
34,171,223087,1,0,0:0:0:0:
34,171,223170,1,0,0:0:0:0:
34,171,223254,1,8,0:0:0:0:
34,171,223337,1,8,0:0:0:0:
34,171,223420,1,0,0:0:0:0:
34,171,223504,1,8,0:0:0:0:
34,171,223587,1,0,0:0:0:0:
34,171,223670,1,0,0:0:0:0:
34,171,223754,1,8,0:0:0:0:
110,160,223879,1,8,0:0:0:0:
110,160,224004,1,8,0:0:0:0:
110,160,224129,1,8,0:0:0:0:
327,79,224254,1,0,0:0:0:0:
253,102,224379,1,0,0:0:0:0:
179,125,224504,1,8,0:0:0:0:
105,148,224629,1,8,0:0:0:0:
105,148,224754,1,8,0:0:0:0:
110,160,224879,1,8,0:0:0:0:
110,160,225004,1,8,0:0:0:0:
105,148,225129,1,8,0:0:0:0:
105,148,225254,1,8,0:0:0:0:
105,148,225379,1,8,0:0:0:0:
105,148,225504,1,0,0:0:0:0:
105,148,225566,1,0,0:0:0:0:
105,148,225629,1,0,0:0:0:0:
105,148,225754,1,8,0:0:0:0:
140,162,225816,1,8,0:0:0:0:
175,178,225879,1,0,0:0:0:0:
175,178,225941,1,0,0:0:0:0:
250,198,226004,1,8,0:0:0:0:
175,178,226066,1,8,0:0:0:0:
175,178,226129,1,0,0:0:0:0:
175,178,226191,1,0,0:0:0:0:
175,178,226254,1,0,0:0:0:0:
175,178,226316,1,0,0:0:0:0:
28,131,226379,1,8,0:0:0:0:
175,178,226441,1,8,0:0:0:0:
175,178,226504,1,0,0:0:0:0:
175,178,226566,1,0,0:0:0:0:
175,178,226629,1,0,0:0:0:0:
175,178,226691,1,0,0:0:0:0:
249,195,226754,1,8,0:0:0:0:
175,178,226816,1,8,0:0:0:0:
175,178,226879,1,0,0:0:0:0:
175,178,226941,1,0,0:0:0:0:
99,157,227004,1,8,0:0:0:0:
175,178,227066,1,8,0:0:0:0:
175,178,227129,1,0,0:0:0:0:
175,178,227191,1,0,0:0:0:0:
175,178,227254,1,0,0:0:0:0:
175,178,227316,1,0,0:0:0:0:
326,199,227379,1,8,0:0:0:0:
289,210,227441,1,8,0:0:0:0:
251,221,227504,1,0,0:0:0:0:
214,232,227566,1,0,0:0:0:0:
214,232,227629,1,0,0:0:0:0:
214,232,227691,1,0,0:0:0:0:
34,171,227754,1,8,0:0:0:0:
21,188,227879,1,8,0:0:0:0:
21,188,228004,1,0,0:0:0:0:
21,188,228066,1,0,0:0:0:0:
21,188,228129,1,0,0:0:0:0:
21,188,228191,1,0,0:0:0:0:
21,188,228254,1,0,0:0:0:0:
21,188,228316,1,0,0:0:0:0:
21,188,228379,1,0,0:0:0:0:
21,188,228441,1,0,0:0:0:0:
21,188,228504,1,8,0:0:0:0:
97,192,228629,1,0,0:0:0:0:
49,156,228754,1,0,0:0:0:0:
49,156,228816,1,0,0:0:0:0:
49,156,228879,1,0,0:0:0:0:
49,156,229004,1,0,0:0:0:0:
86,163,229066,1,0,0:0:0:0:
124,168,229129,1,0,0:0:0:0:
49,156,229254,1,8,0:0:0:0:
119,187,229379,1,8,0:0:0:0:
189,218,229504,1,0,0:0:0:0:
223,233,229566,1,0,0:0:0:0:
258,249,229629,1,0,0:0:0:0:
292,265,229691,1,0,0:0:0:0:
326,282,229754,1,0,0:0:0:0:
326,282,229816,1,0,0:0:0:0:
326,282,229879,1,0,0:0:0:0:
326,282,229941,1,0,0:0:0:0:
501,61,230004,1,8,0:0:0:0:
437,104,230129,1,0,0:0:0:0:
373,148,230254,1,0,0:0:0:0:
341,170,230316,1,0,0:0:0:0:
309,192,230379,1,0,0:0:0:0:
278,214,230441,1,0,0:0:0:0:
278,214,230504,1,0,0:0:0:0:
278,214,230566,1,0,0:0:0:0:
278,214,230629,1,0,0:0:0:0:
278,214,230691,1,0,0:0:0:0:
316,208,230754,1,8,0:0:0:0:
392,212,230879,1,0,0:0:0:0:
469,204,231004,1,8,0:0:0:0:
392,206,231129,1,8,0:0:0:0:
315,208,231254,1,0,0:0:0:0:
347,227,231316,1,0,0:0:0:0:
380,247,231379,1,0,0:0:0:0:
380,247,231441,1,0,0:0:0:0:
468,215,231504,1,8,0:0:0:0:
391,209,231629,1,0,0:0:0:0:
352,206,231691,1,0,0:0:0:0:
313,203,231754,1,0,0:0:0:0:
274,200,231816,1,0,0:0:0:0:
242,166,231879,1,8,0:0:0:0:
167,186,232004,1,0,0:0:0:0:
186,219,232129,1,8,0:0:0:0:
138,158,232254,1,8,0:0:0:0:
207,124,232379,1,0,0:0:0:0:
172,141,232441,1,0,0:0:0:0:
172,141,232504,1,0,0:0:0:0:
172,141,232566,1,0,0:0:0:0:
172,141,232629,1,0,0:0:0:0:
172,141,232691,1,0,0:0:0:0:
172,141,232754,1,0,0:0:0:0:
172,141,232816,1,0,0:0:0:0:
172,141,232879,1,0,0:0:0:0:
172,141,232941,1,0,0:0:0:0:
186,205,233004,1,8,0:0:0:0:
110,190,233129,1,0,0:0:0:0:
34,176,233254,1,8,0:0:0:0:
71,183,233316,1,8,0:0:0:0:
109,190,233379,1,8,0:0:0:0:
146,197,233441,1,8,0:0:0:0:
183,204,233504,1,0,0:0:0:0:
183,204,233566,1,0,0:0:0:0:
183,204,233629,1,0,0:0:0:0:
183,204,233691,1,0,0:0:0:0:
34,171,233754,1,8,0:0:0:0:
21,188,233879,1,8,0:0:0:0:
21,188,234004,1,0,0:0:0:0:
21,188,234066,1,0,0:0:0:0:
21,188,234129,1,0,0:0:0:0:
21,188,234191,1,0,0:0:0:0:
21,188,234254,1,0,0:0:0:0:
21,188,234316,1,0,0:0:0:0:
21,188,234379,1,0,0:0:0:0:
21,188,234441,1,0,0:0:0:0:
21,188,234504,1,8,0:0:0:0:
97,192,234629,1,0,0:0:0:0:
49,156,234754,1,0,0:0:0:0:
49,156,234816,1,0,0:0:0:0:
49,156,234879,1,0,0:0:0:0:
49,156,235004,1,0,0:0:0:0:
86,163,235066,1,0,0:0:0:0:
124,168,235129,1,0,0:0:0:0:
49,156,235254,1,8,0:0:0:0:
119,187,235379,1,8,0:0:0:0:
189,218,235504,1,0,0:0:0:0:
223,233,235566,1,0,0:0:0:0:
258,249,235629,1,0,0:0:0:0:
292,265,235691,1,0,0:0:0:0:
326,282,235754,1,0,0:0:0:0:
326,282,235816,1,0,0:0:0:0:
326,282,235879,1,0,0:0:0:0:
326,282,235941,1,0,0:0:0:0:
501,61,236004,1,8,0:0:0:0:
437,104,236129,1,0,0:0:0:0:
373,148,236254,1,0,0:0:0:0:
341,170,236316,1,0,0:0:0:0:
309,192,236379,1,0,0:0:0:0:
278,214,236441,1,0,0:0:0:0:
278,214,236504,1,0,0:0:0:0:
278,214,236566,1,0,0:0:0:0:
278,214,236629,1,0,0:0:0:0:
278,214,236691,1,0,0:0:0:0:
316,208,236754,1,8,0:0:0:0:
392,212,236879,1,0,0:0:0:0:
469,204,237004,1,8,0:0:0:0:
392,206,237129,1,8,0:0:0:0:
315,208,237254,1,0,0:0:0:0:
347,227,237316,1,0,0:0:0:0:
380,247,237379,1,0,0:0:0:0:
380,247,237441,1,0,0:0:0:0:
468,215,237504,1,8,0:0:0:0:
391,202,237629,1,0,0:0:0:0:
353,196,237691,1,0,0:0:0:0:
314,190,237754,1,0,0:0:0:0:
276,184,237816,1,0,0:0:0:0:
242,166,237879,1,8,0:0:0:0:
165,153,238004,1,0,0:0:0:0:
165,153,238129,1,8,0:0:0:0:
140,123,238254,1,8,0:0:0:0:
142,160,238379,1,0,0:0:0:0:
165,153,238504,1,8,0:0:0:0:
142,160,238566,1,8,0:0:0:0:
142,160,238629,1,8,0:0:0:0:
142,160,238691,1,8,0:0:0:0:
142,160,238754,1,0,0:0:0:0:
142,160,238816,1,0,0:0:0:0:
142,160,238879,1,0,0:0:0:0:
142,160,238941,1,0,0:0:0:0:
142,160,239004,1,8,0:0:0:0:
142,160,239129,1,0,0:0:0:0:
142,160,239254,1,8,0:0:0:0:
142,160,239316,1,8,0:0:0:0:
142,160,239379,1,8,0:0:0:0:
142,160,239441,1,8,0:0:0:0:
142,160,239504,1,0,0:0:0:0:
142,160,239566,1,0,0:0:0:0:
142,160,239629,1,0,0:0:0:0:
142,160,239691,1,0,0:0:0:0:
101,227,239754,5,8,0:0:0:0:
138,261,239837,1,0,0:0:0:0:
176,294,239920,1,0,0:0:0:0:
136,260,240004,1,0,0:0:0:0:
175,292,240087,1,0,0:0:0:0:
135,259,240170,1,0,0:0:0:0:
101,227,240254,1,8,0:0:0:0:
138,261,240337,1,0,0:0:0:0:
176,294,240420,1,0,0:0:0:0:
101,227,240504,1,8,0:0:0:0:
131,268,240587,1,8,0:0:0:0:
161,309,240670,1,0,0:0:0:0:
130,267,240754,1,0,0:0:0:0:
160,307,240837,1,0,0:0:0:0:
129,266,240920,1,0,0:0:0:0:
160,307,241004,1,0,0:0:0:0:
129,266,241087,1,0,0:0:0:0:
159,306,241170,1,0,0:0:0:0:
101,227,241254,1,8,0:0:0:0:
131,268,241337,1,0,0:0:0:0:
161,309,241420,1,0,0:0:0:0:
130,267,241504,1,0,0:0:0:0:
160,307,241587,1,0,0:0:0:0:
129,266,241670,1,0,0:0:0:0:
101,227,241754,1,8,0:0:0:0:
131,268,241837,1,0,0:0:0:0:
161,309,241920,1,0,0:0:0:0:
101,227,242004,1,8,0:0:0:0:
131,268,242087,1,8,0:0:0:0:
161,309,242170,1,0,0:0:0:0:
130,267,242254,1,0,0:0:0:0:
160,307,242337,1,0,0:0:0:0:
129,266,242420,1,0,0:0:0:0:
160,307,242504,1,0,0:0:0:0:
129,266,242587,1,0,0:0:0:0:
159,306,242670,1,0,0:0:0:0:
112,261,242754,1,8,0:0:0:0:
152,292,242837,1,0,0:0:0:0:
152,292,242920,1,0,0:0:0:0:
152,292,243004,1,0,0:0:0:0:
152,292,243087,1,0,0:0:0:0:
152,292,243170,1,0,0:0:0:0:
112,261,243254,1,8,0:0:0:0:
152,292,243337,1,0,0:0:0:0:
152,292,243420,1,0,0:0:0:0:
112,261,243504,1,8,0:0:0:0:
152,292,243587,1,8,0:0:0:0:
152,292,243670,1,0,0:0:0:0:
152,292,243754,1,8,0:0:0:0:
152,292,243837,1,0,0:0:0:0:
152,292,243920,1,0,0:0:0:0:
152,292,244004,1,0,0:0:0:0:
152,292,244087,1,0,0:0:0:0:
152,292,244170,1,0,0:0:0:0:
112,261,244254,1,8,0:0:0:0:
116,219,244337,1,0,0:0:0:0:
122,168,244420,1,0,0:0:0:0:
122,168,244504,1,8,0:0:0:0:
112,261,244587,1,8,0:0:0:0:
92,213,244670,1,8,0:0:0:0:
188,261,244754,1,0,0:0:0:0:
239,261,244837,1,0,0:0:0:0:
290,261,244920,1,0,0:0:0:0:
112,261,245004,1,8,0:0:0:0:
132,228,245066,1,0,0:0:0:0:
152,195,245129,1,0,0:0:0:0:
172,162,245191,1,0,0:0:0:0:
192,129,245254,1,0,0:0:0:0:
192,129,245316,1,0,0:0:0:0:
96,287,245379,1,8,0:0:0:0:
192,129,245441,1,0,0:0:0:0:
192,129,245504,1,0,0:0:0:0:
192,129,245566,1,0,0:0:0:0:
192,129,245629,1,0,0:0:0:0:
192,129,245691,1,0,0:0:0:0:
96,287,245754,1,8,0:0:0:0:
172,162,245837,1,0,0:0:0:0:
172,162,245920,1,0,0:0:0:0:
172,162,246004,1,0,0:0:0:0:
172,162,246087,1,0,0:0:0:0:
172,162,246170,1,0,0:0:0:0:
96,287,246254,1,8,0:0:0:0:
172,162,246337,1,0,0:0:0:0:
172,162,246420,1,0,0:0:0:0:
96,287,246504,1,8,0:0:0:0:
172,162,246587,1,8,0:0:0:0:
172,162,246670,1,0,0:0:0:0:
172,162,246754,1,0,0:0:0:0:
172,162,246837,1,0,0:0:0:0:
172,162,246920,1,0,0:0:0:0:
172,162,247004,1,0,0:0:0:0:
172,162,247087,1,0,0:0:0:0:
172,162,247170,1,0,0:0:0:0:
96,287,247254,1,8,0:0:0:0:
172,162,247337,1,0,0:0:0:0:
172,162,247420,1,0,0:0:0:0:
172,162,247504,1,0,0:0:0:0:
172,162,247587,1,0,0:0:0:0:
172,162,247670,1,0,0:0:0:0:
96,287,247754,1,8,0:0:0:0:
172,162,247837,1,0,0:0:0:0:
172,162,247920,1,0,0:0:0:0:
96,287,248004,1,8,0:0:0:0:
172,162,248087,1,8,0:0:0:0:
172,162,248170,1,0,0:0:0:0:
172,162,248254,1,0,0:0:0:0:
172,162,248337,1,0,0:0:0:0:
172,162,248420,1,0,0:0:0:0:
172,162,248504,1,0,0:0:0:0:
172,162,248587,1,0,0:0:0:0:
172,162,248670,1,0,0:0:0:0:
96,287,248754,1,8,0:0:0:0:
172,162,248837,1,0,0:0:0:0:
172,162,248920,1,0,0:0:0:0:
172,162,249004,1,0,0:0:0:0:
172,162,249087,1,0,0:0:0:0:
172,162,249170,1,0,0:0:0:0:
96,287,249254,1,8,0:0:0:0:
172,162,249337,1,0,0:0:0:0:
172,162,249420,1,0,0:0:0:0:
96,287,249504,1,8,0:0:0:0:
172,162,249587,1,8,0:0:0:0:
172,162,249670,1,0,0:0:0:0:
172,162,249754,1,8,0:0:0:0:
172,162,249837,1,0,0:0:0:0:
172,162,249920,1,0,0:0:0:0:
172,162,250004,1,0,0:0:0:0:
172,162,250087,1,0,0:0:0:0:
172,162,250170,1,0,0:0:0:0:
96,287,250254,1,8,0:0:0:0:
172,162,250337,1,0,0:0:0:0:
172,162,250420,1,0,0:0:0:0:
172,162,250504,1,8,0:0:0:0:
172,162,250587,1,8,0:0:0:0:
277,144,250670,1,8,0:0:0:0:
227,130,250754,1,0,0:0:0:0:
177,117,250837,1,0,0:0:0:0:
223,138,250920,1,0,0:0:0:0:
96,287,251004,1,8,0:0:0:0:
133,279,251066,1,8,0:0:0:0:
171,271,251129,1,0,0:0:0:0:
208,263,251191,1,0,0:0:0:0:
246,255,251254,1,8,0:0:0:0:
283,247,251316,1,8,0:0:0:0:
283,247,251379,1,8,0:0:0:0:
283,247,251441,1,8,0:0:0:0:
321,240,251504,1,0,0:0:0:0:
359,234,251566,1,0,0:0:0:0:
397,228,251629,1,0,0:0:0:0:
352,224,251691,1,0,0:0:0:0:
384,256,251754,1,8,0:0:0:0:
188,133,252254,1,0,0:0:0:0:
32,192,252504,1,12,0:0:0:0:
96,192,253004,1,0,0:0:0:0:
96,192,253129,1,0,0:0:0:0:
96,192,253254,1,0,0:0:0:0:
96,192,253379,1,0,0:0:0:0:
96,192,253504,1,12,0:0:0:0:
128,32,253754,1,12,0:0:0:0:
128,128,254254,1,12,0:0:0:0:
128,128,254754,1,0,0:0:0:0:
128,128,255004,1,12,0:0:0:0:
64,160,255504,1,0,0:0:0:0:
64,160,255566,1,0,0:0:0:0:
64,160,255629,1,0,0:0:0:0:
64,160,255691,1,0,0:0:0:0:
64,160,255754,1,12,0:0:0:0:
192,96,256004,1,12,0:0:0:0:
64,160,256254,1,0,0:0:0:0:
64,160,256316,1,0,0:0:0:0:
64,160,256379,1,0,0:0:0:0:
64,160,256504,1,0,0:0:0:0:
64,160,256566,1,0,0:0:0:0:
64,160,256629,1,0,0:0:0:0:
64,160,256754,1,12,0:0:0:0:
224,192,257004,1,12,0:0:0:0:
96,160,257504,1,0,0:0:0:0:
96,160,257754,1,12,0:0:0:0:
96,160,258254,1,0,0:0:0:0:
96,160,258379,1,0,0:0:0:0:
96,160,258504,1,0,0:0:0:0:
96,160,258629,1,0,0:0:0:0:
96,160,258754,1,12,0:0:0:0:
144,306,259004,1,12,0:0:0:0:
35,17,259504,1,12,0:0:0:0:
105,212,260004,1,0,0:0:0:0:
105,212,260254,1,12,0:0:0:0:
105,212,260754,1,0,0:0:0:0:
105,212,260816,1,0,0:0:0:0:
105,212,260879,1,0,0:0:0:0:
105,212,260941,1,0,0:0:0:0:
105,212,261004,1,12,0:0:0:0:
105,212,261254,1,12,0:0:0:0:
105,212,261504,1,0,0:0:0:0:
105,212,261566,1,0,0:0:0:0:
105,212,261629,1,0,0:0:0:0:
105,212,261754,1,0,0:0:0:0:
105,212,261816,1,0,0:0:0:0:
105,212,261879,1,0,0:0:0:0:
105,212,262004,1,12,0:0:0:0:
105,212,262254,1,12,0:0:0:0:
105,212,262379,1,0,0:0:0:0:
165,164,262504,1,8,0:0:0:0:
226,118,262629,1,8,0:0:0:0:
157,155,262754,1,0,0:0:0:0:
157,155,262879,1,0,0:0:0:0:
105,212,263004,1,12,0:0:0:0:
172,175,263129,1,0,0:0:0:0:
105,214,263254,1,0,0:0:0:0:
171,175,263379,1,0,0:0:0:0:
307,322,263504,1,12,0:0:0:0:
241,281,263629,1,0,0:0:0:0:
225,205,263754,1,8,0:0:0:0:
110,198,263879,1,8,0:0:0:0:
176,237,264004,1,0,0:0:0:0:
109,197,264129,1,0,0:0:0:0:
166,181,264254,1,12,0:0:0:0:
145,255,264379,1,0,0:0:0:0:
166,180,264504,1,0,0:0:0:0:
144,253,264629,1,0,0:0:0:0:
166,181,264754,1,12,0:0:0:0:
142,254,264879,1,0,0:0:0:0:
178,186,265004,1,8,0:0:0:0:
192,108,265129,1,8,0:0:0:0:
167,180,265254,1,0,0:0:0:0:
142,253,265379,1,0,0:0:0:0:
185,197,265504,1,12,0:0:0:0:
126,246,265629,1,0,0:0:0:0:
185,197,265754,1,0,0:0:0:0:
126,246,265879,1,0,0:0:0:0:
185,197,266004,1,12,0:0:0:0:
35,165,266254,1,0,0:0:0:0:
35,165,266316,1,0,0:0:0:0:
6,139,266379,1,0,0:0:0:0:
1,173,266441,1,0,0:0:0:0:
122,241,266504,1,12,0:0:0:0:
227,194,266754,1,12,0:0:0:0:
26,183,267004,1,0,0:0:0:0:
26,183,267066,1,0,0:0:0:0:
26,183,267129,1,0,0:0:0:0:
26,183,267191,1,0,0:0:0:0:
26,183,267254,1,0,0:0:0:0:
26,183,267316,1,0,0:0:0:0:
26,183,267379,1,0,0:0:0:0:
58,163,267441,1,0,0:0:0:0:
26,183,267504,1,12,0:0:0:0:
89,139,267629,1,0,0:0:0:0:
165,130,267754,1,8,0:0:0:0:
241,123,267879,1,8,0:0:0:0:
151,95,268004,1,0,0:0:0:0:
86,137,268129,1,0,0:0:0:0:
150,95,268254,1,12,0:0:0:0:
123,117,268379,1,0,0:0:0:0:
123,117,268504,1,0,0:0:0:0:
123,117,268629,1,0,0:0:0:0:
123,117,268754,1,12,0:0:0:0:
123,117,268879,1,0,0:0:0:0:
199,124,269004,1,8,0:0:0:0:
123,117,269129,1,8,0:0:0:0:
123,117,269254,1,0,0:0:0:0:
123,117,269379,1,0,0:0:0:0:
123,117,269504,1,12,0:0:0:0:
123,117,269629,1,0,0:0:0:0:
123,117,269754,1,0,0:0:0:0:
123,117,269879,1,0,0:0:0:0:
123,117,270004,1,12,0:0:0:0:
123,117,270129,1,0,0:0:0:0:
199,122,270254,1,8,0:0:0:0:
123,117,270379,1,8,0:0:0:0:
123,117,270504,1,0,0:0:0:0:
123,117,270629,1,0,0:0:0:0:
123,117,270754,1,12,0:0:0:0:
76,178,270879,1,0,0:0:0:0:
123,117,271004,1,0,0:0:0:0:
81,181,271129,1,0,0:0:0:0:
123,117,271254,1,12,0:0:0:0:
199,122,271379,1,0,0:0:0:0:
161,117,271441,1,0,0:0:0:0:
161,117,271504,1,8,0:0:0:0:
155,79,271566,1,8,0:0:0:0:
136,145,271629,1,0,0:0:0:0:
136,145,271691,1,0,0:0:0:0:
136,145,271754,1,8,0:0:0:0:
136,145,271816,1,8,0:0:0:0:
136,145,271879,1,0,0:0:0:0:
136,145,271941,1,0,0:0:0:0:
136,145,272004,1,8,0:0:0:0:
136,145,272066,1,8,0:0:0:0:
136,145,272129,1,0,0:0:0:0:
136,145,272191,1,0,0:0:0:0:
174,137,272254,1,8,0:0:0:0:
211,129,272316,1,0,0:0:0:0:
249,122,272379,1,8,0:0:0:0:
287,115,272441,1,8,0:0:0:0:
174,137,272504,1,0,0:0:0:0:
174,137,272566,1,0,0:0:0:0:
174,137,272629,1,0,0:0:0:0:
174,137,272691,1,0,0:0:0:0:
135,180,272754,1,8,0:0:0:0:
289,249,272879,1,8,0:0:0:0:
293,251,273004,1,0,0:0:0:0:
205,117,273066,1,0,0:0:0:0:
205,117,273129,1,8,0:0:0:0:
196,117,273191,1,0,0:0:0:0:
151,201,273254,1,8,0:0:0:0:
82,141,273316,1,8,0:0:0:0:
202,121,273379,1,0,0:0:0:0:
202,121,273441,1,0,0:0:0:0:
299,255,273504,1,0,0:0:0:0:
202,121,273566,1,0,0:0:0:0:
115,147,273629,1,8,0:0:0:0:
299,255,273754,1,0,0:0:0:0:
134,165,273879,1,8,0:0:0:0:
299,255,274004,1,0,0:0:0:0:
148,173,274129,1,8,0:0:0:0:
299,255,274254,1,0,0:0:0:0:
209,120,274316,1,0,0:0:0:0:
299,255,274379,1,0,0:0:0:0:
152,184,274504,1,8,0:0:0:0:
302,259,274629,1,8,0:0:0:0:
302,259,274754,1,0,0:0:0:0:
302,259,274879,1,0,0:0:0:0:
152,184,275004,1,8,0:0:0:0:
302,259,275129,1,0,0:0:0:0:
302,259,275254,1,0,0:0:0:0:
152,184,275379,1,8,0:0:0:0:
302,259,275504,1,0,0:0:0:0:
155,187,275629,1,8,0:0:0:0:
302,259,275754,1,0,0:0:0:0:
155,187,275879,1,8,0:0:0:0:
302,259,276004,1,0,0:0:0:0:
302,259,276129,1,0,0:0:0:0:
155,187,276254,1,8,0:0:0:0:
160,157,276316,1,8,0:0:0:0:
302,259,276379,1,8,0:0:0:0:
302,259,276504,1,0,0:0:0:0:
167,157,276566,1,0,0:0:0:0:
302,259,276629,1,0,0:0:0:0:
167,157,276691,1,0,0:0:0:0:
155,187,276754,1,8,0:0:0:0:
302,259,276879,1,0,0:0:0:0:
166,160,276941,1,0,0:0:0:0:
302,259,277004,1,0,0:0:0:0:
160,190,277129,1,8,0:0:0:0:
88,118,277191,1,8,0:0:0:0:
302,259,277254,1,0,0:0:0:0:
88,118,277316,1,0,0:0:0:0:
160,190,277379,1,8,0:0:0:0:
302,259,277504,1,0,0:0:0:0:
160,190,277629,1,8,0:0:0:0:
302,259,277754,1,0,0:0:0:0:
110,115,277816,1,0,0:0:0:0:
302,259,277879,1,0,0:0:0:0:
111,115,277941,1,0,0:0:0:0:
160,190,278004,1,8,0:0:0:0:
302,259,278129,1,8,0:0:0:0:
302,259,278254,1,0,0:0:0:0:
302,259,278379,1,0,0:0:0:0:
160,190,278504,1,8,0:0:0:0:
302,259,278629,1,0,0:0:0:0:
302,259,278754,1,0,0:0:0:0:
160,190,278879,1,8,0:0:0:0:
302,259,279004,1,0,0:0:0:0:
160,190,279129,1,8,0:0:0:0:
302,259,279254,1,0,0:0:0:0:
160,190,279379,1,8,0:0:0:0:
302,259,279504,1,0,0:0:0:0:
302,259,279629,1,0,0:0:0:0:
160,190,279754,1,8,0:0:0:0:
12,152,279816,1,8,0:0:0:0:
117,158,279879,1,8,0:0:0:0:
117,158,280004,1,0,0:0:0:0:
75,142,280066,1,0,0:0:0:0:
117,158,280129,1,0,0:0:0:0:
117,158,280254,1,8,0:0:0:0:
117,158,280379,1,0,0:0:0:0:
20,155,280441,1,0,0:0:0:0:
117,158,280504,1,0,0:0:0:0:
96,119,280566,1,0,0:0:0:0:
117,158,280629,1,8,0:0:0:0:
108,160,280754,1,0,0:0:0:0:
30,171,280816,1,0,0:0:0:0:
122,155,280879,1,8,0:0:0:0:
108,160,281004,1,0,0:0:0:0:
62,139,281066,1,0,0:0:0:0:
122,155,281129,1,8,0:0:0:0:
106,159,281254,1,0,0:0:0:0:
122,155,281379,1,0,0:0:0:0:
23,183,281504,1,8,0:0:0:0:
23,183,281566,1,8,0:0:0:0:
116,136,281629,1,8,0:0:0:0:
116,137,281754,1,0,0:0:0:0:
122,132,281816,1,0,0:0:0:0:
116,137,281879,1,0,0:0:0:0:
116,137,282004,1,8,0:0:0:0:
129,150,282129,1,0,0:0:0:0:
80,96,282191,1,0,0:0:0:0:
129,150,282254,1,0,0:0:0:0:
80,96,282316,1,0,0:0:0:0:
116,136,282379,1,8,0:0:0:0:
136,156,282504,1,0,0:0:0:0:
80,96,282566,1,0,0:0:0:0:
122,144,282629,1,8,0:0:0:0:
136,156,282754,1,0,0:0:0:0:
80,96,282816,1,0,0:0:0:0:
122,144,282879,1,8,0:0:0:0:
82,132,283004,1,0,0:0:0:0:
82,132,283129,1,0,0:0:0:0:
122,144,283254,1,8,0:0:0:0:
136,117,283316,1,8,0:0:0:0:
99,147,283379,1,8,0:0:0:0:
136,117,283441,1,8,0:0:0:0:
136,117,283504,1,0,0:0:0:0:
136,117,283566,1,0,0:0:0:0:
136,117,283629,1,8,0:0:0:0:
136,117,283691,1,0,0:0:0:0:
105,148,283754,1,8,0:0:0:0:
101,153,283816,1,8,0:0:0:0:
101,153,283879,1,8,0:0:0:0:
101,153,283941,1,8,0:0:0:0:
101,153,284004,1,0,0:0:0:0:
117,137,284066,1,0,0:0:0:0:
105,166,284129,1,8,0:0:0:0:
117,137,284254,1,0,0:0:0:0:
117,137,284316,1,0,0:0:0:0:
105,166,284379,1,8,0:0:0:0:
117,137,284504,1,0,0:0:0:0:
66,159,284566,1,0,0:0:0:0:
105,166,284629,1,8,0:0:0:0:
66,159,284754,1,0,0:0:0:0:
66,159,284879,1,0,0:0:0:0:
82,134,285004,1,8,0:0:0:0:
73,164,285066,1,8,0:0:0:0:
73,164,285129,1,8,0:0:0:0:
73,164,285191,1,8,0:0:0:0:
73,164,285254,1,0,0:0:0:0:
73,164,285316,1,0,0:0:0:0:
73,164,285379,1,8,0:0:0:0:
73,164,285441,1,0,0:0:0:0:
88,156,285504,1,8,0:0:0:0:
161,197,285566,1,8,0:0:0:0:
161,197,285629,1,8,0:0:0:0:
161,197,285691,1,8,0:0:0:0:
161,197,285754,1,0,0:0:0:0:
161,197,285816,1,0,0:0:0:0:
43,173,285879,1,8,0:0:0:0:
66,142,285941,1,8,0:0:0:0:
56,97,286004,1,8,0:0:0:0:
161,197,286066,1,0,0:0:0:0:
43,173,286129,1,8,0:0:0:0:
56,97,286191,1,8,0:0:0:0:
43,142,286254,1,0,0:0:0:0:
43,142,286316,1,0,0:0:0:0:
105,50,286379,1,8,0:0:0:0:
56,97,286441,1,8,0:0:0:0:
43,173,286504,1,0,0:0:0:0:
56,97,286566,1,8,0:0:0:0:
50,117,286629,1,0,0:0:0:0:
56,97,286691,1,0,0:0:0:0:
50,117,286754,1,8,0:0:0:0:
50,117,286879,1,0,0:0:0:0:
53,181,287004,1,12,0:0:0:0:
96,96,287754,1,0,0:0:0:0:
96,96,288504,1,0,0:0:0:0:
64,96,288879,1,0,0:0:0:0:
64,160,289004,1,8,0:0:0:0:
96,320,289379,1,8,0:0:0:0:
64,224,289754,1,0,0:0:0:0:
64,224,290004,1,8,0:0:0:0:
32,128,290504,1,8,0:0:0:0:
32,224,290879,1,0,0:0:0:0:
32,224,291004,1,8,0:0:0:0:
32,64,291379,1,8,0:0:0:0:
32,192,291754,1,0,0:0:0:0:
32,192,292004,1,8,0:0:0:0:
128,64,292504,1,8,0:0:0:0:
0,192,292879,1,0,0:0:0:0:
0,192,293004,1,8,0:0:0:0:
128,64,293379,5,8,0:0:0:0:
0,160,293754,1,0,0:0:0:0:
0,160,294004,1,8,0:0:0:0:
191,177,294379,5,0,0:0:0:0:
191,177,294441,1,0,0:0:0:0:
191,177,294504,1,0,0:0:0:0:
191,177,294754,1,12,0:0:0:0:
112,160,294879,1,0,0:0:0:0:
191,177,295004,1,12,0:0:0:0:
64,128,295754,1,0,0:0:0:0:
64,128,296504,1,0,0:0:0:0:
64,128,296879,1,0,0:0:0:0:
194,151,297004,1,8,0:0:0:0:
32,96,297379,1,8,0:0:0:0:
194,151,297754,1,0,0:0:0:0:
128,128,298004,1,8,0:0:0:0:
194,151,298504,1,8,0:0:0:0:
192,128,298879,1,0,0:0:0:0:
194,151,299004,1,8,0:0:0:0:
160,96,299379,1,8,0:0:0:0:
194,151,299754,5,0,0:0:0:0:
160,96,300004,1,8,0:0:0:0:
194,151,300504,1,0,0:0:0:0:
194,151,300879,1,0,0:0:0:0:
184,227,301004,5,0,0:0:0:0:
125,56,301066,1,0,0:0:0:0:
125,56,301129,1,0,0:0:0:0:
125,56,301191,1,0,0:0:0:0:
125,56,301254,1,0,0:0:0:0:
125,56,301316,1,0,0:0:0:0:
125,56,301379,1,0,0:0:0:0:
122,94,301441,1,0,0:0:0:0:
190,178,301504,5,0,0:0:0:0:
152,172,301566,1,0,0:0:0:0:
153,109,301629,1,0,0:0:0:0:
133,141,301691,1,0,0:0:0:0:
190,178,301754,5,0,0:0:0:0:
152,110,301816,1,0,0:0:0:0:
171,144,301879,1,0,0:0:0:0:
135,159,301941,1,0,0:0:0:0:
190,178,302004,5,0,0:0:0:0:
190,178,302066,1,0,0:0:0:0:
190,178,302129,1,0,0:0:0:0:
190,178,302191,1,0,0:0:0:0:
190,178,302254,1,0,0:0:0:0:
190,178,302316,1,0,0:0:0:0:
190,178,302379,1,0,0:0:0:0:
190,178,302441,1,0,0:0:0:0:
190,178,302504,1,0,0:0:0:0:
190,178,302566,1,0,0:0:0:0:
190,178,302629,1,0,0:0:0:0:
193,139,302691,1,0,0:0:0:0:
135,201,302754,5,12,0:0:0:0:
135,201,303004,5,12,0:0:0:0:
352,122,303379,1,0,0:0:0:0:
279,148,303504,1,0,0:0:0:0:
142,220,303754,1,8,0:0:0:0:
282,155,304004,1,0,0:0:0:0:
212,188,304129,1,0,0:0:0:0:
212,188,304379,1,0,0:0:0:0:
212,188,304504,1,8,0:0:0:0:
212,188,304754,1,0,0:0:0:0:
212,188,304816,1,0,0:0:0:0:
212,188,304879,1,0,0:0:0:0:
212,188,304941,1,0,0:0:0:0:
212,188,305004,1,8,0:0:0:0:
364,360,305379,5,0,0:0:0:0:
314,303,305504,1,0,0:0:0:0:
347,329,305754,1,8,0:0:0:0:
228,230,306004,1,0,0:0:0:0:
168,180,306129,1,0,0:0:0:0:
78,107,306379,1,0,0:0:0:0:
68,183,306504,1,8,0:0:0:0:
347,329,306754,1,0,0:0:0:0:
347,329,306816,1,0,0:0:0:0:
347,329,306879,1,0,0:0:0:0:
347,329,306941,1,0,0:0:0:0:
347,329,307004,1,8,0:0:0:0:
178,171,307379,5,0,0:0:0:0:
121,118,307504,1,0,0:0:0:0:
234,222,307754,1,8,0:0:0:0:
120,117,308004,1,0,0:0:0:0:
176,169,308129,1,0,0:0:0:0:
63,63,308379,1,0,0:0:0:0:
119,115,308504,1,8,0:0:0:0:
229,221,308754,1,0,0:0:0:0:
201,194,308816,1,0,0:0:0:0:
173,167,308879,1,0,0:0:0:0:
145,140,308941,1,0,0:0:0:0:
145,140,309004,1,8,0:0:0:0:
145,140,309379,5,0,0:0:0:0:
145,140,309504,1,0,0:0:0:0:
145,140,309754,1,8,0:0:0:0:
145,140,310004,1,0,0:0:0:0:
145,140,310129,1,0,0:0:0:0:
145,140,310379,1,0,0:0:0:0:
145,140,310504,1,0,0:0:0:0:
151,178,310754,5,12,0:0:0:0:
151,178,311004,5,12,0:0:0:0:
145,140,311379,5,0,0:0:0:0:
145,140,311504,1,0,0:0:0:0:
145,140,311754,1,8,0:0:0:0:
145,140,312004,1,0,0:0:0:0:
145,140,312129,1,0,0:0:0:0:
145,140,312379,1,0,0:0:0:0:
145,140,312504,1,8,0:0:0:0:
145,140,312754,1,0,0:0:0:0:
145,140,312816,1,0,0:0:0:0:
145,140,312879,1,0,0:0:0:0:
145,140,312941,1,0,0:0:0:0:
145,140,313004,1,8,0:0:0:0:
145,140,313379,5,0,0:0:0:0:
145,140,313504,1,0,0:0:0:0:
145,140,313754,1,8,0:0:0:0:
145,140,314004,1,0,0:0:0:0:
145,140,314129,1,0,0:0:0:0:
81,156,314254,1,8,0:0:0:0:
145,140,314379,1,0,0:0:0:0:
145,140,314504,1,0,0:0:0:0:
145,140,314754,1,8,0:0:0:0:
99,198,315004,1,0,0:0:0:0:
99,198,315066,1,0,0:0:0:0:
99,198,315129,1,0,0:0:0:0:
99,198,315191,1,0,0:0:0:0:
99,198,315254,1,0,0:0:0:0:
99,198,315316,1,0,0:0:0:0:
99,198,315379,1,0,0:0:0:0:
160,160,315441,1,0,0:0:0:0:
111,171,315504,1,8,0:0:0:0:
160,192,315629,5,0,0:0:0:0:
99,198,315754,1,0,0:0:0:0:
99,198,315816,1,0,0:0:0:0:
99,198,315879,1,0,0:0:0:0:
96,160,315941,1,0,0:0:0:0:
111,171,316004,1,8,0:0:0:0:
99,198,316129,5,0,0:0:0:0:
99,198,316254,1,0,0:0:0:0:
99,198,316316,1,0,0:0:0:0:
99,198,316379,1,0,0:0:0:0:
99,198,316441,1,0,0:0:0:0:
418,192,316504,1,8,0:0:0:0:
99,198,316629,5,0,0:0:0:0:
99,198,316754,1,0,0:0:0:0:
99,198,316816,1,0,0:0:0:0:
99,198,316879,1,0,0:0:0:0:
64,160,316941,1,0,0:0:0:0:
153,186,317004,5,8,0:0:0:0:
153,186,317066,1,8,0:0:0:0:
153,186,317129,1,8,0:0:0:0:
153,186,317191,1,8,0:0:0:0:
153,186,317254,5,0,0:0:0:0:
153,186,317379,1,8,0:0:0:0:
153,186,317441,1,8,0:0:0:0:
153,186,317504,5,0,0:0:0:0:
139,110,317629,1,0,0:0:0:0:
4,226,317754,5,8,0:0:0:0:
40,216,317816,1,8,0:0:0:0:
40,216,317879,1,8,0:0:0:0:
40,216,317941,1,8,0:0:0:0:
40,216,318004,5,0,0:0:0:0:
40,216,318129,1,0,0:0:0:0:
40,216,318254,5,8,0:0:0:0:
40,216,318316,1,8,0:0:0:0:
40,216,318379,1,8,0:0:0:0:
40,216,318441,1,8,0:0:0:0:
40,216,318504,5,0,0:0:0:0:
40,216,318566,1,0,0:0:0:0:
40,216,318629,1,0,0:0:0:0:
40,216,318691,1,0,0:0:0:0:
153,212,318754,1,8,0:0:0:0:
153,212,318994,1,12,0:0:0:0:
73,166,319494,5,8,0:0:0:0:
91,217,319660,5,0,0:0:0:0:
91,217,319744,1,0,0:0:0:0:
91,217,319827,1,0,0:0:0:0:
91,217,319994,5,8,0:0:0:0:
45,207,320327,1,0,0:0:0:0:
8,151,320494,1,8,0:0:0:0:
14,176,320660,1,0,0:0:0:0:
14,176,320827,1,0,0:0:0:0:
14,176,320994,5,12,0:0:0:0:
96,115,321160,5,0,0:0:0:0:
54,146,321244,1,0,0:0:0:0:
54,146,321327,1,8,0:0:0:0:
35,154,321494,1,0,0:0:0:0:
35,154,321660,1,8,0:0:0:0:
35,154,321744,1,0,0:0:0:0:
35,154,321827,1,0,0:0:0:0:
35,154,321994,5,12,0:0:0:0:
96,192,322160,5,0,0:0:0:0:
96,192,322244,1,0,0:0:0:0:
96,192,322327,1,0,0:0:0:0:
96,192,322494,5,12,0:0:0:0:
96,192,322660,1,4,0:0:0:0:
96,192,322827,1,4,0:0:0:0:
283,276,322994,1,12,0:0:0:0:
320,126,323327,1,0,0:0:0:0:
283,275,323494,5,8,0:0:0:0:
380,306,323660,1,0,0:0:0:0:
330,290,323744,1,0,0:0:0:0:
330,290,323827,1,0,0:0:0:0:
283,276,323994,1,8,0:0:0:0:
218,226,324119,1,0,0:0:0:0:
203,188,324181,1,0,0:0:0:0:
150,164,324244,1,0,0:0:0:0:
150,164,324306,1,0,0:0:0:0:
150,164,324369,1,0,0:0:0:0:
154,164,324431,1,0,0:0:0:0:
154,165,324494,5,8,0:0:0:0:
154,165,324556,1,8,0:0:0:0:
154,165,324619,1,8,0:0:0:0:
154,166,324681,1,8,0:0:0:0:
150,164,324744,5,0,0:0:0:0:
150,164,324806,1,0,0:0:0:0:
150,164,324869,1,0,0:0:0:0:
150,164,324931,1,0,0:0:0:0:
150,164,324994,1,8,0:0:0:0:
120,214,325160,5,0,0:0:0:0:
120,214,325244,1,0,0:0:0:0:
120,214,325327,1,0,0:0:0:0:
83,207,325494,1,12,0:0:0:0:
59,223,325660,5,4,0:0:0:0:
59,223,325827,1,4,0:0:0:0:
59,223,325994,5,12,0:0:0:0:
144,173,326160,5,4,0:0:0:0:
144,173,326327,1,4,0:0:0:0:
144,173,326494,5,12,0:0:0:0:
144,173,326660,5,4,0:0:0:0:
149,171,326827,1,4,0:0:0:0:
149,171,326994,5,12,0:0:0:0:
149,171,327494,5,8,0:0:0:0:
128,160,327660,5,0,0:0:0:0:
128,160,327744,1,0,0:0:0:0:
128,160,327827,1,0,0:0:0:0:
160,128,327994,5,8,0:0:0:0:
128,160,328327,1,0,0:0:0:0:
128,160,328494,1,8,0:0:0:0:
128,160,328660,1,0,0:0:0:0:
128,160,328827,1,0,0:0:0:0:
128,160,328994,5,12,0:0:0:0:
128,192,329160,5,0,0:0:0:0:
128,192,329244,1,0,0:0:0:0:
128,192,329327,1,8,0:0:0:0:
128,192,329494,1,0,0:0:0:0:
128,192,329660,1,8,0:0:0:0:
128,160,329744,1,0,0:0:0:0:
128,192,329827,1,0,0:0:0:0:
128,160,329994,5,12,0:0:0:0:
128,192,330160,5,0,0:0:0:0:
128,192,330244,1,0,0:0:0:0:
128,192,330327,1,0,0:0:0:0:
128,192,330494,5,12,0:0:0:0:
128,192,330660,1,4,0:0:0:0:
128,192,330827,1,4,0:0:0:0:
160,128,330994,1,12,0:0:0:0:
128,192,331327,1,0,0:0:0:0:
128,192,331494,5,8,0:0:0:0:
128,192,331660,1,0,0:0:0:0:
128,192,331744,1,0,0:0:0:0:
128,192,331827,1,0,0:0:0:0:
160,128,331994,1,8,0:0:0:0:
160,160,332119,5,0,0:0:0:0:
160,160,332181,1,0,0:0:0:0:
160,160,332244,1,0,0:0:0:0:
160,160,332306,1,0,0:0:0:0:
160,160,332369,1,0,0:0:0:0:
160,160,332431,1,0,0:0:0:0:
160,160,332494,5,8,0:0:0:0:
160,160,332556,1,8,0:0:0:0:
160,160,332619,1,8,0:0:0:0:
160,160,332681,1,8,0:0:0:0:
160,160,332744,5,0,0:0:0:0:
160,160,332806,1,0,0:0:0:0:
160,160,332869,1,0,0:0:0:0:
160,160,332931,1,0,0:0:0:0:
160,160,332994,1,8,0:0:0:0:
85,90,333160,5,0,0:0:0:0:
122,125,333244,1,0,0:0:0:0:
122,125,333327,1,0,0:0:0:0:
122,125,333494,1,12,0:0:0:0:
122,125,333660,1,4,0:0:0:0:
122,125,333827,1,4,0:0:0:0:
160,128,333994,5,8,0:0:0:0:
160,128,334077,1,8,0:0:0:0:
160,128,334160,1,8,0:0:0:0:
160,128,334244,1,0,0:0:0:0:
160,128,334327,5,8,0:0:0:0:
160,128,334410,1,8,0:0:0:0:
160,128,334494,1,0,0:0:0:0:
160,128,334577,1,8,0:0:0:0:
160,128,334660,5,8,0:0:0:0:
160,128,334744,1,8,0:0:0:0:
160,128,334827,1,0,0:0:0:0:
160,128,334910,1,0,0:0:0:0:
160,128,334994,1,8,0:0:0:0:
162,150,335494,5,8,0:0:0:0:
162,150,335660,5,0,0:0:0:0:
162,150,335744,1,0,0:0:0:0:
162,150,335827,1,0,0:0:0:0:
128,128,335994,5,8,0:0:0:0:
128,128,336327,1,8,0:0:0:0:
128,128,336660,1,0,0:0:0:0:
96,128,336827,1,0,0:0:0:0:
128,128,336994,5,12,0:0:0:0:
154,132,337160,5,0,0:0:0:0:
154,132,337244,1,0,0:0:0:0:
154,132,337327,1,8,0:0:0:0:
154,132,337494,1,0,0:0:0:0:
154,132,337660,1,8,0:0:0:0:
154,132,337744,1,0,0:0:0:0:
154,132,337827,1,0,0:0:0:0:
154,132,337994,5,12,0:0:0:0:
154,132,338160,5,0,0:0:0:0:
154,132,338244,1,0,0:0:0:0:
154,132,338327,1,0,0:0:0:0:
154,132,338494,5,12,0:0:0:0:
154,132,338660,1,4,0:0:0:0:
154,132,338827,1,4,0:0:0:0:
192,128,338994,1,12,0:0:0:0:
42,165,339327,1,0,0:0:0:0:
191,201,339494,5,8,0:0:0:0:
243,128,339660,1,0,0:0:0:0:
166,117,339744,1,0,0:0:0:0:
166,117,339827,1,0,0:0:0:0:
12,145,339994,1,8,0:0:0:0:
49,158,340056,1,8,0:0:0:0:
196,143,340119,5,0,0:0:0:0:
196,143,340181,1,0,0:0:0:0:
196,143,340244,1,0,0:0:0:0:
196,143,340306,1,0,0:0:0:0:
196,143,340369,5,8,0:0:0:0:
196,143,340431,1,8,0:0:0:0:
196,143,340494,5,0,0:0:0:0:
196,143,340556,1,0,0:0:0:0:
196,143,340619,1,0,0:0:0:0:
196,143,340681,1,0,0:0:0:0:
196,143,340744,5,8,0:0:0:0:
196,143,340806,1,8,0:0:0:0:
196,143,340869,1,0,0:0:0:0:
196,143,340931,1,0,0:0:0:0:
196,143,340994,1,8,0:0:0:0:
257,96,341160,5,0,0:0:0:0:
218,130,341244,1,0,0:0:0:0:
218,130,341327,1,0,0:0:0:0:
222,232,341494,5,12,0:0:0:0:
220,153,341660,5,4,0:0:0:0:
220,153,341827,1,4,0:0:0:0:
220,153,341994,5,12,0:0:0:0:
220,153,342160,5,4,0:0:0:0:
220,153,342327,1,4,0:0:0:0:
220,153,342494,5,12,0:0:0:0:
238,253,342660,5,4,0:0:0:0:
210,101,342827,1,4,0:0:0:0:
121,153,342994,5,12,0:0:0:0:
118,107,343494,5,8,0:0:0:0:
118,107,343660,5,0,0:0:0:0:
118,107,343744,1,0,0:0:0:0:
118,107,343827,1,0,0:0:0:0:
121,153,343994,5,8,0:0:0:0:
121,153,344327,1,8,0:0:0:0:
335,238,344660,1,0,0:0:0:0:
415,244,344827,1,0,0:0:0:0:
489,265,344994,5,12,0:0:0:0:
154,132,345160,5,0,0:0:0:0:
154,132,345244,1,0,0:0:0:0:
154,132,345327,1,8,0:0:0:0:
154,132,345494,1,0,0:0:0:0:
154,132,345660,1,8,0:0:0:0:
154,132,345744,1,0,0:0:0:0:
154,132,345827,1,0,0:0:0:0:
154,132,345994,5,12,0:0:0:0:
154,132,346160,5,0,0:0:0:0:
154,132,346244,1,0,0:0:0:0:
154,132,346327,1,0,0:0:0:0:
154,132,346494,5,12,0:0:0:0:
154,132,346660,5,0,0:0:0:0:
154,132,346827,5,0,0:0:0:0:
192,128,346994,5,8,0:0:0:0:
195,178,347056,1,8,0:0:0:0:
195,178,347119,1,8,0:0:0:0:
195,178,347181,5,0,0:0:0:0:
195,178,347244,1,0,0:0:0:0:
195,178,347306,5,8,0:0:0:0:
195,178,347369,1,8,0:0:0:0:
195,178,347431,1,8,0:0:0:0:
195,178,347494,5,0,0:0:0:0:
195,178,347556,1,0,0:0:0:0:
195,178,347619,5,8,0:0:0:0:
195,178,347681,1,8,0:0:0:0:
195,178,347744,1,8,0:0:0:0:
195,178,347806,5,0,0:0:0:0:
195,178,347869,1,0,0:0:0:0:
195,178,347931,1,0,0:0:0:0:
195,178,347994,5,8,0:0:0:0:
195,178,348056,1,8,0:0:0:0:
195,178,348119,1,0,0:0:0:0:
195,178,348181,1,0,0:0:0:0:
195,178,348244,5,8,0:0:0:0:
195,178,348306,1,8,0:0:0:0:
195,178,348369,1,8,0:0:0:0:
195,178,348431,1,8,0:0:0:0:
195,178,348494,5,0,0:0:0:0:
195,178,348556,1,0,0:0:0:0:
195,178,348619,1,8,0:0:0:0:
195,178,348681,1,0,0:0:0:0:
195,178,348744,1,8,0:0:0:0:
195,178,348806,1,8,0:0:0:0:
195,178,348869,1,0,0:0:0:0:
195,178,348931,1,0,0:0:0:0:
195,178,348994,5,8,0:0:0:0:
195,178,349056,1,8,0:0:0:0:
195,178,349119,1,8,0:0:0:0:
195,178,349181,1,8,0:0:0:0:
195,178,349244,1,0,0:0:0:0:
195,178,349306,1,0,0:0:0:0:
195,178,349369,1,8,0:0:0:0:
195,178,349431,1,0,0:0:0:0:
195,178,349494,5,8,0:0:0:0:
195,178,349556,1,8,0:0:0:0:
195,178,349619,1,8,0:0:0:0:
195,178,349681,5,0,0:0:0:0:
195,178,349744,1,0,0:0:0:0:
195,178,349806,5,8,0:0:0:0:
195,178,349869,1,8,0:0:0:0:
195,178,349931,1,0,0:0:0:0:
195,178,349994,1,8,0:0:0:0:
195,178,350056,1,8,0:0:0:0:
195,178,350119,1,8,0:0:0:0:
195,178,350181,1,8,0:0:0:0:
195,178,350244,5,0,0:0:0:0:
195,178,350306,1,0,0:0:0:0:
195,178,350369,1,8,0:0:0:0:
195,178,350431,1,0,0:0:0:0:
195,178,350494,1,8,0:0:0:0:
195,178,350556,1,8,0:0:0:0:
195,178,350619,1,0,0:0:0:0:
195,178,350681,1,0,0:0:0:0:
195,178,350744,1,8,0:0:0:0:
155,154,350806,1,8,0:0:0:0:
195,178,350869,1,0,0:0:0:0:
154,156,350931,1,0,0:0:0:0:
224,160,350994,1,12,0:0:0:0:
