osu file format v14

[General]
AudioFilename: audio.mp3
AudioLeadIn: 0
PreviewTime: 162462
Countdown: 0
SampleSet: Normal
StackLeniency: 0.7
Mode: 1
LetterboxInBreaks: 0
WidescreenStoryboard: 0

[Editor]
Bookmarks: 9525,12525,17025,30525,39525,42525,55275,66525,114525,123150,135525,137775,138525,143775,147525,155775,159525,174525,201525,207525,209775,251234,254746,259136,286531
DistanceSpacing: 0.6
BeatDivisor: 4
GridSize: 32
TimelineZoom: 4.599998

[Metadata]
Title:Spellbound Unearthed Terror
TitleUnicode:Spellbound Unearthed Terror
Artist:Inferi
ArtistUnicode:Inferi
Creator:Raiden
Version:Act III: Invocation
Source:
Tags:eldritch lovecraftian english technical melodic death metal featured artist fa of sunless realms
BeatmapID:2960750
BeatmapSetID:1438969

[Difficulty]
HPDrainRate:5
CircleSize:2
OverallDifficulty:7
ApproachRate:10
SliderMultiplier:1.4
SliderTickRate:1

[Events]
//Background and Video events
0,0,"decqobx-6883843d-899d-41f1-b252-513cebe7e0f7.jpg",0,0
//Break Periods
//Storyboard Layer 0 (Background)
//Storyboard Layer 1 (Fail)
//Storyboard Layer 2 (Pass)
//Storyboard Layer 3 (Foreground)
//Storyboard Layer 4 (Overlay)
//Storyboard Sound Samples

[TimingPoints]
525,250,3,1,0,40,1,0
525,-100,3,1,0,40,0,0
5712,-100,3,1,0,80,0,0
79212,-111.111111111111,3,1,0,80,0,0
84525,-100,3,1,0,80,0,1
89775,-100,3,1,0,80,0,0
90525,-100,3,1,0,80,0,1
101775,-100,3,1,0,80,0,0
162087,-104.166666666667,3,1,0,80,0,0
162212,-106.382978723404,3,1,0,80,0,0
162337,-108.695652173913,3,1,0,80,0,0
162462,-111.111111111111,3,1,0,80,0,0
174337,-105.263157894737,3,1,0,80,0,0
174462,-100,3,1,0,80,0,0
217900,-104.166666666667,3,1,0,80,0,0
218025,260.869565217391,3,1,0,80,1,0
218285,-100,3,1,0,80,0,0
218372,-100.664182274648,3,1,0,80,0,0
218459,-101.337246302204,3,1,0,80,0,0
218546,-102.019371438249,3,1,0,80,0,0
218633,-102.710741900231,3,1,0,80,0,0
218720,-103.411546933331,3,1,0,80,0,0
218807,272.727272727273,3,1,0,80,1,0
222079,272.727272727273,3,1,0,80,1,8
222260,292.682926829268,3,1,0,80,1,0
223650,-100,3,1,0,40,0,0
227455,-100,3,1,0,80,0,0
229284,-66.6666666666667,3,1,0,80,0,0
230162,439.024390243902,2,1,0,80,1,0
230162,-44.4444444444445,2,1,0,80,0,0
230491,-66.6666666666667,2,1,0,80,0,0
244210,292.682926829268,3,1,0,80,1,0
251234,439.024390243902,2,1,0,80,1,0
251234,-66.6666666666667,2,1,0,80,0,0
279184,-68.9655172413793,2,1,0,80,0,0
279331,450,2,1,0,80,1,0
279331,-66.6666666666667,2,1,0,80,0,0
305206,-44.4444444444445,2,1,0,80,0,0

[HitObjects]
256,192,3525,12,0,5650,0:0:0:0:
256,192,5775,5,8,0:0:0:0:
256,192,5837,5,8,0:0:0:0:
256,192,5900,5,0,0:0:0:0:
256,192,5962,5,0,0:0:0:0:
256,192,6025,5,8,0:0:0:0:
256,192,6087,5,8,0:0:0:0:
256,192,6150,5,8,0:0:0:0:
256,192,6212,5,8,0:0:0:0:
256,192,6275,5,0,0:0:0:0:
256,192,6337,5,0,0:0:0:0:
256,192,6400,5,0,0:0:0:0:
256,192,6462,5,0,0:0:0:0:
256,192,6525,5,12,0:0:0:0:
256,192,6775,5,12,0:0:0:0:
256,192,6900,5,4,0:0:0:0:
256,192,8025,5,8,0:0:0:0:
256,192,8087,5,0,0:0:0:0:
256,192,8150,5,8,0:0:0:0:
256,192,8212,5,8,0:0:0:0:
256,192,8275,5,0,0:0:0:0:
256,192,8337,5,0,0:0:0:0:
256,192,8400,5,8,0:0:0:0:
256,192,8525,5,0,0:0:0:0:
256,192,8650,5,8,0:0:0:0:
256,192,8775,5,4,0:0:0:0:
256,192,8900,5,0,0:0:0:0:
256,192,9025,5,0,0:0:0:0:
256,192,9150,5,8,0:0:0:0:
256,192,9525,5,8,0:0:0:0:
256,192,9587,5,8,0:0:0:0:
256,192,9650,5,8,0:0:0:0:
256,192,9712,5,8,0:0:0:0:
256,192,9775,5,0,0:0:0:0:
256,192,9837,5,0,0:0:0:0:
256,192,9900,5,8,0:0:0:0:
256,192,9962,5,8,0:0:0:0:
256,192,10025,5,0,0:0:0:0:
256,192,10087,5,0,0:0:0:0:
256,192,10150,5,0,0:0:0:0:
256,192,10212,5,0,0:0:0:0:
256,192,10275,5,8,0:0:0:0:
256,192,10337,5,0,0:0:0:0:
256,192,10400,5,8,0:0:0:0:
256,192,10462,5,0,0:0:0:0:
256,192,10525,5,8,0:0:0:0:
256,192,10587,5,8,0:0:0:0:
256,192,10650,5,0,0:0:0:0:
256,192,10712,5,8,0:0:0:0:
256,192,10775,5,0,0:0:0:0:
256,192,10837,5,0,0:0:0:0:
256,192,10900,5,8,0:0:0:0:
256,192,10962,5,0,0:0:0:0:
256,192,11025,5,8,0:0:0:0:
256,192,11087,5,8,0:0:0:0:
256,192,11150,5,8,0:0:0:0:
256,192,11212,5,8,0:0:0:0:
256,192,11275,5,0,0:0:0:0:
256,192,11337,5,0,0:0:0:0:
256,192,11400,5,8,0:0:0:0:
256,192,11462,5,0,0:0:0:0:
256,192,11525,5,8,0:0:0:0:
256,192,11587,5,0,0:0:0:0:
256,192,11650,5,8,0:0:0:0:
256,192,11712,5,8,0:0:0:0:
256,192,11775,5,8,0:0:0:0:
256,192,11837,5,0,0:0:0:0:
256,192,11900,5,8,0:0:0:0:
256,192,11962,5,0,0:0:0:0:
256,192,12025,5,8,0:0:0:0:
256,192,12087,5,0,0:0:0:0:
256,192,12150,5,8,0:0:0:0:
256,192,12212,5,8,0:0:0:0:
256,192,12275,5,0,0:0:0:0:
256,192,12337,5,0,0:0:0:0:
256,192,12400,5,8,0:0:0:0:
256,192,12462,5,0,0:0:0:0:
256,192,12525,5,8,0:0:0:0:
256,192,12650,5,0,0:0:0:0:
256,192,12775,5,0,0:0:0:0:
256,192,12900,5,8,0:0:0:0:
256,192,13025,5,0,0:0:0:0:
256,192,13150,5,0,0:0:0:0:
256,192,13275,5,8,0:0:0:0:
256,192,13337,5,0,0:0:0:0:
256,192,13400,5,8,0:0:0:0:
256,192,13462,5,8,0:0:0:0:
256,192,13525,5,0,0:0:0:0:
256,192,13587,5,0,0:0:0:0:
256,192,13650,5,8,0:0:0:0:
256,192,13775,5,0,0:0:0:0:
256,192,13900,5,0,0:0:0:0:
256,192,14025,5,8,0:0:0:0:
256,192,14150,5,0,0:0:0:0:
256,192,14275,5,0,0:0:0:0:
256,192,14400,5,8,0:0:0:0:
256,192,14525,5,0,0:0:0:0:
256,192,14650,5,8,0:0:0:0:
256,192,14775,5,0,0:0:0:0:
256,192,14837,5,0,0:0:0:0:
256,192,14900,5,0,0:0:0:0:
256,192,14962,5,0,0:0:0:0:
256,192,15025,5,0,0:0:0:0:
256,192,15087,5,0,0:0:0:0:
256,192,15150,5,8,0:0:0:0:
256,192,15212,5,8,0:0:0:0:
256,192,15275,5,0,0:0:0:0:
256,192,15337,5,0,0:0:0:0:
256,192,15400,5,0,0:0:0:0:
256,192,15462,5,0,0:0:0:0:
256,192,15525,5,12,0:0:0:0:
256,192,15900,5,0,0:0:0:0:
256,192,16025,5,0,0:0:0:0:
256,192,16150,5,0,0:0:0:0:
256,192,16275,5,8,0:0:0:0:
256,192,16650,5,4,0:0:0:0:
256,192,17025,5,8,0:0:0:0:
256,192,17087,5,0,0:0:0:0:
256,192,17150,5,8,0:0:0:0:
256,192,17212,5,8,0:0:0:0:
256,192,17275,5,0,0:0:0:0:
256,192,17337,5,0,0:0:0:0:
256,192,17400,5,8,0:0:0:0:
256,192,17462,5,8,0:0:0:0:
256,192,17525,5,8,0:0:0:0:
256,192,17587,5,0,0:0:0:0:
256,192,17650,5,8,0:0:0:0:
256,192,17712,5,0,0:0:0:0:
256,192,17775,5,8,0:0:0:0:
256,192,17837,5,8,0:0:0:0:
256,192,17900,5,0,0:0:0:0:
256,192,17962,5,0,0:0:0:0:
256,192,18025,5,8,0:0:0:0:
256,192,18087,5,0,0:0:0:0:
256,192,18150,5,8,0:0:0:0:
256,192,18275,5,0,0:0:0:0:
256,192,18400,5,0,0:0:0:0:
256,192,18525,5,8,0:0:0:0:
256,192,18587,5,8,0:0:0:0:
256,192,18650,5,0,0:0:0:0:
256,192,18712,5,0,0:0:0:0:
256,192,18775,5,8,0:0:0:0:
256,192,18837,5,0,0:0:0:0:
256,192,18900,5,8,0:0:0:0:
256,192,18962,5,8,0:0:0:0:
256,192,19025,5,0,0:0:0:0:
256,192,19087,5,0,0:0:0:0:
256,192,19150,5,0,0:0:0:0:
256,192,19212,5,0,0:0:0:0:
256,192,19275,5,8,0:0:0:0:
256,192,19337,5,0,0:0:0:0:
256,192,19400,5,8,0:0:0:0:
256,192,19462,5,0,0:0:0:0:
256,192,19525,5,8,0:0:0:0:
256,192,19587,5,8,0:0:0:0:
256,192,19650,5,0,0:0:0:0:
256,192,19712,5,0,0:0:0:0:
256,192,19775,5,8,0:0:0:0:
256,192,19837,5,8,0:0:0:0:
256,192,19900,5,8,0:0:0:0:
256,192,19962,5,0,0:0:0:0:
256,192,20025,5,8,0:0:0:0:
256,192,20087,5,0,0:0:0:0:
256,192,20150,5,8,0:0:0:0:
256,192,20212,5,8,0:0:0:0:
256,192,20275,5,0,0:0:0:0:
256,192,20337,5,8,0:0:0:0:
256,192,20400,5,0,0:0:0:0:
256,192,20462,5,0,0:0:0:0:
256,192,20525,5,8,0:0:0:0:
256,192,20587,5,0,0:0:0:0:
256,192,20650,5,8,0:0:0:0:
256,192,20712,5,8,0:0:0:0:
256,192,20775,5,8,0:0:0:0:
256,192,20837,5,8,0:0:0:0:
256,192,20900,5,0,0:0:0:0:
256,192,20962,5,8,0:0:0:0:
256,192,21025,5,0,0:0:0:0:
256,192,21087,5,0,0:0:0:0:
256,192,21150,5,8,0:0:0:0:
256,192,21212,5,8,0:0:0:0:
256,192,21275,5,8,0:0:0:0:
256,192,21337,5,8,0:0:0:0:
256,192,21400,5,0,0:0:0:0:
256,192,21462,5,0,0:0:0:0:
256,192,21525,5,8,0:0:0:0:
256,192,21587,5,8,0:0:0:0:
256,192,21650,5,0,0:0:0:0:
256,192,21712,5,0,0:0:0:0:
256,192,21775,5,8,0:0:0:0:
256,192,21837,5,0,0:0:0:0:
256,192,21900,5,8,0:0:0:0:
256,192,21962,5,8,0:0:0:0:
256,192,22025,5,8,0:0:0:0:
256,192,22087,5,8,0:0:0:0:
256,192,22150,5,0,0:0:0:0:
256,192,22212,5,0,0:0:0:0:
256,192,22275,5,8,0:0:0:0:
256,192,22337,5,0,0:0:0:0:
256,192,22400,5,8,0:0:0:0:
256,192,22462,5,0,0:0:0:0:
256,192,22525,5,8,0:0:0:0:
256,192,22587,5,8,0:0:0:0:
256,192,22650,5,0,0:0:0:0:
256,192,22712,5,0,0:0:0:0:
256,192,22775,5,8,0:0:0:0:
256,192,22837,5,8,0:0:0:0:
256,192,22900,5,8,0:0:0:0:
256,192,22962,5,0,0:0:0:0:
256,192,23025,5,8,0:0:0:0:
256,192,23087,5,8,0:0:0:0:
256,192,23150,5,0,0:0:0:0:
256,192,23212,5,0,0:0:0:0:
256,192,23275,5,0,0:0:0:0:
256,192,23337,5,0,0:0:0:0:
256,192,23400,5,8,0:0:0:0:
256,192,23462,5,0,0:0:0:0:
256,192,23525,5,8,0:0:0:0:
256,192,23587,5,0,0:0:0:0:
256,192,23650,5,8,0:0:0:0:
256,192,23712,5,8,0:0:0:0:
256,192,23775,5,0,0:0:0:0:
256,192,23837,5,0,0:0:0:0:
256,192,23900,5,0,0:0:0:0:
256,192,23962,5,0,0:0:0:0:
256,192,24025,5,8,0:0:0:0:
256,192,24087,5,0,0:0:0:0:
256,192,24150,5,8,0:0:0:0:
256,192,24212,5,8,0:0:0:0:
256,192,24275,5,8,0:0:0:0:
256,192,24337,5,8,0:0:0:0:
256,192,24400,5,8,0:0:0:0:
256,192,24462,5,8,0:0:0:0:
256,192,24525,5,0,0:0:0:0:
256,192,24587,5,0,0:0:0:0:
256,192,24650,5,0,0:0:0:0:
256,192,24712,5,0,0:0:0:0:
256,192,24775,5,8,0:0:0:0:
256,192,24837,5,0,0:0:0:0:
256,192,24900,5,8,0:0:0:0:
256,192,24962,5,8,0:0:0:0:
256,192,25025,5,0,0:0:0:0:
256,192,25087,5,0,0:0:0:0:
256,192,25150,5,8,0:0:0:0:
256,192,25212,5,0,0:0:0:0:
256,192,25275,5,8,0:0:0:0:
256,192,25337,5,8,0:0:0:0:
256,192,25400,5,0,0:0:0:0:
256,192,25462,5,8,0:0:0:0:
256,192,25525,5,0,0:0:0:0:
256,192,25587,5,0,0:0:0:0:
256,192,25650,5,8,0:0:0:0:
256,192,25712,5,8,0:0:0:0:
256,192,25775,5,0,0:0:0:0:
256,192,25837,5,8,0:0:0:0:
256,192,25900,5,0,0:0:0:0:
256,192,25962,5,0,0:0:0:0:
256,192,26025,5,8,0:0:0:0:
256,192,26087,5,8,0:0:0:0:
256,192,26150,5,8,0:0:0:0:
256,192,26212,5,8,0:0:0:0:
256,192,26275,5,0,0:0:0:0:
256,192,26337,5,0,0:0:0:0:
256,192,26400,5,8,0:0:0:0:
256,192,26462,5,0,0:0:0:0:
256,192,26525,5,8,0:0:0:0:
256,192,26587,5,0,0:0:0:0:
256,192,26650,5,8,0:0:0:0:
256,192,26712,5,8,0:0:0:0:
256,192,26775,5,0,0:0:0:0:
256,192,26837,5,8,0:0:0:0:
256,192,26900,5,0,0:0:0:0:
256,192,26962,5,0,0:0:0:0:
256,192,27025,5,8,0:0:0:0:
256,192,27087,5,8,0:0:0:0:
256,192,27150,5,0,0:0:0:0:
256,192,27212,5,8,0:0:0:0:
256,192,27275,5,0,0:0:0:0:
256,192,27337,5,0,0:0:0:0:
256,192,27400,5,0,0:0:0:0:
256,192,27462,5,0,0:0:0:0:
256,192,27525,5,12,0:0:0:0:
256,192,27900,5,0,0:0:0:0:
256,192,28025,5,0,0:0:0:0:
256,192,28150,5,0,0:0:0:0:
256,192,28275,5,8,0:0:0:0:
256,192,28650,5,4,0:0:0:0:
256,192,29025,5,8,0:0:0:0:
256,192,29087,5,0,0:0:0:0:
256,192,29150,5,8,0:0:0:0:
256,192,29212,5,0,0:0:0:0:
256,192,29275,5,8,0:0:0:0:
256,192,29337,5,0,0:0:0:0:
256,192,29400,5,8,0:0:0:0:
256,192,29462,5,8,0:0:0:0:
256,192,29525,5,8,0:0:0:0:
256,192,29587,5,8,0:0:0:0:
256,192,29650,5,0,0:0:0:0:
256,192,29712,5,0,0:0:0:0:
256,192,29775,5,8,0:0:0:0:
256,192,29837,5,0,0:0:0:0:
256,192,29900,5,0,0:0:0:0:
256,192,29962,5,0,0:0:0:0:
256,192,30025,5,8,0:0:0:0:
256,192,30087,5,8,0:0:0:0:
256,192,30150,5,0,0:0:0:0:
256,192,30275,5,0,0:0:0:0:
256,192,30337,5,8,0:0:0:0:
256,192,30400,5,0,0:0:0:0:
256,192,30462,5,0,0:0:0:0:
256,192,30525,5,8,0:0:0:0:
256,192,30650,5,0,0:0:0:0:
256,192,30775,5,0,0:0:0:0:
256,192,30900,5,8,0:0:0:0:
256,192,31025,5,8,0:0:0:0:
256,192,31150,5,0,0:0:0:0:
256,192,31275,5,8,0:0:0:0:
256,192,31400,5,0,0:0:0:0:
256,192,31525,5,0,0:0:0:0:
256,192,31650,5,8,0:0:0:0:
256,192,31775,5,0,0:0:0:0:
256,192,31900,5,0,0:0:0:0:
256,192,31962,5,0,0:0:0:0:
256,192,32025,5,8,0:0:0:0:
256,192,32150,5,0,0:0:0:0:
256,192,32275,5,8,0:0:0:0:
256,192,32400,5,8,0:0:0:0:
256,192,32462,5,8,0:0:0:0:
256,192,32525,5,0,0:0:0:0:
256,192,32650,5,0,0:0:0:0:
256,192,32775,5,8,0:0:0:0:
256,192,32900,5,8,0:0:0:0:
256,192,33025,5,0,0:0:0:0:
256,192,33150,5,8,0:0:0:0:
256,192,33275,5,0,0:0:0:0:
256,192,33400,5,8,0:0:0:0:
256,192,33525,5,8,0:0:0:0:
256,192,33650,5,0,0:0:0:0:
256,192,33712,5,0,0:0:0:0:
256,192,33775,5,0,0:0:0:0:
256,192,33900,5,8,0:0:0:0:
256,192,34025,5,0,0:0:0:0:
256,192,34150,5,0,0:0:0:0:
256,192,34275,5,8,0:0:0:0:
256,192,34337,1,8,0:0:0:0:
256,192,34400,5,0,0:0:0:0:
256,192,34462,5,0,0:0:0:0:
256,192,34525,5,0,0:0:0:0:
256,192,34587,5,0,0:0:0:0:
256,192,34650,5,8,0:0:0:0:
256,192,34775,5,0,0:0:0:0:
256,192,34900,5,8,0:0:0:0:
256,192,35025,5,8,0:0:0:0:
256,192,35150,5,0,0:0:0:0:
256,192,35275,5,0,0:0:0:0:
256,192,35337,5,0,0:0:0:0:
256,192,35400,5,8,0:0:0:0:
256,192,35525,5,0,0:0:0:0:
256,192,35650,5,0,0:0:0:0:
256,192,35775,5,8,0:0:0:0:
256,192,35837,5,8,0:0:0:0:
256,192,35900,5,8,0:0:0:0:
256,192,35962,5,8,0:0:0:0:
256,192,36025,5,0,0:0:0:0:
256,192,36087,5,0,0:0:0:0:
256,192,36150,5,8,0:0:0:0:
256,192,36212,5,8,0:0:0:0:
256,192,36275,5,0,0:0:0:0:
256,192,36337,5,0,0:0:0:0:
256,192,36400,5,0,0:0:0:0:
256,192,36462,5,0,0:0:0:0:
256,192,36525,5,8,0:0:0:0:
256,192,36650,5,0,0:0:0:0:
256,192,36775,5,0,0:0:0:0:
256,192,36900,5,8,0:0:0:0:
256,192,37025,5,0,0:0:0:0:
256,192,37087,5,0,0:0:0:0:
256,192,37150,5,0,0:0:0:0:
256,192,37275,5,8,0:0:0:0:
256,192,37400,5,8,0:0:0:0:
256,192,37525,5,0,0:0:0:0:
256,192,37650,5,8,0:0:0:0:
256,192,37775,5,0,0:0:0:0:
256,192,37837,5,0,0:0:0:0:
256,192,37900,5,8,0:0:0:0:
256,192,38025,5,8,0:0:0:0:
256,192,38150,5,0,0:0:0:0:
256,192,38212,5,0,0:0:0:0:
256,192,38275,5,0,0:0:0:0:
256,192,38400,5,8,0:0:0:0:
256,192,38525,5,0,0:0:0:0:
256,192,38650,5,8,0:0:0:0:
256,192,38775,5,0,0:0:0:0:
256,192,38837,5,0,0:0:0:0:
256,192,38900,5,0,0:0:0:0:
256,192,38962,5,0,0:0:0:0:
256,192,39025,5,0,0:0:0:0:
256,192,39087,5,0,0:0:0:0:
256,192,39150,5,8,0:0:0:0:
256,192,39275,5,8,0:0:0:0:
256,192,39400,5,8,0:0:0:0:
256,192,39525,5,8,0:0:0:0:
256,192,39587,5,8,0:0:0:0:
256,192,39650,5,0,0:0:0:0:
256,192,39712,5,8,0:0:0:0:
256,192,39775,5,0,0:0:0:0:
256,192,39837,5,0,0:0:0:0:
256,192,39900,5,8,0:0:0:0:
256,192,39962,5,0,0:0:0:0:
256,192,40025,5,8,0:0:0:0:
256,192,40087,5,0,0:0:0:0:
256,192,40150,5,8,0:0:0:0:
256,192,40212,5,0,0:0:0:0:
256,192,40275,5,8,0:0:0:0:
256,192,40337,5,0,0:0:0:0:
256,192,40400,5,8,0:0:0:0:
256,192,40462,5,8,0:0:0:0:
256,192,40525,5,0,0:0:0:0:
256,192,40587,5,0,0:0:0:0:
256,192,40650,5,8,0:0:0:0:
256,192,40712,5,8,0:0:0:0:
256,192,40775,5,8,0:0:0:0:
256,192,40837,5,8,0:0:0:0:
256,192,40900,5,0,0:0:0:0:
256,192,40962,5,0,0:0:0:0:
256,192,41025,5,8,0:0:0:0:
256,192,41087,5,8,0:0:0:0:
256,192,41150,5,0,0:0:0:0:
256,192,41212,5,0,0:0:0:0:
256,192,41275,5,0,0:0:0:0:
256,192,41337,5,0,0:0:0:0:
256,192,41400,5,8,0:0:0:0:
256,192,41462,5,8,0:0:0:0:
256,192,41525,5,0,0:0:0:0:
256,192,41587,5,0,0:0:0:0:
256,192,41650,5,8,0:0:0:0:
256,192,41712,5,0,0:0:0:0:
256,192,41775,5,8,0:0:0:0:
256,192,41837,5,8,0:0:0:0:
256,192,41900,5,0,0:0:0:0:
256,192,41962,5,0,0:0:0:0:
256,192,42025,5,8,0:0:0:0:
256,192,42087,5,0,0:0:0:0:
256,192,42150,5,8,0:0:0:0:
256,192,42212,5,8,0:0:0:0:
256,192,42275,5,8,0:0:0:0:
256,192,42337,5,8,0:0:0:0:
256,192,42400,5,0,0:0:0:0:
256,192,42525,5,0,0:0:0:0:
256,192,42587,5,0,0:0:0:0:
256,192,42650,5,8,0:0:0:0:
256,192,42712,5,0,0:0:0:0:
256,192,42775,5,0,0:0:0:0:
256,192,42837,5,0,0:0:0:0:
256,192,42900,5,8,0:0:0:0:
256,192,42962,5,8,0:0:0:0:
256,192,43025,5,0,0:0:0:0:
256,192,43087,5,0,0:0:0:0:
256,192,43150,5,8,0:0:0:0:
256,192,43212,5,0,0:0:0:0:
256,192,43275,5,8,0:0:0:0:
256,192,43337,5,8,0:0:0:0:
256,192,43400,5,0,0:0:0:0:
256,192,43462,5,0,0:0:0:0:
256,192,43525,5,8,0:0:0:0:
256,192,43587,5,0,0:0:0:0:
256,192,43650,5,8,0:0:0:0:
256,192,43712,5,8,0:0:0:0:
256,192,43775,5,0,0:0:0:0:
256,192,43837,5,0,0:0:0:0:
256,192,43900,5,8,0:0:0:0:
256,192,43962,5,0,0:0:0:0:
256,192,44025,5,8,0:0:0:0:
256,192,44087,5,8,0:0:0:0:
256,192,44150,5,8,0:0:0:0:
256,192,44212,5,8,0:0:0:0:
256,192,44275,5,0,0:0:0:0:
256,192,44337,5,0,0:0:0:0:
256,192,44400,5,8,0:0:0:0:
256,192,44462,5,0,0:0:0:0:
256,192,44525,5,0,0:0:0:0:
256,192,44587,5,0,0:0:0:0:
256,192,44650,5,8,0:0:0:0:
256,192,44712,5,0,0:0:0:0:
256,192,44775,5,8,0:0:0:0:
256,192,44837,5,8,0:0:0:0:
256,192,44900,5,0,0:0:0:0:
256,192,44962,5,0,0:0:0:0:
256,192,45025,5,0,0:0:0:0:
256,192,45087,5,0,0:0:0:0:
256,192,45150,5,8,0:0:0:0:
256,192,45212,5,8,0:0:0:0:
256,192,45275,5,0,0:0:0:0:
256,192,45337,5,0,0:0:0:0:
256,192,45400,5,8,0:0:0:0:
256,192,45525,5,8,0:0:0:0:
256,192,45587,5,8,0:0:0:0:
256,192,45650,5,8,0:0:0:0:
256,192,45712,5,8,0:0:0:0:
256,192,45775,5,0,0:0:0:0:
256,192,45837,5,0,0:0:0:0:
256,192,45900,5,8,0:0:0:0:
256,192,45962,5,8,0:0:0:0:
256,192,46025,5,0,0:0:0:0:
256,192,46087,5,0,0:0:0:0:
256,192,46150,5,8,0:0:0:0:
256,192,46212,5,0,0:0:0:0:
256,192,46275,5,8,0:0:0:0:
256,192,46337,5,8,0:0:0:0:
256,192,46400,5,0,0:0:0:0:
256,192,46462,5,0,0:0:0:0:
256,192,46525,5,8,0:0:0:0:
256,192,46587,5,0,0:0:0:0:
256,192,46650,5,8,0:0:0:0:
256,192,46712,5,8,0:0:0:0:
256,192,46775,5,0,0:0:0:0:
256,192,46837,5,0,0:0:0:0:
256,192,46900,5,8,0:0:0:0:
256,192,46962,5,0,0:0:0:0:
256,192,47025,5,8,0:0:0:0:
256,192,47087,5,8,0:0:0:0:
256,192,47150,5,8,0:0:0:0:
256,192,47212,5,8,0:0:0:0:
256,192,47275,5,0,0:0:0:0:
256,192,47337,5,0,0:0:0:0:
256,192,47400,5,8,0:0:0:0:
256,192,47462,5,0,0:0:0:0:
256,192,47525,5,0,0:0:0:0:
256,192,47587,5,0,0:0:0:0:
256,192,47650,5,8,0:0:0:0:
256,192,47712,5,0,0:0:0:0:
256,192,47775,5,8,0:0:0:0:
256,192,47837,5,8,0:0:0:0:
256,192,47900,5,0,0:0:0:0:
256,192,47962,5,0,0:0:0:0:
256,192,48025,5,0,0:0:0:0:
256,192,48087,5,0,0:0:0:0:
256,192,48150,5,8,0:0:0:0:
256,192,48212,5,8,0:0:0:0:
256,192,48275,5,0,0:0:0:0:
256,192,48337,5,0,0:0:0:0:
256,192,48400,5,8,0:0:0:0:
256,192,48525,5,0,0:0:0:0:
256,192,48587,5,0,0:0:0:0:
256,192,48650,5,8,0:0:0:0:
256,192,48712,5,8,0:0:0:0:
256,192,48775,5,0,0:0:0:0:
256,192,48837,5,0,0:0:0:0:
256,192,48900,5,8,0:0:0:0:
256,192,48962,5,8,0:0:0:0:
256,192,49025,5,8,0:0:0:0:
256,192,49087,5,0,0:0:0:0:
256,192,49150,5,8,0:0:0:0:
256,192,49212,5,0,0:0:0:0:
256,192,49275,5,8,0:0:0:0:
256,192,49337,5,8,0:0:0:0:
256,192,49400,5,0,0:0:0:0:
256,192,49462,5,0,0:0:0:0:
256,192,49525,5,8,0:0:0:0:
256,192,49587,5,0,0:0:0:0:
256,192,49650,5,8,0:0:0:0:
256,192,49712,5,8,0:0:0:0:
256,192,49775,5,0,0:0:0:0:
256,192,49837,5,0,0:0:0:0:
256,192,49900,5,8,0:0:0:0:
256,192,49962,5,0,0:0:0:0:
256,192,50025,5,8,0:0:0:0:
256,192,50087,5,8,0:0:0:0:
256,192,50150,5,8,0:0:0:0:
256,192,50212,5,8,0:0:0:0:
256,192,50275,5,0,0:0:0:0:
256,192,50337,5,0,0:0:0:0:
256,192,50400,5,8,0:0:0:0:
256,192,50462,5,8,0:0:0:0:
256,192,50525,5,0,0:0:0:0:
256,192,50587,5,0,0:0:0:0:
256,192,50650,5,8,0:0:0:0:
256,192,50712,5,0,0:0:0:0:
256,192,50775,5,8,0:0:0:0:
256,192,50837,5,8,0:0:0:0:
256,192,50900,5,0,0:0:0:0:
256,192,50962,5,0,0:0:0:0:
256,192,51025,5,0,0:0:0:0:
256,192,51087,5,0,0:0:0:0:
256,192,51150,5,8,0:0:0:0:
256,192,51275,5,0,0:0:0:0:
256,192,51400,5,8,0:0:0:0:
256,192,51525,5,8,0:0:0:0:
256,192,51587,5,8,0:0:0:0:
256,192,51650,5,8,0:0:0:0:
256,192,51712,5,8,0:0:0:0:
256,192,51775,5,0,0:0:0:0:
256,192,51837,5,0,0:0:0:0:
256,192,51900,5,8,0:0:0:0:
256,192,51962,5,0,0:0:0:0:
256,192,52025,5,8,0:0:0:0:
256,192,52087,5,0,0:0:0:0:
256,192,52150,5,8,0:0:0:0:
256,192,52212,5,0,0:0:0:0:
256,192,52275,5,8,0:0:0:0:
256,192,52337,5,8,0:0:0:0:
256,192,52400,5,0,0:0:0:0:
256,192,52462,5,0,0:0:0:0:
256,192,52525,5,0,0:0:0:0:
256,192,52587,5,0,0:0:0:0:
256,192,52650,5,8,0:0:0:0:
256,192,52712,5,0,0:0:0:0:
256,192,52775,5,8,0:0:0:0:
256,192,52837,5,0,0:0:0:0:
256,192,52900,5,8,0:0:0:0:
256,192,52962,5,0,0:0:0:0:
256,192,53025,5,8,0:0:0:0:
256,192,53087,5,8,0:0:0:0:
256,192,53150,5,0,0:0:0:0:
256,192,53212,5,0,0:0:0:0:
256,192,53275,5,0,0:0:0:0:
256,192,53337,5,0,0:0:0:0:
256,192,53400,5,0,0:0:0:0:
256,192,53462,5,0,0:0:0:0:
256,192,53525,5,8,0:0:0:0:
256,192,53587,5,8,0:0:0:0:
256,192,53650,5,8,0:0:0:0:
256,192,53712,5,8,0:0:0:0:
256,192,53775,5,4,0:0:0:0:
256,192,54150,5,4,0:0:0:0:
256,192,54525,5,0,0:0:0:0:
256,192,54650,5,0,0:0:0:0:
256,192,54775,5,0,0:0:0:0:
256,192,55150,5,8,0:0:0:0:
256,192,55275,5,0,0:0:0:0:
256,192,55337,5,0,0:0:0:0:
256,192,55400,5,0,0:0:0:0:
256,192,55525,5,0,0:0:0:0:
256,192,55587,5,8,0:0:0:0:
256,192,55650,5,0,0:0:0:0:
256,192,55712,5,0,0:0:0:0:
256,192,55775,5,8,0:0:0:0:
256,192,55837,5,0,0:0:0:0:
256,192,55900,5,8,0:0:0:0:
256,192,55962,5,8,0:0:0:0:
256,192,56025,5,0,0:0:0:0:
256,192,56087,5,8,0:0:0:0:
256,192,56150,5,0,0:0:0:0:
256,192,56212,5,0,0:0:0:0:
256,192,56275,5,8,0:0:0:0:
256,192,56337,5,8,0:0:0:0:
256,192,56400,5,8,0:0:0:0:
256,192,56462,5,0,0:0:0:0:
256,192,56525,5,0,0:0:0:0:
256,192,56587,5,0,0:0:0:0:
256,192,56650,5,8,0:0:0:0:
256,192,56712,5,8,0:0:0:0:
256,192,56775,5,0,0:0:0:0:
256,192,56837,5,8,0:0:0:0:
256,192,56900,5,0,0:0:0:0:
256,192,56962,5,0,0:0:0:0:
256,192,57025,5,8,0:0:0:0:
256,192,57087,5,0,0:0:0:0:
256,192,57150,5,0,0:0:0:0:
256,192,57212,5,0,0:0:0:0:
256,192,57275,5,8,0:0:0:0:
256,192,57337,5,0,0:0:0:0:
256,192,57400,5,8,0:0:0:0:
256,192,57462,5,8,0:0:0:0:
256,192,57525,5,0,0:0:0:0:
256,192,57587,5,0,0:0:0:0:
256,192,57650,5,8,0:0:0:0:
256,192,57712,5,8,0:0:0:0:
256,192,57775,5,0,0:0:0:0:
256,192,57837,5,0,0:0:0:0:
256,192,57900,5,0,0:0:0:0:
256,192,57962,5,0,0:0:0:0:
256,192,58025,5,8,0:0:0:0:
256,192,58087,5,0,0:0:0:0:
256,192,58150,5,8,0:0:0:0:
256,192,58212,5,8,0:0:0:0:
256,192,58275,5,0,0:0:0:0:
256,192,58400,5,0,0:0:0:0:
256,192,58462,5,0,0:0:0:0:
256,192,58525,5,8,0:0:0:0:
256,192,58587,5,0,0:0:0:0:
256,192,58650,5,8,0:0:0:0:
256,192,58712,5,8,0:0:0:0:
256,192,58775,5,0,0:0:0:0:
256,192,58837,5,0,0:0:0:0:
256,192,58900,5,8,0:0:0:0:
256,192,58962,5,8,0:0:0:0:
256,192,59025,5,0,0:0:0:0:
256,192,59087,5,0,0:0:0:0:
256,192,59150,5,8,0:0:0:0:
256,192,59212,5,0,0:0:0:0:
256,192,59275,5,0,0:0:0:0:
256,192,59337,5,0,0:0:0:0:
256,192,59400,5,8,0:0:0:0:
256,192,59462,1,0,0:0:0:0:
256,192,59525,5,8,0:0:0:0:
256,192,59587,1,8,0:0:0:0:
256,192,59650,1,0,0:0:0:0:
256,192,59712,1,0,0:0:0:0:
256,192,59775,5,12,0:0:0:0:
256,192,60150,5,4,0:0:0:0:
256,192,60525,5,12,0:0:0:0:
256,192,60900,5,8,0:0:0:0:
256,192,61025,5,0,0:0:0:0:
256,192,61150,5,8,0:0:0:0:
256,192,61275,5,8,0:0:0:0:
256,192,61400,5,0,0:0:0:0:
256,192,61525,5,0,0:0:0:0:
256,192,61650,5,8,0:0:0:0:
256,192,61712,5,8,0:0:0:0:
256,192,61775,5,0,0:0:0:0:
256,192,61837,5,0,0:0:0:0:
256,192,61900,5,0,0:0:0:0:
256,192,61962,5,0,0:0:0:0:
256,192,62025,5,8,0:0:0:0:
256,192,62150,5,0,0:0:0:0:
256,192,62212,5,0,0:0:0:0:
256,192,62275,5,0,0:0:0:0:
256,192,62400,5,8,0:0:0:0:
256,192,62525,5,0,0:0:0:0:
256,192,62650,5,8,0:0:0:0:
256,192,62775,5,8,0:0:0:0:
256,192,62900,5,0,0:0:0:0:
256,192,63025,5,0,0:0:0:0:
256,192,63150,5,8,0:0:0:0:
256,192,63275,5,8,0:0:0:0:
256,192,63337,5,0,0:0:0:0:
256,192,63400,5,0,0:0:0:0:
256,192,63462,5,0,0:0:0:0:
256,192,63525,5,8,0:0:0:0:
256,192,63587,5,8,0:0:0:0:
256,192,63650,5,0,0:0:0:0:
256,192,63712,5,0,0:0:0:0:
256,192,63775,5,8,0:0:0:0:
256,192,63837,5,8,0:0:0:0:
256,192,63900,5,8,0:0:0:0:
256,192,63962,5,8,0:0:0:0:
256,192,64025,5,0,0:0:0:0:
256,192,64087,5,0,0:0:0:0:
256,192,64150,5,8,0:0:0:0:
256,192,64212,5,0,0:0:0:0:
256,192,64275,5,8,0:0:0:0:
256,192,64337,5,0,0:0:0:0:
256,192,64400,5,8,0:0:0:0:
256,192,64462,5,8,0:0:0:0:
256,192,64525,5,0,0:0:0:0:
256,192,64587,5,8,0:0:0:0:
256,192,64650,5,0,0:0:0:0:
256,192,64712,5,0,0:0:0:0:
256,192,64775,5,8,0:0:0:0:
256,192,64837,5,0,0:0:0:0:
256,192,64900,5,8,0:0:0:0:
256,192,64962,5,0,0:0:0:0:
256,192,65025,5,8,0:0:0:0:
256,192,65087,5,8,0:0:0:0:
256,192,65150,5,8,0:0:0:0:
256,192,65212,5,8,0:0:0:0:
256,192,65275,5,0,0:0:0:0:
256,192,65337,5,0,0:0:0:0:
256,192,65400,5,8,0:0:0:0:
256,192,65462,5,8,0:0:0:0:
256,192,65525,5,8,0:0:0:0:
256,192,65587,5,8,0:0:0:0:
256,192,65650,5,0,0:0:0:0:
256,192,65712,5,0,0:0:0:0:
256,192,65775,5,8,0:0:0:0:
256,192,65837,5,8,0:0:0:0:
256,192,65900,5,0,0:0:0:0:
256,192,65962,5,0,0:0:0:0:
256,192,66025,5,8,0:0:0:0:
256,192,66087,5,8,0:0:0:0:
256,192,66150,5,8,0:0:0:0:
256,192,66212,5,8,0:0:0:0:
256,192,66275,5,0,0:0:0:0:
256,192,66337,5,0,0:0:0:0:
256,192,66400,5,0,0:0:0:0:
256,192,66462,5,0,0:0:0:0:
256,192,66525,5,12,0:0:0:0:
256,192,66650,5,0,0:0:0:0:
256,192,66775,5,0,0:0:0:0:
256,192,66900,5,8,0:0:0:0:
256,192,67025,5,0,0:0:0:0:
256,192,67150,5,8,0:0:0:0:
256,192,67275,5,8,0:0:0:0:
256,192,67400,5,0,0:0:0:0:
256,192,67525,5,8,0:0:0:0:
256,192,67650,5,8,0:0:0:0:
256,192,67775,5,0,0:0:0:0:
256,192,67900,5,8,0:0:0:0:
256,192,68025,5,0,0:0:0:0:
256,192,68150,5,0,0:0:0:0:
256,192,68275,5,0,0:0:0:0:
256,192,68400,5,8,0:0:0:0:
256,192,68525,5,8,0:0:0:0:
256,192,68650,5,0,0:0:0:0:
256,192,68775,5,8,0:0:0:0:
256,192,68900,5,8,0:0:0:0:
256,192,69025,5,0,0:0:0:0:
256,192,69150,5,8,0:0:0:0:
256,192,69275,5,0,0:0:0:0:
256,192,69400,5,0,0:0:0:0:
256,192,69525,5,0,0:0:0:0:
256,192,69650,5,0,0:0:0:0:
256,192,69712,5,0,0:0:0:0:
256,192,69775,5,0,0:0:0:0:
256,192,69900,5,8,0:0:0:0:
256,192,70025,5,0,0:0:0:0:
256,192,70150,5,8,0:0:0:0:
256,192,70275,5,0,0:0:0:0:
256,192,70400,5,8,0:0:0:0:
256,192,70525,5,0,0:0:0:0:
256,192,70650,5,8,0:0:0:0:
256,192,70775,5,8,0:0:0:0:
256,192,70900,5,8,0:0:0:0:
256,192,71025,5,0,0:0:0:0:
256,192,71150,5,0,0:0:0:0:
256,192,71212,5,0,0:0:0:0:
256,192,71275,5,0,0:0:0:0:
256,192,71400,5,8,0:0:0:0:
256,192,71525,5,0,0:0:0:0:
256,192,71650,5,8,0:0:0:0:
256,192,71775,5,8,0:0:0:0:
256,192,71900,5,8,0:0:0:0:
256,192,71962,5,8,0:0:0:0:
256,192,72025,5,0,0:0:0:0:
256,192,72087,5,8,0:0:0:0:
256,192,72150,5,0,0:0:0:0:
256,192,72212,5,0,0:0:0:0:
256,192,72275,5,8,0:0:0:0:
256,192,72337,5,0,0:0:0:0:
256,192,72400,5,8,0:0:0:0:
256,192,72462,5,8,0:0:0:0:
256,192,72525,5,0,0:0:0:0:
256,192,72900,5,0,0:0:0:0:
256,192,72962,5,0,0:0:0:0:
256,192,73025,5,0,0:0:0:0:
256,192,73087,5,0,0:0:0:0:
256,192,73150,5,0,0:0:0:0:
256,192,73212,5,0,0:0:0:0:
256,192,73275,5,8,0:0:0:0:
256,192,73650,5,4,0:0:0:0:
256,192,74025,5,0,0:0:0:0:
256,192,74087,5,0,0:0:0:0:
256,192,74150,5,0,0:0:0:0:
256,192,74212,5,0,0:0:0:0:
256,192,74275,5,0,0:0:0:0:
256,192,74337,5,0,0:0:0:0:
256,192,74400,5,8,0:0:0:0:
256,192,74462,5,8,0:0:0:0:
256,192,74525,5,8,0:0:0:0:
256,192,74587,5,8,0:0:0:0:
256,192,74650,5,8,0:0:0:0:
256,192,74712,5,8,0:0:0:0:
256,192,74775,5,0,0:0:0:0:
256,192,74900,5,0,0:0:0:0:
256,192,75150,5,0,0:0:0:0:
256,192,75212,5,8,0:0:0:0:
256,192,75275,5,8,0:0:0:0:
256,192,75337,5,8,0:0:0:0:
256,192,75400,5,0,0:0:0:0:
256,192,75462,5,0,0:0:0:0:
256,192,75525,5,8,0:0:0:0:
256,192,75650,5,0,0:0:0:0:
256,192,75775,5,0,0:0:0:0:
256,192,75900,5,8,0:0:0:0:
256,192,76025,5,8,0:0:0:0:
256,192,76150,5,0,0:0:0:0:
256,192,76275,5,8,0:0:0:0:
256,192,76337,5,0,0:0:0:0:
256,192,76400,5,8,0:0:0:0:
256,192,76462,5,0,0:0:0:0:
256,192,76525,5,8,0:0:0:0:
256,192,76587,5,0,0:0:0:0:
256,192,76650,5,8,0:0:0:0:
256,192,76712,5,8,0:0:0:0:
256,192,76775,5,0,0:0:0:0:
256,192,76837,5,0,0:0:0:0:
256,192,76900,5,8,0:0:0:0:
256,192,76962,5,0,0:0:0:0:
256,192,77025,5,8,0:0:0:0:
256,192,77087,5,8,0:0:0:0:
256,192,77150,5,8,0:0:0:0:
256,192,77212,5,8,0:0:0:0:
256,192,77275,5,0,0:0:0:0:
256,192,77337,5,0,0:0:0:0:
256,192,77400,5,0,0:0:0:0:
256,192,77462,5,0,0:0:0:0:
256,192,77525,5,8,0:0:0:0:
256,192,77587,5,0,0:0:0:0:
256,192,77650,5,8,0:0:0:0:
256,192,77712,5,8,0:0:0:0:
256,192,77775,5,0,0:0:0:0:
256,192,77900,5,0,0:0:0:0:
256,192,78025,5,0,0:0:0:0:
256,192,78150,5,12,0:0:0:0:
256,192,78275,5,12,0:0:0:0:
256,192,78400,5,12,0:0:0:0:
256,192,78525,5,4,0:0:0:0:
256,192,79275,5,0,0:0:0:0:
256,192,79650,5,0,0:0:0:0:
256,192,79775,5,0,0:0:0:0:
256,192,79900,5,0,0:0:0:0:
256,192,80025,5,8,0:0:0:0:
256,192,80775,5,0,0:0:0:0:
256,192,81025,5,0,0:0:0:0:
256,192,81087,5,0,0:0:0:0:
256,192,81150,5,8,0:0:0:0:
256,192,81212,5,8,0:0:0:0:
256,192,81275,5,0,0:0:0:0:
256,192,81337,5,0,0:0:0:0:
256,192,81400,5,0,0:0:0:0:
256,192,81462,5,0,0:0:0:0:
256,192,81525,5,12,0:0:0:0:
256,192,81900,5,8,0:0:0:0:
256,192,82150,5,8,0:0:0:0:
256,192,82275,5,0,0:0:0:0:
256,192,82650,5,0,0:0:0:0:
256,192,82775,5,0,0:0:0:0:
256,192,82900,5,0,0:0:0:0:
256,192,83025,5,8,0:0:0:0:
256,192,83400,5,0,0:0:0:0:
256,192,83462,5,0,0:0:0:0:
256,192,83525,5,0,0:0:0:0:
256,192,83587,5,0,0:0:0:0:
256,192,83650,5,0,0:0:0:0:
256,192,83712,5,0,0:0:0:0:
256,192,83775,5,8,0:0:0:0:
256,192,84025,5,0,0:0:0:0:
256,192,84087,5,0,0:0:0:0:
256,192,84150,5,0,0:0:0:0:
256,192,84212,5,0,0:0:0:0:
256,192,84275,5,8,0:0:0:0:
256,192,84337,5,8,0:0:0:0:
256,192,84400,5,0,0:0:0:0:
256,192,84525,5,8,0:0:0:0:
256,192,84587,5,8,0:0:0:0:
256,192,84650,5,8,0:0:0:0:
256,192,84712,5,8,0:0:0:0:
256,192,84775,5,0,0:0:0:0:
256,192,84837,5,0,0:0:0:0:
256,192,84900,5,8,0:0:0:0:
256,192,84962,5,8,0:0:0:0:
256,192,85025,5,0,0:0:0:0:
256,192,85087,5,8,0:0:0:0:
256,192,85150,5,0,0:0:0:0:
256,192,85212,5,0,0:0:0:0:
256,192,85275,5,8,0:0:0:0:
256,192,85337,5,0,0:0:0:0:
256,192,85400,5,0,0:0:0:0:
256,192,85462,5,0,0:0:0:0:
256,192,85525,5,8,0:0:0:0:
256,192,85587,5,0,0:0:0:0:
256,192,85650,5,8,0:0:0:0:
256,192,85712,5,8,0:0:0:0:
256,192,85775,5,8,0:0:0:0:
256,192,85837,5,8,0:0:0:0:
256,192,85900,5,0,0:0:0:0:
256,192,85962,5,0,0:0:0:0:
256,192,86025,5,8,0:0:0:0:
256,192,86087,5,8,0:0:0:0:
256,192,86150,5,0,0:0:0:0:
256,192,86212,5,8,0:0:0:0:
256,192,86275,5,0,0:0:0:0:
256,192,86337,5,0,0:0:0:0:
256,192,86400,5,8,0:0:0:0:
256,192,86462,5,8,0:0:0:0:
256,192,86525,5,0,0:0:0:0:
256,192,86587,5,0,0:0:0:0:
256,192,86650,5,0,0:0:0:0:
256,192,86712,5,0,0:0:0:0:
256,192,86775,5,8,0:0:0:0:
256,192,86837,5,8,0:0:0:0:
256,192,86900,5,0,0:0:0:0:
256,192,86962,5,0,0:0:0:0:
256,192,87025,5,8,0:0:0:0:
256,192,87087,5,0,0:0:0:0:
256,192,87150,5,8,0:0:0:0:
256,192,87212,5,8,0:0:0:0:
256,192,87275,5,0,0:0:0:0:
256,192,87337,5,0,0:0:0:0:
256,192,87400,5,8,0:0:0:0:
256,192,87462,5,0,0:0:0:0:
256,192,87525,5,8,0:0:0:0:
256,192,87587,5,8,0:0:0:0:
256,192,87650,5,8,0:0:0:0:
256,192,87712,5,8,0:0:0:0:
256,192,87775,5,0,0:0:0:0:
256,192,87837,5,0,0:0:0:0:
256,192,87900,5,8,0:0:0:0:
256,192,87962,5,0,0:0:0:0:
256,192,88025,5,8,0:0:0:0:
256,192,88087,5,0,0:0:0:0:
256,192,88150,5,8,0:0:0:0:
256,192,88212,5,0,0:0:0:0:
256,192,88275,5,8,0:0:0:0:
256,192,88337,5,8,0:0:0:0:
256,192,88400,5,0,0:0:0:0:
256,192,88462,5,0,0:0:0:0:
256,192,88525,5,8,0:0:0:0:
256,192,88587,5,0,0:0:0:0:
256,192,88650,5,8,0:0:0:0:
256,192,88712,5,8,0:0:0:0:
256,192,88775,5,0,0:0:0:0:
256,192,88837,5,0,0:0:0:0:
256,192,88900,5,8,0:0:0:0:
256,192,88962,5,0,0:0:0:0:
256,192,89025,5,8,0:0:0:0:
256,192,89087,5,8,0:0:0:0:
256,192,89150,5,8,0:0:0:0:
256,192,89212,5,8,0:0:0:0:
256,192,89275,5,0,0:0:0:0:
256,192,89337,5,0,0:0:0:0:
256,192,89400,5,8,0:0:0:0:
256,192,89462,5,8,0:0:0:0:
256,192,89525,5,8,0:0:0:0:
256,192,89587,5,8,0:0:0:0:
256,192,89650,5,0,0:0:0:0:
256,192,89712,5,0,0:0:0:0:
256,192,89775,5,12,0:0:0:0:
256,192,90025,5,0,0:0:0:0:
256,192,90150,5,12,0:0:0:0:
256,192,90400,5,8,0:0:0:0:
256,192,90525,5,4,0:0:0:0:
256,192,90650,5,0,0:0:0:0:
256,192,90775,5,0,0:0:0:0:
256,192,90900,5,8,0:0:0:0:
256,192,91025,5,0,0:0:0:0:
256,192,91150,5,8,0:0:0:0:
256,192,91275,5,8,0:0:0:0:
256,192,91400,5,0,0:0:0:0:
256,192,91525,5,0,0:0:0:0:
256,192,91650,5,8,0:0:0:0:
256,192,91775,5,0,0:0:0:0:
256,192,91900,5,8,0:0:0:0:
256,192,92025,5,8,0:0:0:0:
256,192,92150,5,0,0:0:0:0:
256,192,92275,5,0,0:0:0:0:
256,192,92400,5,8,0:0:0:0:
256,192,92525,5,8,0:0:0:0:
256,192,92650,5,0,0:0:0:0:
256,192,92775,5,8,0:0:0:0:
256,192,92900,5,0,0:0:0:0:
256,192,92962,5,0,0:0:0:0:
256,192,93025,5,0,0:0:0:0:
256,192,93150,5,8,0:0:0:0:
256,192,93275,5,0,0:0:0:0:
256,192,93400,5,0,0:0:0:0:
256,192,93525,5,8,0:0:0:0:
256,192,93650,5,8,0:0:0:0:
256,192,93712,5,8,0:0:0:0:
256,192,93775,5,0,0:0:0:0:
256,192,93900,5,8,0:0:0:0:
256,192,94025,5,0,0:0:0:0:
256,192,94150,5,0,0:0:0:0:
256,192,94275,5,8,0:0:0:0:
256,192,94337,5,0,0:0:0:0:
256,192,94400,5,0,0:0:0:0:
256,192,94462,5,0,0:0:0:0:
256,192,94525,5,0,0:0:0:0:
256,192,94587,5,0,0:0:0:0:
256,192,94650,5,8,0:0:0:0:
256,192,94775,5,0,0:0:0:0:
256,192,94900,5,8,0:0:0:0:
256,192,95025,5,8,0:0:0:0:
256,192,95150,5,0,0:0:0:0:
256,192,95275,5,0,0:0:0:0:
256,192,95337,5,0,0:0:0:0:
256,192,95400,5,8,0:0:0:0:
256,192,95525,5,0,0:0:0:0:
256,192,95650,5,0,0:0:0:0:
256,192,95775,5,8,0:0:0:0:
256,192,95837,5,0,0:0:0:0:
256,192,95900,5,8,0:0:0:0:
256,192,95962,5,8,0:0:0:0:
256,192,96025,5,0,0:0:0:0:
256,192,96087,5,0,0:0:0:0:
256,192,96150,5,8,0:0:0:0:
256,192,96212,5,0,0:0:0:0:
256,192,96275,5,0,0:0:0:0:
256,192,96337,5,0,0:0:0:0:
256,192,96400,5,8,0:0:0:0:
256,192,96462,5,0,0:0:0:0:
256,192,96525,5,8,0:0:0:0:
256,192,96650,5,0,0:0:0:0:
256,192,96775,5,0,0:0:0:0:
256,192,96900,5,8,0:0:0:0:
256,192,97025,5,0,0:0:0:0:
256,192,97150,5,0,0:0:0:0:
256,192,97275,5,8,0:0:0:0:
256,192,97400,5,8,0:0:0:0:
256,192,97525,5,0,0:0:0:0:
256,192,97587,5,0,0:0:0:0:
256,192,97650,5,8,0:0:0:0:
256,192,97775,5,0,0:0:0:0:
256,192,97900,5,0,0:0:0:0:
256,192,98025,5,8,0:0:0:0:
256,192,98150,5,8,0:0:0:0:
256,192,98275,5,0,0:0:0:0:
256,192,98337,5,0,0:0:0:0:
256,192,98400,5,8,0:0:0:0:
256,192,98525,5,0,0:0:0:0:
256,192,98650,5,0,0:0:0:0:
256,192,98775,5,8,0:0:0:0:
256,192,98837,5,0,0:0:0:0:
256,192,98900,5,0,0:0:0:0:
256,192,98962,5,0,0:0:0:0:
256,192,99025,5,0,0:0:0:0:
256,192,99087,5,0,0:0:0:0:
256,192,99150,5,8,0:0:0:0:
256,192,99275,5,0,0:0:0:0:
256,192,99400,5,8,0:0:0:0:
256,192,99525,5,4,0:0:0:0:
256,192,99650,5,8,0:0:0:0:
256,192,99712,5,8,0:0:0:0:
256,192,99775,5,0,0:0:0:0:
256,192,99837,5,0,0:0:0:0:
256,192,99900,5,8,0:0:0:0:
256,192,99962,5,0,0:0:0:0:
256,192,100025,5,0,0:0:0:0:
256,192,100087,5,0,0:0:0:0:
256,192,100150,5,8,0:0:0:0:
256,192,100212,5,0,0:0:0:0:
256,192,100275,5,8,0:0:0:0:
256,192,100337,5,8,0:0:0:0:
256,192,100400,5,0,0:0:0:0:
256,192,100462,5,8,0:0:0:0:
256,192,100525,5,0,0:0:0:0:
256,192,100587,5,0,0:0:0:0:
256,192,100650,5,8,0:0:0:0:
256,192,100712,5,8,0:0:0:0:
256,192,100775,5,8,0:0:0:0:
256,192,100837,5,8,0:0:0:0:
256,192,100900,5,0,0:0:0:0:
256,192,100962,5,0,0:0:0:0:
256,192,101025,5,8,0:0:0:0:
256,192,101087,5,8,0:0:0:0:
256,192,101150,5,0,0:0:0:0:
256,192,101212,5,0,0:0:0:0:
256,192,101275,5,0,0:0:0:0:
256,192,101337,5,0,0:0:0:0:
256,192,101400,5,8,0:0:0:0:
256,192,101462,5,0,0:0:0:0:
256,192,101525,5,8,0:0:0:0:
256,192,101587,5,0,0:0:0:0:
256,192,101650,5,8,0:0:0:0:
256,192,101712,5,0,0:0:0:0:
256,192,101775,5,8,0:0:0:0:
256,192,102150,5,0,0:0:0:0:
256,192,102275,5,8,0:0:0:0:
256,192,102400,5,8,0:0:0:0:
256,192,102525,5,0,0:0:0:0:
256,192,102587,5,8,0:0:0:0:
256,192,102650,5,0,0:0:0:0:
256,192,102712,5,0,0:0:0:0:
256,192,102775,5,8,0:0:0:0:
256,192,102837,5,8,0:0:0:0:
256,192,102900,5,8,0:0:0:0:
256,192,102962,5,0,0:0:0:0:
256,192,103025,5,8,0:0:0:0:
256,192,103087,5,0,0:0:0:0:
256,192,103150,5,8,0:0:0:0:
256,192,103212,5,8,0:0:0:0:
256,192,103275,5,0,0:0:0:0:
256,192,103337,5,0,0:0:0:0:
256,192,103400,5,8,0:0:0:0:
256,192,103462,5,0,0:0:0:0:
256,192,103525,5,8,0:0:0:0:
256,192,103587,5,8,0:0:0:0:
256,192,103650,5,0,0:0:0:0:
256,192,103712,5,8,0:0:0:0:
256,192,103775,5,0,0:0:0:0:
256,192,103837,5,0,0:0:0:0:
256,192,103900,5,8,0:0:0:0:
256,192,103962,5,0,0:0:0:0:
256,192,104025,5,8,0:0:0:0:
256,192,104087,5,8,0:0:0:0:
256,192,104150,5,8,0:0:0:0:
256,192,104212,5,0,0:0:0:0:
256,192,104275,5,8,0:0:0:0:
256,192,104337,5,8,0:0:0:0:
256,192,104400,5,0,0:0:0:0:
256,192,104462,5,0,0:0:0:0:
256,192,104525,5,8,0:0:0:0:
256,192,104587,5,0,0:0:0:0:
256,192,104650,5,8,0:0:0:0:
256,192,104712,5,8,0:0:0:0:
256,192,104775,5,0,0:0:0:0:
256,192,104837,5,8,0:0:0:0:
256,192,104900,5,0,0:0:0:0:
256,192,104962,5,0,0:0:0:0:
256,192,105025,5,8,0:0:0:0:
256,192,105087,5,0,0:0:0:0:
256,192,105150,5,8,0:0:0:0:
256,192,105212,5,8,0:0:0:0:
256,192,105275,5,0,0:0:0:0:
256,192,105337,5,0,0:0:0:0:
256,192,105400,5,8,0:0:0:0:
256,192,105462,5,0,0:0:0:0:
256,192,105525,5,8,0:0:0:0:
256,192,105587,5,0,0:0:0:0:
256,192,105650,5,8,0:0:0:0:
256,192,105712,5,0,0:0:0:0:
256,192,105775,5,8,0:0:0:0:
256,192,105837,5,8,0:0:0:0:
256,192,105900,5,0,0:0:0:0:
256,192,105962,5,0,0:0:0:0:
256,192,106025,5,0,0:0:0:0:
256,192,106087,5,0,0:0:0:0:
256,192,106150,5,8,0:0:0:0:
256,192,106212,5,0,0:0:0:0:
256,192,106275,5,8,0:0:0:0:
256,192,106337,5,8,0:0:0:0:
256,192,106400,5,0,0:0:0:0:
256,192,106462,5,0,0:0:0:0:
256,192,106525,5,8,0:0:0:0:
256,192,106587,5,0,0:0:0:0:
256,192,106650,5,8,0:0:0:0:
256,192,106712,5,8,0:0:0:0:
256,192,106775,5,0,0:0:0:0:
256,192,106837,5,0,0:0:0:0:
256,192,106900,5,8,0:0:0:0:
256,192,106962,5,0,0:0:0:0:
256,192,107025,5,8,0:0:0:0:
256,192,107087,5,8,0:0:0:0:
256,192,107150,5,8,0:0:0:0:
256,192,107212,5,8,0:0:0:0:
256,192,107275,5,0,0:0:0:0:
256,192,107337,5,0,0:0:0:0:
256,192,107400,5,8,0:0:0:0:
256,192,107462,5,8,0:0:0:0:
256,192,107525,5,8,0:0:0:0:
256,192,107587,5,8,0:0:0:0:
256,192,107650,5,0,0:0:0:0:
256,192,107712,5,0,0:0:0:0:
256,192,107775,5,12,0:0:0:0:
256,192,108150,5,4,0:0:0:0:
256,192,108525,5,12,0:0:0:0:
256,192,108900,5,8,0:0:0:0:
256,192,109025,5,0,0:0:0:0:
256,192,109150,5,0,0:0:0:0:
256,192,109275,5,8,0:0:0:0:
256,192,109400,5,0,0:0:0:0:
256,192,109525,5,0,0:0:0:0:
256,192,109650,5,8,0:0:0:0:
256,192,109712,5,0,0:0:0:0:
256,192,109775,5,8,0:0:0:0:
256,192,109837,5,8,0:0:0:0:
256,192,109900,5,0,0:0:0:0:
256,192,109962,5,0,0:0:0:0:
256,192,110025,5,0,0:0:0:0:
256,192,110150,5,0,0:0:0:0:
256,192,110212,5,0,0:0:0:0:
256,192,110275,5,0,0:0:0:0:
256,192,110400,5,8,0:0:0:0:
256,192,110525,5,0,0:0:0:0:
256,192,110650,5,8,0:0:0:0:
256,192,110775,5,8,0:0:0:0:
256,192,110900,5,0,0:0:0:0:
256,192,111025,5,0,0:0:0:0:
256,192,111150,5,8,0:0:0:0:
256,192,111212,5,8,0:0:0:0:
256,192,111275,5,0,0:0:0:0:
256,192,111337,5,0,0:0:0:0:
256,192,111400,5,0,0:0:0:0:
256,192,111462,5,0,0:0:0:0:
256,192,111525,5,8,0:0:0:0:
256,192,111587,5,0,0:0:0:0:
256,192,111650,5,8,0:0:0:0:
256,192,111712,5,8,0:0:0:0:
256,192,111775,5,0,0:0:0:0:
256,192,111837,5,0,0:0:0:0:
256,192,111900,5,8,0:0:0:0:
256,192,111962,5,0,0:0:0:0:
256,192,112025,5,8,0:0:0:0:
256,192,112087,5,8,0:0:0:0:
256,192,112150,5,8,0:0:0:0:
256,192,112212,5,0,0:0:0:0:
256,192,112275,5,8,0:0:0:0:
256,192,112337,5,0,0:0:0:0:
256,192,112400,5,8,0:0:0:0:
256,192,112462,5,8,0:0:0:0:
256,192,112525,5,0,0:0:0:0:
256,192,112587,5,0,0:0:0:0:
256,192,112650,5,0,0:0:0:0:
256,192,112712,5,0,0:0:0:0:
256,192,112775,5,8,0:0:0:0:
256,192,112837,5,0,0:0:0:0:
256,192,112900,5,8,0:0:0:0:
256,192,112963,5,8,0:0:0:0:
256,192,113025,5,0,0:0:0:0:
256,192,113087,5,0,0:0:0:0:
256,192,113150,5,0,0:0:0:0:
256,192,113212,5,0,0:0:0:0:
256,192,113275,5,0,0:0:0:0:
256,192,113337,5,0,0:0:0:0:
256,192,113400,5,8,0:0:0:0:
256,192,113462,5,8,0:0:0:0:
256,192,113525,5,8,0:0:0:0:
256,192,113587,5,8,0:0:0:0:
256,192,113650,5,8,0:0:0:0:
256,192,113712,5,8,0:0:0:0:
256,192,113775,5,4,0:0:0:0:
256,192,114150,5,0,0:0:0:0:
256,192,114275,5,0,0:0:0:0:
256,192,114400,5,0,0:0:0:0:
256,192,114525,5,8,0:0:0:0:
256,192,114587,5,8,0:0:0:0:
256,192,114650,5,0,0:0:0:0:
256,192,114712,5,0,0:0:0:0:
256,192,114775,5,0,0:0:0:0:
256,192,114837,5,0,0:0:0:0:
256,192,114900,5,8,0:0:0:0:
256,192,114962,5,0,0:0:0:0:
256,192,115025,5,0,0:0:0:0:
256,192,115087,5,0,0:0:0:0:
256,192,115150,5,8,0:0:0:0:
256,192,115212,5,8,0:0:0:0:
256,192,115275,5,0,0:0:0:0:
256,192,115337,5,0,0:0:0:0:
256,192,115400,5,8,0:0:0:0:
256,192,115462,5,0,0:0:0:0:
256,192,115525,5,0,0:0:0:0:
256,192,115587,5,0,0:0:0:0:
256,192,115650,5,8,0:0:0:0:
256,192,115712,5,8,0:0:0:0:
256,192,115775,5,8,0:0:0:0:
256,192,115837,5,0,0:0:0:0:
256,192,115900,5,8,0:0:0:0:
256,192,115962,5,8,0:0:0:0:
256,192,116025,5,0,0:0:0:0:
256,192,116087,5,8,0:0:0:0:
256,192,116150,5,0,0:0:0:0:
256,192,116212,5,0,0:0:0:0:
256,192,116275,5,8,0:0:0:0:
256,192,116337,5,0,0:0:0:0:
256,192,116400,5,8,0:0:0:0:
256,192,116462,5,8,0:0:0:0:
256,192,116525,5,0,0:0:0:0:
256,192,116587,5,0,0:0:0:0:
256,192,116650,5,8,0:0:0:0:
256,192,116712,5,0,0:0:0:0:
256,192,116775,5,8,0:0:0:0:
256,192,116837,5,8,0:0:0:0:
256,192,116900,5,0,0:0:0:0:
256,192,116962,5,8,0:0:0:0:
256,192,117025,5,0,0:0:0:0:
256,192,117087,5,0,0:0:0:0:
256,192,117150,5,8,0:0:0:0:
256,192,117212,5,8,0:0:0:0:
256,192,117275,5,0,0:0:0:0:
256,192,117337,5,0,0:0:0:0:
256,192,117400,5,8,0:0:0:0:
256,192,117462,5,8,0:0:0:0:
256,192,117525,5,0,0:0:0:0:
256,192,117587,5,8,0:0:0:0:
256,192,117650,5,0,0:0:0:0:
256,192,117712,5,0,0:0:0:0:
256,192,117775,5,8,0:0:0:0:
256,192,117837,5,8,0:0:0:0:
256,192,117900,5,8,0:0:0:0:
256,192,117962,5,8,0:0:0:0:
256,192,118025,5,0,0:0:0:0:
256,192,118087,5,0,0:0:0:0:
256,192,118150,5,8,0:0:0:0:
256,192,118212,5,0,0:0:0:0:
256,192,118275,5,0,0:0:0:0:
256,192,118337,5,0,0:0:0:0:
256,192,118400,5,8,0:0:0:0:
256,192,118462,5,8,0:0:0:0:
256,192,118525,5,0,0:0:0:0:
256,192,118587,5,0,0:0:0:0:
256,192,118650,5,8,0:0:0:0:
256,192,118775,5,0,0:0:0:0:
256,192,118900,5,8,0:0:0:0:
256,192,119025,5,0,0:0:0:0:
256,192,119087,5,8,0:0:0:0:
256,192,119150,5,0,0:0:0:0:
256,192,119212,5,0,0:0:0:0:
256,192,119275,5,8,0:0:0:0:
256,192,119337,5,0,0:0:0:0:
256,192,119400,5,8,0:0:0:0:
256,192,119462,5,8,0:0:0:0:
256,192,119525,5,0,0:0:0:0:
256,192,119587,5,0,0:0:0:0:
256,192,119650,5,8,0:0:0:0:
256,192,119712,5,0,0:0:0:0:
256,192,119775,5,8,0:0:0:0:
256,192,119837,5,8,0:0:0:0:
256,192,119900,5,0,0:0:0:0:
256,192,119962,5,0,0:0:0:0:
256,192,120025,5,8,0:0:0:0:
256,192,120087,5,8,0:0:0:0:
256,192,120150,5,0,0:0:0:0:
256,192,120212,5,8,0:0:0:0:
256,192,120275,5,0,0:0:0:0:
256,192,120337,5,0,0:0:0:0:
256,192,120400,5,8,0:0:0:0:
256,192,120462,5,8,0:0:0:0:
256,192,120525,5,0,0:0:0:0:
256,192,120587,5,0,0:0:0:0:
256,192,120650,5,0,0:0:0:0:
256,192,120712,5,0,0:0:0:0:
256,192,120775,5,8,0:0:0:0:
256,192,120837,5,0,0:0:0:0:
256,192,120900,5,8,0:0:0:0:
256,192,120962,5,8,0:0:0:0:
256,192,121025,5,0,0:0:0:0:
256,192,121087,5,0,0:0:0:0:
256,192,121150,5,8,0:0:0:0:
256,192,121212,5,0,0:0:0:0:
256,192,121275,5,8,0:0:0:0:
256,192,121337,5,8,0:0:0:0:
256,192,121400,5,8,0:0:0:0:
256,192,121462,5,8,0:0:0:0:
256,192,121525,5,0,0:0:0:0:
256,192,121587,5,0,0:0:0:0:
256,192,121650,5,8,0:0:0:0:
256,192,121712,5,8,0:0:0:0:
256,192,121775,5,8,0:0:0:0:
256,192,121837,5,0,0:0:0:0:
256,192,121900,5,8,0:0:0:0:
256,192,121962,5,0,0:0:0:0:
256,192,122025,5,8,0:0:0:0:
256,192,122087,5,8,0:0:0:0:
256,192,122150,5,8,0:0:0:0:
256,192,122212,5,8,0:0:0:0:
256,192,122275,5,0,0:0:0:0:
256,192,122337,5,0,0:0:0:0:
256,192,122400,5,8,0:0:0:0:
256,192,122462,5,8,0:0:0:0:
256,192,122525,5,8,0:0:0:0:
256,192,122587,5,8,0:0:0:0:
256,192,122650,5,0,0:0:0:0:
256,192,122712,5,0,0:0:0:0:
256,192,122775,5,8,0:0:0:0:
256,192,122837,5,0,0:0:0:0:
256,192,122900,5,0,0:0:0:0:
256,192,122962,5,0,0:0:0:0:
256,192,123025,5,0,0:0:0:0:
256,192,123087,5,0,0:0:0:0:
256,192,123150,5,8,0:0:0:0:
256,192,123275,5,8,0:0:0:0:
256,192,123400,5,8,0:0:0:0:
256,192,123525,5,8,0:0:0:0:
256,192,123587,5,8,0:0:0:0:
256,192,123650,5,8,0:0:0:0:
256,192,123712,5,8,0:0:0:0:
256,192,123775,5,0,0:0:0:0:
256,192,123837,5,0,0:0:0:0:
256,192,123900,5,0,0:0:0:0:
256,192,123962,5,0,0:0:0:0:
256,192,124025,5,8,0:0:0:0:
256,192,124087,5,8,0:0:0:0:
256,192,124150,5,0,0:0:0:0:
256,192,124212,5,0,0:0:0:0:
256,192,124275,5,8,0:0:0:0:
256,192,124337,5,0,0:0:0:0:
256,192,124400,5,8,0:0:0:0:
256,192,124462,5,8,0:0:0:0:
256,192,124525,5,0,0:0:0:0:
256,192,124587,5,0,0:0:0:0:
256,192,124650,5,8,0:0:0:0:
256,192,124712,5,8,0:0:0:0:
256,192,124775,5,0,0:0:0:0:
256,192,124837,5,8,0:0:0:0:
256,192,124900,5,0,0:0:0:0:
256,192,124962,5,0,0:0:0:0:
256,192,125025,5,8,0:0:0:0:
256,192,125087,5,8,0:0:0:0:
256,192,125150,5,8,0:0:0:0:
256,192,125212,5,8,0:0:0:0:
256,192,125275,5,8,0:0:0:0:
256,192,125337,5,8,0:0:0:0:
256,192,125400,5,0,0:0:0:0:
256,192,125462,5,8,0:0:0:0:
256,192,125525,5,8,0:0:0:0:
256,192,125587,5,8,0:0:0:0:
256,192,125650,5,0,0:0:0:0:
256,192,125712,5,0,0:0:0:0:
256,192,125775,5,8,0:0:0:0:
256,192,125900,5,0,0:0:0:0:
256,192,126025,5,0,0:0:0:0:
256,192,126087,5,0,0:0:0:0:
256,192,126150,5,8,0:0:0:0:
256,192,126212,5,0,0:0:0:0:
256,192,126275,5,0,0:0:0:0:
256,192,126400,5,8,0:0:0:0:
256,192,126525,5,4,0:0:0:0:
256,192,126650,5,0,0:0:0:0:
256,192,126712,5,0,0:0:0:0:
256,192,126775,5,0,0:0:0:0:
256,192,126900,5,8,0:0:0:0:
256,192,127025,5,0,0:0:0:0:
256,192,127150,5,8,0:0:0:0:
256,192,127275,5,0,0:0:0:0:
256,192,127400,5,8,0:0:0:0:
256,192,127525,5,0,0:0:0:0:
256,192,127650,5,8,0:0:0:0:
256,192,127775,5,0,0:0:0:0:
256,192,127900,5,8,0:0:0:0:
256,192,128025,5,8,0:0:0:0:
256,192,128150,5,0,0:0:0:0:
256,192,128275,5,8,0:0:0:0:
256,192,128400,5,8,0:0:0:0:
256,192,128525,5,0,0:0:0:0:
256,192,128650,5,0,0:0:0:0:
256,192,128775,5,8,0:0:0:0:
256,192,128900,5,8,0:0:0:0:
256,192,129025,5,8,0:0:0:0:
256,192,129150,5,0,0:0:0:0:
256,192,129275,5,0,0:0:0:0:
256,192,129337,5,8,0:0:0:0:
256,192,129400,5,8,0:0:0:0:
256,192,129462,5,8,0:0:0:0:
256,192,129525,5,0,0:0:0:0:
256,192,129650,5,0,0:0:0:0:
256,192,129712,5,0,0:0:0:0:
256,192,129775,5,0,0:0:0:0:
256,192,129900,5,8,0:0:0:0:
256,192,130025,5,0,0:0:0:0:
256,192,130087,5,0,0:0:0:0:
256,192,130150,5,8,0:0:0:0:
256,192,130275,5,0,0:0:0:0:
256,192,130400,5,8,0:0:0:0:
256,192,130525,5,0,0:0:0:0:
256,192,130650,5,8,0:0:0:0:
256,192,130775,5,8,0:0:0:0:
256,192,130900,5,8,0:0:0:0:
256,192,131025,5,0,0:0:0:0:
256,192,131087,5,0,0:0:0:0:
256,192,131150,5,8,0:0:0:0:
256,192,131212,5,0,0:0:0:0:
256,192,131275,5,0,0:0:0:0:
256,192,131337,5,0,0:0:0:0:
256,192,131400,5,8,0:0:0:0:
256,192,131462,5,0,0:0:0:0:
256,192,131525,5,0,0:0:0:0:
256,192,131587,5,0,0:0:0:0:
256,192,131650,5,8,0:0:0:0:
256,192,131712,5,8,0:0:0:0:
256,192,131775,5,0,0:0:0:0:
256,192,131837,5,0,0:0:0:0:
256,192,131900,5,8,0:0:0:0:
256,192,131962,5,8,0:0:0:0:
256,192,132025,5,0,0:0:0:0:
256,192,132087,5,0,0:0:0:0:
256,192,132150,5,8,0:0:0:0:
256,192,132212,5,8,0:0:0:0:
256,192,132275,5,8,0:0:0:0:
256,192,132337,5,0,0:0:0:0:
256,192,132400,5,8,0:0:0:0:
256,192,132462,5,8,0:0:0:0:
256,192,132525,5,4,0:0:0:0:
256,192,132650,5,8,0:0:0:0:
256,192,132775,5,0,0:0:0:0:
256,192,132900,5,8,0:0:0:0:
256,192,133025,5,8,0:0:0:0:
256,192,133150,5,0,0:0:0:0:
256,192,133275,5,8,0:0:0:0:
256,192,133400,5,0,0:0:0:0:
256,192,133525,5,0,0:0:0:0:
256,192,133650,5,8,0:0:0:0:
256,192,133775,5,8,0:0:0:0:
256,192,133900,5,0,0:0:0:0:
256,192,134025,5,8,0:0:0:0:
256,192,134087,5,8,0:0:0:0:
256,192,134150,5,8,0:0:0:0:
256,192,134212,1,8,0:0:0:0:
256,192,134275,5,0,0:0:0:0:
256,192,134337,5,0,0:0:0:0:
256,192,134400,5,8,0:0:0:0:
256,192,134462,5,8,0:0:0:0:
256,192,134525,5,0,0:0:0:0:
256,192,134587,5,0,0:0:0:0:
256,192,134650,5,0,0:0:0:0:
256,192,134712,5,0,0:0:0:0:
256,192,134775,5,8,0:0:0:0:
256,192,134837,5,8,0:0:0:0:
256,192,134900,5,0,0:0:0:0:
256,192,134962,5,0,0:0:0:0:
256,192,135025,5,8,0:0:0:0:
256,192,135087,5,0,0:0:0:0:
256,192,135150,5,8,0:0:0:0:
256,192,135212,5,8,0:0:0:0:
256,192,135275,5,0,0:0:0:0:
256,192,135337,5,0,0:0:0:0:
256,192,135400,5,0,0:0:0:0:
256,192,135525,5,8,0:0:0:0:
256,192,135587,5,8,0:0:0:0:
256,192,135650,5,8,0:0:0:0:
256,192,135712,5,0,0:0:0:0:
256,192,135775,5,8,0:0:0:0:
256,192,135837,5,0,0:0:0:0:
256,192,135900,5,8,0:0:0:0:
256,192,135962,5,0,0:0:0:0:
256,192,136025,5,8,0:0:0:0:
256,192,136087,5,8,0:0:0:0:
256,192,136150,5,0,0:0:0:0:
256,192,136212,5,0,0:0:0:0:
256,192,136275,5,8,0:0:0:0:
256,192,136337,5,8,0:0:0:0:
256,192,136400,5,8,0:0:0:0:
256,192,136462,5,0,0:0:0:0:
256,192,136525,5,8,0:0:0:0:
256,192,136587,5,0,0:0:0:0:
256,192,136650,5,8,0:0:0:0:
256,192,136712,5,8,0:0:0:0:
256,192,136775,5,0,0:0:0:0:
256,192,136837,5,0,0:0:0:0:
256,192,136900,5,8,0:0:0:0:
256,192,136962,5,0,0:0:0:0:
256,192,137025,5,8,0:0:0:0:
256,192,137087,5,8,0:0:0:0:
256,192,137150,5,8,0:0:0:0:
256,192,137212,5,8,0:0:0:0:
256,192,137275,5,0,0:0:0:0:
256,192,137337,5,0,0:0:0:0:
256,192,137400,5,8,0:0:0:0:
256,192,137462,5,0,0:0:0:0:
256,192,137525,5,8,0:0:0:0:
256,192,137587,5,8,0:0:0:0:
256,192,137650,5,0,0:0:0:0:
256,192,137712,5,0,0:0:0:0:
256,192,137775,5,8,0:0:0:0:
256,192,138525,5,8,0:0:0:0:
256,192,138587,5,8,0:0:0:0:
256,192,138650,5,8,0:0:0:0:
256,192,138712,5,8,0:0:0:0:
256,192,138775,5,0,0:0:0:0:
256,192,138837,5,0,0:0:0:0:
256,192,138900,5,8,0:0:0:0:
256,192,138962,5,8,0:0:0:0:
256,192,139025,5,0,0:0:0:0:
256,192,139087,5,0,0:0:0:0:
256,192,139150,5,0,0:0:0:0:
256,192,139212,5,0,0:0:0:0:
256,192,139275,5,8,0:0:0:0:
256,192,139337,5,0,0:0:0:0:
256,192,139400,5,8,0:0:0:0:
256,192,139462,5,0,0:0:0:0:
256,192,139525,5,8,0:0:0:0:
256,192,139587,5,0,0:0:0:0:
256,192,139650,5,8,0:0:0:0:
256,192,139712,5,8,0:0:0:0:
256,192,139775,5,0,0:0:0:0:
256,192,139837,5,8,0:0:0:0:
256,192,139900,5,0,0:0:0:0:
256,192,139962,5,0,0:0:0:0:
256,192,140025,5,8,0:0:0:0:
256,192,140087,5,8,0:0:0:0:
256,192,140150,5,8,0:0:0:0:
256,192,140212,5,0,0:0:0:0:
256,192,140275,5,8,0:0:0:0:
256,192,140337,5,0,0:0:0:0:
256,192,140400,5,8,0:0:0:0:
256,192,140462,5,8,0:0:0:0:
256,192,140525,5,0,0:0:0:0:
256,192,140587,5,0,0:0:0:0:
256,192,140650,5,8,0:0:0:0:
256,192,140712,5,0,0:0:0:0:
256,192,140775,5,8,0:0:0:0:
256,192,140837,5,8,0:0:0:0:
256,192,140900,5,0,0:0:0:0:
256,192,140962,5,8,0:0:0:0:
256,192,141025,5,8,0:0:0:0:
256,192,141087,5,8,0:0:0:0:
256,192,141150,5,0,0:0:0:0:
256,192,141212,5,0,0:0:0:0:
256,192,141275,5,8,0:0:0:0:
256,192,141337,5,0,0:0:0:0:
256,192,141400,5,8,0:0:0:0:
256,192,141462,5,8,0:0:0:0:
256,192,141525,5,0,0:0:0:0:
256,192,141587,5,0,0:0:0:0:
256,192,141650,5,8,0:0:0:0:
256,192,141712,5,0,0:0:0:0:
256,192,141775,5,0,0:0:0:0:
256,192,141837,5,0,0:0:0:0:
256,192,141900,5,8,0:0:0:0:
256,192,141962,5,0,0:0:0:0:
256,192,142025,5,0,0:0:0:0:
256,192,142087,5,0,0:0:0:0:
256,192,142150,5,0,0:0:0:0:
256,192,142212,5,0,0:0:0:0:
256,192,142275,5,8,0:0:0:0:
256,192,142337,5,8,0:0:0:0:
256,192,142400,5,0,0:0:0:0:
256,192,142462,5,0,0:0:0:0:
256,192,142525,5,8,0:0:0:0:
256,192,142587,5,0,0:0:0:0:
256,192,142650,5,0,0:0:0:0:
256,192,142712,5,0,0:0:0:0:
256,192,142775,5,8,0:0:0:0:
256,192,142837,5,8,0:0:0:0:
256,192,142900,5,0,0:0:0:0:
256,192,142962,5,0,0:0:0:0:
256,192,143025,5,8,0:0:0:0:
256,192,143087,5,0,0:0:0:0:
256,192,143150,5,8,0:0:0:0:
256,192,143212,5,8,0:0:0:0:
256,192,143275,5,0,0:0:0:0:
256,192,143337,5,0,0:0:0:0:
256,192,143400,5,8,0:0:0:0:
256,192,143462,5,8,0:0:0:0:
256,192,143525,5,0,0:0:0:0:
256,192,143587,5,8,0:0:0:0:
256,192,143650,5,0,0:0:0:0:
256,192,143712,5,0,0:0:0:0:
256,192,143775,5,8,0:0:0:0:
256,192,143900,5,4,0:0:0:0:
256,192,144150,5,4,0:0:0:0:
256,192,144525,5,0,0:0:0:0:
256,192,144650,5,0,0:0:0:0:
256,192,144775,5,0,0:0:0:0:
256,192,144900,5,8,0:0:0:0:
256,192,145025,5,0,0:0:0:0:
256,192,145150,5,8,0:0:0:0:
256,192,145275,5,8,0:0:0:0:
256,192,145400,5,0,0:0:0:0:
256,192,145525,5,8,0:0:0:0:
256,192,145650,5,0,0:0:0:0:
256,192,145775,5,8,0:0:0:0:
256,192,145900,5,8,0:0:0:0:
256,192,146025,5,0,0:0:0:0:
256,192,146150,5,0,0:0:0:0:
256,192,146275,5,0,0:0:0:0:
256,192,146400,5,0,0:0:0:0:
256,192,146525,5,8,0:0:0:0:
256,192,146587,5,0,0:0:0:0:
256,192,146650,5,0,0:0:0:0:
256,192,146712,5,0,0:0:0:0:
256,192,146775,5,8,0:0:0:0:
256,192,146837,5,8,0:0:0:0:
256,192,146900,5,0,0:0:0:0:
256,192,146962,5,0,0:0:0:0:
256,192,147025,5,0,0:0:0:0:
256,192,147087,5,0,0:0:0:0:
256,192,147150,5,8,0:0:0:0:
256,192,147275,5,8,0:0:0:0:
256,192,147400,5,0,0:0:0:0:
256,192,147525,5,8,0:0:0:0:
256,192,147587,5,0,0:0:0:0:
256,192,147650,5,8,0:0:0:0:
256,192,147712,5,0,0:0:0:0:
256,192,147775,5,8,0:0:0:0:
256,192,147837,5,0,0:0:0:0:
256,192,147900,5,8,0:0:0:0:
256,192,147962,5,8,0:0:0:0:
256,192,148025,5,8,0:0:0:0:
256,192,148087,5,8,0:0:0:0:
256,192,148150,5,0,0:0:0:0:
256,192,148212,5,0,0:0:0:0:
256,192,148275,5,8,0:0:0:0:
256,192,148337,5,0,0:0:0:0:
256,192,148400,5,8,0:0:0:0:
256,192,148462,5,0,0:0:0:0:
256,192,148525,5,8,0:0:0:0:
256,192,148587,5,0,0:0:0:0:
256,192,148650,5,8,0:0:0:0:
256,192,148712,5,8,0:0:0:0:
256,192,148775,5,8,0:0:0:0:
256,192,148837,5,0,0:0:0:0:
256,192,148900,5,8,0:0:0:0:
256,192,148962,5,0,0:0:0:0:
256,192,149025,5,8,0:0:0:0:
256,192,149087,5,0,0:0:0:0:
256,192,149150,5,8,0:0:0:0:
256,192,149212,5,0,0:0:0:0:
256,192,149275,5,8,0:0:0:0:
256,192,149337,5,0,0:0:0:0:
256,192,149400,5,8,0:0:0:0:
256,192,149462,5,8,0:0:0:0:
256,192,149525,5,8,0:0:0:0:
256,192,149587,5,8,0:0:0:0:
256,192,149650,5,0,0:0:0:0:
256,192,149712,5,0,0:0:0:0:
256,192,149775,5,8,0:0:0:0:
256,192,149837,5,0,0:0:0:0:
256,192,149900,5,8,0:0:0:0:
256,192,149962,5,0,0:0:0:0:
256,192,150025,5,8,0:0:0:0:
256,192,150087,5,0,0:0:0:0:
256,192,150150,5,8,0:0:0:0:
256,192,150212,5,8,0:0:0:0:
256,192,150275,5,8,0:0:0:0:
256,192,150337,5,8,0:0:0:0:
256,192,150400,5,0,0:0:0:0:
256,192,150462,5,0,0:0:0:0:
256,192,150525,5,8,0:0:0:0:
256,192,150587,5,8,0:0:0:0:
256,192,150650,5,8,0:0:0:0:
256,192,150712,5,8,0:0:0:0:
256,192,150775,5,0,0:0:0:0:
256,192,150837,5,0,0:0:0:0:
256,192,150900,5,8,0:0:0:0:
256,192,150962,5,8,0:0:0:0:
256,192,151025,5,8,0:0:0:0:
256,192,151087,5,8,0:0:0:0:
256,192,151150,5,0,0:0:0:0:
256,192,151212,5,0,0:0:0:0:
256,192,151275,5,8,0:0:0:0:
256,192,151337,5,8,0:0:0:0:
256,192,151400,5,8,0:0:0:0:
256,192,151462,5,0,0:0:0:0:
256,192,151525,5,8,0:0:0:0:
256,192,151587,5,8,0:0:0:0:
256,192,151650,5,8,0:0:0:0:
256,192,151712,5,8,0:0:0:0:
256,192,151775,5,0,0:0:0:0:
256,192,151837,5,0,0:0:0:0:
256,192,151900,5,0,0:0:0:0:
256,192,151962,5,0,0:0:0:0:
256,192,152025,5,8,0:0:0:0:
256,192,152087,5,0,0:0:0:0:
256,192,152150,5,0,0:0:0:0:
256,192,152212,5,0,0:0:0:0:
256,192,152275,5,8,0:0:0:0:
256,192,152337,5,0,0:0:0:0:
256,192,152400,5,8,0:0:0:0:
256,192,152462,5,8,0:0:0:0:
256,192,152525,5,8,0:0:0:0:
256,192,152587,5,8,0:0:0:0:
256,192,152650,5,0,0:0:0:0:
256,192,152712,5,0,0:0:0:0:
256,192,152775,5,8,0:0:0:0:
256,192,152837,5,0,0:0:0:0:
256,192,152900,5,8,0:0:0:0:
256,192,152962,5,0,0:0:0:0:
256,192,153025,5,8,0:0:0:0:
256,192,153087,5,0,0:0:0:0:
256,192,153150,5,8,0:0:0:0:
256,192,153212,5,0,0:0:0:0:
256,192,153275,5,8,0:0:0:0:
256,192,153337,5,8,0:0:0:0:
256,192,153400,5,0,0:0:0:0:
256,192,153462,5,0,0:0:0:0:
256,192,153525,5,8,0:0:0:0:
256,192,153587,5,0,0:0:0:0:
256,192,153650,5,8,0:0:0:0:
256,192,153712,5,8,0:0:0:0:
256,192,153775,5,0,0:0:0:0:
256,192,153837,5,0,0:0:0:0:
256,192,153900,5,8,0:0:0:0:
256,192,153962,5,8,0:0:0:0:
256,192,154025,5,0,0:0:0:0:
256,192,154087,5,8,0:0:0:0:
256,192,154150,5,0,0:0:0:0:
256,192,154212,5,0,0:0:0:0:
256,192,154275,5,8,0:0:0:0:
256,192,154337,5,8,0:0:0:0:
256,192,154400,5,8,0:0:0:0:
256,192,154462,5,8,0:0:0:0:
256,192,154525,5,0,0:0:0:0:
256,192,154587,5,0,0:0:0:0:
256,192,154650,5,8,0:0:0:0:
256,192,154712,5,8,0:0:0:0:
256,192,154775,5,8,0:0:0:0:
256,192,154837,5,8,0:0:0:0:
256,192,154900,5,0,0:0:0:0:
256,192,154962,5,0,0:0:0:0:
256,192,155025,5,8,0:0:0:0:
256,192,155087,5,0,0:0:0:0:
256,192,155150,5,8,0:0:0:0:
256,192,155212,5,0,0:0:0:0:
256,192,155275,5,8,0:0:0:0:
256,192,155337,5,0,0:0:0:0:
256,192,155400,5,8,0:0:0:0:
256,192,155462,5,0,0:0:0:0:
256,192,155525,5,8,0:0:0:0:
256,192,155587,5,8,0:0:0:0:
256,192,155650,5,0,0:0:0:0:
256,192,155712,5,0,0:0:0:0:
256,192,155775,5,8,0:0:0:0:
256,192,155900,5,4,0:0:0:0:
256,192,156150,5,4,0:0:0:0:
256,192,156525,5,8,0:0:0:0:
256,192,156650,5,0,0:0:0:0:
256,192,156775,5,0,0:0:0:0:
256,192,156900,5,8,0:0:0:0:
256,192,157025,5,0,0:0:0:0:
256,192,157150,5,0,0:0:0:0:
256,192,157275,5,8,0:0:0:0:
256,192,157400,5,0,0:0:0:0:
256,192,157525,5,8,0:0:0:0:
256,192,157650,5,0,0:0:0:0:
256,192,157775,5,8,0:0:0:0:
256,192,157900,5,8,0:0:0:0:
256,192,158025,5,0,0:0:0:0:
256,192,158150,5,0,0:0:0:0:
256,192,158275,5,0,0:0:0:0:
256,192,158400,5,0,0:0:0:0:
256,192,158525,5,8,0:0:0:0:
256,192,158587,5,0,0:0:0:0:
256,192,158650,5,0,0:0:0:0:
256,192,158712,5,0,0:0:0:0:
256,192,158775,5,8,0:0:0:0:
256,192,158837,5,8,0:0:0:0:
256,192,158900,5,0,0:0:0:0:
256,192,158962,5,0,0:0:0:0:
256,192,159025,5,0,0:0:0:0:
256,192,159087,5,0,0:0:0:0:
256,192,159150,5,8,0:0:0:0:
256,192,159275,5,0,0:0:0:0:
256,192,159400,5,8,0:0:0:0:
256,192,159525,5,8,0:0:0:0:
256,192,159587,5,0,0:0:0:0:
256,192,159650,5,8,0:0:0:0:
256,192,159712,5,0,0:0:0:0:
256,192,159775,5,8,0:0:0:0:
256,192,159837,5,0,0:0:0:0:
256,192,159900,5,8,0:0:0:0:
256,192,159962,5,8,0:0:0:0:
256,192,160025,5,8,0:0:0:0:
256,192,160087,5,8,0:0:0:0:
256,192,160150,5,0,0:0:0:0:
256,192,160212,5,0,0:0:0:0:
256,192,160275,5,8,0:0:0:0:
256,192,160337,5,0,0:0:0:0:
256,192,160400,5,8,0:0:0:0:
256,192,160462,5,0,0:0:0:0:
256,192,160525,5,8,0:0:0:0:
256,192,160587,5,0,0:0:0:0:
256,192,160650,5,8,0:0:0:0:
256,192,160712,5,8,0:0:0:0:
256,192,160775,5,8,0:0:0:0:
256,192,160837,5,0,0:0:0:0:
256,192,160900,5,8,0:0:0:0:
256,192,160962,5,0,0:0:0:0:
256,192,161025,5,8,0:0:0:0:
256,192,161087,5,0,0:0:0:0:
256,192,161150,5,8,0:0:0:0:
256,192,161212,5,8,0:0:0:0:
256,192,161275,5,0,0:0:0:0:
256,192,161337,5,0,0:0:0:0:
256,192,161400,5,8,0:0:0:0:
256,192,161462,5,8,0:0:0:0:
256,192,161525,5,0,0:0:0:0:
256,192,161587,5,0,0:0:0:0:
256,192,161650,5,0,0:0:0:0:
256,192,161712,5,0,0:0:0:0:
256,192,161775,5,8,0:0:0:0:
256,192,162150,5,0,0:0:0:0:
256,192,162275,5,0,0:0:0:0:
256,192,162400,5,0,0:0:0:0:
256,192,162525,5,12,0:0:0:0:
256,192,162650,5,8,0:0:0:0:
256,192,162775,5,8,0:0:0:0:
256,192,162900,5,0,0:0:0:0:
256,192,163025,5,0,0:0:0:0:
256,192,163150,5,8,0:0:0:0:
256,192,163275,5,8,0:0:0:0:
256,192,163400,5,0,0:0:0:0:
256,192,163525,5,8,0:0:0:0:
256,192,163650,5,0,0:0:0:0:
256,192,163775,5,8,0:0:0:0:
256,192,163900,5,0,0:0:0:0:
256,192,164025,5,8,0:0:0:0:
256,192,164150,5,8,0:0:0:0:
256,192,164275,5,8,0:0:0:0:
256,192,164400,5,8,0:0:0:0:
256,192,164525,5,0,0:0:0:0:
256,192,164650,5,0,0:0:0:0:
256,192,164775,5,8,0:0:0:0:
256,192,164837,5,0,0:0:0:0:
256,192,164900,5,8,0:0:0:0:
256,192,164962,5,8,0:0:0:0:
256,192,165025,5,0,0:0:0:0:
256,192,165087,5,0,0:0:0:0:
256,192,165150,5,8,0:0:0:0:
256,192,165212,5,0,0:0:0:0:
256,192,165275,5,8,0:0:0:0:
256,192,165337,5,8,0:0:0:0:
256,192,165400,5,0,0:0:0:0:
256,192,165462,5,0,0:0:0:0:
256,192,165525,5,8,0:0:0:0:
256,192,165650,5,8,0:0:0:0:
256,192,165775,5,0,0:0:0:0:
256,192,165900,5,8,0:0:0:0:
256,192,166025,5,8,0:0:0:0:
256,192,166150,5,8,0:0:0:0:
256,192,166275,5,0,0:0:0:0:
256,192,166400,5,8,0:0:0:0:
256,192,166525,5,0,0:0:0:0:
256,192,166650,5,0,0:0:0:0:
256,192,166775,5,8,0:0:0:0:
256,192,166900,5,8,0:0:0:0:
256,192,167025,5,0,0:0:0:0:
256,192,167150,5,8,0:0:0:0:
256,192,167275,5,0,0:0:0:0:
256,192,167400,5,0,0:0:0:0:
256,192,167525,5,8,0:0:0:0:
256,192,167650,5,8,0:0:0:0:
256,192,167775,5,0,0:0:0:0:
256,192,167837,5,0,0:0:0:0:
256,192,167900,5,8,0:0:0:0:
256,192,167962,5,0,0:0:0:0:
256,192,168025,5,8,0:0:0:0:
256,192,168087,5,8,0:0:0:0:
256,192,168150,5,0,0:0:0:0:
256,192,168212,5,0,0:0:0:0:
256,192,168275,5,8,0:0:0:0:
256,192,168400,5,8,0:0:0:0:
256,192,168525,5,12,0:0:0:0:
256,192,168650,5,8,0:0:0:0:
256,192,168775,5,8,0:0:0:0:
256,192,168900,5,0,0:0:0:0:
256,192,169025,5,0,0:0:0:0:
256,192,169150,5,8,0:0:0:0:
256,192,169275,5,0,0:0:0:0:
256,192,169400,5,0,0:0:0:0:
256,192,169525,5,8,0:0:0:0:
256,192,169650,5,0,0:0:0:0:
256,192,169775,5,8,0:0:0:0:
256,192,169900,5,0,0:0:0:0:
256,192,170025,5,12,0:0:0:0:
256,192,170150,5,8,0:0:0:0:
256,192,170275,5,8,0:0:0:0:
256,192,170400,5,4,0:0:0:0:
256,192,170525,5,4,0:0:0:0:
256,192,170650,5,8,0:0:0:0:
256,192,170775,5,8,0:0:0:0:
256,192,170900,5,8,0:0:0:0:
256,192,171025,5,0,0:0:0:0:
256,192,171087,5,0,0:0:0:0:
256,192,171150,5,8,0:0:0:0:
256,192,171212,5,0,0:0:0:0:
256,192,171275,5,8,0:0:0:0:
256,192,171400,5,8,0:0:0:0:
256,192,171525,5,0,0:0:0:0:
256,192,171650,5,0,0:0:0:0:
256,192,171712,5,0,0:0:0:0:
256,192,171775,5,0,0:0:0:0:
256,192,171837,5,0,0:0:0:0:
256,192,171900,5,8,0:0:0:0:
256,192,172025,5,0,0:0:0:0:
256,192,172087,5,8,0:0:0:0:
256,192,172150,5,0,0:0:0:0:
256,192,172212,5,0,0:0:0:0:
256,192,172275,5,8,0:0:0:0:
256,192,172337,5,8,0:0:0:0:
256,192,172400,5,8,0:0:0:0:
256,192,172462,5,8,0:0:0:0:
256,192,172525,5,0,0:0:0:0:
256,192,172650,5,0,0:0:0:0:
256,192,172775,5,8,0:0:0:0:
256,192,172837,5,0,0:0:0:0:
256,192,172900,5,0,0:0:0:0:
256,192,172962,5,0,0:0:0:0:
256,192,173025,5,8,0:0:0:0:
256,192,173087,5,0,0:0:0:0:
256,192,173150,5,0,0:0:0:0:
256,192,173212,5,0,0:0:0:0:
256,192,173275,5,8,0:0:0:0:
256,192,173358,5,8,0:0:0:0:
256,192,173441,5,8,0:0:0:0:
256,192,173525,5,0,0:0:0:0:
256,192,173587,5,0,0:0:0:0:
256,192,173650,5,0,0:0:0:0:
256,192,173712,5,0,0:0:0:0:
256,192,173775,5,8,0:0:0:0:
256,192,173837,5,8,0:0:0:0:
256,192,173900,5,8,0:0:0:0:
256,192,173962,5,8,0:0:0:0:
256,192,174025,5,0,0:0:0:0:
256,192,174108,5,8,0:0:0:0:
256,192,174191,5,8,0:0:0:0:
256,192,174275,5,0,0:0:0:0:
256,192,174400,5,8,0:0:0:0:
256,192,174525,5,4,0:0:0:0:
256,192,174650,5,8,0:0:0:0:
256,192,174775,5,8,0:0:0:0:
256,192,174900,5,0,0:0:0:0:
256,192,175025,5,8,0:0:0:0:
256,192,175150,5,8,0:0:0:0:
256,192,175275,5,0,0:0:0:0:
256,192,175400,5,0,0:0:0:0:
256,192,175525,5,8,0:0:0:0:
256,192,175650,5,0,0:0:0:0:
256,192,175775,5,0,0:0:0:0:
256,192,175900,5,8,0:0:0:0:
256,192,176025,5,0,0:0:0:0:
256,192,176150,5,0,0:0:0:0:
256,192,176275,5,8,0:0:0:0:
256,192,176400,5,0,0:0:0:0:
256,192,176525,5,8,0:0:0:0:
256,192,176650,5,8,0:0:0:0:
256,192,176775,5,12,0:0:0:0:
256,192,176900,5,0,0:0:0:0:
256,192,177025,5,0,0:0:0:0:
256,192,177150,5,12,0:0:0:0:
256,192,177275,5,0,0:0:0:0:
256,192,177400,5,0,0:0:0:0:
256,192,177525,5,0,0:0:0:0:
256,192,177587,5,0,0:0:0:0:
256,192,177650,5,8,0:0:0:0:
256,192,177712,5,0,0:0:0:0:
256,192,177775,5,8,0:0:0:0:
256,192,177837,5,8,0:0:0:0:
256,192,177900,5,0,0:0:0:0:
256,192,177962,5,0,0:0:0:0:
256,192,178025,5,8,0:0:0:0:
256,192,178087,5,0,0:0:0:0:
256,192,178150,5,8,0:0:0:0:
256,192,178212,5,0,0:0:0:0:
256,192,178275,5,8,0:0:0:0:
256,192,178337,5,8,0:0:0:0:
256,192,178400,5,0,0:0:0:0:
256,192,178462,5,8,0:0:0:0:
256,192,178525,5,0,0:0:0:0:
256,192,178587,5,0,0:0:0:0:
256,192,178650,5,8,0:0:0:0:
256,192,178712,5,0,0:0:0:0:
256,192,178775,5,0,0:0:0:0:
256,192,178837,5,0,0:0:0:0:
256,192,178900,5,8,0:0:0:0:
256,192,178962,5,8,0:0:0:0:
256,192,179025,5,0,0:0:0:0:
256,192,179087,5,8,0:0:0:0:
256,192,179150,5,0,0:0:0:0:
256,192,179212,5,0,0:0:0:0:
256,192,179275,5,8,0:0:0:0:
256,192,179337,5,8,0:0:0:0:
256,192,179400,5,0,0:0:0:0:
256,192,179462,5,0,0:0:0:0:
256,192,179525,5,8,0:0:0:0:
256,192,179587,5,0,0:0:0:0:
256,192,179650,5,0,0:0:0:0:
256,192,179712,5,0,0:0:0:0:
256,192,179775,5,8,0:0:0:0:
256,192,179837,5,0,0:0:0:0:
256,192,179900,5,8,0:0:0:0:
256,192,179962,5,8,0:0:0:0:
256,192,180025,5,0,0:0:0:0:
256,192,180087,5,0,0:0:0:0:
256,192,180150,5,8,0:0:0:0:
256,192,180275,5,8,0:0:0:0:
256,192,180400,5,8,0:0:0:0:
256,192,180525,5,4,0:0:0:0:
256,192,180650,5,8,0:0:0:0:
256,192,180775,5,8,0:0:0:0:
256,192,180900,5,0,0:0:0:0:
256,192,181025,5,8,0:0:0:0:
256,192,181150,5,8,0:0:0:0:
256,192,181275,5,0,0:0:0:0:
256,192,181400,5,0,0:0:0:0:
256,192,181525,5,8,0:0:0:0:
256,192,181650,5,0,0:0:0:0:
256,192,181775,5,8,0:0:0:0:
256,192,181900,5,8,0:0:0:0:
256,192,182025,5,8,0:0:0:0:
256,192,182150,5,8,0:0:0:0:
256,192,182275,5,0,0:0:0:0:
256,192,182400,5,8,0:0:0:0:
256,192,182525,5,0,0:0:0:0:
256,192,182650,5,0,0:0:0:0:
256,192,182775,5,12,0:0:0:0:
256,192,182900,5,0,0:0:0:0:
256,192,183025,5,0,0:0:0:0:
256,192,183150,5,12,0:0:0:0:
256,192,183275,5,0,0:0:0:0:
256,192,183400,5,8,0:0:0:0:
256,192,183525,5,0,0:0:0:0:
256,192,183587,5,0,0:0:0:0:
256,192,183650,5,8,0:0:0:0:
256,192,183712,5,0,0:0:0:0:
256,192,183775,5,8,0:0:0:0:
256,192,183837,5,8,0:0:0:0:
256,192,183900,5,0,0:0:0:0:
256,192,183962,5,0,0:0:0:0:
256,192,184025,5,8,0:0:0:0:
256,192,184087,5,0,0:0:0:0:
256,192,184150,5,8,0:0:0:0:
256,192,184212,5,8,0:0:0:0:
256,192,184275,5,0,0:0:0:0:
256,192,184337,5,0,0:0:0:0:
256,192,184400,5,8,0:0:0:0:
256,192,184462,5,8,0:0:0:0:
256,192,184525,5,0,0:0:0:0:
256,192,184587,5,8,0:0:0:0:
256,192,184650,5,0,0:0:0:0:
256,192,184712,5,0,0:0:0:0:
256,192,184775,5,8,0:0:0:0:
256,192,184837,5,8,0:0:0:0:
256,192,184900,5,0,0:0:0:0:
256,192,184962,5,0,0:0:0:0:
256,192,185025,5,8,0:0:0:0:
256,192,185087,5,8,0:0:0:0:
256,192,185150,5,0,0:0:0:0:
256,192,185212,5,8,0:0:0:0:
256,192,185275,5,0,0:0:0:0:
256,192,185337,5,0,0:0:0:0:
256,192,185400,5,8,0:0:0:0:
256,192,185462,5,8,0:0:0:0:
256,192,185525,5,0,0:0:0:0:
256,192,185587,5,8,0:0:0:0:
256,192,185650,5,0,0:0:0:0:
256,192,185712,5,0,0:0:0:0:
256,192,185775,5,8,0:0:0:0:
256,192,185837,5,0,0:0:0:0:
256,192,185900,5,0,0:0:0:0:
256,192,185962,5,0,0:0:0:0:
256,192,186025,5,8,0:0:0:0:
256,192,186150,5,8,0:0:0:0:
256,192,186275,5,0,0:0:0:0:
256,192,186400,5,0,0:0:0:0:
256,192,186525,5,12,0:0:0:0:
256,192,186650,5,0,0:0:0:0:
256,192,186775,5,8,0:0:0:0:
256,192,186900,5,8,0:0:0:0:
256,192,187025,5,8,0:0:0:0:
256,192,187150,5,0,0:0:0:0:
256,192,187275,5,12,0:0:0:0:
256,192,187400,5,8,0:0:0:0:
256,192,187525,5,0,0:0:0:0:
256,192,187650,5,0,0:0:0:0:
256,192,187775,5,8,0:0:0:0:
256,192,187900,5,0,0:0:0:0:
256,192,188025,5,12,0:0:0:0:
256,192,188275,5,0,0:0:0:0:
256,192,188400,5,0,0:0:0:0:
256,192,188525,5,8,0:0:0:0:
256,192,188650,5,0,0:0:0:0:
256,192,188775,5,4,0:0:0:0:
256,192,188900,5,8,0:0:0:0:
256,192,189025,5,8,0:0:0:0:
256,192,189150,5,12,0:0:0:0:
256,192,189275,5,0,0:0:0:0:
256,192,189400,5,0,0:0:0:0:
256,192,189525,5,8,0:0:0:0:
256,192,189587,5,0,0:0:0:0:
256,192,189650,5,0,0:0:0:0:
256,192,189712,5,0,0:0:0:0:
256,192,189775,5,8,0:0:0:0:
256,192,189837,5,0,0:0:0:0:
256,192,189900,5,8,0:0:0:0:
256,192,189962,5,8,0:0:0:0:
256,192,190025,5,8,0:0:0:0:
256,192,190087,5,0,0:0:0:0:
256,192,190150,5,8,0:0:0:0:
256,192,190212,5,8,0:0:0:0:
256,192,190275,5,0,0:0:0:0:
256,192,190400,5,0,0:0:0:0:
256,192,190525,5,8,0:0:0:0:
256,192,190650,5,8,0:0:0:0:
256,192,190775,5,8,0:0:0:0:
256,192,190900,5,0,0:0:0:0:
256,192,191025,5,8,0:0:0:0:
256,192,191108,5,8,0:0:0:0:
256,192,191191,5,8,0:0:0:0:
256,192,191275,5,0,0:0:0:0:
256,192,191358,5,0,0:0:0:0:
256,192,191441,5,0,0:0:0:0:
256,192,191525,5,8,0:0:0:0:
256,192,191608,5,0,0:0:0:0:
256,192,191691,5,0,0:0:0:0:
256,192,191775,5,8,0:0:0:0:
256,192,191858,5,8,0:0:0:0:
256,192,191941,5,8,0:0:0:0:
256,192,192025,5,0,0:0:0:0:
256,192,192108,5,0,0:0:0:0:
256,192,192191,5,8,0:0:0:0:
256,192,192275,5,8,0:0:0:0:
256,192,192358,5,8,0:0:0:0:
256,192,192441,5,8,0:0:0:0:
256,192,192525,5,0,0:0:0:0:
256,192,192650,1,8,0:0:0:0:
256,192,192775,5,0,0:0:0:0:
256,192,192900,5,0,0:0:0:0:
256,192,193025,5,8,0:0:0:0:
256,192,193150,5,0,0:0:0:0:
256,192,193275,5,12,0:0:0:0:
256,192,193400,5,8,0:0:0:0:
256,192,193525,5,0,0:0:0:0:
256,192,193650,5,0,0:0:0:0:
256,192,193775,5,8,0:0:0:0:
256,192,193900,5,8,0:0:0:0:
256,192,194025,5,12,0:0:0:0:
256,192,194150,5,0,0:0:0:0:
256,192,194275,5,8,0:0:0:0:
256,192,194400,5,8,0:0:0:0:
256,192,194525,5,0,0:0:0:0:
256,192,194650,5,0,0:0:0:0:
256,192,194775,5,12,0:0:0:0:
256,192,194900,5,0,0:0:0:0:
256,192,195025,5,8,0:0:0:0:
256,192,195150,5,12,0:0:0:0:
256,192,195275,5,0,0:0:0:0:
256,192,195400,5,0,0:0:0:0:
256,192,195525,5,8,0:0:0:0:
256,192,195587,5,8,0:0:0:0:
256,192,195650,5,0,0:0:0:0:
256,192,195712,5,8,0:0:0:0:
256,192,195775,5,0,0:0:0:0:
256,192,195837,5,0,0:0:0:0:
256,192,195900,5,8,0:0:0:0:
256,192,195962,5,0,0:0:0:0:
256,192,196025,5,8,0:0:0:0:
256,192,196087,5,8,0:0:0:0:
256,192,196150,5,0,0:0:0:0:
256,192,196212,5,0,0:0:0:0:
256,192,196275,5,8,0:0:0:0:
256,192,196400,5,0,0:0:0:0:
256,192,196525,5,0,0:0:0:0:
256,192,196650,5,8,0:0:0:0:
256,192,196775,5,0,0:0:0:0:
256,192,196900,5,0,0:0:0:0:
256,192,197025,5,8,0:0:0:0:
256,192,197087,5,8,0:0:0:0:
256,192,197150,5,0,0:0:0:0:
256,192,197212,5,8,0:0:0:0:
256,192,197275,5,0,0:0:0:0:
256,192,197337,5,0,0:0:0:0:
256,192,197400,5,8,0:0:0:0:
256,192,197462,5,8,0:0:0:0:
256,192,197525,5,0,0:0:0:0:
256,192,197587,5,8,0:0:0:0:
256,192,197650,5,0,0:0:0:0:
256,192,197712,5,0,0:0:0:0:
256,192,197775,5,8,0:0:0:0:
256,192,198025,5,0,0:0:0:0:
256,192,198150,5,0,0:0:0:0:
256,192,198275,5,8,0:0:0:0:
256,192,198525,5,0,0:0:0:0:
256,192,198608,5,8,0:0:0:0:
256,192,198691,5,8,0:0:0:0:
256,192,198775,5,8,0:0:0:0:
256,192,198858,5,0,0:0:0:0:
256,192,198941,5,0,0:0:0:0:
256,192,199025,5,8,0:0:0:0:
256,192,199108,5,8,0:0:0:0:
256,192,199191,5,0,0:0:0:0:
256,192,199275,5,8,0:0:0:0:
256,192,199358,5,8,0:0:0:0:
256,192,199441,5,8,0:0:0:0:
256,192,199525,5,0,0:0:0:0:
256,192,199608,5,8,0:0:0:0:
256,192,199691,5,8,0:0:0:0:
256,192,199775,5,0,0:0:0:0:
256,192,199900,5,0,0:0:0:0:
256,192,200025,5,8,0:0:0:0:
256,192,200150,5,0,0:0:0:0:
256,192,200275,5,8,0:0:0:0:
256,192,200400,5,8,0:0:0:0:
256,192,200525,5,8,0:0:0:0:
256,192,200650,5,0,0:0:0:0:
256,192,200775,5,8,0:0:0:0:
256,192,200900,5,0,0:0:0:0:
256,192,201025,5,0,0:0:0:0:
256,192,201150,5,12,0:0:0:0:
256,192,201275,5,12,0:0:0:0:
256,192,201400,5,0,0:0:0:0:
256,192,201525,5,8,0:0:0:0:
256,192,201587,5,8,0:0:0:0:
256,192,201650,5,0,0:0:0:0:
256,192,201712,5,8,0:0:0:0:
256,192,201775,5,0,0:0:0:0:
256,192,201837,5,0,0:0:0:0:
256,192,201900,5,8,0:0:0:0:
256,192,201962,5,0,0:0:0:0:
256,192,202025,5,8,0:0:0:0:
256,192,202087,5,8,0:0:0:0:
256,192,202150,5,0,0:0:0:0:
256,192,202212,5,0,0:0:0:0:
256,192,202275,5,8,0:0:0:0:
256,192,202337,5,8,0:0:0:0:
256,192,202400,5,8,0:0:0:0:
256,192,202462,5,0,0:0:0:0:
256,192,202525,5,8,0:0:0:0:
256,192,202587,5,0,0:0:0:0:
256,192,202650,5,8,0:0:0:0:
256,192,202712,5,8,0:0:0:0:
256,192,202775,5,0,0:0:0:0:
256,192,202837,5,8,0:0:0:0:
256,192,202900,5,0,0:0:0:0:
256,192,202962,5,0,0:0:0:0:
256,192,203025,5,8,0:0:0:0:
256,192,203087,5,8,0:0:0:0:
256,192,203150,5,0,0:0:0:0:
256,192,203212,5,8,0:0:0:0:
256,192,203275,5,8,0:0:0:0:
256,192,203337,5,0,0:0:0:0:
256,192,203400,5,8,0:0:0:0:
256,192,203462,5,8,0:0:0:0:
256,192,203525,5,0,0:0:0:0:
256,192,203587,5,8,0:0:0:0:
256,192,203650,5,0,0:0:0:0:
256,192,203712,5,0,0:0:0:0:
256,192,203775,5,8,0:0:0:0:
256,192,203837,5,8,0:0:0:0:
256,192,203900,5,0,0:0:0:0:
256,192,203962,5,0,0:0:0:0:
256,192,204025,5,8,0:0:0:0:
256,192,204087,5,0,0:0:0:0:
256,192,204150,5,8,0:0:0:0:
256,192,204275,5,8,0:0:0:0:
256,192,204400,5,8,0:0:0:0:
256,192,204525,5,0,0:0:0:0:
256,192,204608,5,8,0:0:0:0:
256,192,204691,5,8,0:0:0:0:
256,192,204775,5,0,0:0:0:0:
256,192,204900,5,0,0:0:0:0:
256,192,205025,5,8,0:0:0:0:
256,192,205150,5,0,0:0:0:0:
256,192,205275,5,8,0:0:0:0:
256,192,205400,5,8,0:0:0:0:
256,192,205525,5,0,0:0:0:0:
256,192,205650,5,0,0:0:0:0:
256,192,205775,5,8,0:0:0:0:
256,192,205900,5,0,0:0:0:0:
256,192,206025,5,8,0:0:0:0:
256,192,206150,5,8,0:0:0:0:
256,192,206275,5,8,0:0:0:0:
256,192,206400,5,8,0:0:0:0:
256,192,206525,5,0,0:0:0:0:
256,192,206650,5,0,0:0:0:0:
256,192,206775,5,8,0:0:0:0:
256,192,206900,5,0,0:0:0:0:
256,192,207025,5,0,0:0:0:0:
256,192,207150,5,12,0:0:0:0:
256,192,207275,5,12,0:0:0:0:
256,192,207400,5,0,0:0:0:0:
256,192,207525,5,0,0:0:0:0:
256,192,207608,5,0,0:0:0:0:
256,192,207691,5,0,0:0:0:0:
256,192,207775,5,8,0:0:0:0:
256,192,207858,5,0,0:0:0:0:
256,192,207941,5,0,0:0:0:0:
256,192,208025,5,8,0:0:0:0:
256,192,208108,5,0,0:0:0:0:
256,192,208191,5,8,0:0:0:0:
256,192,208275,5,8,0:0:0:0:
256,192,208358,5,8,0:0:0:0:
256,192,208441,5,0,0:0:0:0:
256,192,208525,5,8,0:0:0:0:
256,192,208608,5,0,0:0:0:0:
256,192,208691,5,0,0:0:0:0:
256,192,208775,5,8,0:0:0:0:
256,192,208858,5,8,0:0:0:0:
256,192,208941,5,0,0:0:0:0:
256,192,209025,5,8,0:0:0:0:
256,192,209108,5,0,0:0:0:0:
256,192,209191,5,0,0:0:0:0:
256,192,209275,5,8,0:0:0:0:
256,192,209358,5,8,0:0:0:0:
256,192,209441,5,8,0:0:0:0:
256,192,209525,5,0,0:0:0:0:
256,192,209608,5,8,0:0:0:0:
256,192,209691,5,0,0:0:0:0:
256,192,209775,5,8,0:0:0:0:
256,192,210150,5,0,0:0:0:0:
256,192,210275,5,0,0:0:0:0:
256,192,210400,5,0,0:0:0:0:
256,192,210525,5,12,0:0:0:0:
256,192,211025,5,0,0:0:0:0:
256,192,211150,5,0,0:0:0:0:
256,192,211275,5,12,0:0:0:0:
256,192,211400,5,0,0:0:0:0:
256,192,211525,5,0,0:0:0:0:
256,192,211900,5,0,0:0:0:0:
256,192,212025,5,8,0:0:0:0:
256,192,212275,5,8,0:0:0:0:
256,192,212525,5,0,0:0:0:0:
256,192,212650,5,0,0:0:0:0:
256,192,212775,5,12,0:0:0:0:
256,192,213025,5,12,0:0:0:0:
256,192,213275,5,4,0:0:0:0:
256,192,213525,5,4,0:0:0:0:
256,192,214025,5,0,0:0:0:0:
256,192,214150,5,0,0:0:0:0:
256,192,214275,5,12,0:0:0:0:
256,192,214400,5,0,0:0:0:0:
256,192,214525,5,0,0:0:0:0:
256,192,214650,5,0,0:0:0:0:
256,192,214900,5,0,0:0:0:0:
256,192,215025,5,8,0:0:0:0:
256,192,215275,5,0,0:0:0:0:
256,192,215337,5,0,0:0:0:0:
256,192,215400,5,8,0:0:0:0:
256,192,215462,5,8,0:0:0:0:
256,192,215525,5,0,0:0:0:0:
256,192,215587,5,0,0:0:0:0:
256,192,215650,5,0,0:0:0:0:
256,192,215712,5,0,0:0:0:0:
256,192,215775,5,12,0:0:0:0:
256,192,216025,5,12,0:0:0:0:
256,192,216275,5,4,0:0:0:0:
256,192,216525,5,0,0:0:0:0:
256,192,217025,5,0,0:0:0:0:
256,192,217150,5,0,0:0:0:0:
256,192,217275,5,12,0:0:0:0:
256,192,217400,5,0,0:0:0:0:
256,192,217525,5,0,0:0:0:0:
256,192,217900,5,0,0:0:0:0:
256,192,218025,5,12,0:0:0:0:
256,192,218285,5,0,0:0:0:0:
256,192,218372,1,8,0:0:0:0:
256,192,218459,1,8,0:0:0:0:
256,192,218546,1,0,0:0:0:0:
256,192,218633,1,8,0:0:0:0:
256,192,218720,1,8,0:0:0:0:
256,192,218807,1,4,0:0:0:0:
256,192,219079,5,12,0:0:0:0:
256,192,219352,5,12,0:0:0:0:
256,192,219625,5,4,0:0:0:0:
256,192,219761,12,0,222079,0:0:0:0:
256,192,222260,5,8,0:0:0:0:
256,192,222333,5,8,0:0:0:0:
256,192,222406,5,0,0:0:0:0:
256,192,222552,5,0,0:0:0:0:
256,192,222699,5,4,0:0:0:0:
256,192,222845,5,4,0:0:0:0:
256,192,222991,5,4,0:0:0:0:
256,192,223138,5,4,0:0:0:0:
256,192,224016,5,8,0:0:0:0:
256,192,225479,5,8,0:0:0:0:
256,192,225552,5,8,0:0:0:0:
256,192,225625,5,8,0:0:0:0:
256,192,225699,5,8,0:0:0:0:
256,192,225772,5,8,0:0:0:0:
256,192,227528,5,4,0:0:0:0:
256,192,227674,5,0,0:0:0:0:
256,192,227820,5,0,0:0:0:0:
256,192,227967,5,8,0:0:0:0:
256,192,228040,5,8,0:0:0:0:
256,192,228113,5,8,0:0:0:0:
256,192,228186,5,8,0:0:0:0:
256,192,228260,5,8,0:0:0:0:
256,192,228333,5,8,0:0:0:0:
256,192,228406,5,8,0:0:0:0:
256,192,228552,5,0,0:0:0:0:
256,192,228845,5,0,0:0:0:0:
256,192,229138,5,0,0:0:0:0:
256,192,229284,5,12,0:0:0:0:
256,192,229723,5,4,0:0:0:0:
256,192,230162,5,12,0:0:0:0:
256,192,230601,5,8,0:0:0:0:
256,192,230674,5,0,0:0:0:0:
256,192,230747,5,0,0:0:0:0:
256,192,230820,5,0,0:0:0:0:
256,192,230893,5,8,0:0:0:0:
256,192,230966,5,0,0:0:0:0:
256,192,231040,5,8,0:0:0:0:
256,192,231113,5,8,0:0:0:0:
256,192,231186,5,0,0:0:0:0:
256,192,231259,5,0,0:0:0:0:
256,192,231332,5,0,0:0:0:0:
256,192,231405,5,0,0:0:0:0:
256,192,231479,5,8,0:0:0:0:
256,192,231552,5,8,0:0:0:0:
256,192,231625,5,8,0:0:0:0:
256,192,231698,5,8,0:0:0:0:
256,192,231771,5,8,0:0:0:0:
256,192,231844,5,8,0:0:0:0:
256,192,231918,5,0,0:0:0:0:
256,192,231991,5,0,0:0:0:0:
256,192,232064,5,0,0:0:0:0:
256,192,232137,5,8,0:0:0:0:
256,192,232210,5,0,0:0:0:0:
256,192,232283,5,0,0:0:0:0:
256,192,232357,5,8,0:0:0:0:
256,192,232430,5,8,0:0:0:0:
256,192,232503,5,0,0:0:0:0:
256,192,232576,5,0,0:0:0:0:
256,192,232649,5,8,0:0:0:0:
256,192,232722,5,0,0:0:0:0:
256,192,232796,5,8,0:0:0:0:
256,192,232869,5,8,0:0:0:0:
256,192,232942,5,0,0:0:0:0:
256,192,233015,5,0,0:0:0:0:
256,192,233088,5,8,0:0:0:0:
256,192,233162,5,8,0:0:0:0:
256,192,233235,5,0,0:0:0:0:
256,192,233308,5,8,0:0:0:0:
256,192,233381,5,8,0:0:0:0:
256,192,233454,5,0,0:0:0:0:
256,192,233527,5,8,0:0:0:0:
256,192,233601,5,8,0:0:0:0:
256,192,233674,5,0,0:0:0:0:
256,192,233747,5,0,0:0:0:0:
256,192,233820,5,0,0:0:0:0:
256,192,233893,5,0,0:0:0:0:
256,192,233966,5,0,0:0:0:0:
256,192,234040,5,0,0:0:0:0:
256,192,234113,5,8,0:0:0:0:
256,192,234186,5,8,0:0:0:0:
256,192,234259,5,0,0:0:0:0:
256,192,234332,5,0,0:0:0:0:
256,192,234405,5,0,0:0:0:0:
256,192,234479,5,0,0:0:0:0:
256,192,234552,5,8,0:0:0:0:
256,192,234625,5,8,0:0:0:0:
256,192,234698,5,8,0:0:0:0:
256,192,234771,5,8,0:0:0:0:
256,192,234844,5,8,0:0:0:0:
256,192,234918,5,8,0:0:0:0:
256,192,234991,5,0,0:0:0:0:
256,192,235064,5,0,0:0:0:0:
256,192,235137,5,0,0:0:0:0:
256,192,235210,5,0,0:0:0:0:
256,192,235283,5,0,0:0:0:0:
256,192,235357,5,0,0:0:0:0:
256,192,235430,5,8,0:0:0:0:
256,192,235503,5,0,0:0:0:0:
256,192,235576,5,8,0:0:0:0:
256,192,235649,5,0,0:0:0:0:
256,192,235722,5,8,0:0:0:0:
256,192,235796,5,0,0:0:0:0:
256,192,235869,5,8,0:0:0:0:
256,192,235942,5,0,0:0:0:0:
256,192,236015,5,8,0:0:0:0:
256,192,236088,5,0,0:0:0:0:
256,192,236162,5,8,0:0:0:0:
256,192,236235,5,0,0:0:0:0:
256,192,236308,5,8,0:0:0:0:
256,192,236381,5,8,0:0:0:0:
256,192,236454,5,8,0:0:0:0:
256,192,236527,5,8,0:0:0:0:
256,192,236601,5,0,0:0:0:0:
256,192,236674,5,0,0:0:0:0:
256,192,236747,5,8,0:0:0:0:
256,192,236820,5,8,0:0:0:0:
256,192,236893,5,0,0:0:0:0:
256,192,236966,5,0,0:0:0:0:
256,192,237040,5,8,0:0:0:0:
256,192,237113,5,0,0:0:0:0:
256,192,237186,5,8,0:0:0:0:
256,192,237259,5,8,0:0:0:0:
256,192,237332,5,0,0:0:0:0:
256,192,237405,5,0,0:0:0:0:
256,192,237479,5,8,0:0:0:0:
256,192,237552,5,0,0:0:0:0:
256,192,237625,5,8,0:0:0:0:
256,192,237698,5,8,0:0:0:0:
256,192,237771,5,8,0:0:0:0:
256,192,237844,5,8,0:0:0:0:
256,192,237918,5,0,0:0:0:0:
256,192,237991,5,0,0:0:0:0:
256,192,238064,5,8,0:0:0:0:
256,192,238137,5,8,0:0:0:0:
256,192,238210,5,0,0:0:0:0:
256,192,238283,5,8,0:0:0:0:
256,192,238357,5,0,0:0:0:0:
256,192,238430,5,0,0:0:0:0:
256,192,238503,5,8,0:0:0:0:
256,192,238576,5,0,0:0:0:0:
256,192,238649,5,0,0:0:0:0:
256,192,238722,5,0,0:0:0:0:
256,192,238796,5,8,0:0:0:0:
256,192,238869,5,8,0:0:0:0:
256,192,238942,5,0,0:0:0:0:
256,192,239015,5,0,0:0:0:0:
256,192,239088,5,8,0:0:0:0:
256,192,239162,5,8,0:0:0:0:
256,192,239235,5,8,0:0:0:0:
256,192,239308,5,0,0:0:0:0:
256,192,239381,5,8,0:0:0:0:
256,192,239454,5,0,0:0:0:0:
256,192,239527,5,8,0:0:0:0:
256,192,239601,5,0,0:0:0:0:
256,192,239674,5,8,0:0:0:0:
256,192,239747,5,8,0:0:0:0:
256,192,239820,5,0,0:0:0:0:
256,192,239893,5,0,0:0:0:0:
256,192,239966,5,8,0:0:0:0:
256,192,240040,5,0,0:0:0:0:
256,192,240113,5,8,0:0:0:0:
256,192,240186,5,0,0:0:0:0:
256,192,240259,5,8,0:0:0:0:
256,192,240332,5,8,0:0:0:0:
256,192,240405,5,8,0:0:0:0:
256,192,240479,5,0,0:0:0:0:
256,192,240552,5,8,0:0:0:0:
256,192,240625,5,0,0:0:0:0:
256,192,240698,5,8,0:0:0:0:
256,192,240771,5,8,0:0:0:0:
256,192,240844,5,0,0:0:0:0:
256,192,240918,5,8,0:0:0:0:
256,192,240991,5,0,0:0:0:0:
256,192,241064,5,8,0:0:0:0:
256,192,241137,5,0,0:0:0:0:
256,192,241210,5,0,0:0:0:0:
256,192,241283,5,8,0:0:0:0:
256,192,241357,5,8,0:0:0:0:
256,192,241430,5,0,0:0:0:0:
256,192,241503,5,0,0:0:0:0:
256,192,241576,5,8,0:0:0:0:
256,192,241649,5,8,0:0:0:0:
256,192,241722,5,8,0:0:0:0:
256,192,241796,5,8,0:0:0:0:
256,192,241869,5,0,0:0:0:0:
256,192,241942,5,0,0:0:0:0:
256,192,242015,5,0,0:0:0:0:
256,192,242088,5,8,0:0:0:0:
256,192,242162,5,0,0:0:0:0:
256,192,242235,5,0,0:0:0:0:
256,192,242308,5,8,0:0:0:0:
256,192,242381,5,0,0:0:0:0:
256,192,242454,5,8,0:0:0:0:
256,192,242527,5,8,0:0:0:0:
256,192,242601,5,8,0:0:0:0:
256,192,242674,5,8,0:0:0:0:
256,192,242747,5,0,0:0:0:0:
256,192,242820,5,0,0:0:0:0:
256,192,242893,5,8,0:0:0:0:
256,192,242966,5,0,0:0:0:0:
256,192,243040,5,8,0:0:0:0:
256,192,243113,5,8,0:0:0:0:
256,192,243186,5,0,0:0:0:0:
256,192,243259,5,8,0:0:0:0:
256,192,243332,5,0,0:0:0:0:
256,192,243405,5,0,0:0:0:0:
256,192,243479,5,8,0:0:0:0:
256,192,243552,5,8,0:0:0:0:
256,192,243625,5,0,0:0:0:0:
256,192,243698,5,0,0:0:0:0:
256,192,243771,5,0,0:0:0:0:
256,192,243844,5,0,0:0:0:0:
256,192,243918,5,8,0:0:0:0:
256,192,244064,5,0,0:0:0:0:
256,192,244210,5,4,0:0:0:0:
256,192,244356,5,0,0:0:0:0:
256,192,244502,5,8,0:0:0:0:
256,192,244649,5,0,0:0:0:0:
256,192,244795,5,0,0:0:0:0:
256,192,244941,5,8,0:0:0:0:
256,192,245088,5,0,0:0:0:0:
256,192,245234,5,8,0:0:0:0:
256,192,245380,5,0,0:0:0:0:
256,192,245527,5,8,0:0:0:0:
256,192,245673,5,8,0:0:0:0:
256,192,245819,5,8,0:0:0:0:
256,192,245966,5,0,0:0:0:0:
256,192,246039,1,8,0:0:0:0:
256,192,246112,5,0,0:0:0:0:
256,192,246185,1,0,0:0:0:0:
256,192,246258,5,8,0:0:0:0:
256,192,246405,5,0,0:0:0:0:
256,192,246551,5,0,0:0:0:0:
256,192,246697,5,8,0:0:0:0:
256,192,246844,5,0,0:0:0:0:
256,192,246990,5,8,0:0:0:0:
256,192,247136,5,0,0:0:0:0:
256,192,247283,5,8,0:0:0:0:
256,192,247429,5,8,0:0:0:0:
256,192,247575,5,0,0:0:0:0:
256,192,247722,5,0,0:0:0:0:
256,192,247795,5,0,0:0:0:0:
256,192,247868,5,8,0:0:0:0:
256,192,247941,5,0,0:0:0:0:
256,192,248014,5,8,0:0:0:0:
256,192,248088,5,8,0:0:0:0:
256,192,248161,5,0,0:0:0:0:
256,192,248307,5,0,0:0:0:0:
256,192,248453,5,8,0:0:0:0:
256,192,248600,5,0,0:0:0:0:
256,192,248746,5,8,0:0:0:0:
256,192,248892,5,0,0:0:0:0:
256,192,249039,5,8,0:0:0:0:
256,192,249112,5,0,0:0:0:0:
256,192,249185,5,8,0:0:0:0:
256,192,249258,5,8,0:0:0:0:
256,192,249331,5,0,0:0:0:0:
256,192,249405,5,0,0:0:0:0:
256,192,249478,5,8,0:0:0:0:
256,192,249551,5,8,0:0:0:0:
256,192,249624,5,0,0:0:0:0:
256,192,249770,5,8,0:0:0:0:
256,192,249844,5,0,0:0:0:0:
256,192,249917,5,0,0:0:0:0:
256,192,250063,5,8,0:0:0:0:
256,192,250136,5,8,0:0:0:0:
256,192,250210,5,8,0:0:0:0:
256,192,250356,5,8,0:0:0:0:
256,192,250429,5,8,0:0:0:0:
256,192,250502,5,0,0:0:0:0:
256,192,250649,5,0,0:0:0:0:
256,192,250722,5,8,0:0:0:0:
256,192,250795,5,0,0:0:0:0:
256,192,250941,5,0,0:0:0:0:
256,192,251014,5,0,0:0:0:0:
256,192,251088,5,0,0:0:0:0:
256,192,251234,5,8,0:0:0:0:
256,192,251307,5,8,0:0:0:0:
256,192,251380,5,8,0:0:0:0:
256,192,251453,5,8,0:0:0:0:
256,192,251527,5,0,0:0:0:0:
256,192,251600,5,0,0:0:0:0:
256,192,251673,5,8,0:0:0:0:
256,192,251746,5,0,0:0:0:0:
256,192,251819,5,8,0:0:0:0:
256,192,251892,5,0,0:0:0:0:
256,192,251966,5,8,0:0:0:0:
256,192,252039,5,0,0:0:0:0:
256,192,252112,5,8,0:0:0:0:
256,192,252185,5,8,0:0:0:0:
256,192,252258,5,8,0:0:0:0:
256,192,252331,5,0,0:0:0:0:
256,192,252405,5,8,0:0:0:0:
256,192,252478,5,8,0:0:0:0:
256,192,252551,5,0,0:0:0:0:
256,192,252624,5,0,0:0:0:0:
256,192,252697,5,8,0:0:0:0:
256,192,252770,5,0,0:0:0:0:
256,192,252844,5,8,0:0:0:0:
256,192,252917,5,8,0:0:0:0:
256,192,252990,5,0,0:0:0:0:
256,192,253063,5,0,0:0:0:0:
256,192,253136,5,8,0:0:0:0:
256,192,253210,5,0,0:0:0:0:
256,192,253283,5,8,0:0:0:0:
256,192,253356,5,8,0:0:0:0:
256,192,253429,5,8,0:0:0:0:
256,192,253502,5,0,0:0:0:0:
256,192,253575,5,8,0:0:0:0:
256,192,253649,5,8,0:0:0:0:
256,192,253722,5,0,0:0:0:0:
256,192,253795,5,0,0:0:0:0:
256,192,253868,5,8,0:0:0:0:
256,192,253941,5,0,0:0:0:0:
256,192,254014,5,8,0:0:0:0:
256,192,254088,5,8,0:0:0:0:
256,192,254161,5,0,0:0:0:0:
256,192,254234,5,0,0:0:0:0:
256,192,254307,5,8,0:0:0:0:
256,192,254380,5,8,0:0:0:0:
256,192,254453,5,0,0:0:0:0:
256,192,254527,5,0,0:0:0:0:
256,192,254600,5,0,0:0:0:0:
256,192,254673,5,0,0:0:0:0:
256,192,254746,5,8,0:0:0:0:
256,192,254892,5,0,0:0:0:0:
256,192,254966,5,0,0:0:0:0:
256,192,255039,5,0,0:0:0:0:
256,192,255185,5,8,0:0:0:0:
256,192,255331,5,0,0:0:0:0:
256,192,255405,5,0,0:0:0:0:
256,192,255478,5,8,0:0:0:0:
256,192,255551,5,0,0:0:0:0:
256,192,255624,5,8,0:0:0:0:
256,192,255697,5,8,0:0:0:0:
256,192,255770,5,0,0:0:0:0:
256,192,255844,5,0,0:0:0:0:
256,192,255917,5,8,0:0:0:0:
256,192,255990,5,0,0:0:0:0:
256,192,256063,5,0,0:0:0:0:
256,192,256136,5,0,0:0:0:0:
256,192,256210,5,8,0:0:0:0:
256,192,256283,5,8,0:0:0:0:
256,192,256356,5,0,0:0:0:0:
256,192,256502,5,8,0:0:0:0:
256,192,256575,5,0,0:0:0:0:
256,192,256649,5,8,0:0:0:0:
256,192,256722,5,8,0:0:0:0:
256,192,256795,5,0,0:0:0:0:
256,192,256868,5,0,0:0:0:0:
256,192,256941,5,8,0:0:0:0:
256,192,257088,5,8,0:0:0:0:
256,192,257161,5,8,0:0:0:0:
256,192,257234,5,0,0:0:0:0:
256,192,257307,5,0,0:0:0:0:
256,192,257380,5,8,0:0:0:0:
256,192,257527,5,0,0:0:0:0:
256,192,257600,5,8,0:0:0:0:
256,192,257673,5,0,0:0:0:0:
256,192,257746,5,0,0:0:0:0:
256,192,257819,5,8,0:0:0:0:
256,192,257892,5,8,0:0:0:0:
256,192,257966,5,0,0:0:0:0:
256,192,258039,5,0,0:0:0:0:
256,192,258112,5,8,0:0:0:0:
256,192,258185,5,0,0:0:0:0:
256,192,258258,5,8,0:0:0:0:
256,192,258404,5,0,0:0:0:0:
256,192,258550,5,8,0:0:0:0:
256,192,258623,5,0,0:0:0:0:
256,192,258697,5,8,0:0:0:0:
256,192,258843,5,8,0:0:0:0:
256,192,258916,5,8,0:0:0:0:
256,192,258989,5,0,0:0:0:0:
256,192,259136,5,8,0:0:0:0:
256,192,259209,5,8,0:0:0:0:
256,192,259282,5,0,0:0:0:0:
256,192,259355,5,0,0:0:0:0:
256,192,259428,5,0,0:0:0:0:
256,192,259501,5,0,0:0:0:0:
256,192,259575,5,8,0:0:0:0:
256,192,259648,5,0,0:0:0:0:
256,192,259721,5,0,0:0:0:0:
256,192,259794,5,0,0:0:0:0:
256,192,259867,5,0,0:0:0:0:
256,192,259940,5,0,0:0:0:0:
256,192,260014,5,8,0:0:0:0:
256,192,260087,5,0,0:0:0:0:
256,192,260160,5,8,0:0:0:0:
256,192,260233,5,0,0:0:0:0:
256,192,260306,5,8,0:0:0:0:
256,192,260379,5,0,0:0:0:0:
256,192,260453,5,8,0:0:0:0:
256,192,260526,5,8,0:0:0:0:
256,192,260599,5,0,0:0:0:0:
256,192,260672,5,8,0:0:0:0:
256,192,260745,5,0,0:0:0:0:
256,192,260818,5,0,0:0:0:0:
256,192,260892,5,8,0:0:0:0:
256,192,260965,5,8,0:0:0:0:
256,192,261038,5,8,0:0:0:0:
256,192,261111,5,0,0:0:0:0:
256,192,261184,5,8,0:0:0:0:
256,192,261258,5,0,0:0:0:0:
256,192,261331,5,8,0:0:0:0:
256,192,261404,5,8,0:0:0:0:
256,192,261477,5,0,0:0:0:0:
256,192,261550,5,8,0:0:0:0:
256,192,261623,5,0,0:0:0:0:
256,192,261697,5,0,0:0:0:0:
256,192,261770,5,8,0:0:0:0:
256,192,261843,5,8,0:0:0:0:
256,192,261916,5,0,0:0:0:0:
256,192,261989,5,8,0:0:0:0:
256,192,262062,5,0,0:0:0:0:
256,192,262136,5,0,0:0:0:0:
256,192,262209,5,8,0:0:0:0:
256,192,262282,5,8,0:0:0:0:
256,192,262355,5,0,0:0:0:0:
256,192,262428,5,0,0:0:0:0:
256,192,262501,5,8,0:0:0:0:
256,192,262575,5,0,0:0:0:0:
256,192,262648,5,8,0:0:0:0:
256,192,262794,5,0,0:0:0:0:
256,192,262867,5,0,0:0:0:0:
256,192,262940,5,0,0:0:0:0:
256,192,263014,5,0,0:0:0:0:
256,192,263087,5,8,0:0:0:0:
256,192,263160,5,8,0:0:0:0:
256,192,263233,5,0,0:0:0:0:
256,192,263306,5,0,0:0:0:0:
256,192,263379,5,8,0:0:0:0:
256,192,263453,5,0,0:0:0:0:
256,192,263526,5,8,0:0:0:0:
256,192,263599,5,0,0:0:0:0:
256,192,263672,5,8,0:0:0:0:
256,192,263745,5,0,0:0:0:0:
256,192,263818,5,8,0:0:0:0:
256,192,263892,5,0,0:0:0:0:
256,192,263965,5,8,0:0:0:0:
256,192,264038,5,8,0:0:0:0:
256,192,264111,5,8,0:0:0:0:
256,192,264184,5,0,0:0:0:0:
256,192,264258,5,8,0:0:0:0:
256,192,264331,5,0,0:0:0:0:
256,192,264404,5,8,0:0:0:0:
256,192,264477,5,0,0:0:0:0:
256,192,264550,5,8,0:0:0:0:
256,192,264623,5,8,0:0:0:0:
256,192,264697,5,0,0:0:0:0:
256,192,264770,5,0,0:0:0:0:
256,192,264843,5,8,0:0:0:0:
256,192,264916,5,8,0:0:0:0:
256,192,264989,5,8,0:0:0:0:
256,192,265062,5,8,0:0:0:0:
256,192,265136,5,0,0:0:0:0:
256,192,265209,5,0,0:0:0:0:
256,192,265282,5,12,0:0:0:0:
256,192,265428,5,0,0:0:0:0:
256,192,265501,5,0,0:0:0:0:
256,192,265575,5,8,0:0:0:0:
256,192,265648,5,0,0:0:0:0:
256,192,265721,5,0,0:0:0:0:
256,192,265794,5,0,0:0:0:0:
256,192,265867,5,8,0:0:0:0:
256,192,265940,5,0,0:0:0:0:
256,192,266014,5,8,0:0:0:0:
256,192,266087,5,0,0:0:0:0:
256,192,266160,5,8,0:0:0:0:
256,192,266233,5,8,0:0:0:0:
256,192,266306,5,0,0:0:0:0:
256,192,266379,5,8,0:0:0:0:
256,192,266453,5,0,0:0:0:0:
256,192,266526,5,0,0:0:0:0:
256,192,266599,5,8,0:0:0:0:
256,192,266672,5,0,0:0:0:0:
256,192,266745,5,8,0:0:0:0:
256,192,266818,5,8,0:0:0:0:
256,192,266892,5,0,0:0:0:0:
256,192,266965,5,0,0:0:0:0:
256,192,267038,5,8,0:0:0:0:
256,192,267111,5,8,0:0:0:0:
256,192,267184,5,0,0:0:0:0:
256,192,267258,5,8,0:0:0:0:
256,192,267331,5,8,0:0:0:0:
256,192,267404,5,0,0:0:0:0:
256,192,267477,5,8,0:0:0:0:
256,192,267550,5,0,0:0:0:0:
256,192,267623,5,0,0:0:0:0:
256,192,267697,5,8,0:0:0:0:
256,192,267770,5,0,0:0:0:0:
256,192,267843,5,0,0:0:0:0:
256,192,267916,5,8,0:0:0:0:
256,192,267989,5,0,0:0:0:0:
256,192,268062,5,8,0:0:0:0:
256,192,268136,5,8,0:0:0:0:
256,192,268209,5,0,0:0:0:0:
256,192,268282,5,0,0:0:0:0:
256,192,268355,5,8,0:0:0:0:
256,192,268428,5,8,0:0:0:0:
256,192,268501,5,8,0:0:0:0:
256,192,268575,5,8,0:0:0:0:
256,192,268648,5,0,0:0:0:0:
256,192,268794,5,8,0:0:0:0:
256,192,268867,5,0,0:0:0:0:
256,192,268940,5,0,0:0:0:0:
256,192,269014,5,0,0:0:0:0:
256,192,269087,5,8,0:0:0:0:
256,192,269160,5,0,0:0:0:0:
256,192,269233,5,0,0:0:0:0:
256,192,269306,5,0,0:0:0:0:
256,192,269379,5,8,0:0:0:0:
256,192,269453,5,0,0:0:0:0:
256,192,269526,5,0,0:0:0:0:
256,192,269599,5,0,0:0:0:0:
256,192,269672,5,8,0:0:0:0:
256,192,269745,5,0,0:0:0:0:
256,192,269818,5,8,0:0:0:0:
256,192,269892,5,8,0:0:0:0:
256,192,269965,5,0,0:0:0:0:
256,192,270038,5,0,0:0:0:0:
256,192,270111,5,8,0:0:0:0:
256,192,270184,5,0,0:0:0:0:
256,192,270258,5,8,0:0:0:0:
256,192,270331,5,0,0:0:0:0:
256,192,270404,5,8,0:0:0:0:
256,192,270477,5,0,0:0:0:0:
256,192,270550,5,8,0:0:0:0:
256,192,270623,5,8,0:0:0:0:
256,192,270697,5,8,0:0:0:0:
256,192,270770,5,0,0:0:0:0:
256,192,270843,5,8,0:0:0:0:
256,192,270916,5,0,0:0:0:0:
256,192,270989,5,8,0:0:0:0:
256,192,271062,5,8,0:0:0:0:
256,192,271136,5,0,0:0:0:0:
256,192,271209,5,8,0:0:0:0:
256,192,271282,5,0,0:0:0:0:
256,192,271355,5,0,0:0:0:0:
256,192,271428,5,8,0:0:0:0:
256,192,271501,5,8,0:0:0:0:
256,192,271575,5,0,0:0:0:0:
256,192,271648,5,8,0:0:0:0:
256,192,271721,5,0,0:0:0:0:
256,192,271794,5,0,0:0:0:0:
256,192,271867,5,8,0:0:0:0:
256,192,271940,5,8,0:0:0:0:
256,192,272014,5,8,0:0:0:0:
256,192,272087,5,8,0:0:0:0:
256,192,272160,5,8,0:0:0:0:
256,192,272233,5,8,0:0:0:0:
256,192,272306,5,4,0:0:0:0:
256,192,272599,5,4,0:0:0:0:
256,192,272892,5,4,0:0:0:0:
256,192,273184,5,8,0:0:0:0:
256,192,273258,5,8,0:0:0:0:
256,192,273331,5,8,0:0:0:0:
256,192,273404,5,8,0:0:0:0:
256,192,273477,5,8,0:0:0:0:
256,192,273550,5,8,0:0:0:0:
256,192,273623,5,0,0:0:0:0:
256,192,273697,5,0,0:0:0:0:
256,192,273770,5,0,0:0:0:0:
256,192,273843,5,0,0:0:0:0:
256,192,273916,5,0,0:0:0:0:
256,192,273989,5,0,0:0:0:0:
256,192,274062,5,8,0:0:0:0:
256,192,274136,5,0,0:0:0:0:
256,192,274209,5,8,0:0:0:0:
256,192,274282,5,8,0:0:0:0:
256,192,274355,5,0,0:0:0:0:
256,192,274428,5,0,0:0:0:0:
256,192,274501,5,8,0:0:0:0:
256,192,274575,5,8,0:0:0:0:
256,192,274648,5,8,0:0:0:0:
256,192,274721,5,8,0:0:0:0:
256,192,274794,5,8,0:0:0:0:
256,192,274867,5,8,0:0:0:0:
256,192,274940,5,0,0:0:0:0:
256,192,275014,5,0,0:0:0:0:
256,192,275087,5,0,0:0:0:0:
256,192,275160,5,0,0:0:0:0:
256,192,275233,5,8,0:0:0:0:
256,192,275306,5,0,0:0:0:0:
256,192,275379,5,8,0:0:0:0:
256,192,275453,5,0,0:0:0:0:
256,192,275526,5,8,0:0:0:0:
256,192,275599,5,0,0:0:0:0:
256,192,275672,5,8,0:0:0:0:
256,192,275745,5,0,0:0:0:0:
256,192,275818,5,8,0:0:0:0:
256,192,275892,5,8,0:0:0:0:
256,192,275965,5,8,0:0:0:0:
256,192,276038,5,8,0:0:0:0:
256,192,276111,5,8,0:0:0:0:
256,192,276184,5,8,0:0:0:0:
256,192,276258,5,0,0:0:0:0:
256,192,276331,5,0,0:0:0:0:
256,192,276404,5,8,0:0:0:0:
256,192,276477,5,0,0:0:0:0:
256,192,276550,5,8,0:0:0:0:
256,192,276623,5,0,0:0:0:0:
256,192,276697,5,8,0:0:0:0:
256,192,276770,5,8,0:0:0:0:
256,192,276843,5,8,0:0:0:0:
256,192,276916,5,8,0:0:0:0:
256,192,276989,5,0,0:0:0:0:
256,192,277062,5,0,0:0:0:0:
256,192,277136,5,8,0:0:0:0:
256,192,277209,5,8,0:0:0:0:
256,192,277282,5,8,0:0:0:0:
256,192,277355,5,8,0:0:0:0:
256,192,277428,5,0,0:0:0:0:
256,192,277501,5,0,0:0:0:0:
256,192,277575,5,8,0:0:0:0:
256,192,277648,5,0,0:0:0:0:
256,192,277721,5,8,0:0:0:0:
256,192,277794,5,0,0:0:0:0:
256,192,277867,5,8,0:0:0:0:
256,192,277940,5,8,0:0:0:0:
256,192,278014,5,0,0:0:0:0:
256,192,278087,5,8,0:0:0:0:
256,192,278160,5,0,0:0:0:0:
256,192,278233,5,8,0:0:0:0:
256,192,278306,5,0,0:0:0:0:
256,192,278379,5,0,0:0:0:0:
256,192,278453,5,8,0:0:0:0:
256,192,278526,5,0,0:0:0:0:
256,192,278599,5,8,0:0:0:0:
256,192,278672,5,8,0:0:0:0:
256,192,278745,5,0,0:0:0:0:
256,192,278818,5,0,0:0:0:0:
256,192,278892,5,8,0:0:0:0:
256,192,279184,5,8,0:0:0:0:
256,192,279331,5,0,0:0:0:0:
256,192,279406,5,0,0:0:0:0:
256,192,279481,5,0,0:0:0:0:
256,192,279556,5,0,0:0:0:0:
256,192,279631,5,0,0:0:0:0:
256,192,279706,5,0,0:0:0:0:
256,192,279781,5,8,0:0:0:0:
256,192,280231,5,8,0:0:0:0:
256,192,280306,5,8,0:0:0:0:
256,192,280381,5,0,0:0:0:0:
256,192,280456,5,0,0:0:0:0:
256,192,280531,5,0,0:0:0:0:
256,192,280606,5,0,0:0:0:0:
256,192,280681,5,8,0:0:0:0:
256,192,281131,5,0,0:0:0:0:
256,192,281206,5,0,0:0:0:0:
256,192,281281,5,8,0:0:0:0:
256,192,281356,5,0,0:0:0:0:
256,192,281431,5,8,0:0:0:0:
256,192,281506,5,8,0:0:0:0:
256,192,281581,5,0,0:0:0:0:
256,192,281656,5,8,0:0:0:0:
256,192,281731,5,0,0:0:0:0:
256,192,281806,5,0,0:0:0:0:
256,192,281881,5,8,0:0:0:0:
256,192,281956,5,0,0:0:0:0:
256,192,282031,5,8,0:0:0:0:
256,192,282106,5,8,0:0:0:0:
256,192,282181,5,8,0:0:0:0:
256,192,282256,5,0,0:0:0:0:
256,192,282331,5,8,0:0:0:0:
256,192,282406,5,0,0:0:0:0:
256,192,282481,5,8,0:0:0:0:
256,192,282556,5,8,0:0:0:0:
256,192,282631,5,0,0:0:0:0:
256,192,282706,5,8,0:0:0:0:
256,192,282781,5,8,0:0:0:0:
256,192,282856,5,0,0:0:0:0:
256,192,282931,5,8,0:0:0:0:
256,192,283006,5,8,0:0:0:0:
256,192,283081,5,8,0:0:0:0:
256,192,283156,5,8,0:0:0:0:
256,192,283231,5,0,0:0:0:0:
256,192,283306,5,0,0:0:0:0:
256,192,283381,5,8,0:0:0:0:
256,192,283831,5,8,0:0:0:0:
256,192,283906,5,8,0:0:0:0:
256,192,283981,5,8,0:0:0:0:
256,192,284056,5,8,0:0:0:0:
256,192,284131,5,0,0:0:0:0:
256,192,284206,5,0,0:0:0:0:
256,192,284281,5,8,0:0:0:0:
256,192,284731,5,8,0:0:0:0:
256,192,284806,5,8,0:0:0:0:
256,192,284881,5,8,0:0:0:0:
256,192,284956,5,8,0:0:0:0:
256,192,285031,5,0,0:0:0:0:
256,192,285181,5,0,0:0:0:0:
256,192,285331,5,8,0:0:0:0:
256,192,285406,5,8,0:0:0:0:
256,192,285481,5,0,0:0:0:0:
256,192,285631,5,8,0:0:0:0:
256,192,285706,5,8,0:0:0:0:
256,192,285781,5,0,0:0:0:0:
256,192,285931,5,12,0:0:0:0:
256,192,286531,5,8,0:0:0:0:
256,192,286606,5,0,0:0:0:0:
256,192,286681,5,0,0:0:0:0:
256,192,286756,5,0,0:0:0:0:
256,192,286831,5,8,0:0:0:0:
256,192,286906,5,8,0:0:0:0:
256,192,286981,5,0,0:0:0:0:
256,192,287056,5,8,0:0:0:0:
256,192,287131,5,0,0:0:0:0:
256,192,287206,5,0,0:0:0:0:
256,192,287281,5,8,0:0:0:0:
256,192,287356,5,0,0:0:0:0:
256,192,287431,5,8,0:0:0:0:
256,192,287506,5,0,0:0:0:0:
256,192,287581,5,0,0:0:0:0:
256,192,287656,5,8,0:0:0:0:
256,192,287731,5,0,0:0:0:0:
256,192,287806,5,0,0:0:0:0:
256,192,287881,5,8,0:0:0:0:
256,192,287956,5,0,0:0:0:0:
256,192,288031,5,8,0:0:0:0:
256,192,288106,5,0,0:0:0:0:
256,192,288181,5,8,0:0:0:0:
256,192,288256,5,0,0:0:0:0:
256,192,288331,5,8,0:0:0:0:
256,192,288406,5,8,0:0:0:0:
256,192,288481,5,8,0:0:0:0:
256,192,288556,5,8,0:0:0:0:
256,192,288631,5,0,0:0:0:0:
256,192,288706,5,8,0:0:0:0:
256,192,288781,5,0,0:0:0:0:
256,192,288856,5,0,0:0:0:0:
256,192,288931,5,8,0:0:0:0:
256,192,289006,5,0,0:0:0:0:
256,192,289081,5,8,0:0:0:0:
256,192,289156,5,0,0:0:0:0:
256,192,289231,5,8,0:0:0:0:
256,192,289306,5,8,0:0:0:0:
256,192,289381,5,8,0:0:0:0:
256,192,289456,5,8,0:0:0:0:
256,192,289531,5,0,0:0:0:0:
256,192,289606,5,0,0:0:0:0:
256,192,289681,5,8,0:0:0:0:
256,192,289756,5,8,0:0:0:0:
256,192,289831,5,8,0:0:0:0:
256,192,289906,5,0,0:0:0:0:
256,192,289981,5,8,0:0:0:0:
256,192,290056,5,0,0:0:0:0:
256,192,290131,5,8,0:0:0:0:
256,192,290206,5,0,0:0:0:0:
256,192,290281,5,8,0:0:0:0:
256,192,290356,5,8,0:0:0:0:
256,192,290431,5,0,0:0:0:0:
256,192,290506,5,0,0:0:0:0:
256,192,290581,5,8,0:0:0:0:
256,192,290656,5,0,0:0:0:0:
256,192,290731,5,8,0:0:0:0:
256,192,290806,5,8,0:0:0:0:
256,192,290881,5,8,0:0:0:0:
256,192,290956,5,0,0:0:0:0:
256,192,291031,5,8,0:0:0:0:
256,192,291106,5,0,0:0:0:0:
256,192,291181,5,8,0:0:0:0:
256,192,291256,5,0,0:0:0:0:
256,192,291331,5,8,0:0:0:0:
256,192,291406,5,0,0:0:0:0:
256,192,291481,5,8,0:0:0:0:
256,192,291556,5,8,0:0:0:0:
256,192,291631,5,0,0:0:0:0:
256,192,291706,5,8,0:0:0:0:
256,192,291781,5,0,0:0:0:0:
256,192,291856,5,0,0:0:0:0:
256,192,291931,5,8,0:0:0:0:
256,192,292006,5,8,0:0:0:0:
256,192,292081,5,8,0:0:0:0:
256,192,292156,5,0,0:0:0:0:
256,192,292231,5,8,0:0:0:0:
256,192,292306,5,0,0:0:0:0:
256,192,292381,5,8,0:0:0:0:
256,192,292456,5,0,0:0:0:0:
256,192,292531,5,8,0:0:0:0:
256,192,292606,5,8,0:0:0:0:
256,192,292681,5,8,0:0:0:0:
256,192,292756,5,0,0:0:0:0:
256,192,292831,5,8,0:0:0:0:
256,192,292906,5,8,0:0:0:0:
256,192,292981,5,0,0:0:0:0:
256,192,293056,5,0,0:0:0:0:
256,192,293131,5,8,0:0:0:0:
256,192,293206,5,0,0:0:0:0:
256,192,293281,5,8,0:0:0:0:
256,192,293356,5,0,0:0:0:0:
256,192,293431,5,12,0:0:0:0:
256,192,293581,5,12,0:0:0:0:
256,192,293731,5,4,0:0:0:0:
256,192,293881,5,0,0:0:0:0:
256,192,293956,5,0,0:0:0:0:
256,192,294031,5,8,0:0:0:0:
256,192,294106,5,0,0:0:0:0:
256,192,294181,5,8,0:0:0:0:
256,192,294256,5,8,0:0:0:0:
256,192,294331,5,8,0:0:0:0:
256,192,294406,5,0,0:0:0:0:
256,192,294481,5,8,0:0:0:0:
256,192,294556,5,0,0:0:0:0:
256,192,294631,5,8,0:0:0:0:
256,192,294706,5,8,0:0:0:0:
256,192,294781,5,0,0:0:0:0:
256,192,294856,5,8,0:0:0:0:
256,192,294931,5,0,0:0:0:0:
256,192,295006,5,0,0:0:0:0:
256,192,295081,5,8,0:0:0:0:
256,192,295156,5,0,0:0:0:0:
256,192,295231,5,8,0:0:0:0:
256,192,295306,5,8,0:0:0:0:
256,192,295381,5,0,0:0:0:0:
256,192,295456,5,0,0:0:0:0:
256,192,295531,5,8,0:0:0:0:
256,192,295606,5,8,0:0:0:0:
256,192,295681,5,8,0:0:0:0:
256,192,295756,5,0,0:0:0:0:
256,192,295831,5,8,0:0:0:0:
256,192,295906,5,0,0:0:0:0:
256,192,295981,5,8,0:0:0:0:
256,192,296056,5,8,0:0:0:0:
256,192,296131,5,0,0:0:0:0:
256,192,296206,5,0,0:0:0:0:
256,192,296281,5,0,0:0:0:0:
256,192,296356,5,0,0:0:0:0:
256,192,296431,5,8,0:0:0:0:
256,192,296506,5,0,0:0:0:0:
256,192,296581,5,8,0:0:0:0:
256,192,296656,5,8,0:0:0:0:
256,192,296731,5,0,0:0:0:0:
256,192,296806,5,0,0:0:0:0:
256,192,296881,5,8,0:0:0:0:
256,192,296956,5,8,0:0:0:0:
256,192,297031,5,8,0:0:0:0:
256,192,297106,5,8,0:0:0:0:
256,192,297181,5,0,0:0:0:0:
256,192,297256,5,0,0:0:0:0:
256,192,297331,5,8,0:0:0:0:
256,192,297481,5,0,0:0:0:0:
256,192,297556,5,0,0:0:0:0:
256,192,297631,5,0,0:0:0:0:
256,192,297781,5,0,0:0:0:0:
256,192,297931,5,0,0:0:0:0:
256,192,298081,5,8,0:0:0:0:
256,192,298231,5,8,0:0:0:0:
256,192,298306,5,0,0:0:0:0:
256,192,298381,5,8,0:0:0:0:
256,192,298456,5,0,0:0:0:0:
256,192,298531,5,8,0:0:0:0:
256,192,298606,5,8,0:0:0:0:
256,192,298681,5,0,0:0:0:0:
256,192,298756,5,0,0:0:0:0:
256,192,298831,5,8,0:0:0:0:
256,192,298906,5,0,0:0:0:0:
256,192,298981,5,8,0:0:0:0:
256,192,299056,5,0,0:0:0:0:
256,192,299131,5,8,0:0:0:0:
256,192,299206,5,8,0:0:0:0:
256,192,299281,5,0,0:0:0:0:
256,192,299356,5,0,0:0:0:0:
256,192,299431,5,0,0:0:0:0:
256,192,299506,5,0,0:0:0:0:
256,192,299581,5,8,0:0:0:0:
256,192,299656,5,8,0:0:0:0:
256,192,299731,5,8,0:0:0:0:
256,192,299806,5,8,0:0:0:0:
256,192,299881,5,0,0:0:0:0:
256,192,299956,5,0,0:0:0:0:
256,192,300031,5,8,0:0:0:0:
256,192,300106,5,8,0:0:0:0:
256,192,300181,5,0,0:0:0:0:
256,192,300256,5,0,0:0:0:0:
256,192,300331,5,8,0:0:0:0:
256,192,300406,5,8,0:0:0:0:
256,192,300481,5,0,0:0:0:0:
256,192,300556,5,0,0:0:0:0:
256,192,300631,5,0,0:0:0:0:
256,192,300706,5,0,0:0:0:0:
256,192,300781,5,0,0:0:0:0:
256,192,300856,5,0,0:0:0:0:
256,192,300931,5,12,0:0:0:0:
256,192,301831,5,0,0:0:0:0:
256,192,302131,5,0,0:0:0:0:
256,192,302281,5,4,0:0:0:0:
256,192,302431,5,12,0:0:0:0:
256,192,302581,5,12,0:0:0:0:
256,192,302731,5,4,0:0:0:0:
256,192,303631,5,8,0:0:0:0:
256,192,303706,5,0,0:0:0:0:
256,192,303781,5,0,0:0:0:0:
256,192,303856,5,0,0:0:0:0:
256,192,303931,5,0,0:0:0:0:
256,192,304006,5,0,0:0:0:0:
256,192,304081,5,8,0:0:0:0:
256,192,304231,5,0,0:0:0:0:
256,192,304381,5,0,0:0:0:0:
256,192,304531,5,12,0:0:0:0:
256,192,305281,5,0,0:0:0:0:
256,192,305356,5,0,0:0:0:0:
256,192,305431,5,12,0:0:0:0:
