osu file format v14

[General]
AudioFilename: audio.mp3
AudioLeadIn: 0
PreviewTime: 285349
Countdown: 0
SampleSet: Normal
StackLeniency: 0.7
Mode: 1
LetterboxInBreaks: 0
WidescreenStoryboard: 1

[Editor]
Bookmarks: 22,28466,142243,192020,194686,273797,275574,279129,280906,282683,290849
DistanceSpacing: 1.2
BeatDivisor: 4
GridSize: 32
TimelineZoom: 4.449999

[Metadata]
Title:Quest for the Trinity
TitleUnicode:Quest for the Trinity
Artist:Inferi
ArtistUnicode:Inferi
Creator:LZD
Version:Taiko
Source:
Tags:
BeatmapID:2111914
BeatmapSetID:1008888

[Difficulty]
HPDrainRate:5
CircleSize:5
OverallDifficulty:7
ApproachRate:5
SliderMultiplier:1.4
SliderTickRate:1

[Events]
//Background and Video events
0,0,"gatekeeperbg.jpg",0,0
//Break Periods
2,42888,52154
2,85554,121932
2,125110,132154
2,135332,141043
2,177998,192820
2,202886,230819
2,234219,284149
2,300660,312594
//Storyboard Layer 0 (Background)
//Storyboard Layer 1 (Fail)
//Storyboard Layer 2 (Pass)
//Storyboard Layer 3 (Foreground)
//Storyboard Layer 4 (Overlay)
//Storyboard Sound Samples

[TimingPoints]
22,296.296296296296,3,1,0,48,1,0
28466,222.222222222222,4,1,0,48,1,0
142243,296.296296296296,3,1,0,48,1,0
192020,333.333333333333,3,1,0,48,1,0
194686,222.222222222222,3,1,0,48,1,0
273797,222.222222222222,3,1,0,48,1,0
275574,222.222222222222,4,1,0,48,1,0
279129,222.222222222222,3,1,0,48,1,0
280906,222.222222222222,3,1,0,48,1,0
282683,222.222222222222,4,1,0,48,1,0

[HitObjects]
89,143,22,5,12,0:0:0:0:
89,143,466,1,0,0:0:0:0:
89,143,614,1,0,0:0:0:0:
89,143,688,1,0,0:0:0:0:
89,143,762,1,0,0:0:0:0:
89,143,910,1,8,0:0:0:0:
89,143,2244,1,0,0:0:0:0:
89,143,2392,1,0,0:0:0:0:
89,143,2466,1,0,0:0:0:0:
89,143,2540,1,0,0:0:0:0:
89,143,2688,1,12,0:0:0:0:
341,143,3133,1,8,0:0:0:0:
62,109,3577,1,8,0:0:0:0:
114,174,3725,1,0,0:0:0:0:
163,240,3873,1,8,0:0:0:0:
200,259,3947,1,8,0:0:0:0:
237,278,4021,1,8,0:0:0:0:
311,317,4170,1,0,0:0:0:0:
348,336,4244,1,0,0:0:0:0:
348,336,4318,1,0,0:0:0:0:
348,336,4466,1,8,0:0:0:0:
348,336,4540,1,8,0:0:0:0:
348,336,4614,1,8,0:0:0:0:
348,336,4762,1,0,0:0:0:0:
348,336,4836,1,0,0:0:0:0:
348,336,4910,1,0,0:0:0:0:
348,336,5059,1,0,0:0:0:0:
348,336,5133,1,0,0:0:0:0:
348,336,5207,1,0,0:0:0:0:
348,336,5355,1,12,0:0:0:0:
288,288,5503,1,0,0:0:0:0:
256,256,5577,1,0,0:0:0:0:
348,336,5651,1,8,0:0:0:0:
348,336,5725,1,8,0:0:0:0:
348,336,5799,1,0,0:0:0:0:
320,320,5873,1,0,0:0:0:0:
348,336,5947,1,8,0:0:0:0:
348,336,6021,1,0,0:0:0:0:
348,336,6095,1,0,0:0:0:0:
320,320,6170,1,0,0:0:0:0:
96,160,6244,1,8,0:0:0:0:
96,160,6318,1,8,0:0:0:0:
64,160,6392,1,0,0:0:0:0:
64,160,6466,1,0,0:0:0:0:
64,160,6540,1,8,0:0:0:0:
64,160,6614,1,8,0:0:0:0:
103,172,6688,1,8,0:0:0:0:
142,185,6762,1,8,0:0:0:0:
64,192,6836,1,0,0:0:0:0:
64,192,6910,1,0,0:0:0:0:
64,192,6984,1,0,0:0:0:0:
64,192,7059,1,0,0:0:0:0:
64,192,7133,1,8,0:0:0:0:
63,191,7281,1,8,0:0:0:0:
143,167,7429,1,0,0:0:0:0:
102,179,7503,1,0,0:0:0:0:
102,179,7577,1,0,0:0:0:0:
102,179,7725,1,0,0:0:0:0:
102,179,7799,1,0,0:0:0:0:
102,179,7873,1,0,0:0:0:0:
102,179,8021,1,0,0:0:0:0:
102,179,8096,1,0,0:0:0:0:
102,179,8170,1,0,0:0:0:0:
102,179,8318,1,8,0:0:0:0:
102,179,8392,1,8,0:0:0:0:
102,179,8466,1,8,0:0:0:0:
102,179,8540,1,8,0:0:0:0:
102,179,8614,1,0,0:0:0:0:
102,179,8688,1,0,0:0:0:0:
102,179,8762,1,0,0:0:0:0:
102,179,8836,1,0,0:0:0:0:
64,192,8910,1,8,0:0:0:0:
63,191,9059,1,8,0:0:0:0:
143,167,9206,1,0,0:0:0:0:
102,179,9280,1,0,0:0:0:0:
102,179,9354,1,0,0:0:0:0:
102,179,9502,1,8,0:0:0:0:
102,179,9576,1,8,0:0:0:0:
102,179,9650,1,8,0:0:0:0:
102,179,9798,1,0,0:0:0:0:
102,179,9873,1,0,0:0:0:0:
102,179,9947,1,0,0:0:0:0:
102,179,10095,1,8,0:0:0:0:
102,179,10169,1,8,0:0:0:0:
102,179,10243,1,8,0:0:0:0:
102,179,10317,1,8,0:0:0:0:
102,179,10391,1,0,0:0:0:0:
102,179,10465,1,0,0:0:0:0:
102,179,10539,1,0,0:0:0:0:
102,179,10613,1,0,0:0:0:0:
102,179,10687,1,8,0:0:0:0:
118,96,10836,1,8,0:0:0:0:
88,174,10984,1,0,0:0:0:0:
88,174,11059,1,0,0:0:0:0:
88,174,11133,1,0,0:0:0:0:
88,174,11281,1,0,0:0:0:0:
88,174,11355,1,0,0:0:0:0:
88,174,11429,1,0,0:0:0:0:
88,174,11577,1,0,0:0:0:0:
88,174,11651,1,0,0:0:0:0:
88,174,11725,1,0,0:0:0:0:
88,174,11873,1,8,0:0:0:0:
88,174,11947,1,8,0:0:0:0:
88,174,12021,1,8,0:0:0:0:
88,174,12096,1,8,0:0:0:0:
88,174,12170,1,0,0:0:0:0:
88,174,12244,1,0,0:0:0:0:
88,174,12318,1,0,0:0:0:0:
88,174,12392,1,0,0:0:0:0:
88,174,12466,1,8,0:0:0:0:
28,233,12614,1,8,0:0:0:0:
88,174,12762,1,0,0:0:0:0:
58,203,12836,1,0,0:0:0:0:
58,203,12910,1,0,0:0:0:0:
58,203,13059,1,8,0:0:0:0:
58,203,13133,1,8,0:0:0:0:
58,203,13207,1,0,0:0:0:0:
58,203,13281,1,0,0:0:0:0:
252,260,13355,5,8,0:0:0:0:
252,260,13429,1,8,0:0:0:0:
252,260,13503,1,8,0:0:0:0:
252,260,13577,1,8,0:0:0:0:
252,260,13651,1,0,0:0:0:0:
252,260,13725,1,0,0:0:0:0:
252,260,13799,1,0,0:0:0:0:
252,260,13873,1,0,0:0:0:0:
252,260,13947,1,8,0:0:0:0:
156,143,14244,5,12,0:0:0:0:
53,171,14540,1,0,0:0:0:0:
53,171,14614,1,0,0:0:0:0:
53,171,14688,1,0,0:0:0:0:
53,171,14836,1,0,0:0:0:0:
53,171,14910,1,0,0:0:0:0:
53,171,14984,1,0,0:0:0:0:
151,135,15133,1,12,0:0:0:0:
151,135,15429,1,4,0:0:0:0:
151,135,15725,1,4,0:0:0:0:
151,135,16021,1,12,0:0:0:0:
288,224,16318,1,0,0:0:0:0:
256,192,16392,1,0,0:0:0:0:
224,160,16466,1,0,0:0:0:0:
128,160,16614,1,0,0:0:0:0:
160,160,16688,1,0,0:0:0:0:
160,160,16762,1,0,0:0:0:0:
288,204,16910,1,12,0:0:0:0:
288,204,17207,1,4,0:0:0:0:
288,204,17503,1,4,0:0:0:0:
288,204,17799,1,12,0:0:0:0:
160,160,18096,1,0,0:0:0:0:
160,160,18170,1,0,0:0:0:0:
160,160,18244,1,0,0:0:0:0:
160,160,18392,1,0,0:0:0:0:
160,160,18466,1,0,0:0:0:0:
160,160,18540,1,0,0:0:0:0:
293,203,18688,1,12,0:0:0:0:
160,160,18984,1,0,0:0:0:0:
160,160,19059,1,0,0:0:0:0:
160,160,19133,1,0,0:0:0:0:
160,160,19281,1,0,0:0:0:0:
160,160,19355,1,0,0:0:0:0:
160,160,19429,1,0,0:0:0:0:
293,203,19577,1,12,0:0:0:0:
160,160,19873,1,0,0:0:0:0:
160,160,19947,1,0,0:0:0:0:
160,160,20021,1,0,0:0:0:0:
160,160,20170,1,0,0:0:0:0:
160,160,20244,1,0,0:0:0:0:
160,160,20318,1,0,0:0:0:0:
160,160,20466,1,8,0:0:0:0:
160,160,20540,1,8,0:0:0:0:
160,160,20614,1,8,0:0:0:0:
160,160,20688,1,0,0:0:0:0:
160,160,20762,1,8,0:0:0:0:
160,160,20836,1,8,0:0:0:0:
160,160,20910,1,0,0:0:0:0:
160,160,20984,1,0,0:0:0:0:
160,160,21059,1,8,0:0:0:0:
160,160,21133,1,8,0:0:0:0:
160,160,21207,1,8,0:0:0:0:
160,160,21281,1,0,0:0:0:0:
160,160,21355,1,8,0:0:0:0:
160,160,21429,1,8,0:0:0:0:
160,160,21503,1,8,0:0:0:0:
160,160,21577,1,8,0:0:0:0:
160,160,21651,1,0,0:0:0:0:
195,181,21725,1,0,0:0:0:0:
231,203,21799,1,0,0:0:0:0:
267,225,21873,1,0,0:0:0:0:
303,247,21947,1,8,0:0:0:0:
338,269,22021,1,8,0:0:0:0:
96,128,22096,1,0,0:0:0:0:
64,160,22170,1,0,0:0:0:0:
160,160,22244,1,8,0:0:0:0:
128,160,22318,1,0,0:0:0:0:
96,192,22392,1,0,0:0:0:0:
64,192,22466,1,0,0:0:0:0:
64,160,22540,1,0,0:0:0:0:
96,128,22614,1,0,0:0:0:0:
32,384,22688,1,8,0:0:0:0:
64,192,22762,1,0,0:0:0:0:
64,192,22836,1,0,0:0:0:0:
64,192,22910,1,0,0:0:0:0:
64,192,22984,1,0,0:0:0:0:
64,192,23059,1,0,0:0:0:0:
160,160,23133,1,8,0:0:0:0:
155,203,23207,1,0,0:0:0:0:
155,203,23281,1,0,0:0:0:0:
155,203,23355,1,0,0:0:0:0:
102,317,23429,1,8,0:0:0:0:
155,203,23503,1,0,0:0:0:0:
137,241,23577,1,8,0:0:0:0:
155,203,23651,1,8,0:0:0:0:
155,203,23725,1,0,0:0:0:0:
155,203,23799,1,0,0:0:0:0:
155,203,23873,1,8,0:0:0:0:
155,203,23947,1,0,0:0:0:0:
128,192,24021,1,8,0:0:0:0:
88,175,24096,1,8,0:0:0:0:
48,159,24170,1,8,0:0:0:0:
48,159,24244,1,8,0:0:0:0:
48,159,24318,1,0,0:0:0:0:
48,159,24392,1,0,0:0:0:0:
48,159,24466,1,0,0:0:0:0:
48,159,24540,1,0,0:0:0:0:
48,159,24614,1,8,0:0:0:0:
48,159,24688,1,8,0:0:0:0:
48,159,24762,1,0,0:0:0:0:
48,159,24836,1,0,0:0:0:0:
48,159,24910,1,8,0:0:0:0:
85,140,24984,1,8,0:0:0:0:
123,122,25059,1,8,0:0:0:0:
123,122,25133,1,8,0:0:0:0:
123,122,25207,1,0,0:0:0:0:
123,122,25281,1,0,0:0:0:0:
123,122,25355,1,0,0:0:0:0:
123,122,25429,1,0,0:0:0:0:
383,135,25503,1,8,0:0:0:0:
123,122,25577,1,0,0:0:0:0:
123,122,25651,1,0,0:0:0:0:
123,122,25725,1,0,0:0:0:0:
217,160,25799,1,8,0:0:0:0:
175,156,25873,1,8,0:0:0:0:
91,149,25947,1,8,0:0:0:0:
91,149,26021,1,8,0:0:0:0:
91,149,26096,1,0,0:0:0:0:
91,149,26170,1,0,0:0:0:0:
91,149,26244,1,8,0:0:0:0:
91,149,26318,1,0,0:0:0:0:
91,149,26392,1,8,0:0:0:0:
91,149,26466,1,8,0:0:0:0:
91,149,26540,1,0,0:0:0:0:
91,149,26614,1,0,0:0:0:0:
89,177,26688,5,8,0:0:0:0:
89,177,26836,1,0,0:0:0:0:
89,177,26910,1,0,0:0:0:0:
89,177,26984,1,8,0:0:0:0:
89,177,27133,1,0,0:0:0:0:
89,177,27207,1,0,0:0:0:0:
89,177,27281,1,8,0:0:0:0:
89,177,27429,1,0,0:0:0:0:
128,192,27577,5,8,0:0:0:0:
128,192,27651,1,8,0:0:0:0:
128,192,27725,1,8,0:0:0:0:
128,192,27799,1,8,0:0:0:0:
128,192,27873,1,0,0:0:0:0:
128,192,27947,1,0,0:0:0:0:
128,192,28021,1,0,0:0:0:0:
128,192,28096,1,0,0:0:0:0:
128,192,28170,1,8,0:0:0:0:
128,192,28244,1,8,0:0:0:0:
128,192,28318,1,0,0:0:0:0:
105,156,28392,1,0,0:0:0:0:
160,128,28466,5,8,0:0:0:0:
64,128,28577,1,0,0:0:0:0:
160,128,28688,1,0,0:0:0:0:
160,128,28799,1,8,0:0:0:0:
384,256,29577,1,8,0:0:0:0:
384,256,29632,1,8,0:0:0:0:
384,256,29688,1,8,0:0:0:0:
308,219,29799,1,0,0:0:0:0:
232,183,29910,1,0,0:0:0:0:
352,288,30021,1,12,0:0:0:0:
352,288,30243,1,8,0:0:0:0:
352,288,30354,1,0,0:0:0:0:
352,288,30465,1,0,0:0:0:0:
352,288,30577,1,8,0:0:0:0:
288,224,30688,1,0,0:0:0:0:
192,224,30799,1,8,0:0:0:0:
224,256,30854,1,8,0:0:0:0:
264,268,30910,1,0,0:0:0:0:
303,280,30965,1,0,0:0:0:0:
343,293,31021,1,0,0:0:0:0:
224,256,31132,1,8,0:0:0:0:
224,256,31188,1,8,0:0:0:0:
192,224,31243,1,0,0:0:0:0:
192,224,31354,1,8,0:0:0:0:
160,224,31465,1,0,0:0:0:0:
128,192,31521,1,0,0:0:0:0:
96,192,31577,1,8,0:0:0:0:
64,160,31632,1,8,0:0:0:0:
64,160,31688,1,0,0:0:0:0:
64,160,31743,1,0,0:0:0:0:
64,160,31799,1,8,0:0:0:0:
75,327,32021,1,8,0:0:0:0:
77,243,32132,1,8,0:0:0:0:
96,161,32243,1,0,0:0:0:0:
128,192,32299,1,0,0:0:0:0:
115,79,32354,1,8,0:0:0:0:
96,161,32465,1,0,0:0:0:0:
96,161,32577,1,0,0:0:0:0:
79,186,32688,1,8,0:0:0:0:
39,60,32799,1,8,0:0:0:0:
39,60,32910,1,0,0:0:0:0:
39,60,32965,1,0,0:0:0:0:
39,60,33021,1,0,0:0:0:0:
39,60,33132,1,8,0:0:0:0:
39,60,33243,1,0,0:0:0:0:
79,186,33354,1,8,0:0:0:0:
38,174,33410,1,8,0:0:0:0:
10,167,33465,1,0,0:0:0:0:
39,60,33521,1,0,0:0:0:0:
79,186,33577,1,8,0:0:0:0:
156,217,33688,1,0,0:0:0:0:
79,186,33799,1,8,0:0:0:0:
79,186,33910,1,8,0:0:0:0:
157,157,34021,1,0,0:0:0:0:
117,172,34077,1,0,0:0:0:0:
117,172,34132,1,8,0:0:0:0:
69,241,34243,1,0,0:0:0:0:
117,172,34354,1,0,0:0:0:0:
79,186,34465,1,8,0:0:0:0:
66,102,34577,1,8,0:0:0:0:
55,140,34688,1,0,0:0:0:0:
55,140,34743,1,0,0:0:0:0:
55,140,34799,1,0,0:0:0:0:
138,147,34910,1,8,0:0:0:0:
55,140,34965,1,0,0:0:0:0:
138,147,35021,1,0,0:0:0:0:
79,186,35132,1,8,0:0:0:0:
77,143,35188,1,8,0:0:0:0:
83,184,35243,1,8,0:0:0:0:
97,144,35299,1,8,0:0:0:0:
79,186,35354,1,0,0:0:0:0:
79,186,35465,1,0,0:0:0:0:
79,186,35577,1,8,0:0:0:0:
64,103,35688,1,8,0:0:0:0:
121,164,35799,1,8,0:0:0:0:
121,164,35910,1,0,0:0:0:0:
121,164,36021,1,8,0:0:0:0:
121,164,36132,1,0,0:0:0:0:
364,320,36243,1,8,0:0:0:0:
330,294,36299,1,8,0:0:0:0:
364,320,36354,1,0,0:0:0:0:
330,294,36410,1,0,0:0:0:0:
364,320,36465,1,8,0:0:0:0:
298,265,36577,1,0,0:0:0:0:
232,212,36688,1,8,0:0:0:0:
79,145,36799,1,8,0:0:0:0:
79,145,36910,1,0,0:0:0:0:
79,145,37021,1,0,0:0:0:0:
160,170,37132,1,8,0:0:0:0:
125,145,37188,1,8,0:0:0:0:
79,145,37243,1,0,0:0:0:0:
118,129,37299,1,0,0:0:0:0:
79,186,37354,1,8,0:0:0:0:
64,103,37465,1,8,0:0:0:0:
121,164,37576,1,8,0:0:0:0:
121,164,37687,1,0,0:0:0:0:
121,164,37798,1,8,0:0:0:0:
121,164,37910,1,0,0:0:0:0:
364,320,38020,5,8,0:0:0:0:
334,288,38077,1,8,0:0:0:0:
364,320,38131,1,0,0:0:0:0:
334,288,38188,1,0,0:0:0:0:
364,320,38242,1,8,0:0:0:0:
162,165,38354,1,0,0:0:0:0:
230,217,38465,1,8,0:0:0:0:
162,165,38577,1,0,0:0:0:0:
101,123,38688,1,8,0:0:0:0:
101,123,38743,1,8,0:0:0:0:
101,123,38799,1,8,0:0:0:0:
101,123,38854,1,8,0:0:0:0:
101,123,38910,1,0,0:0:0:0:
101,123,38965,1,0,0:0:0:0:
101,123,39021,1,0,0:0:0:0:
101,123,39077,1,0,0:0:0:0:
137,146,39132,5,8,0:0:0:0:
66,100,39243,1,0,0:0:0:0:
137,146,39354,1,8,0:0:0:0:
137,146,39465,1,8,0:0:0:0:
101,123,39577,1,0,0:0:0:0:
101,123,39632,1,0,0:0:0:0:
137,146,39688,1,0,0:0:0:0:
115,110,39743,1,0,0:0:0:0:
137,146,39799,1,8,0:0:0:0:
137,146,39910,1,8,0:0:0:0:
137,146,40021,1,8,0:0:0:0:
101,123,40132,1,0,0:0:0:0:
101,123,40188,1,0,0:0:0:0:
83,154,40243,1,8,0:0:0:0:
101,123,40354,1,0,0:0:0:0:
101,123,40410,1,0,0:0:0:0:
83,154,40465,1,8,0:0:0:0:
83,69,40577,1,0,0:0:0:0:
83,152,40688,1,0,0:0:0:0:
83,68,40799,1,0,0:0:0:0:
83,154,40910,1,8,0:0:0:0:
101,123,41021,1,0,0:0:0:0:
249,136,41132,1,8,0:0:0:0:
165,145,41243,1,8,0:0:0:0:
101,123,41354,1,0,0:0:0:0:
101,123,41410,1,0,0:0:0:0:
83,154,41465,1,0,0:0:0:0:
124,146,41521,1,0,0:0:0:0:
83,154,41577,1,8,0:0:0:0:
83,154,41688,1,0,0:0:0:0:
101,123,41743,1,0,0:0:0:0:
83,154,41799,1,8,0:0:0:0:
80,70,41910,1,0,0:0:0:0:
81,111,41965,1,0,0:0:0:0:
212,47,42021,1,8,0:0:0:0:
81,111,42132,1,0,0:0:0:0:
81,111,42188,1,0,0:0:0:0:
82,154,42243,1,8,0:0:0:0:
153,198,42354,1,8,0:0:0:0:
224,242,42465,1,0,0:0:0:0:
295,286,42577,1,0,0:0:0:0:
366,333,42688,1,8,0:0:0:0:
137,146,53354,5,8,0:0:0:0:
66,100,53465,1,0,0:0:0:0:
137,146,53576,1,8,0:0:0:0:
137,146,53687,1,8,0:0:0:0:
101,123,53799,1,0,0:0:0:0:
101,123,53854,1,0,0:0:0:0:
137,146,53910,1,0,0:0:0:0:
115,110,53965,1,0,0:0:0:0:
137,146,54021,1,8,0:0:0:0:
137,146,54132,1,8,0:0:0:0:
137,146,54243,1,8,0:0:0:0:
101,123,54354,1,0,0:0:0:0:
101,123,54410,1,0,0:0:0:0:
83,154,54465,1,8,0:0:0:0:
101,123,54576,1,0,0:0:0:0:
101,123,54632,1,0,0:0:0:0:
83,154,54687,1,8,0:0:0:0:
83,69,54799,1,0,0:0:0:0:
83,152,54910,1,0,0:0:0:0:
83,68,55021,1,0,0:0:0:0:
83,154,55132,1,8,0:0:0:0:
101,123,55243,1,0,0:0:0:0:
249,136,55354,1,8,0:0:0:0:
165,145,55465,1,8,0:0:0:0:
101,123,55576,1,0,0:0:0:0:
101,123,55632,1,0,0:0:0:0:
83,154,55687,1,0,0:0:0:0:
124,146,55743,1,0,0:0:0:0:
83,154,55799,1,8,0:0:0:0:
83,154,55910,1,0,0:0:0:0:
101,123,55965,1,0,0:0:0:0:
83,154,56021,1,8,0:0:0:0:
80,70,56132,1,0,0:0:0:0:
81,111,56187,1,0,0:0:0:0:
212,47,56243,1,8,0:0:0:0:
81,111,56354,1,0,0:0:0:0:
81,111,56410,1,0,0:0:0:0:
82,154,56465,1,8,0:0:0:0:
165,169,56577,1,8,0:0:0:0:
247,184,56688,1,0,0:0:0:0:
247,184,56799,1,0,0:0:0:0:
78,206,56910,1,8,0:0:0:0:
144,51,57132,1,0,0:0:0:0:
111,128,57243,1,0,0:0:0:0:
111,128,57354,1,0,0:0:0:0:
111,128,57465,1,0,0:0:0:0:
365,290,57577,1,8,0:0:0:0:
111,128,57688,1,0,0:0:0:0:
111,128,57799,1,0,0:0:0:0:
111,128,57910,1,0,0:0:0:0:
111,128,58021,1,0,0:0:0:0:
111,128,58132,1,0,0:0:0:0:
187,162,58243,1,8,0:0:0:0:
145,153,58299,1,8,0:0:0:0:
104,143,58354,1,8,0:0:0:0:
104,143,58410,1,8,0:0:0:0:
104,143,58465,1,0,0:0:0:0:
104,143,58521,1,0,0:0:0:0:
104,143,58577,1,0,0:0:0:0:
104,143,58632,1,0,0:0:0:0:
365,290,58688,1,8,0:0:0:0:
214,216,58910,1,0,0:0:0:0:
138,178,59021,1,0,0:0:0:0:
62,141,59132,1,0,0:0:0:0:
137,178,59243,1,0,0:0:0:0:
3,180,59354,1,8,0:0:0:0:
84,198,59465,1,0,0:0:0:0:
167,216,59577,1,0,0:0:0:0:
249,235,59688,1,0,0:0:0:0:
331,253,59799,1,0,0:0:0:0:
290,244,59854,1,0,0:0:0:0:
290,244,59910,1,0,0:0:0:0:
290,244,59965,1,0,0:0:0:0:
487,318,60021,1,8,0:0:0:0:
290,244,60132,1,0,0:0:0:0:
290,244,60243,1,8,0:0:0:0:
290,244,60299,1,0,0:0:0:0:
290,244,60354,1,0,0:0:0:0:
3,180,60465,1,8,0:0:0:0:
83,205,60577,1,0,0:0:0:0:
162,230,60688,1,0,0:0:0:0:
23,295,60799,1,8,0:0:0:0:
184,256,60910,1,0,0:0:0:0:
184,256,61021,1,0,0:0:0:0:
267,236,61132,1,8,0:0:0:0:
225,246,61188,1,8,0:0:0:0:
184,256,61243,1,0,0:0:0:0:
184,256,61299,1,0,0:0:0:0:
23,295,61354,1,8,0:0:0:0:
184,256,61465,1,0,0:0:0:0:
184,256,61577,1,0,0:0:0:0:
23,295,61688,1,8,0:0:0:0:
184,256,61799,1,0,0:0:0:0:
184,256,61910,1,0,0:0:0:0:
184,256,62021,1,8,0:0:0:0:
184,256,62077,1,8,0:0:0:0:
184,256,62132,1,0,0:0:0:0:
184,256,62188,1,0,0:0:0:0:
23,295,62243,1,8,0:0:0:0:
184,256,62354,1,0,0:0:0:0:
184,256,62465,1,0,0:0:0:0:
23,295,62577,1,8,0:0:0:0:
184,256,62688,1,0,0:0:0:0:
184,256,62799,1,0,0:0:0:0:
184,256,62910,1,8,0:0:0:0:
184,256,62965,1,8,0:0:0:0:
184,256,63021,1,0,0:0:0:0:
184,256,63077,1,0,0:0:0:0:
23,295,63132,1,8,0:0:0:0:
184,256,63243,1,0,0:0:0:0:
184,256,63354,1,0,0:0:0:0:
184,256,63465,1,8,0:0:0:0:
184,256,63577,1,0,0:0:0:0:
184,256,63632,1,0,0:0:0:0:
184,256,63688,1,0,0:0:0:0:
149,222,63743,1,0,0:0:0:0:
118,200,63799,1,8,0:0:0:0:
186,248,64021,1,8,0:0:0:0:
144,51,64243,1,0,0:0:0:0:
111,128,64354,1,0,0:0:0:0:
111,128,64465,1,0,0:0:0:0:
111,128,64576,1,0,0:0:0:0:
365,290,64688,1,8,0:0:0:0:
111,128,64799,1,0,0:0:0:0:
111,128,64910,1,0,0:0:0:0:
111,128,65021,1,0,0:0:0:0:
111,128,65132,1,0,0:0:0:0:
111,128,65243,1,0,0:0:0:0:
187,162,65354,1,8,0:0:0:0:
145,153,65410,1,8,0:0:0:0:
104,143,65465,1,8,0:0:0:0:
104,143,65521,1,8,0:0:0:0:
104,143,65576,1,0,0:0:0:0:
104,143,65632,1,0,0:0:0:0:
104,143,65688,1,0,0:0:0:0:
104,143,65743,1,0,0:0:0:0:
365,290,65799,1,8,0:0:0:0:
214,216,66021,1,0,0:0:0:0:
138,178,66132,1,0,0:0:0:0:
62,141,66243,1,0,0:0:0:0:
137,178,66354,1,0,0:0:0:0:
3,180,66465,1,8,0:0:0:0:
84,198,66576,1,0,0:0:0:0:
167,216,66688,1,0,0:0:0:0:
249,235,66799,1,0,0:0:0:0:
331,253,66910,1,0,0:0:0:0:
290,244,66965,1,0,0:0:0:0:
290,244,67021,1,0,0:0:0:0:
290,244,67076,1,0,0:0:0:0:
487,318,67132,1,8,0:0:0:0:
290,244,67243,1,0,0:0:0:0:
290,244,67354,1,8,0:0:0:0:
290,244,67410,1,0,0:0:0:0:
290,244,67465,1,0,0:0:0:0:
3,180,67576,1,8,0:0:0:0:
83,205,67688,1,0,0:0:0:0:
162,230,67799,1,0,0:0:0:0:
23,295,67910,1,8,0:0:0:0:
184,256,68021,1,0,0:0:0:0:
184,256,68132,1,0,0:0:0:0:
267,236,68243,1,8,0:0:0:0:
225,246,68299,1,8,0:0:0:0:
184,256,68354,1,0,0:0:0:0:
184,256,68410,1,0,0:0:0:0:
23,295,68465,1,8,0:0:0:0:
184,256,68576,1,0,0:0:0:0:
184,256,68688,1,0,0:0:0:0:
23,295,68799,1,8,0:0:0:0:
184,256,68910,1,0,0:0:0:0:
184,256,69021,1,0,0:0:0:0:
184,256,69132,1,8,0:0:0:0:
184,256,69188,1,8,0:0:0:0:
184,256,69243,1,0,0:0:0:0:
184,256,69299,1,0,0:0:0:0:
23,295,69354,1,8,0:0:0:0:
184,256,69465,1,0,0:0:0:0:
184,256,69576,1,0,0:0:0:0:
23,295,69688,1,8,0:0:0:0:
184,256,69799,1,0,0:0:0:0:
184,256,69910,1,0,0:0:0:0:
115,207,70021,1,8,0:0:0:0:
42,164,70132,1,0,0:0:0:0:
151,161,70243,5,8,0:0:0:0:
151,161,70299,1,0,0:0:0:0:
151,161,70354,1,8,0:0:0:0:
151,161,70410,1,8,0:0:0:0:
151,161,70465,1,0,0:0:0:0:
151,161,70521,1,0,0:0:0:0:
151,161,70577,1,8,0:0:0:0:
151,161,70632,1,8,0:0:0:0:
151,161,70688,1,0,0:0:0:0:
151,161,70743,1,0,0:0:0:0:
151,161,70799,1,8,0:0:0:0:
151,161,70854,1,0,0:0:0:0:
151,161,70910,1,8,0:0:0:0:
232,180,71021,1,0,0:0:0:0:
160,192,71132,5,8,0:0:0:0:
160,192,71188,1,8,0:0:0:0:
128,192,71243,1,0,0:0:0:0:
96,160,71299,1,0,0:0:0:0:
160,192,71354,1,8,0:0:0:0:
160,192,71410,1,8,0:0:0:0:
128,192,71465,1,0,0:0:0:0:
96,160,71521,1,0,0:0:0:0:
96,160,71577,1,8,0:0:0:0:
96,160,71632,1,8,0:0:0:0:
96,160,71688,1,8,0:0:0:0:
96,160,71743,1,0,0:0:0:0:
160,192,71799,1,8,0:0:0:0:
96,160,71854,1,0,0:0:0:0:
224,256,71910,1,8,0:0:0:0:
160,192,71966,1,8,0:0:0:0:
192,160,72021,1,0,0:0:0:0:
224,128,72077,1,0,0:0:0:0:
96,160,72132,1,8,0:0:0:0:
96,160,72188,1,8,0:0:0:0:
224,128,72243,1,0,0:0:0:0:
224,128,72299,1,0,0:0:0:0:
96,160,72354,1,8,0:0:0:0:
96,160,72410,1,8,0:0:0:0:
96,160,72465,1,8,0:0:0:0:
224,128,72521,1,0,0:0:0:0:
96,160,72577,1,8,0:0:0:0:
96,160,72632,1,0,0:0:0:0:
96,160,72688,1,8,0:0:0:0:
96,160,72743,1,8,0:0:0:0:
96,160,72799,1,0,0:0:0:0:
96,160,72854,1,0,0:0:0:0:
160,192,72910,5,8,0:0:0:0:
160,192,72966,1,8,0:0:0:0:
128,192,73021,1,0,0:0:0:0:
96,160,73077,1,0,0:0:0:0:
160,192,73132,1,8,0:0:0:0:
160,192,73188,1,8,0:0:0:0:
128,192,73243,1,0,0:0:0:0:
96,160,73299,1,0,0:0:0:0:
96,160,73355,1,8,0:0:0:0:
96,160,73410,1,8,0:0:0:0:
96,160,73466,1,8,0:0:0:0:
96,160,73521,1,0,0:0:0:0:
160,192,73577,1,8,0:0:0:0:
96,160,73632,1,0,0:0:0:0:
224,256,73688,1,8,0:0:0:0:
160,192,73744,1,8,0:0:0:0:
192,160,73799,1,0,0:0:0:0:
224,128,73855,1,0,0:0:0:0:
96,160,73910,1,8,0:0:0:0:
96,160,73966,1,8,0:0:0:0:
224,128,74021,1,0,0:0:0:0:
224,128,74077,1,0,0:0:0:0:
96,160,74132,1,8,0:0:0:0:
96,160,74188,1,8,0:0:0:0:
96,160,74243,1,8,0:0:0:0:
224,128,74299,1,0,0:0:0:0:
96,160,74355,1,8,0:0:0:0:
96,160,74410,1,0,0:0:0:0:
96,160,74466,1,8,0:0:0:0:
96,160,74521,1,8,0:0:0:0:
96,160,74577,1,0,0:0:0:0:
96,160,74632,1,0,0:0:0:0:
160,192,74688,5,8,0:0:0:0:
128,192,74799,1,0,0:0:0:0:
160,192,74910,1,8,0:0:0:0:
128,192,75021,1,0,0:0:0:0:
96,160,75133,1,8,0:0:0:0:
96,160,75244,1,8,0:0:0:0:
160,192,75355,1,0,0:0:0:0:
224,256,75466,1,8,0:0:0:0:
192,160,75577,1,0,0:0:0:0:
96,160,75688,1,8,0:0:0:0:
224,128,75799,1,0,0:0:0:0:
96,160,75910,1,8,0:0:0:0:
96,160,76021,1,8,0:0:0:0:
96,160,76133,1,8,0:0:0:0:
96,160,76244,1,0,0:0:0:0:
96,160,76355,1,0,0:0:0:0:
160,192,76466,5,8,0:0:0:0:
128,192,76577,1,0,0:0:0:0:
160,192,76688,1,8,0:0:0:0:
128,192,76799,1,0,0:0:0:0:
96,160,76911,1,8,0:0:0:0:
96,160,77022,1,8,0:0:0:0:
160,192,77132,1,0,0:0:0:0:
224,256,77244,1,8,0:0:0:0:
192,160,77355,1,0,0:0:0:0:
96,160,77466,1,8,0:0:0:0:
224,128,77577,1,0,0:0:0:0:
96,160,77688,1,0,0:0:0:0:
64,128,77799,1,8,0:0:0:0:
64,128,77854,1,8,0:0:0:0:
64,128,77910,1,8,0:0:0:0:
64,128,77965,1,8,0:0:0:0:
64,128,78021,1,0,0:0:0:0:
64,128,78077,1,0,0:0:0:0:
64,128,78132,1,0,0:0:0:0:
64,128,78188,1,0,0:0:0:0:
160,192,78243,5,8,0:0:0:0:
160,192,78299,1,8,0:0:0:0:
128,192,78354,1,0,0:0:0:0:
96,160,78410,1,0,0:0:0:0:
160,192,78465,1,8,0:0:0:0:
160,192,78521,1,8,0:0:0:0:
128,192,78576,1,0,0:0:0:0:
96,160,78632,1,0,0:0:0:0:
96,160,78688,1,8,0:0:0:0:
96,160,78743,1,8,0:0:0:0:
96,160,78799,1,8,0:0:0:0:
96,160,78854,1,0,0:0:0:0:
160,192,78910,1,8,0:0:0:0:
96,160,78965,1,0,0:0:0:0:
224,256,79021,1,8,0:0:0:0:
160,192,79077,1,8,0:0:0:0:
192,160,79132,1,0,0:0:0:0:
224,128,79188,1,0,0:0:0:0:
96,160,79243,1,8,0:0:0:0:
96,160,79299,1,8,0:0:0:0:
224,128,79354,1,0,0:0:0:0:
224,128,79410,1,0,0:0:0:0:
96,160,79465,1,8,0:0:0:0:
96,160,79521,1,8,0:0:0:0:
96,160,79576,1,8,0:0:0:0:
224,128,79632,1,0,0:0:0:0:
96,160,79688,1,8,0:0:0:0:
96,160,79743,1,0,0:0:0:0:
96,160,79799,1,8,0:0:0:0:
96,160,79854,1,8,0:0:0:0:
96,160,79910,1,0,0:0:0:0:
96,160,79965,1,0,0:0:0:0:
160,192,80021,5,8,0:0:0:0:
160,192,80077,1,8,0:0:0:0:
128,192,80132,1,0,0:0:0:0:
96,160,80188,1,0,0:0:0:0:
160,192,80243,1,8,0:0:0:0:
160,192,80299,1,8,0:0:0:0:
128,192,80354,1,0,0:0:0:0:
96,160,80410,1,0,0:0:0:0:
96,160,80466,1,8,0:0:0:0:
96,160,80521,1,8,0:0:0:0:
96,160,80577,1,8,0:0:0:0:
96,160,80632,1,0,0:0:0:0:
160,192,80688,1,8,0:0:0:0:
96,160,80743,1,0,0:0:0:0:
224,256,80799,1,8,0:0:0:0:
160,192,80855,1,8,0:0:0:0:
192,160,80910,1,0,0:0:0:0:
224,128,80966,1,0,0:0:0:0:
96,160,81021,1,8,0:0:0:0:
96,160,81077,1,8,0:0:0:0:
224,128,81132,1,0,0:0:0:0:
224,128,81188,1,0,0:0:0:0:
96,160,81243,1,8,0:0:0:0:
96,160,81299,1,8,0:0:0:0:
96,160,81354,1,8,0:0:0:0:
224,128,81410,1,0,0:0:0:0:
96,160,81466,1,8,0:0:0:0:
96,160,81521,1,0,0:0:0:0:
96,160,81577,1,8,0:0:0:0:
96,160,81632,1,8,0:0:0:0:
96,160,81688,1,0,0:0:0:0:
96,160,81743,1,0,0:0:0:0:
96,160,81799,1,8,0:0:0:0:
128,192,81910,1,0,0:0:0:0:
160,192,82021,1,8,0:0:0:0:
119,179,82077,1,8,0:0:0:0:
128,192,82132,1,0,0:0:0:0:
96,163,82188,1,0,0:0:0:0:
96,160,82244,1,8,0:0:0:0:
96,160,82355,1,8,0:0:0:0:
160,192,82466,1,0,0:0:0:0:
224,256,82577,1,8,0:0:0:0:
192,160,82688,1,0,0:0:0:0:
96,160,82799,1,8,0:0:0:0:
224,128,82910,1,0,0:0:0:0:
96,160,83021,1,8,0:0:0:0:
96,160,83132,1,8,0:0:0:0:
96,160,83244,1,8,0:0:0:0:
96,160,83355,1,0,0:0:0:0:
96,160,83466,1,0,0:0:0:0:
160,192,83577,5,8,0:0:0:0:
128,192,83688,1,0,0:0:0:0:
160,192,83799,1,8,0:0:0:0:
128,192,83910,1,0,0:0:0:0:
96,160,84022,1,8,0:0:0:0:
96,160,84133,1,8,0:0:0:0:
160,192,84243,1,0,0:0:0:0:
224,256,84355,1,8,0:0:0:0:
192,160,84466,1,0,0:0:0:0:
96,160,84577,1,8,0:0:0:0:
224,128,84688,1,0,0:0:0:0:
96,160,84799,1,0,0:0:0:0:
40,153,84910,1,8,0:0:0:0:
40,153,84965,1,8,0:0:0:0:
40,153,85021,1,8,0:0:0:0:
40,153,85077,1,8,0:0:0:0:
40,153,85132,1,0,0:0:0:0:
40,153,85354,1,8,0:0:0:0:
160,160,123132,5,8,0:0:0:0:
160,160,123188,1,8,0:0:0:0:
160,160,123243,1,8,0:0:0:0:
160,160,123299,1,8,0:0:0:0:
192,160,123354,1,0,0:0:0:0:
224,128,123410,1,0,0:0:0:0:
256,128,123465,1,0,0:0:0:0:
256,128,123521,1,0,0:0:0:0:
256,128,123577,1,8,0:0:0:0:
256,128,123632,1,8,0:0:0:0:
256,128,123688,1,0,0:0:0:0:
256,128,123743,1,0,0:0:0:0:
256,128,123799,1,0,0:0:0:0:
256,128,123854,1,0,0:0:0:0:
224,128,123910,1,0,0:0:0:0:
224,128,123965,1,0,0:0:0:0:
224,128,124021,1,8,0:0:0:0:
224,128,124077,1,8,0:0:0:0:
224,128,124132,1,0,0:0:0:0:
224,128,124188,1,0,0:0:0:0:
224,128,124243,1,0,0:0:0:0:
224,128,124299,1,0,0:0:0:0:
224,128,124354,1,0,0:0:0:0:
224,128,124410,1,0,0:0:0:0:
224,128,124465,1,8,0:0:0:0:
224,128,124521,1,8,0:0:0:0:
224,128,124577,1,8,0:0:0:0:
224,128,124632,1,8,0:0:0:0:
224,128,124688,1,0,0:0:0:0:
224,128,124743,1,0,0:0:0:0:
224,128,124799,1,0,0:0:0:0:
224,128,124854,1,0,0:0:0:0:
224,128,124910,1,8,0:0:0:0:
185,125,133354,5,8,0:0:0:0:
250,191,133465,1,0,0:0:0:0:
285,231,133577,1,0,0:0:0:0:
185,125,133688,1,8,0:0:0:0:
285,231,133799,1,0,0:0:0:0:
285,231,133910,1,0,0:0:0:0:
185,125,134021,1,8,0:0:0:0:
285,231,134132,1,0,0:0:0:0:
285,231,134243,1,0,0:0:0:0:
194,107,134354,1,8,0:0:0:0:
285,231,134465,1,0,0:0:0:0:
285,231,134577,1,0,0:0:0:0:
285,231,134688,1,8,0:0:0:0:
285,231,134743,1,0,0:0:0:0:
285,231,134799,1,8,0:0:0:0:
285,231,134854,1,0,0:0:0:0:
285,231,134910,1,8,0:0:0:0:
285,231,134965,1,0,0:0:0:0:
285,231,135021,1,8,0:0:0:0:
285,231,135077,1,0,0:0:0:0:
285,231,135132,1,8,0:0:0:0:
378,334,142243,5,8,0:0:0:0:
220,228,145798,1,12,0:0:0:0:
220,228,147576,1,12,0:0:0:0:
174,157,148168,1,0,0:0:0:0:
174,157,148465,1,8,0:0:0:0:
71,147,148761,1,0,0:0:0:0:
71,147,148909,1,0,0:0:0:0:
63,146,149205,1,0,0:0:0:0:
223,228,149354,1,12,0:0:0:0:
110,172,152909,1,4,0:0:0:0:
109,175,154687,1,12,0:0:0:0:
271,134,154983,1,0,0:0:0:0:
189,154,155131,1,0,0:0:0:0:
107,176,155280,1,8,0:0:0:0:
269,134,155576,1,8,0:0:0:0:
105,173,155872,1,0,0:0:0:0:
186,154,156020,1,8,0:0:0:0:
145,163,156094,1,0,0:0:0:0:
145,163,156168,1,8,0:0:0:0:
64,138,156317,1,0,0:0:0:0:
106,170,156465,1,12,0:0:0:0:
68,195,158243,1,12,0:0:0:0:
68,195,160020,5,12,0:0:0:0:
92,149,160909,1,12,0:0:0:0:
160,236,161798,5,4,0:0:0:0:
132,192,162539,1,0,0:0:0:0:
132,192,162613,1,0,0:0:0:0:
160,236,162687,1,8,0:0:0:0:
209,210,162835,1,0,0:0:0:0:
209,210,162983,1,8,0:0:0:0:
209,210,163057,1,8,0:0:0:0:
209,215,163131,1,0,0:0:0:0:
209,215,163205,1,0,0:0:0:0:
209,215,163280,1,8,0:0:0:0:
209,215,163354,1,8,0:0:0:0:
209,215,163428,1,0,0:0:0:0:
209,215,163502,1,0,0:0:0:0:
209,215,163576,1,8,0:0:0:0:
364,282,163872,1,8,0:0:0:0:
364,282,163946,1,8,0:0:0:0:
364,282,164020,1,8,0:0:0:0:
364,282,164094,1,8,0:0:0:0:
354,273,164168,1,0,0:0:0:0:
354,273,164242,1,0,0:0:0:0:
354,273,164317,1,0,0:0:0:0:
354,273,164391,1,0,0:0:0:0:
368,282,164465,1,8,0:0:0:0:
368,282,164539,1,8,0:0:0:0:
368,282,164613,1,8,0:0:0:0:
368,282,164687,1,8,0:0:0:0:
355,277,164761,1,0,0:0:0:0:
355,277,164835,1,0,0:0:0:0:
355,277,164909,1,0,0:0:0:0:
355,277,164983,1,0,0:0:0:0:
355,277,165057,1,8,0:0:0:0:
355,277,165131,1,0,0:0:0:0:
355,277,165205,1,0,0:0:0:0:
355,277,165280,1,0,0:0:0:0:
355,277,165354,1,8,0:0:0:0:
355,277,165428,1,8,0:0:0:0:
355,277,165502,1,0,0:0:0:0:
355,277,165576,1,0,0:0:0:0:
361,283,165650,1,8,0:0:0:0:
361,283,165724,1,8,0:0:0:0:
361,283,165798,1,8,0:0:0:0:
361,283,165872,1,8,0:0:0:0:
355,277,165946,1,0,0:0:0:0:
355,277,166020,1,0,0:0:0:0:
355,277,166094,1,0,0:0:0:0:
355,277,166168,1,0,0:0:0:0:
258,119,166242,1,8,0:0:0:0:
258,119,166317,1,8,0:0:0:0:
258,119,166391,1,0,0:0:0:0:
258,119,166465,1,0,0:0:0:0:
258,119,166539,1,8,0:0:0:0:
258,119,166613,1,8,0:0:0:0:
258,119,166687,1,8,0:0:0:0:
258,119,166761,1,8,0:0:0:0:
258,119,166835,1,0,0:0:0:0:
258,119,166909,1,0,0:0:0:0:
258,119,166983,1,8,0:0:0:0:
258,119,167057,1,0,0:0:0:0:
262,251,167131,1,8,0:0:0:0:
262,251,167205,1,8,0:0:0:0:
262,251,167280,1,8,0:0:0:0:
262,251,167354,1,8,0:0:0:0:
262,251,167428,1,0,0:0:0:0:
262,251,167502,1,0,0:0:0:0:
262,251,167576,1,8,0:0:0:0:
262,125,167650,1,0,0:0:0:0:
262,251,167724,1,8,0:0:0:0:
262,125,167798,1,0,0:0:0:0:
262,251,167872,1,8,0:0:0:0:
262,125,167946,1,0,0:0:0:0:
262,251,168020,1,8,0:0:0:0:
262,251,168094,1,8,0:0:0:0:
262,251,168168,1,8,0:0:0:0:
262,251,168242,1,8,0:0:0:0:
262,125,168317,1,0,0:0:0:0:
262,125,168391,1,0,0:0:0:0:
262,251,168465,1,8,0:0:0:0:
262,125,168539,1,0,0:0:0:0:
262,251,168613,1,8,0:0:0:0:
262,125,168687,1,0,0:0:0:0:
239,71,168761,1,8,0:0:0:0:
262,125,168835,1,0,0:0:0:0:
239,71,168909,1,8,0:0:0:0:
260,104,168983,1,8,0:0:0:0:
260,104,169057,1,8,0:0:0:0:
260,104,169131,1,8,0:0:0:0:
262,125,169205,1,0,0:0:0:0:
262,125,169280,1,0,0:0:0:0:
258,108,169354,1,8,0:0:0:0:
262,125,169428,1,0,0:0:0:0:
258,108,169502,1,8,0:0:0:0:
262,125,169576,1,0,0:0:0:0:
258,108,169650,1,8,0:0:0:0:
262,125,169724,1,0,0:0:0:0:
258,108,169798,1,8,0:0:0:0:
258,108,169872,1,8,0:0:0:0:
258,108,169946,1,0,0:0:0:0:
258,108,170020,1,0,0:0:0:0:
258,108,170094,1,8,0:0:0:0:
258,108,170168,1,8,0:0:0:0:
258,108,170242,1,0,0:0:0:0:
258,108,170317,1,0,0:0:0:0:
258,108,170391,1,8,0:0:0:0:
258,108,170465,1,8,0:0:0:0:
258,108,170539,1,0,0:0:0:0:
258,108,170613,1,0,0:0:0:0:
258,108,170687,1,8,0:0:0:0:
364,282,170983,1,8,0:0:0:0:
364,282,171057,1,8,0:0:0:0:
364,282,171131,1,8,0:0:0:0:
364,282,171205,1,8,0:0:0:0:
354,273,171279,1,0,0:0:0:0:
354,273,171353,1,0,0:0:0:0:
354,273,171428,1,0,0:0:0:0:
354,273,171502,1,0,0:0:0:0:
368,282,171576,1,8,0:0:0:0:
368,282,171650,1,8,0:0:0:0:
368,282,171724,1,8,0:0:0:0:
368,282,171798,1,8,0:0:0:0:
355,277,171872,1,0,0:0:0:0:
355,277,171946,1,0,0:0:0:0:
355,277,172020,1,0,0:0:0:0:
355,277,172094,1,0,0:0:0:0:
355,277,172168,1,8,0:0:0:0:
355,277,172242,1,0,0:0:0:0:
355,277,172316,1,0,0:0:0:0:
355,277,172391,1,0,0:0:0:0:
355,277,172465,1,8,0:0:0:0:
355,277,172539,1,8,0:0:0:0:
355,277,172613,1,0,0:0:0:0:
355,277,172687,1,0,0:0:0:0:
361,283,172761,1,8,0:0:0:0:
361,283,172835,1,8,0:0:0:0:
361,283,172909,1,8,0:0:0:0:
361,283,172983,1,8,0:0:0:0:
355,277,173057,1,0,0:0:0:0:
355,277,173131,1,0,0:0:0:0:
355,277,173205,1,0,0:0:0:0:
355,277,173279,1,0,0:0:0:0:
258,119,173353,1,8,0:0:0:0:
258,119,173428,1,0,0:0:0:0:
258,119,173502,1,0,0:0:0:0:
258,119,173576,1,0,0:0:0:0:
258,119,173650,1,8,0:0:0:0:
258,119,173724,1,0,0:0:0:0:
258,119,173798,1,0,0:0:0:0:
258,119,173872,1,0,0:0:0:0:
258,119,173946,1,8,0:0:0:0:
262,251,174242,1,8,0:0:0:0:
262,251,174391,1,8,0:0:0:0:
262,251,174539,1,0,0:0:0:0:
262,251,174687,1,0,0:0:0:0:
262,251,174835,1,8,0:0:0:0:
262,125,174909,1,0,0:0:0:0:
262,251,174983,1,8,0:0:0:0:
262,125,175057,1,0,0:0:0:0:
262,251,175131,1,8,0:0:0:0:
262,251,175279,1,8,0:0:0:0:
262,125,175428,1,0,0:0:0:0:
262,251,175576,1,0,0:0:0:0:
262,251,175724,1,8,0:0:0:0:
262,125,175798,1,0,0:0:0:0:
239,71,175872,1,8,0:0:0:0:
262,125,175946,1,0,0:0:0:0:
239,71,176020,1,8,0:0:0:0:
260,104,176168,1,8,0:0:0:0:
262,125,176316,1,0,0:0:0:0:
258,108,176465,1,0,0:0:0:0:
258,108,176613,1,8,0:0:0:0:
262,125,176687,1,0,0:0:0:0:
258,108,176761,1,8,0:0:0:0:
262,125,176835,1,0,0:0:0:0:
258,108,176909,1,8,0:0:0:0:
258,108,176983,1,8,0:0:0:0:
258,108,177057,1,8,0:0:0:0:
258,108,177131,1,8,0:0:0:0:
258,108,177205,1,0,0:0:0:0:
258,108,177279,1,0,0:0:0:0:
258,108,177353,1,0,0:0:0:0:
258,108,177428,1,0,0:0:0:0:
258,108,177502,1,8,0:0:0:0:
258,108,177576,1,8,0:0:0:0:
258,108,177650,1,0,0:0:0:0:
258,108,177724,1,0,0:0:0:0:
258,108,177798,1,8,0:0:0:0:
82,169,194020,5,12,0:0:0:0:
82,169,194242,1,12,0:0:0:0:
82,169,194464,1,4,0:0:0:0:
0,160,194686,1,12,0:0:0:0:
164,212,198352,1,8,0:0:0:0:
164,212,198408,1,8,0:0:0:0:
164,212,198463,1,0,0:0:0:0:
164,212,198519,1,8,0:0:0:0:
164,212,198574,1,0,0:0:0:0:
164,212,198630,1,0,0:0:0:0:
164,212,198686,1,8,0:0:0:0:
88,175,198797,1,8,0:0:0:0:
16,131,198908,1,0,0:0:0:0:
125,175,199019,1,8,0:0:0:0:
45,148,199130,1,0,0:0:0:0:
125,175,199241,1,8,0:0:0:0:
125,175,199352,1,8,0:0:0:0:
48,141,199463,1,0,0:0:0:0:
124,175,199574,1,0,0:0:0:0:
86,159,199686,1,8,0:0:0:0:
86,159,199741,1,8,0:0:0:0:
86,159,199797,1,8,0:0:0:0:
86,159,199852,1,0,0:0:0:0:
86,159,199908,1,0,0:0:0:0:
102,160,199963,1,0,0:0:0:0:
102,160,200019,1,8,0:0:0:0:
102,160,201019,1,8,0:0:0:0:
102,160,201074,1,0,0:0:0:0:
102,160,201130,1,0,0:0:0:0:
102,160,201186,1,8,0:0:0:0:
102,160,201241,1,0,0:0:0:0:
102,160,201297,1,0,0:0:0:0:
102,160,201352,1,8,0:0:0:0:
102,160,202352,1,8,0:0:0:0:
102,160,202408,1,0,0:0:0:0:
102,160,202463,1,0,0:0:0:0:
102,160,202519,1,8,0:0:0:0:
102,160,202574,1,0,0:0:0:0:
102,160,202630,1,0,0:0:0:0:
102,160,202686,1,8,0:0:0:0:
96,192,232019,5,8,0:0:0:0:
96,192,232074,1,0,0:0:0:0:
96,192,232130,1,8,0:0:0:0:
96,192,232185,1,8,0:0:0:0:
96,192,232241,1,0,0:0:0:0:
96,192,232297,1,0,0:0:0:0:
96,192,232352,1,8,0:0:0:0:
96,192,232408,1,0,0:0:0:0:
96,192,232463,1,8,0:0:0:0:
96,192,232519,1,8,0:0:0:0:
96,192,232574,1,0,0:0:0:0:
96,192,232630,1,0,0:0:0:0:
96,192,232685,1,8,0:0:0:0:
96,192,232741,1,0,0:0:0:0:
96,192,232797,1,8,0:0:0:0:
96,192,232852,1,8,0:0:0:0:
96,192,232908,1,0,0:0:0:0:
96,192,232963,1,0,0:0:0:0:
96,192,233019,1,8,0:0:0:0:
96,192,233074,1,8,0:0:0:0:
96,192,233130,1,8,0:0:0:0:
96,192,233185,1,0,0:0:0:0:
96,192,233241,1,0,0:0:0:0:
96,192,233297,1,0,0:0:0:0:
96,192,233352,1,8,0:0:0:0:
96,192,233408,1,8,0:0:0:0:
96,192,233463,1,8,0:0:0:0:
96,192,233519,1,8,0:0:0:0:
96,192,233574,1,0,0:0:0:0:
96,192,233630,1,0,0:0:0:0:
96,192,233685,1,8,0:0:0:0:
96,192,233741,1,0,0:0:0:0:
96,192,233797,1,8,0:0:0:0:
96,192,233852,1,8,0:0:0:0:
96,192,233908,1,0,0:0:0:0:
96,192,233963,1,0,0:0:0:0:
96,192,234019,1,8,0:0:0:0:
146,166,285349,5,8,0:0:0:0:
146,166,285405,1,0,0:0:0:0:
146,166,285460,1,8,0:0:0:0:
146,166,285516,1,8,0:0:0:0:
146,166,285571,1,0,0:0:0:0:
146,166,285627,1,0,0:0:0:0:
146,166,285683,1,8,0:0:0:0:
146,166,285738,1,8,0:0:0:0:
146,166,285794,1,0,0:0:0:0:
146,166,285849,1,0,0:0:0:0:
146,166,285905,1,8,0:0:0:0:
146,166,285960,1,0,0:0:0:0:
146,166,286016,1,8,0:0:0:0:
146,166,286127,1,0,0:0:0:0:
160,192,286238,5,8,0:0:0:0:
160,192,286294,1,8,0:0:0:0:
128,192,286349,1,0,0:0:0:0:
96,160,286405,1,0,0:0:0:0:
160,192,286460,1,8,0:0:0:0:
160,192,286516,1,8,0:0:0:0:
128,192,286571,1,0,0:0:0:0:
96,160,286627,1,0,0:0:0:0:
96,160,286683,1,8,0:0:0:0:
96,160,286738,1,8,0:0:0:0:
96,160,286794,1,8,0:0:0:0:
96,160,286849,1,0,0:0:0:0:
160,192,286905,1,8,0:0:0:0:
96,160,286960,1,0,0:0:0:0:
224,256,287016,1,8,0:0:0:0:
160,192,287071,1,8,0:0:0:0:
192,160,287127,1,0,0:0:0:0:
224,128,287183,1,0,0:0:0:0:
96,160,287238,1,8,0:0:0:0:
96,160,287294,1,8,0:0:0:0:
224,128,287349,1,0,0:0:0:0:
224,128,287405,1,0,0:0:0:0:
96,160,287460,1,8,0:0:0:0:
96,160,287516,1,8,0:0:0:0:
96,160,287571,1,8,0:0:0:0:
224,128,287627,1,0,0:0:0:0:
96,160,287683,1,8,0:0:0:0:
96,160,287738,1,0,0:0:0:0:
96,160,287794,1,8,0:0:0:0:
96,160,287849,1,8,0:0:0:0:
96,160,287905,1,0,0:0:0:0:
96,160,287960,1,0,0:0:0:0:
160,192,288016,5,8,0:0:0:0:
160,192,288071,1,8,0:0:0:0:
128,192,288127,1,0,0:0:0:0:
96,160,288183,1,0,0:0:0:0:
160,192,288238,1,8,0:0:0:0:
160,192,288294,1,8,0:0:0:0:
128,192,288349,1,0,0:0:0:0:
96,160,288405,1,0,0:0:0:0:
96,160,288460,1,8,0:0:0:0:
96,160,288516,1,8,0:0:0:0:
96,160,288571,1,8,0:0:0:0:
96,160,288627,1,0,0:0:0:0:
160,192,288683,1,8,0:0:0:0:
96,160,288738,1,0,0:0:0:0:
224,256,288794,1,8,0:0:0:0:
160,192,288849,1,8,0:0:0:0:
192,160,288905,1,0,0:0:0:0:
224,128,288960,1,0,0:0:0:0:
96,160,289016,1,8,0:0:0:0:
96,160,289071,1,8,0:0:0:0:
224,128,289127,1,0,0:0:0:0:
224,128,289183,1,0,0:0:0:0:
96,160,289238,1,8,0:0:0:0:
96,160,289294,1,8,0:0:0:0:
96,160,289349,1,8,0:0:0:0:
224,128,289405,1,0,0:0:0:0:
96,160,289460,1,8,0:0:0:0:
96,160,289516,1,0,0:0:0:0:
96,160,289571,1,8,0:0:0:0:
96,160,289627,1,8,0:0:0:0:
96,160,289683,1,0,0:0:0:0:
96,160,289738,1,0,0:0:0:0:
160,192,289794,5,8,0:0:0:0:
128,192,289905,1,0,0:0:0:0:
160,192,290016,1,8,0:0:0:0:
128,192,290127,1,0,0:0:0:0:
96,160,290238,1,8,0:0:0:0:
96,160,290349,1,8,0:0:0:0:
160,192,290460,1,0,0:0:0:0:
224,256,290571,1,8,0:0:0:0:
192,160,290683,1,0,0:0:0:0:
96,160,290794,1,8,0:0:0:0:
224,128,290905,1,0,0:0:0:0:
96,160,291016,1,8,0:0:0:0:
96,160,291127,1,8,0:0:0:0:
96,160,291238,1,8,0:0:0:0:
96,160,291349,1,0,0:0:0:0:
96,160,291460,1,0,0:0:0:0:
160,192,291571,5,8,0:0:0:0:
128,192,291683,1,0,0:0:0:0:
160,192,291794,1,8,0:0:0:0:
128,192,291905,1,0,0:0:0:0:
96,160,292016,1,8,0:0:0:0:
96,160,292127,1,8,0:0:0:0:
160,192,292238,1,0,0:0:0:0:
224,256,292349,1,8,0:0:0:0:
192,160,292460,1,0,0:0:0:0:
96,160,292571,1,8,0:0:0:0:
224,128,292683,1,0,0:0:0:0:
96,160,292794,1,0,0:0:0:0:
64,128,292905,1,8,0:0:0:0:
64,128,292960,1,8,0:0:0:0:
64,128,293016,1,8,0:0:0:0:
64,128,293071,1,8,0:0:0:0:
64,128,293127,1,0,0:0:0:0:
64,128,293183,1,0,0:0:0:0:
64,128,293238,1,0,0:0:0:0:
64,128,293294,1,0,0:0:0:0:
160,192,293349,5,8,0:0:0:0:
160,192,293405,1,8,0:0:0:0:
128,192,293460,1,0,0:0:0:0:
96,160,293516,1,0,0:0:0:0:
160,192,293571,1,8,0:0:0:0:
160,192,293627,1,8,0:0:0:0:
128,192,293683,1,0,0:0:0:0:
96,160,293738,1,0,0:0:0:0:
96,160,293794,1,8,0:0:0:0:
96,160,293849,1,8,0:0:0:0:
96,160,293905,1,8,0:0:0:0:
96,160,293960,1,0,0:0:0:0:
160,192,294016,1,8,0:0:0:0:
96,160,294071,1,0,0:0:0:0:
224,256,294127,1,8,0:0:0:0:
160,192,294183,1,8,0:0:0:0:
192,160,294238,1,0,0:0:0:0:
224,128,294294,1,0,0:0:0:0:
96,160,294349,1,8,0:0:0:0:
96,160,294405,1,8,0:0:0:0:
224,128,294460,1,0,0:0:0:0:
224,128,294516,1,0,0:0:0:0:
96,160,294571,1,8,0:0:0:0:
96,160,294627,1,8,0:0:0:0:
96,160,294683,1,8,0:0:0:0:
224,128,294738,1,0,0:0:0:0:
96,160,294794,1,8,0:0:0:0:
96,160,294849,1,0,0:0:0:0:
96,160,294905,1,8,0:0:0:0:
96,160,294960,1,8,0:0:0:0:
96,160,295016,1,0,0:0:0:0:
96,160,295071,1,0,0:0:0:0:
160,192,295127,5,8,0:0:0:0:
160,192,295183,1,8,0:0:0:0:
128,192,295238,1,0,0:0:0:0:
96,160,295294,1,0,0:0:0:0:
160,192,295349,1,8,0:0:0:0:
160,192,295405,1,8,0:0:0:0:
128,192,295460,1,0,0:0:0:0:
96,160,295516,1,0,0:0:0:0:
96,160,295571,1,8,0:0:0:0:
96,160,295627,1,8,0:0:0:0:
96,160,295683,1,8,0:0:0:0:
96,160,295738,1,0,0:0:0:0:
160,192,295794,1,8,0:0:0:0:
96,160,295849,1,0,0:0:0:0:
224,256,295905,1,8,0:0:0:0:
160,192,295960,1,8,0:0:0:0:
192,160,296016,1,0,0:0:0:0:
224,128,296071,1,0,0:0:0:0:
96,160,296127,1,8,0:0:0:0:
96,160,296183,1,8,0:0:0:0:
224,128,296238,1,0,0:0:0:0:
224,128,296294,1,0,0:0:0:0:
96,160,296349,1,8,0:0:0:0:
96,160,296405,1,8,0:0:0:0:
96,160,296460,1,8,0:0:0:0:
224,128,296516,1,0,0:0:0:0:
96,160,296571,1,8,0:0:0:0:
96,160,296627,1,0,0:0:0:0:
96,160,296683,1,8,0:0:0:0:
96,160,296738,1,8,0:0:0:0:
96,160,296794,1,0,0:0:0:0:
96,160,296849,1,0,0:0:0:0:
96,160,296905,1,8,0:0:0:0:
128,192,297016,1,0,0:0:0:0:
160,192,297127,1,8,0:0:0:0:
119,179,297183,1,8,0:0:0:0:
128,192,297238,1,0,0:0:0:0:
96,163,297294,1,0,0:0:0:0:
96,160,297349,1,8,0:0:0:0:
96,160,297460,1,8,0:0:0:0:
160,192,297571,1,0,0:0:0:0:
224,256,297683,1,8,0:0:0:0:
192,160,297794,1,0,0:0:0:0:
96,160,297905,1,8,0:0:0:0:
224,128,298016,1,0,0:0:0:0:
96,160,298127,1,8,0:0:0:0:
96,160,298238,1,8,0:0:0:0:
96,160,298349,1,8,0:0:0:0:
96,160,298460,1,0,0:0:0:0:
96,160,298571,1,0,0:0:0:0:
160,192,298683,5,8,0:0:0:0:
128,192,298794,1,0,0:0:0:0:
160,192,298905,1,8,0:0:0:0:
128,192,299016,1,0,0:0:0:0:
96,160,299127,1,8,0:0:0:0:
96,160,299238,1,8,0:0:0:0:
160,192,299349,1,0,0:0:0:0:
224,256,299460,1,8,0:0:0:0:
192,160,299571,1,0,0:0:0:0:
96,160,299683,1,8,0:0:0:0:
224,128,299794,1,0,0:0:0:0:
96,160,299905,1,0,0:0:0:0:
40,153,300016,1,8,0:0:0:0:
40,153,300071,1,8,0:0:0:0:
40,153,300127,1,8,0:0:0:0:
40,153,300183,1,8,0:0:0:0:
40,153,300238,1,0,0:0:0:0:
40,153,300460,1,8,0:0:0:0:
307,269,313794,5,12,0:0:0:0:
307,269,314016,1,4,0:0:0:0:
307,269,314238,1,12,0:0:0:0:
