osu file format v14

[General]
AudioFilename: audio.mp3
AudioLeadIn: 0
PreviewTime: 141103
Countdown: 0
SampleSet: Normal
StackLeniency: 0.2
Mode: 1
LetterboxInBreaks: 0
WidescreenStoryboard: 0

[Editor]
Bookmarks: 188025
DistanceSpacing: 1.1
BeatDivisor: 4
GridSize: 32
TimelineZoom: 3.499999

[Metadata]
Title:Forged in the Phlegethon
TitleUnicode:Forged in the Phlegethon
Artist:Inferi
ArtistUnicode:Inferi
Creator:iceOC
Version:Infernal Blade
Source:osu!
Tags:the end of an era rebirth death metal featured artist fa technical komasy
BeatmapID:2176186
BeatmapSetID:1041193

[Difficulty]
HPDrainRate:4
CircleSize:2
OverallDifficulty:7
ApproachRate:10
SliderMultiplier:1.4
SliderTickRate:1

[Events]
//Background and Video events
0,0,"BG.png",0,-135
//Break Periods
//Storyboard Layer 0 (Background)
//Storyboard Layer 1 (Fail)
//Storyboard Layer 2 (Pass)
//Storyboard Layer 3 (Foreground)
//Storyboard Layer 4 (Overlay)
//Storyboard Sound Samples

[TimingPoints]
150,250,3,1,0,80,1,0
130650,375,4,1,0,80,1,0
130650,-66.6666666666667,4,1,0,80,0,0
130696,-68.9655172413793,4,1,0,80,0,0
130790,-71.4285714285714,4,1,0,80,0,0
130884,-74.0740740740741,4,1,0,80,0,0
130978,-76.9230769230769,4,1,0,80,0,0
131071,-80,4,1,0,80,0,0
131165,-83.3333333333333,4,1,0,80,0,0
131259,-86.9565217391304,4,1,0,80,0,0
131353,-90.9090909090909,4,1,0,80,0,0
131446,-95.2380952380952,4,1,0,80,0,0
131540,-100,4,1,0,80,0,0
131634,-105.263157894737,4,1,0,80,0,0
131728,-111.111111111111,4,1,0,80,0,0
131821,-117.647058823529,4,1,0,80,0,0
131915,-125,4,1,0,80,0,0
132009,-133.333333333333,4,1,0,80,0,0
132150,375,3,1,0,80,1,0
132150,-66.6666666666667,3,1,0,80,0,0
141103,-57.1428571428571,3,1,0,80,0,0
141150,-57.1428571428571,3,1,0,80,0,1
145603,-57.1428571428571,3,1,0,80,0,1
145650,-58.1395348837209,3,1,0,80,0,0
145696,-59.1715976331361,3,1,0,80,0,0
145790,-60.2409638554217,3,1,0,80,0,0
145884,-61.3496932515337,3,1,0,80,0,0
145978,-62.5,3,1,0,80,0,0
146165,-64.9350649350649,3,1,0,80,0,0
146353,-67.5675675675676,3,1,0,80,0,0
146728,-71.4285714285714,3,1,0,80,0,0
146821,-72.463768115942,3,1,0,80,0,0
146915,-73.5294117647059,3,1,0,80,0,0
147009,-74.6268656716418,3,1,0,80,0,0
147103,-75.7575757575758,3,1,0,80,0,0
147290,-78.125,3,1,0,80,0,0
147478,-80.6451612903226,3,1,0,80,0,0
147665,-83.3333333333333,3,1,0,80,0,0
147853,-86.2068965517241,3,1,0,80,0,0
147946,-87.719298245614,3,1,0,80,0,0
148040,-89.2857142857143,3,1,0,80,0,0
148134,-90.9090909090909,3,1,0,80,0,0
148228,-92.5925925925926,3,1,0,80,0,0
148415,-94.3396226415094,3,1,0,80,0,0
148603,-96.1538461538461,3,1,0,80,0,0
148790,-98.0392156862745,3,1,0,80,0,0
148978,-100,3,1,0,80,0,0
149071,-102.040816326531,3,1,0,80,0,0
149165,-103.092783505155,3,1,0,80,0,0
149259,-104.166666666667,3,1,0,80,0,0
149353,-105.263157894737,3,1,0,80,0,0
149540,-106.382978723404,3,1,0,80,0,0
149634,-100,3,1,0,80,0,0
149728,-95.2380952380952,3,1,0,80,0,0
149821,-90.9090909090909,3,1,0,80,0,0
149915,-86.9565217391304,3,1,0,80,0,0
150103,-57.1428571428571,3,1,0,80,0,0
150150,-57.1428571428571,3,1,0,80,0,1
153525,375,4,1,0,80,1,1
153525,-57.1428571428571,4,1,0,80,0,1
153665,-62.5,4,1,0,80,0,1
153853,-68.9655172413793,4,1,0,80,0,1
154040,-76.9230769230769,4,1,0,80,0,1
154228,-83.3333333333333,4,1,0,80,0,1
154321,-86.2068965517241,4,1,0,80,0,1
154415,-89.2857142857143,4,1,0,80,0,1
154509,-92.5925925925926,4,1,0,80,0,1
154603,-96.1538461538461,4,1,0,80,0,1
154650,-96.1538461538461,4,1,0,80,0,1
154696,-100,4,1,0,80,0,0
154790,-104.166666666667,4,1,0,80,0,0
154884,-108.695652173913,4,1,0,80,0,0
154978,-113.636363636364,4,1,0,80,0,0
155071,-111.111111111111,4,1,0,80,0,0
155165,-108.695652173913,4,1,0,80,0,0
155259,-106.382978723404,4,1,0,80,0,0
155353,-104.166666666667,4,1,0,80,0,0
155446,-102.040816326531,4,1,0,80,0,0
155540,-100,4,1,0,80,0,0
155634,-98.0392156862745,4,1,0,80,0,0
155728,-96.1538461538461,4,1,0,80,0,0
155821,-94.3396226415094,4,1,0,80,0,0
155915,-92.5925925925926,4,1,0,80,0,0
156009,-90.9090909090909,4,1,0,80,0,0
156103,-89.2857142857143,4,1,0,80,0,0
156196,-87.719298245614,4,1,0,80,0,0
156290,-86.2068965517241,4,1,0,80,0,0
156384,-84.7457627118644,4,1,0,80,0,0
156478,-57.1428571428571,4,1,0,80,0,0
157978,-66.6666666666667,4,1,0,80,0,0
158259,-76.9230769230769,4,1,0,80,0,0
158540,-86.9565217391304,4,1,0,80,0,0
158728,-100,4,1,0,80,0,0
159009,-111.111111111111,4,1,0,80,0,0
159290,-117.647058823529,4,1,0,80,0,0
159478,-57.1428571428571,4,1,0,80,0,0
160978,-100,4,1,0,80,0,0
161165,-96.1538461538461,4,1,0,80,0,0
161353,-92.5925925925926,4,1,0,80,0,0
161540,-89.2857142857143,4,1,0,80,0,0
161634,-87.719298245614,4,1,0,80,0,0
161728,-86.2068965517241,4,1,0,80,0,0
161915,-83.3333333333333,4,1,0,80,0,0
162103,-80.6451612903226,4,1,0,80,0,0
162290,-78.125,4,1,0,80,0,0
162478,-75.7575757575758,4,1,0,80,0,0
162665,-73.5294117647059,4,1,0,80,0,0
162759,-72.463768115942,4,1,0,80,0,0
162853,-71.4285714285714,4,1,0,80,0,0
163040,-69.4444444444444,4,1,0,80,0,0
163228,-67.5675675675676,4,1,0,80,0,0
163415,-65.7894736842105,4,1,0,80,0,0
163603,-64.1025641025641,4,1,0,80,0,0
163790,-62.5,4,1,0,80,0,0
163884,-61.7283950617284,4,1,0,80,0,0
163978,-60.9756097560976,4,1,0,80,0,0
164165,-59.5238095238095,4,1,0,80,0,0
164353,-58.1395348837209,4,1,0,80,0,0
164540,-56.8181818181818,4,1,0,80,0,0
164728,-55.5555555555556,4,1,0,80,0,0
164915,-54.3478260869565,4,1,0,80,0,0
165009,-53.763440860215,4,1,0,80,0,0
165103,-53.1914893617021,4,1,0,80,0,0
165290,-52.0833333333333,4,1,0,80,0,0
165478,-50,4,1,0,80,0,0
166962,-45.4545454545455,4,1,0,80,0,0
167087,-50,4,1,0,80,0,0
167212,-55.5555555555556,4,1,0,80,0,0
167337,-58.8235294117647,4,1,0,80,0,0
167462,-62.5,4,1,0,80,0,0
167587,-66.6666666666667,4,1,0,80,0,0
167712,-58.8235294117647,4,1,0,80,0,0
167837,-62.5,4,1,0,80,0,0
167962,-66.6666666666667,4,1,0,80,0,0
168087,-71.4285714285714,4,1,0,80,0,0
168212,-76.9230769230769,4,1,0,80,0,0
168337,-83.3333333333333,4,1,0,80,0,0
168462,-62.5,4,1,0,80,0,0
168587,-66.6666666666667,4,1,0,80,0,0
168712,-71.4285714285714,4,1,0,80,0,0
168837,-76.9230769230769,4,1,0,80,0,0
168962,-83.3333333333333,4,1,0,80,0,0
169087,-90.9090909090908,4,1,0,80,0,0
169212,-100,4,1,0,80,0,0
169978,-62.5,4,1,0,80,0,0
170087,-66.6666666666667,4,1,0,80,0,0
170212,-71.4285714285714,4,1,0,80,0,0
170337,-76.9230769230769,4,1,0,80,0,0
170462,-83.3333333333333,4,1,0,80,0,0
170587,-90.9090909090909,4,1,0,80,0,0
170712,-71.4285714285714,4,1,0,80,0,0
170837,-75.7575757575758,4,1,0,80,0,0
170962,-80.6451612903226,4,1,0,80,0,0
171087,-86.2068965517241,4,1,0,80,0,0
171212,-92.5925925925926,4,1,0,80,0,0
171337,-99.9999999999999,4,1,0,80,0,0
171462,-76.9230769230769,4,1,0,80,0,0
171571,-78.7401574803149,4,1,0,80,0,0
171665,-80.6451612903226,4,1,0,80,0,0
171759,-82.6446280991736,4,1,0,80,0,0
171853,-84.7457627118644,4,1,0,80,0,0
171946,-86.9565217391304,4,1,0,80,0,0
172040,-89.2857142857143,4,1,0,80,0,0
172134,-91.743119266055,4,1,0,80,0,0
172228,-94.3396226415094,4,1,0,80,0,0
172321,-96.1538461538461,4,1,0,80,0,0
172415,-98.0392156862745,4,1,0,80,0,0
172509,-100,4,1,0,80,0,0
172603,-97.0873786407767,4,1,0,80,0,0
172696,-94.3396226415094,4,1,0,80,0,0
172790,-91.743119266055,4,1,0,80,0,0
172884,-89.2857142857143,4,1,0,80,0,0
172978,-87.719298245614,4,1,0,80,0,0
173165,-86.2068965517241,4,1,0,80,0,0
173353,-84.7457627118644,4,1,0,80,0,0
173540,-83.3333333333333,4,1,0,80,0,0
173634,-82.6446280991736,4,1,0,80,0,0
173728,-81.9672131147541,4,1,0,80,0,0
173915,-80.6451612903226,4,1,0,80,0,0
174103,-78.125,4,1,0,80,0,0
174196,-77.5193798449612,4,1,0,80,0,0
174290,-76.9230769230769,4,1,0,80,0,0
174478,-74.6268656716418,4,1,0,80,0,0
174665,-72.463768115942,4,1,0,80,0,0
174853,-70.4225352112676,4,1,0,80,0,0
174946,-69.4444444444444,4,1,0,80,0,0
175040,-68.4931506849315,4,1,0,80,0,0
175228,-66.6666666666667,4,1,0,80,0,0
175321,-65.7894736842105,4,1,0,80,0,0
175415,-64.9350649350649,4,1,0,80,0,0
175603,-63.2911392405063,4,1,0,80,0,0
175790,-61.7283950617284,4,1,0,80,0,0
175884,-60.9756097560976,4,1,0,80,0,0
175978,-60.2409638554217,4,1,0,80,0,0
176071,-59.5238095238095,4,1,0,80,0,0
176165,-58.8235294117647,4,1,0,80,0,0
176353,-56.1797752808989,4,1,0,80,0,0
176446,-54.9450549450549,4,1,0,80,0,0
176540,-53.763440860215,4,1,0,80,0,0
176728,-50,4,1,0,80,0,0
177478,-74.0740740740741,4,1,0,80,0,0
177571,-76.9230769230769,4,1,0,80,0,0
177665,-80,4,1,0,80,0,0
177759,-83.3333333333333,4,1,0,80,0,0
177853,-85.4700854700855,4,1,0,80,0,0
177946,-87.719298245614,4,1,0,80,0,0
178040,-90.0900900900901,4,1,0,80,0,0
178134,-92.5925925925926,4,1,0,80,0,0
178228,-95.2380952380954,4,1,0,80,0,0
178306,-93.4579439252336,4,1,0,80,0,0
178368,-91.743119266055,4,1,0,80,0,0
178431,-90.0900900900901,4,1,0,80,0,0
178493,-88.4955752212389,4,1,0,80,0,0
178556,-86.9565217391304,4,1,0,80,0,0
178618,-85.4700854700855,4,1,0,80,0,0
178696,-80,4,1,0,80,0,0
178790,-74.0740740740741,4,1,0,80,0,0
178884,-66.6666666666667,4,1,0,80,0,0
179025,375,3,1,0,80,1,1
179025,-57.1428571428571,3,1,0,80,0,1
179165,-57.1428571428571,3,1,0,80,0,1
187603,-58.4795321637427,3,1,0,80,0,1
187696,-59.8802395209581,3,1,0,80,0,1
187790,-60.9756097560976,3,1,0,80,0,1
187884,-62.5,3,1,0,80,0,1
187978,-64.1025641025641,3,1,0,80,0,1
188025,-64.1025641025641,3,1,0,80,0,1
188071,-100,3,1,0,80,0,0
236025,-100,3,1,0,80,0,0
236587,-95.2380952380952,3,1,0,80,0,0
236775,-90.9090909090909,3,1,0,80,0,0
236962,-86.9565217391304,3,1,0,80,0,0
237150,-84.7457627118644,3,1,0,80,0,0
237243,-82.6446280991736,3,1,0,80,0,0
237337,-80.6451612903226,3,1,0,80,0,0
237431,-78.7401574803149,3,1,0,80,0,0
237525,-76.9230769230769,3,1,0,80,0,0
241462,-78.7401574803149,3,1,0,80,0,0
241556,-80.6451612903226,3,1,0,80,0,0
241650,-83.3333333333333,3,1,0,80,0,0
241743,-86.2068965517241,3,1,0,80,0,0
241837,-89.2857142857143,3,1,0,80,0,0
241931,-92.5925925925926,3,1,0,80,0,0
242025,-96.1538461538461,3,1,0,80,0,0
242118,-100,3,1,0,80,0,0
249900,375,4,1,0,80,1,0
251400,375,3,1,0,80,1,0
260400,-100,3,1,0,80,0,0
269400,-55.5555555555556,3,1,0,80,0,1
278446,-56.4971751412429,3,1,0,80,0,1
278540,-57.4712643678161,3,1,0,80,0,1
278634,-58.4795321637427,3,1,0,80,0,1
278728,-59.5238095238095,3,1,0,80,0,1
278821,-60.6060606060606,3,1,0,80,0,1
278915,-61.7283950617284,3,1,0,80,0,1
279009,-62.8930817610063,3,1,0,80,0,1
279103,-64.1025641025641,3,1,0,80,0,1
279196,-65.359477124183,3,1,0,80,0,1
279290,-66.6666666666667,3,1,0,80,0,1
279384,-68.0272108843537,3,1,0,80,0,1
279478,-69.4444444444444,3,1,0,80,0,1
279571,-70.9219858156028,3,1,0,80,0,1
279665,-72.463768115942,3,1,0,80,0,1
279759,-74.0740740740741,3,1,0,80,0,1
279853,-75.7575757575758,3,1,0,80,0,1
279946,-76.9230769230769,3,1,0,80,0,1
280040,-78.125,3,1,0,80,0,1
280134,-79.3650793650794,3,1,0,80,0,1
280228,-80.6451612903226,3,1,0,80,0,1
280321,-81.9672131147541,3,1,0,80,0,1
280415,-83.3333333333333,3,1,0,80,0,1
280509,-84.7457627118644,3,1,0,80,0,1
280603,-86.2068965517241,3,1,0,80,0,1
280696,-87.719298245614,3,1,0,80,0,1
280790,-89.2857142857143,3,1,0,80,0,1
280884,-90.9090909090909,3,1,0,80,0,1
280978,-92.5925925925926,3,1,0,80,0,1
281071,-93.4579439252336,3,1,0,80,0,1
281165,-94.3396226415094,3,1,0,80,0,1
281259,-95.2380952380952,3,1,0,80,0,1
281353,-96.1538461538461,3,1,0,80,0,1
281446,-97.0873786407767,3,1,0,80,0,1
281540,-98.0392156862745,3,1,0,80,0,1
281634,-99.009900990099,3,1,0,80,0,1
281728,-100,3,1,0,80,0,1
287353,-90.9090909090909,3,1,0,80,0,1
287400,-90.9090909090909,3,1,0,80,0,0
314353,-83.3333333333333,3,1,0,80,0,1
315478,-76.9230769230769,3,1,0,80,0,1
316603,-71.4285714285714,3,1,0,80,0,1
317728,-66.6666666666667,3,1,0,80,0,1
318853,-62.5,3,1,0,80,0,1
318946,-62.111801242236,3,1,0,80,0,1
319040,-61.7283950617284,3,1,0,80,0,1
319134,-61.3496932515337,3,1,0,80,0,1
319228,-60.9756097560976,3,1,0,80,0,1
319321,-60.6060606060606,3,1,0,80,0,1
319415,-60.2409638554217,3,1,0,80,0,1
319509,-59.8802395209581,3,1,0,80,0,1
319603,-59.5238095238095,3,1,0,80,0,1
319696,-59.1715976331361,3,1,0,80,0,1
319790,-58.8235294117647,3,1,0,80,0,1
319884,-58.4795321637427,3,1,0,80,0,1
319978,-58.1395348837209,3,1,0,80,0,1
320048,-57.8034682080925,3,1,0,80,0,1
320095,-57.4712643678161,3,1,0,80,0,1
320165,-57.1428571428571,3,1,0,80,0,1
320259,-56.8181818181818,3,1,0,80,0,1
320353,-56.4971751412429,3,1,0,80,0,1
320431,-56.1797752808989,3,1,0,80,0,1
320493,-55.8659217877095,3,1,0,80,0,1
320556,-55.5555555555556,3,1,0,80,0,1
320634,-55.2486187845304,3,1,0,80,0,1
320728,-54.9450549450549,3,1,0,80,0,1
320821,-54.6448087431694,3,1,0,80,0,1
320892,-54.3478260869565,3,1,0,80,0,1
320939,-54.054054054054,3,1,0,80,0,1
321009,-53.763440860215,3,1,0,80,0,1
321103,-53.475935828877,3,1,0,80,0,1
321196,-53.1914893617021,3,1,0,80,0,1
321290,-52.9100529100529,3,1,0,80,0,1
321384,-52.6315789473684,3,1,0,80,0,1
321478,-52.3560209424084,3,1,0,80,0,1
321571,-52.0833333333333,3,1,0,80,0,1
321665,-51.8134715025907,3,1,0,80,0,1
321759,-51.5463917525773,3,1,0,80,0,1
321853,-51.2820512820513,3,1,0,80,0,1
321946,-51.0204081632653,3,1,0,80,0,1
322040,-50.761421319797,3,1,0,80,0,1
322134,-50.5050505050505,3,1,0,80,0,1
322228,-50.251256281407,3,1,0,80,0,1
322321,-50,3,1,0,80,0,1
322415,-49.7512437810945,3,1,0,80,0,1
322509,-49.5049504950495,3,1,0,80,0,1
322603,-49.2610837438424,3,1,0,80,0,1
322696,-49.0196078431373,3,1,0,80,0,1
322790,-48.780487804878,3,1,0,80,0,1
322860,-48.5436893203883,3,1,0,80,0,1
322907,-48.3091787439614,3,1,0,80,0,1
322954,-48.0769230769231,3,1,0,80,0,1
323001,-47.8468899521531,3,1,0,80,0,1
323071,-47.6190476190476,3,1,0,80,0,1
323165,-47.39336492891,3,1,0,80,0,1
323259,-47.1698113207547,3,1,0,80,0,1
323353,-46.9483568075117,3,1,0,80,0,1
323446,-33.3333333333333,3,1,0,60,0,0
324525,-50,3,1,0,40,0,0
325650,-66.6666666666667,3,1,0,20,0,0
326775,-83.3333333333333,3,1,0,10,0,0
327900,-100,3,1,0,5,0,0

[HitObjects]
256,192,150,5,0,0:0:0:0:
256,192,191,1,0,0:0:0:0:
256,192,233,1,0,0:0:0:0:
256,192,275,1,8,0:0:0:0:
256,192,337,1,8,0:0:0:0:
256,192,400,1,8,0:0:0:0:
256,192,525,1,8,0:0:0:0:
256,192,650,1,8,0:0:0:0:
256,192,775,1,8,0:0:0:0:
256,192,900,1,8,0:0:0:0:
256,192,962,1,0,0:0:0:0:
256,192,1025,1,0,0:0:0:0:
256,192,1087,1,0,0:0:0:0:
256,192,1150,1,8,0:0:0:0:
256,192,1212,1,0,0:0:0:0:
256,192,1275,1,8,0:0:0:0:
256,192,1337,1,8,0:0:0:0:
256,192,1400,1,0,0:0:0:0:
256,192,1525,1,0,0:0:0:0:
256,192,1650,1,4,0:0:0:0:
256,192,2400,1,4,0:0:0:0:
256,192,2775,1,12,0:0:0:0:
256,192,3150,1,4,0:0:0:0:
256,192,3275,1,0,0:0:0:0:
256,192,3337,1,0,0:0:0:0:
256,192,3400,1,0,0:0:0:0:
256,192,3525,1,8,0:0:0:0:
256,192,3650,1,0,0:0:0:0:
256,192,3775,1,8,0:0:0:0:
256,192,3900,1,8,0:0:0:0:
256,192,3962,1,0,0:0:0:0:
256,192,4025,1,0,0:0:0:0:
256,192,4150,1,8,0:0:0:0:
256,192,4275,1,0,0:0:0:0:
256,192,4337,1,0,0:0:0:0:
256,192,4400,1,8,0:0:0:0:
256,192,4525,1,8,0:0:0:0:
256,192,4650,1,8,0:0:0:0:
256,192,4712,1,0,0:0:0:0:
256,192,4775,1,0,0:0:0:0:
256,192,4900,1,0,0:0:0:0:
256,192,5025,1,8,0:0:0:0:
256,192,5150,1,8,0:0:0:0:
256,192,5275,1,0,0:0:0:0:
256,192,5400,1,8,0:0:0:0:
256,192,5462,1,0,0:0:0:0:
256,192,5525,1,0,0:0:0:0:
256,192,5650,1,0,0:0:0:0:
256,192,5775,1,8,0:0:0:0:
256,192,5900,1,8,0:0:0:0:
256,192,6025,1,0,0:0:0:0:
256,192,6150,1,8,0:0:0:0:
256,192,6212,1,8,0:0:0:0:
256,192,6275,1,0,0:0:0:0:
256,192,6400,1,0,0:0:0:0:
256,192,6525,1,8,0:0:0:0:
256,192,6587,1,0,0:0:0:0:
256,192,6650,1,0,0:0:0:0:
256,192,6775,1,0,0:0:0:0:
256,192,6900,1,8,0:0:0:0:
256,192,6962,1,0,0:0:0:0:
256,192,7025,1,8,0:0:0:0:
256,192,7150,1,0,0:0:0:0:
256,192,7275,1,8,0:0:0:0:
256,192,7337,1,8,0:0:0:0:
256,192,7400,1,0,0:0:0:0:
256,192,7525,1,0,0:0:0:0:
256,192,7650,1,4,0:0:0:0:
256,192,7775,1,0,0:0:0:0:
256,192,7837,1,0,0:0:0:0:
256,192,7900,1,0,0:0:0:0:
256,192,8025,1,8,0:0:0:0:
256,192,8150,1,0,0:0:0:0:
256,192,8275,1,8,0:0:0:0:
256,192,8400,1,8,0:0:0:0:
256,192,8462,1,0,0:0:0:0:
256,192,8525,1,0,0:0:0:0:
256,192,8650,1,8,0:0:0:0:
256,192,8775,1,0,0:0:0:0:
256,192,8837,1,0,0:0:0:0:
256,192,8900,1,8,0:0:0:0:
256,192,9025,1,8,0:0:0:0:
256,192,9150,1,8,0:0:0:0:
256,192,9212,1,0,0:0:0:0:
256,192,9275,1,0,0:0:0:0:
256,192,9400,1,0,0:0:0:0:
256,192,9525,1,8,0:0:0:0:
256,192,9650,1,8,0:0:0:0:
256,192,9775,1,0,0:0:0:0:
256,192,9900,1,8,0:0:0:0:
256,192,9962,1,8,0:0:0:0:
256,192,10025,1,0,0:0:0:0:
256,192,10087,1,0,0:0:0:0:
256,192,10150,1,0,0:0:0:0:
256,192,10212,1,0,0:0:0:0:
256,192,10275,1,8,0:0:0:0:
256,192,10337,1,8,0:0:0:0:
256,192,10400,1,0,0:0:0:0:
256,192,10650,1,0,0:0:0:0:
256,192,10712,1,0,0:0:0:0:
256,192,10775,1,0,0:0:0:0:
256,192,10900,1,0,0:0:0:0:
256,192,11025,1,0,0:0:0:0:
256,192,11150,1,0,0:0:0:0:
256,192,11275,1,0,0:0:0:0:
256,192,11400,1,8,0:0:0:0:
256,192,11462,1,8,0:0:0:0:
256,192,11525,1,0,0:0:0:0:
256,192,11650,1,0,0:0:0:0:
256,192,11775,1,0,0:0:0:0:
256,192,11837,1,0,0:0:0:0:
256,192,11900,1,0,0:0:0:0:
256,192,12025,1,0,0:0:0:0:
256,192,12150,1,8,0:0:0:0:
256,192,12212,1,8,0:0:0:0:
256,192,12275,1,0,0:0:0:0:
256,192,12337,1,0,0:0:0:0:
256,192,12400,1,8,0:0:0:0:
256,192,12525,1,8,0:0:0:0:
256,192,12587,1,8,0:0:0:0:
256,192,12650,1,0,0:0:0:0:
256,192,12712,1,0,0:0:0:0:
256,192,12775,1,0,0:0:0:0:
256,192,12900,1,12,0:0:0:0:
256,192,13275,1,4,0:0:0:0:
256,192,14400,1,4,0:0:0:0:
256,192,14525,1,0,0:0:0:0:
256,192,14650,1,8,0:0:0:0:
256,192,14712,1,8,0:0:0:0:
256,192,14775,1,0,0:0:0:0:
256,192,14900,1,0,0:0:0:0:
256,192,15025,1,8,0:0:0:0:
256,192,15150,1,0,0:0:0:0:
256,192,15212,1,0,0:0:0:0:
256,192,15275,1,0,0:0:0:0:
256,192,15400,1,0,0:0:0:0:
256,192,15525,1,0,0:0:0:0:
256,192,15650,1,0,0:0:0:0:
256,192,15712,1,0,0:0:0:0:
256,192,15775,1,0,0:0:0:0:
256,192,15900,1,0,0:0:0:0:
256,192,16025,1,0,0:0:0:0:
256,192,16150,1,8,0:0:0:0:
256,192,16212,1,8,0:0:0:0:
256,192,16275,1,0,0:0:0:0:
256,192,16400,1,0,0:0:0:0:
256,192,16525,1,8,0:0:0:0:
256,192,16650,1,0,0:0:0:0:
256,192,16712,1,0,0:0:0:0:
256,192,16775,1,8,0:0:0:0:
256,192,16900,1,8,0:0:0:0:
256,192,16962,1,8,0:0:0:0:
256,192,17025,1,0,0:0:0:0:
256,192,17150,1,0,0:0:0:0:
256,192,17275,1,8,0:0:0:0:
256,192,17400,1,0,0:0:0:0:
256,192,17462,1,0,0:0:0:0:
256,192,17525,1,0,0:0:0:0:
256,192,17650,1,8,0:0:0:0:
256,192,17712,1,8,0:0:0:0:
256,192,17775,1,0,0:0:0:0:
256,192,17900,1,0,0:0:0:0:
256,192,18025,1,8,0:0:0:0:
256,192,18150,1,0,0:0:0:0:
256,192,18212,1,0,0:0:0:0:
256,192,18275,1,0,0:0:0:0:
256,192,18400,1,0,0:0:0:0:
256,192,18525,1,0,0:0:0:0:
256,192,18587,1,0,0:0:0:0:
256,192,18650,1,0,0:0:0:0:
256,192,18775,1,0,0:0:0:0:
256,192,18900,1,0,0:0:0:0:
256,192,18962,1,0,0:0:0:0:
256,192,19025,1,8,0:0:0:0:
256,192,19150,1,8,0:0:0:0:
256,192,19212,1,0,0:0:0:0:
256,192,19275,1,0,0:0:0:0:
256,192,19400,1,8,0:0:0:0:
256,192,19525,1,0,0:0:0:0:
256,192,19650,1,0,0:0:0:0:
256,192,19712,1,0,0:0:0:0:
256,192,19775,1,8,0:0:0:0:
256,192,19900,1,8,0:0:0:0:
256,192,19962,1,8,0:0:0:0:
256,192,20025,1,0,0:0:0:0:
256,192,20150,1,8,0:0:0:0:
256,192,20275,1,0,0:0:0:0:
256,192,20400,1,0,0:0:0:0:
256,192,20462,1,0,0:0:0:0:
256,192,20525,1,8,0:0:0:0:
256,192,20650,1,8,0:0:0:0:
256,192,20775,1,0,0:0:0:0:
256,192,20837,1,0,0:0:0:0:
256,192,20900,1,0,0:0:0:0:
256,192,21025,1,0,0:0:0:0:
256,192,21150,1,0,0:0:0:0:
256,192,21212,1,0,0:0:0:0:
256,192,21275,1,0,0:0:0:0:
256,192,21400,1,0,0:0:0:0:
256,192,21462,1,0,0:0:0:0:
256,192,21525,1,0,0:0:0:0:
256,192,21650,1,0,0:0:0:0:
256,192,21775,1,0,0:0:0:0:
256,192,21900,1,0,0:0:0:0:
256,192,21962,1,0,0:0:0:0:
256,192,22025,1,0,0:0:0:0:
256,192,22150,1,8,0:0:0:0:
256,192,22275,1,0,0:0:0:0:
256,192,22400,1,0,0:0:0:0:
256,192,22525,1,8,0:0:0:0:
256,192,22650,1,0,0:0:0:0:
256,192,22712,1,0,0:0:0:0:
256,192,22775,1,0,0:0:0:0:
256,192,22900,1,8,0:0:0:0:
256,192,23025,1,8,0:0:0:0:
256,192,23150,1,0,0:0:0:0:
256,192,23275,1,0,0:0:0:0:
256,192,23400,1,0,0:0:0:0:
256,192,23462,1,8,0:0:0:0:
256,192,23525,1,0,0:0:0:0:
256,192,23650,1,8,0:0:0:0:
256,192,23775,1,0,0:0:0:0:
256,192,23837,1,0,0:0:0:0:
256,192,23900,1,8,0:0:0:0:
256,192,24025,1,8,0:0:0:0:
256,192,24150,1,0,0:0:0:0:
256,192,24212,1,0,0:0:0:0:
256,192,24275,1,0,0:0:0:0:
256,192,24400,1,0,0:0:0:0:
256,192,24462,1,0,0:0:0:0:
256,192,24525,1,0,0:0:0:0:
256,192,24650,1,0,0:0:0:0:
256,192,24712,1,0,0:0:0:0:
256,192,24775,1,0,0:0:0:0:
256,192,24900,1,8,0:0:0:0:
256,192,25025,1,8,0:0:0:0:
256,192,25087,1,8,0:0:0:0:
256,192,25150,1,8,0:0:0:0:
256,192,25275,1,0,0:0:0:0:
256,192,25400,1,0,0:0:0:0:
256,192,25462,1,0,0:0:0:0:
256,192,25525,1,0,0:0:0:0:
256,192,25650,1,8,0:0:0:0:
256,192,25712,1,8,0:0:0:0:
256,192,25775,1,0,0:0:0:0:
256,192,25837,1,0,0:0:0:0:
256,192,25900,1,0,0:0:0:0:
256,192,26025,1,0,0:0:0:0:
256,192,26150,1,8,0:0:0:0:
256,192,26275,1,8,0:0:0:0:
256,192,26400,1,4,0:0:0:0:
256,192,26775,1,0,0:0:0:0:
256,192,26900,1,0,0:0:0:0:
256,192,27025,1,0,0:0:0:0:
256,192,27150,1,12,0:0:0:0:
256,192,27400,1,0,0:0:0:0:
256,192,27650,1,8,0:0:0:0:
256,192,27775,1,8,0:0:0:0:
256,192,27900,1,4,0:0:0:0:
256,192,28150,1,0,0:0:0:0:
256,192,28275,1,8,0:0:0:0:
256,192,28337,1,8,0:0:0:0:
256,192,28400,1,0,0:0:0:0:
256,192,28462,1,0,0:0:0:0:
256,192,28525,1,8,0:0:0:0:
256,192,28650,1,8,0:0:0:0:
256,192,28712,1,0,0:0:0:0:
256,192,28775,1,8,0:0:0:0:
256,192,28837,1,8,0:0:0:0:
256,192,28900,1,0,0:0:0:0:
256,192,29025,1,0,0:0:0:0:
256,192,29150,1,8,0:0:0:0:
256,192,29212,1,8,0:0:0:0:
256,192,29275,1,8,0:0:0:0:
256,192,29400,1,4,0:0:0:0:
256,192,29775,1,0,0:0:0:0:
256,192,29900,1,0,0:0:0:0:
256,192,30025,1,0,0:0:0:0:
256,192,30150,1,12,0:0:0:0:
256,192,30275,1,0,0:0:0:0:
256,192,30400,1,8,0:0:0:0:
256,192,30650,1,8,0:0:0:0:
256,192,30900,1,0,0:0:0:0:
256,192,30962,1,0,0:0:0:0:
256,192,31025,1,0,0:0:0:0:
256,192,31087,1,0,0:0:0:0:
256,192,31150,1,0,0:0:0:0:
256,192,31212,1,0,0:0:0:0:
256,192,31275,1,0,0:0:0:0:
256,192,31400,1,8,0:0:0:0:
256,192,31525,1,8,0:0:0:0:
256,192,31650,1,0,0:0:0:0:
256,192,31712,1,0,0:0:0:0:
256,192,31775,1,8,0:0:0:0:
256,192,31900,1,4,0:0:0:0:
256,192,32150,1,0,0:0:0:0:
256,192,32275,1,8,0:0:0:0:
256,192,32400,1,4,0:0:0:0:
256,192,32775,1,0,0:0:0:0:
256,192,32900,1,0,0:0:0:0:
256,192,33025,1,0,0:0:0:0:
256,192,33150,1,12,0:0:0:0:
256,192,33400,1,0,0:0:0:0:
256,192,33650,1,8,0:0:0:0:
256,192,33775,1,8,0:0:0:0:
256,192,33900,1,4,0:0:0:0:
256,192,34150,1,0,0:0:0:0:
256,192,34275,1,8,0:0:0:0:
256,192,34337,1,8,0:0:0:0:
256,192,34400,1,0,0:0:0:0:
256,192,34462,1,0,0:0:0:0:
256,192,34525,1,8,0:0:0:0:
256,192,34587,1,0,0:0:0:0:
256,192,34650,1,8,0:0:0:0:
256,192,34712,1,8,0:0:0:0:
256,192,34775,1,8,0:0:0:0:
256,192,34837,1,8,0:0:0:0:
256,192,34900,1,0,0:0:0:0:
256,192,35025,1,0,0:0:0:0:
256,192,35150,1,8,0:0:0:0:
256,192,35275,1,8,0:0:0:0:
256,192,35400,1,4,0:0:0:0:
256,192,35775,1,0,0:0:0:0:
256,192,35900,1,0,0:0:0:0:
256,192,36025,1,0,0:0:0:0:
256,192,36150,1,12,0:0:0:0:
256,192,36275,1,0,0:0:0:0:
256,192,36400,1,8,0:0:0:0:
256,192,36650,1,8,0:0:0:0:
256,192,36900,1,8,0:0:0:0:
256,192,36962,1,8,0:0:0:0:
256,192,37025,1,0,0:0:0:0:
256,192,37087,1,0,0:0:0:0:
256,192,37150,1,0,0:0:0:0:
256,192,37275,1,8,0:0:0:0:
256,192,37337,1,8,0:0:0:0:
256,192,37400,1,0,0:0:0:0:
256,192,37525,1,8,0:0:0:0:
256,192,37587,1,8,0:0:0:0:
256,192,37650,1,0,0:0:0:0:
256,192,37775,1,8,0:0:0:0:
256,192,37837,1,0,0:0:0:0:
256,192,37900,1,0,0:0:0:0:
256,192,37962,1,0,0:0:0:0:
256,192,38025,1,8,0:0:0:0:
256,192,38150,1,0,0:0:0:0:
256,192,38212,1,0,0:0:0:0:
256,192,38275,1,0,0:0:0:0:
256,192,38400,1,4,0:0:0:0:
256,192,38525,1,0,0:0:0:0:
256,192,38587,1,0,0:0:0:0:
256,192,38650,1,0,0:0:0:0:
256,192,38775,1,0,0:0:0:0:
256,192,38900,1,0,0:0:0:0:
256,192,39025,1,0,0:0:0:0:
256,192,39150,1,8,0:0:0:0:
256,192,39212,1,0,0:0:0:0:
256,192,39275,1,0,0:0:0:0:
256,192,39400,1,8,0:0:0:0:
256,192,39525,1,0,0:0:0:0:
256,192,39587,1,0,0:0:0:0:
256,192,39650,1,8,0:0:0:0:
256,192,39775,1,8,0:0:0:0:
256,192,39900,1,8,0:0:0:0:
256,192,39962,1,0,0:0:0:0:
256,192,40025,1,0,0:0:0:0:
256,192,40150,1,0,0:0:0:0:
256,192,40275,1,8,0:0:0:0:
256,192,40400,1,8,0:0:0:0:
256,192,40525,1,0,0:0:0:0:
256,192,40650,1,8,0:0:0:0:
256,192,40712,1,0,0:0:0:0:
256,192,40775,1,0,0:0:0:0:
256,192,40900,1,0,0:0:0:0:
256,192,41025,1,8,0:0:0:0:
256,192,41087,1,8,0:0:0:0:
256,192,41150,1,0,0:0:0:0:
256,192,41275,1,0,0:0:0:0:
256,192,41400,1,8,0:0:0:0:
256,192,41462,1,0,0:0:0:0:
256,192,41525,1,0,0:0:0:0:
256,192,41650,1,0,0:0:0:0:
256,192,41775,1,8,0:0:0:0:
256,192,41900,1,8,0:0:0:0:
256,192,42025,1,0,0:0:0:0:
256,192,42150,1,8,0:0:0:0:
256,192,42212,1,0,0:0:0:0:
256,192,42275,1,0,0:0:0:0:
256,192,42400,1,0,0:0:0:0:
256,192,42525,1,8,0:0:0:0:
256,192,42650,1,8,0:0:0:0:
256,192,42775,1,0,0:0:0:0:
256,192,42900,1,8,0:0:0:0:
256,192,42962,1,8,0:0:0:0:
256,192,43025,1,0,0:0:0:0:
256,192,43150,1,0,0:0:0:0:
256,192,43275,1,8,0:0:0:0:
256,192,43337,1,0,0:0:0:0:
256,192,43400,1,0,0:0:0:0:
256,192,43525,1,0,0:0:0:0:
256,192,43650,1,8,0:0:0:0:
256,192,43712,1,0,0:0:0:0:
256,192,43775,1,8,0:0:0:0:
256,192,43900,1,0,0:0:0:0:
256,192,44025,1,8,0:0:0:0:
256,192,44087,1,8,0:0:0:0:
256,192,44150,1,0,0:0:0:0:
256,192,44275,1,0,0:0:0:0:
256,192,44400,1,4,0:0:0:0:
256,192,44525,1,0,0:0:0:0:
256,192,44587,1,0,0:0:0:0:
256,192,44650,1,0,0:0:0:0:
256,192,44775,1,8,0:0:0:0:
256,192,44900,1,0,0:0:0:0:
256,192,45025,1,8,0:0:0:0:
256,192,45150,1,8,0:0:0:0:
256,192,45212,1,0,0:0:0:0:
256,192,45275,1,0,0:0:0:0:
256,192,45400,1,8,0:0:0:0:
256,192,45525,1,0,0:0:0:0:
256,192,45587,1,0,0:0:0:0:
256,192,45650,1,8,0:0:0:0:
256,192,45775,1,8,0:0:0:0:
256,192,45900,1,8,0:0:0:0:
256,192,45962,1,0,0:0:0:0:
256,192,46025,1,0,0:0:0:0:
256,192,46150,1,0,0:0:0:0:
256,192,46275,1,8,0:0:0:0:
256,192,46400,1,8,0:0:0:0:
256,192,46525,1,0,0:0:0:0:
256,192,46650,1,8,0:0:0:0:
271,205,46712,1,8,0:0:0:0:
256,192,46775,1,0,0:0:0:0:
256,192,46837,1,0,0:0:0:0:
256,192,46900,1,0,0:0:0:0:
256,192,46962,1,0,0:0:0:0:
256,192,47025,1,8,0:0:0:0:
256,192,47150,1,8,0:0:0:0:
256,192,47275,1,8,0:0:0:0:
256,192,47400,1,0,0:0:0:0:
256,192,47462,1,0,0:0:0:0:
256,192,47525,1,0,0:0:0:0:
256,192,47650,1,0,0:0:0:0:
256,192,47775,1,0,0:0:0:0:
256,192,47900,1,0,0:0:0:0:
256,192,48025,1,0,0:0:0:0:
256,192,48150,1,8,0:0:0:0:
256,192,48212,1,8,0:0:0:0:
256,192,48275,1,0,0:0:0:0:
256,192,48400,1,0,0:0:0:0:
256,192,48525,1,0,0:0:0:0:
256,192,48587,1,0,0:0:0:0:
256,192,48650,1,0,0:0:0:0:
256,192,48775,1,0,0:0:0:0:
256,192,48900,1,8,0:0:0:0:
256,192,48962,1,8,0:0:0:0:
256,192,49025,1,0,0:0:0:0:
256,192,49087,1,0,0:0:0:0:
256,192,49150,1,8,0:0:0:0:
256,192,49275,1,8,0:0:0:0:
256,192,49337,1,8,0:0:0:0:
256,192,49400,1,0,0:0:0:0:
256,192,49462,1,0,0:0:0:0:
256,192,49525,1,0,0:0:0:0:
256,192,49650,1,12,0:0:0:0:
256,192,50025,1,4,0:0:0:0:
256,192,51150,1,4,0:0:0:0:
256,192,51275,1,0,0:0:0:0:
256,192,51400,1,8,0:0:0:0:
256,192,51462,1,8,0:0:0:0:
256,192,51525,1,0,0:0:0:0:
256,192,51650,1,0,0:0:0:0:
256,192,51775,1,8,0:0:0:0:
256,192,51900,1,0,0:0:0:0:
256,192,51962,1,0,0:0:0:0:
256,192,52025,1,8,0:0:0:0:
256,192,52150,1,8,0:0:0:0:
256,192,52212,1,8,0:0:0:0:
256,192,52275,1,0,0:0:0:0:
256,192,52400,1,8,0:0:0:0:
256,192,52462,1,0,0:0:0:0:
256,192,52525,1,0,0:0:0:0:
256,192,52650,1,0,0:0:0:0:
256,192,52775,1,0,0:0:0:0:
256,192,52900,1,8,0:0:0:0:
256,192,52962,1,8,0:0:0:0:
256,192,53025,1,0,0:0:0:0:
256,192,53150,1,0,0:0:0:0:
256,192,53275,1,8,0:0:0:0:
256,192,53400,1,0,0:0:0:0:
256,192,53462,1,0,0:0:0:0:
256,192,53525,1,8,0:0:0:0:
256,192,53650,1,8,0:0:0:0:
256,192,53712,1,8,0:0:0:0:
256,192,53775,1,0,0:0:0:0:
256,192,53900,1,0,0:0:0:0:
256,192,54025,1,8,0:0:0:0:
256,192,54150,1,0,0:0:0:0:
256,192,54212,1,0,0:0:0:0:
256,192,54275,1,0,0:0:0:0:
256,192,54400,1,8,0:0:0:0:
256,192,54462,1,8,0:0:0:0:
256,192,54525,1,0,0:0:0:0:
256,192,54650,1,0,0:0:0:0:
256,192,54775,1,8,0:0:0:0:
256,192,54900,1,0,0:0:0:0:
256,192,54962,1,0,0:0:0:0:
256,192,55025,1,0,0:0:0:0:
256,192,55150,1,0,0:0:0:0:
256,192,55275,1,0,0:0:0:0:
256,192,55337,1,0,0:0:0:0:
256,192,55400,1,0,0:0:0:0:
256,192,55525,1,0,0:0:0:0:
256,192,55650,1,0,0:0:0:0:
256,192,55712,1,0,0:0:0:0:
256,192,55775,1,8,0:0:0:0:
256,192,55900,1,8,0:0:0:0:
256,192,55962,1,0,0:0:0:0:
256,192,56025,1,0,0:0:0:0:
256,192,56150,1,0,0:0:0:0:
256,192,56212,1,8,0:0:0:0:
256,192,56275,1,0,0:0:0:0:
256,192,56400,1,0,0:0:0:0:
256,192,56462,1,0,0:0:0:0:
256,192,56525,1,8,0:0:0:0:
256,192,56650,1,8,0:0:0:0:
256,192,56712,1,8,0:0:0:0:
256,192,56775,1,0,0:0:0:0:
256,192,56900,1,8,0:0:0:0:
256,192,56962,1,0,0:0:0:0:
256,192,57025,1,0,0:0:0:0:
256,192,57150,1,0,0:0:0:0:
256,192,57212,1,0,0:0:0:0:
256,192,57275,1,8,0:0:0:0:
256,192,57400,1,8,0:0:0:0:
256,192,57525,1,0,0:0:0:0:
256,192,57587,1,0,0:0:0:0:
256,192,57650,1,0,0:0:0:0:
256,192,57775,1,0,0:0:0:0:
256,192,57900,1,0,0:0:0:0:
256,192,57962,1,0,0:0:0:0:
256,192,58025,1,0,0:0:0:0:
256,192,58150,1,0,0:0:0:0:
256,192,58212,1,0,0:0:0:0:
256,192,58275,1,0,0:0:0:0:
256,192,58400,1,0,0:0:0:0:
256,192,58525,1,0,0:0:0:0:
256,192,58650,1,0,0:0:0:0:
256,192,58712,1,0,0:0:0:0:
256,192,58775,1,0,0:0:0:0:
256,192,58900,1,8,0:0:0:0:
256,192,58962,1,0,0:0:0:0:
256,192,59025,1,0,0:0:0:0:
256,192,59150,1,8,0:0:0:0:
256,192,59275,1,0,0:0:0:0:
256,192,59400,1,0,0:0:0:0:
256,192,59462,1,0,0:0:0:0:
256,192,59525,1,0,0:0:0:0:
256,192,59650,1,8,0:0:0:0:
256,192,59712,1,8,0:0:0:0:
256,192,59775,1,0,0:0:0:0:
256,192,59900,1,8,0:0:0:0:
256,192,60025,1,0,0:0:0:0:
256,192,60150,1,0,0:0:0:0:
256,192,60212,1,8,0:0:0:0:
256,192,60275,1,0,0:0:0:0:
256,192,60400,1,8,0:0:0:0:
256,192,60525,1,0,0:0:0:0:
256,192,60587,1,0,0:0:0:0:
256,192,60650,1,8,0:0:0:0:
256,192,60775,1,8,0:0:0:0:
256,192,60900,1,0,0:0:0:0:
256,192,60962,1,0,0:0:0:0:
256,192,61025,1,0,0:0:0:0:
256,192,61150,1,0,0:0:0:0:
256,192,61212,1,0,0:0:0:0:
256,192,61275,1,0,0:0:0:0:
256,192,61400,1,0,0:0:0:0:
256,192,61462,1,0,0:0:0:0:
256,192,61525,1,0,0:0:0:0:
256,192,61650,1,8,0:0:0:0:
256,192,61775,1,8,0:0:0:0:
256,192,61837,1,8,0:0:0:0:
256,192,61900,1,8,0:0:0:0:
256,192,62025,1,0,0:0:0:0:
256,192,62150,1,0,0:0:0:0:
256,192,62212,1,0,0:0:0:0:
256,192,62275,1,0,0:0:0:0:
256,192,62400,1,8,0:0:0:0:
256,192,62462,1,8,0:0:0:0:
256,192,62525,1,0,0:0:0:0:
256,192,62587,1,0,0:0:0:0:
256,192,62650,1,0,0:0:0:0:
256,192,62775,1,0,0:0:0:0:
256,192,62900,1,8,0:0:0:0:
256,192,63025,1,8,0:0:0:0:
256,192,63150,1,4,0:0:0:0:
256,192,63525,1,0,0:0:0:0:
256,192,63650,1,0,0:0:0:0:
256,192,63775,1,0,0:0:0:0:
256,192,63900,1,8,0:0:0:0:
256,192,63962,1,0,0:0:0:0:
256,192,64025,1,0,0:0:0:0:
256,192,64150,1,8,0:0:0:0:
256,192,64212,1,8,0:0:0:0:
256,192,64275,1,0,0:0:0:0:
256,192,64400,1,8,0:0:0:0:
256,192,64650,1,0,0:0:0:0:
256,192,64775,1,0,0:0:0:0:
256,192,64837,1,0,0:0:0:0:
256,192,64900,1,0,0:0:0:0:
256,192,65025,1,8,0:0:0:0:
256,192,65087,1,8,0:0:0:0:
256,192,65150,1,0,0:0:0:0:
256,192,65212,1,0,0:0:0:0:
256,192,65275,1,8,0:0:0:0:
256,192,65400,1,8,0:0:0:0:
256,192,65462,1,0,0:0:0:0:
256,192,65525,1,8,0:0:0:0:
256,192,65650,1,8,0:0:0:0:
256,192,65712,1,8,0:0:0:0:
256,192,65775,1,8,0:0:0:0:
256,192,65837,1,8,0:0:0:0:
256,192,65900,1,0,0:0:0:0:
256,192,65962,1,0,0:0:0:0:
256,192,66025,1,0,0:0:0:0:
256,192,66150,1,12,0:0:0:0:
256,192,66275,1,0,0:0:0:0:
256,192,66337,1,0,0:0:0:0:
256,192,66400,1,0,0:0:0:0:
256,192,66525,1,8,0:0:0:0:
256,192,66650,1,0,0:0:0:0:
256,192,66775,1,0,0:0:0:0:
256,192,66900,1,8,0:0:0:0:
256,192,67025,1,0,0:0:0:0:
256,192,67150,1,8,0:0:0:0:
256,192,67400,1,8,0:0:0:0:
256,192,67525,1,8,0:0:0:0:
256,192,67650,1,4,0:0:0:0:
256,192,67775,1,0,0:0:0:0:
256,192,67837,1,0,0:0:0:0:
256,192,67900,1,0,0:0:0:0:
256,192,68025,1,8,0:0:0:0:
256,192,68087,1,8,0:0:0:0:
256,192,68150,1,0,0:0:0:0:
256,192,68212,1,0,0:0:0:0:
256,192,68275,1,8,0:0:0:0:
256,192,68400,1,8,0:0:0:0:
256,192,68462,1,0,0:0:0:0:
256,192,68525,1,8,0:0:0:0:
256,192,68587,1,8,0:0:0:0:
256,192,68650,1,0,0:0:0:0:
256,192,68712,1,0,0:0:0:0:
256,192,68775,1,0,0:0:0:0:
256,192,68900,1,8,0:0:0:0:
256,192,69025,1,8,0:0:0:0:
256,192,69150,1,4,0:0:0:0:
256,192,69525,1,0,0:0:0:0:
256,192,69650,1,0,0:0:0:0:
256,192,69775,1,0,0:0:0:0:
256,192,69900,1,8,0:0:0:0:
256,192,69962,1,0,0:0:0:0:
256,192,70025,1,0,0:0:0:0:
256,192,70150,1,8,0:0:0:0:
256,192,70212,1,8,0:0:0:0:
256,192,70275,1,0,0:0:0:0:
256,192,70400,1,8,0:0:0:0:
256,192,70462,1,8,0:0:0:0:
256,192,70525,1,8,0:0:0:0:
256,192,70650,1,4,0:0:0:0:
256,192,70900,1,0,0:0:0:0:
256,192,71025,1,8,0:0:0:0:
256,192,71087,1,8,0:0:0:0:
256,192,71150,1,0,0:0:0:0:
256,192,71212,1,0,0:0:0:0:
256,192,71275,1,8,0:0:0:0:
256,192,71400,1,0,0:0:0:0:
256,192,71462,1,8,0:0:0:0:
256,192,71525,1,0,0:0:0:0:
256,192,71650,1,0,0:0:0:0:
256,192,71712,1,0,0:0:0:0:
256,192,71775,1,0,0:0:0:0:
256,192,71837,1,0,0:0:0:0:
256,192,71900,1,8,0:0:0:0:
256,192,72025,1,8,0:0:0:0:
256,192,72150,1,4,0:0:0:0:
256,192,72525,1,0,0:0:0:0:
256,192,72650,1,0,0:0:0:0:
256,192,72775,1,0,0:0:0:0:
256,192,72900,1,8,0:0:0:0:
256,192,72962,1,0,0:0:0:0:
256,192,73025,1,0,0:0:0:0:
256,192,73150,1,8,0:0:0:0:
256,192,73212,1,8,0:0:0:0:
256,192,73275,1,0,0:0:0:0:
256,192,73400,1,8,0:0:0:0:
256,192,73525,1,8,0:0:0:0:
256,192,73650,1,0,0:0:0:0:
256,192,73712,1,0,0:0:0:0:
256,192,73775,1,0,0:0:0:0:
256,192,73900,1,8,0:0:0:0:
256,192,73962,1,8,0:0:0:0:
256,192,74025,1,0,0:0:0:0:
256,192,74087,1,0,0:0:0:0:
256,192,74150,1,8,0:0:0:0:
256,192,74212,1,0,0:0:0:0:
256,192,74275,1,8,0:0:0:0:
256,192,74337,1,8,0:0:0:0:
256,192,74400,1,0,0:0:0:0:
256,192,74462,1,8,0:0:0:0:
256,192,74525,1,0,0:0:0:0:
256,192,74587,1,0,0:0:0:0:
256,192,74650,1,0,0:0:0:0:
256,192,74712,1,0,0:0:0:0:
256,192,74775,1,8,0:0:0:0:
256,192,74900,1,0,0:0:0:0:
256,192,74962,1,0,0:0:0:0:
256,192,75025,1,0,0:0:0:0:
256,192,75150,1,4,0:0:0:0:
256,192,75275,1,8,0:0:0:0:
256,192,75337,1,8,0:0:0:0:
256,192,75400,1,0,0:0:0:0:
256,192,75525,1,0,0:0:0:0:
256,192,75650,1,8,0:0:0:0:
256,192,75712,1,8,0:0:0:0:
256,192,75775,1,0,0:0:0:0:
256,192,75900,1,0,0:0:0:0:
256,192,75962,1,0,0:0:0:0:
256,192,76025,1,8,0:0:0:0:
256,192,76087,1,8,0:0:0:0:
256,192,76150,1,0,0:0:0:0:
256,192,76275,1,8,0:0:0:0:
256,192,76337,1,8,0:0:0:0:
256,192,76400,1,0,0:0:0:0:
256,192,76525,1,8,0:0:0:0:
256,192,76650,1,0,0:0:0:0:
256,192,76712,1,0,0:0:0:0:
256,192,76775,1,0,0:0:0:0:
256,192,76900,1,8,0:0:0:0:
256,192,77025,1,0,0:0:0:0:
256,192,77087,1,0,0:0:0:0:
256,192,77150,1,0,0:0:0:0:
256,192,77275,1,8,0:0:0:0:
256,192,77337,1,0,0:0:0:0:
256,192,77400,1,0,0:0:0:0:
256,192,77462,1,0,0:0:0:0:
256,192,77525,1,8,0:0:0:0:
256,192,77650,1,0,0:0:0:0:
256,192,77712,1,0,0:0:0:0:
256,192,77775,1,8,0:0:0:0:
256,192,77900,1,0,0:0:0:0:
256,192,78025,1,0,0:0:0:0:
256,192,78150,1,8,0:0:0:0:
256,192,78212,1,8,0:0:0:0:
256,192,78275,1,0,0:0:0:0:
256,192,78400,1,0,0:0:0:0:
256,192,78462,1,0,0:0:0:0:
256,192,78525,1,8,0:0:0:0:
256,192,78587,1,8,0:0:0:0:
256,192,78650,1,0,0:0:0:0:
256,192,78712,1,0,0:0:0:0:
256,192,78775,1,8,0:0:0:0:
256,192,78837,1,0,0:0:0:0:
256,192,78900,1,8,0:0:0:0:
256,192,78962,1,8,0:0:0:0:
256,192,79025,1,0,0:0:0:0:
256,192,79150,1,8,0:0:0:0:
256,192,79212,1,8,0:0:0:0:
256,192,79275,1,0,0:0:0:0:
256,192,79337,1,0,0:0:0:0:
256,192,79400,1,8,0:0:0:0:
256,192,79462,1,0,0:0:0:0:
256,192,79525,1,0,0:0:0:0:
256,192,79587,1,0,0:0:0:0:
256,192,79650,1,8,0:0:0:0:
256,192,79712,1,8,0:0:0:0:
256,192,79775,1,0,0:0:0:0:
256,192,79900,1,8,0:0:0:0:
256,192,79962,1,0,0:0:0:0:
256,192,80025,1,0,0:0:0:0:
256,192,80087,1,0,0:0:0:0:
256,192,80150,1,8,0:0:0:0:
256,192,80212,1,0,0:0:0:0:
256,192,80275,1,0,0:0:0:0:
256,192,80337,1,0,0:0:0:0:
256,192,80400,1,8,0:0:0:0:
256,192,80525,1,0,0:0:0:0:
256,192,80587,1,0,0:0:0:0:
256,192,80650,1,8,0:0:0:0:
256,192,80775,1,0,0:0:0:0:
256,192,80837,1,0,0:0:0:0:
256,192,80900,1,8,0:0:0:0:
256,192,81025,1,0,0:0:0:0:
256,192,81150,1,4,0:0:0:0:
256,192,81275,1,8,0:0:0:0:
256,192,81337,1,8,0:0:0:0:
256,192,81400,1,0,0:0:0:0:
256,192,81525,1,0,0:0:0:0:
256,192,81650,1,8,0:0:0:0:
256,192,81712,1,8,0:0:0:0:
256,192,81775,1,0,0:0:0:0:
256,192,81900,1,8,0:0:0:0:
256,192,81962,1,0,0:0:0:0:
256,192,82025,1,0,0:0:0:0:
256,192,82150,1,0,0:0:0:0:
256,192,82275,1,8,0:0:0:0:
256,192,82337,1,0,0:0:0:0:
256,192,82400,1,0,0:0:0:0:
256,192,82525,1,8,0:0:0:0:
256,192,82650,1,4,0:0:0:0:
256,192,82775,1,8,0:0:0:0:
256,192,82837,1,8,0:0:0:0:
256,192,82900,1,8,0:0:0:0:
256,192,83025,1,0,0:0:0:0:
256,192,83150,1,8,0:0:0:0:
256,192,83212,1,8,0:0:0:0:
256,192,83275,1,8,0:0:0:0:
256,192,83400,1,0,0:0:0:0:
256,192,83462,1,8,0:0:0:0:
256,192,83525,1,0,0:0:0:0:
256,192,83650,1,0,0:0:0:0:
256,192,83775,1,0,0:0:0:0:
256,192,83837,1,8,0:0:0:0:
256,192,83900,1,0,0:0:0:0:
256,192,84025,1,0,0:0:0:0:
256,192,84150,1,8,0:0:0:0:
256,192,84212,1,8,0:0:0:0:
256,192,84275,1,0,0:0:0:0:
256,192,84400,1,0,0:0:0:0:
256,192,84462,1,0,0:0:0:0:
256,192,84525,1,8,0:0:0:0:
256,192,84587,1,8,0:0:0:0:
256,192,84650,1,0,0:0:0:0:
256,192,84712,1,0,0:0:0:0:
256,192,84775,1,8,0:0:0:0:
256,192,84837,1,0,0:0:0:0:
256,192,84900,1,8,0:0:0:0:
256,192,84962,1,8,0:0:0:0:
256,192,85025,1,0,0:0:0:0:
256,192,85150,1,8,0:0:0:0:
256,192,85212,1,8,0:0:0:0:
256,192,85275,1,0,0:0:0:0:
256,192,85337,1,0,0:0:0:0:
256,192,85400,1,8,0:0:0:0:
256,192,85462,1,0,0:0:0:0:
256,192,85525,1,8,0:0:0:0:
256,192,85587,1,8,0:0:0:0:
256,192,85650,1,0,0:0:0:0:
256,192,85712,1,8,0:0:0:0:
256,192,85775,1,0,0:0:0:0:
256,192,85900,1,8,0:0:0:0:
256,192,85962,1,0,0:0:0:0:
256,192,86025,1,0,0:0:0:0:
256,192,86087,1,0,0:0:0:0:
256,192,86150,1,8,0:0:0:0:
256,192,86212,1,0,0:0:0:0:
256,192,86275,1,0,0:0:0:0:
256,192,86337,1,0,0:0:0:0:
256,192,86400,1,8,0:0:0:0:
256,192,86525,1,0,0:0:0:0:
256,192,86587,1,0,0:0:0:0:
256,192,86650,1,8,0:0:0:0:
256,192,86775,1,0,0:0:0:0:
256,192,86837,1,0,0:0:0:0:
256,192,86900,1,8,0:0:0:0:
256,192,87025,1,0,0:0:0:0:
256,192,87150,1,12,0:0:0:0:
256,192,87400,1,4,0:0:0:0:
256,192,87525,1,4,0:0:0:0:
256,192,87650,1,4,0:0:0:0:
256,192,87775,1,12,0:0:0:0:
256,192,87900,1,0,0:0:0:0:
256,192,87962,1,0,0:0:0:0:
256,192,88025,1,0,0:0:0:0:
256,192,88087,1,0,0:0:0:0:
256,192,88150,1,0,0:0:0:0:
256,192,88212,1,0,0:0:0:0:
256,192,88275,1,8,0:0:0:0:
256,192,88337,1,0,0:0:0:0:
256,192,88400,1,0,0:0:0:0:
256,192,88462,1,0,0:0:0:0:
256,192,88525,1,0,0:0:0:0:
256,192,88587,1,0,0:0:0:0:
256,192,88650,1,0,0:0:0:0:
256,192,88712,1,0,0:0:0:0:
256,192,88775,1,0,0:0:0:0:
256,192,88837,1,0,0:0:0:0:
256,192,88900,1,0,0:0:0:0:
256,192,88962,1,0,0:0:0:0:
256,192,89025,1,8,0:0:0:0:
256,192,89087,1,0,0:0:0:0:
256,192,89150,1,0,0:0:0:0:
256,192,89212,1,0,0:0:0:0:
256,192,89275,1,0,0:0:0:0:
256,192,89337,1,0,0:0:0:0:
256,192,89400,1,8,0:0:0:0:
256,192,89462,1,8,0:0:0:0:
256,192,89525,1,8,0:0:0:0:
256,192,89587,1,8,0:0:0:0:
256,192,89650,1,8,0:0:0:0:
256,192,89712,1,8,0:0:0:0:
256,192,89775,1,0,0:0:0:0:
256,192,89837,1,0,0:0:0:0:
256,192,89900,1,0,0:0:0:0:
256,192,89962,1,0,0:0:0:0:
256,192,90025,1,0,0:0:0:0:
256,192,90087,1,0,0:0:0:0:
256,192,90150,1,8,0:0:0:0:
256,192,90212,1,0,0:0:0:0:
256,192,90275,1,0,0:0:0:0:
256,192,90400,1,12,0:0:0:0:
256,192,90525,1,4,0:0:0:0:
256,192,90650,1,4,0:0:0:0:
256,192,90775,1,12,0:0:0:0:
256,192,90900,1,4,0:0:0:0:
256,192,91150,1,0,0:0:0:0:
256,192,91212,1,8,0:0:0:0:
256,192,91275,1,0,0:0:0:0:
256,192,91337,1,8,0:0:0:0:
256,192,91400,1,0,0:0:0:0:
256,192,91462,1,8,0:0:0:0:
256,192,91525,1,0,0:0:0:0:
256,192,91587,1,8,0:0:0:0:
256,192,91650,1,0,0:0:0:0:
256,192,91712,1,8,0:0:0:0:
256,192,91775,1,0,0:0:0:0:
256,192,91837,1,8,0:0:0:0:
256,192,91900,1,0,0:0:0:0:
256,192,91962,1,8,0:0:0:0:
256,192,92025,1,0,0:0:0:0:
256,192,92087,1,8,0:0:0:0:
256,192,92150,1,0,0:0:0:0:
256,192,92212,1,8,0:0:0:0:
256,192,92275,1,0,0:0:0:0:
256,192,92337,1,8,0:0:0:0:
256,192,92400,1,0,0:0:0:0:
256,192,92525,1,0,0:0:0:0:
256,192,92650,1,8,0:0:0:0:
256,192,92712,1,8,0:0:0:0:
256,192,92775,1,8,0:0:0:0:
256,192,92837,1,8,0:0:0:0:
256,192,92900,1,0,0:0:0:0:
256,192,92962,1,0,0:0:0:0:
256,192,93025,1,0,0:0:0:0:
256,192,93087,1,0,0:0:0:0:
256,192,93150,1,8,0:0:0:0:
256,192,93212,1,8,0:0:0:0:
256,192,93275,1,0,0:0:0:0:
256,192,93400,1,12,0:0:0:0:
256,192,93525,1,4,0:0:0:0:
256,192,93650,1,4,0:0:0:0:
256,192,93775,1,12,0:0:0:0:
256,192,93900,1,0,0:0:0:0:
256,192,93962,1,0,0:0:0:0:
256,192,94025,1,0,0:0:0:0:
256,192,94087,1,0,0:0:0:0:
256,192,94150,1,0,0:0:0:0:
256,192,94212,1,0,0:0:0:0:
256,192,94275,1,8,0:0:0:0:
256,192,94337,1,8,0:0:0:0:
256,192,94400,1,8,0:0:0:0:
256,192,94462,1,8,0:0:0:0:
256,192,94525,1,8,0:0:0:0:
256,192,94587,1,8,0:0:0:0:
256,192,94650,1,0,0:0:0:0:
256,192,94712,1,0,0:0:0:0:
256,192,94775,1,0,0:0:0:0:
256,192,94837,1,0,0:0:0:0:
256,192,94900,1,0,0:0:0:0:
256,192,94962,1,0,0:0:0:0:
256,192,95025,1,8,0:0:0:0:
256,192,95087,1,0,0:0:0:0:
256,192,95150,1,0,0:0:0:0:
256,192,95212,1,0,0:0:0:0:
256,192,95275,1,0,0:0:0:0:
256,192,95337,1,0,0:0:0:0:
256,192,95400,1,8,0:0:0:0:
256,192,95462,1,8,0:0:0:0:
256,192,95525,1,8,0:0:0:0:
256,192,95587,1,8,0:0:0:0:
256,192,95650,1,0,0:0:0:0:
256,192,95712,1,0,0:0:0:0:
256,192,95775,1,8,0:0:0:0:
256,192,95837,1,8,0:0:0:0:
256,192,95900,1,8,0:0:0:0:
256,192,95962,1,8,0:0:0:0:
256,192,96025,1,0,0:0:0:0:
256,192,96150,1,8,0:0:0:0:
256,192,96212,1,8,0:0:0:0:
256,192,96275,1,0,0:0:0:0:
256,192,96337,1,0,0:0:0:0:
256,192,96400,1,8,0:0:0:0:
256,192,96462,1,0,0:0:0:0:
256,192,96525,1,8,0:0:0:0:
256,192,96587,1,8,0:0:0:0:
256,192,96650,1,0,0:0:0:0:
256,192,96775,1,8,0:0:0:0:
256,192,96900,1,8,0:0:0:0:
256,192,96962,1,0,0:0:0:0:
256,192,97025,1,8,0:0:0:0:
256,192,97087,1,0,0:0:0:0:
256,192,97150,1,8,0:0:0:0:
256,192,97212,1,0,0:0:0:0:
256,192,97275,1,8,0:0:0:0:
256,192,97337,1,0,0:0:0:0:
256,192,97400,1,8,0:0:0:0:
256,192,97462,1,0,0:0:0:0:
256,192,97525,1,8,0:0:0:0:
256,192,97587,1,0,0:0:0:0:
256,192,97650,1,8,0:0:0:0:
256,192,97712,1,0,0:0:0:0:
256,192,97775,1,8,0:0:0:0:
256,192,97837,1,0,0:0:0:0:
256,192,97900,1,8,0:0:0:0:
256,192,97962,1,0,0:0:0:0:
256,192,98025,1,8,0:0:0:0:
256,192,98087,1,0,0:0:0:0:
256,192,98150,1,8,0:0:0:0:
256,192,98212,1,0,0:0:0:0:
256,192,98275,1,8,0:0:0:0:
256,192,98337,1,0,0:0:0:0:
256,192,98400,1,8,0:0:0:0:
256,192,98462,1,8,0:0:0:0:
256,192,98525,1,0,0:0:0:0:
256,192,98650,1,8,0:0:0:0:
256,192,98775,1,8,0:0:0:0:
256,192,98837,1,0,0:0:0:0:
256,192,98900,1,0,0:0:0:0:
256,192,98962,1,0,0:0:0:0:
256,192,99025,1,0,0:0:0:0:
256,192,99087,1,0,0:0:0:0:
256,192,99150,1,8,0:0:0:0:
256,192,99400,1,12,0:0:0:0:
256,192,99525,1,4,0:0:0:0:
256,192,99650,1,4,0:0:0:0:
256,192,99775,1,12,0:0:0:0:
256,192,99900,1,12,0:0:0:0:
256,192,100025,1,0,0:0:0:0:
256,192,100150,1,12,0:0:0:0:
256,192,100275,1,12,0:0:0:0:
256,192,100400,1,4,0:0:0:0:
256,192,100525,1,4,0:0:0:0:
256,192,100650,1,12,0:0:0:0:
256,192,100775,1,0,0:0:0:0:
256,192,100900,1,12,0:0:0:0:
256,192,101025,1,4,0:0:0:0:
256,192,101150,1,4,0:0:0:0:
256,192,101275,1,4,0:0:0:0:
256,192,101400,1,12,0:0:0:0:
256,192,101525,1,0,0:0:0:0:
256,192,101650,1,8,0:0:0:0:
256,192,101712,1,8,0:0:0:0:
256,192,101775,1,0,0:0:0:0:
256,192,101900,1,8,0:0:0:0:
256,192,101962,1,0,0:0:0:0:
256,192,102025,1,0,0:0:0:0:
256,192,102150,1,4,0:0:0:0:
256,192,102275,1,8,0:0:0:0:
256,192,102337,1,8,0:0:0:0:
256,192,102400,1,0,0:0:0:0:
256,192,102525,1,0,0:0:0:0:
256,192,102650,1,8,0:0:0:0:
256,192,102712,1,8,0:0:0:0:
256,192,102775,1,0,0:0:0:0:
256,192,102900,1,8,0:0:0:0:
256,192,102962,1,0,0:0:0:0:
256,192,103025,1,0,0:0:0:0:
256,192,103150,1,0,0:0:0:0:
256,192,103275,1,8,0:0:0:0:
256,192,103337,1,0,0:0:0:0:
256,192,103400,1,0,0:0:0:0:
256,192,103525,1,0,0:0:0:0:
256,192,103650,1,8,0:0:0:0:
256,192,103775,1,0,0:0:0:0:
256,192,103837,1,0,0:0:0:0:
256,192,103900,1,0,0:0:0:0:
256,192,104025,1,8,0:0:0:0:
256,192,104150,1,0,0:0:0:0:
256,192,104212,1,0,0:0:0:0:
256,192,104275,1,0,0:0:0:0:
256,192,104400,1,8,0:0:0:0:
256,192,104462,1,8,0:0:0:0:
256,192,104525,1,0,0:0:0:0:
256,192,104650,1,0,0:0:0:0:
256,192,104775,1,8,0:0:0:0:
256,192,104837,1,8,0:0:0:0:
256,192,104900,1,0,0:0:0:0:
256,192,105025,1,0,0:0:0:0:
256,192,105087,1,0,0:0:0:0:
256,192,105150,1,8,0:0:0:0:
256,192,105400,1,8,0:0:0:0:
256,192,105462,1,8,0:0:0:0:
256,192,105525,1,0,0:0:0:0:
256,192,105587,1,0,0:0:0:0:
256,192,105650,1,8,0:0:0:0:
256,192,105712,1,0,0:0:0:0:
256,192,105775,1,8,0:0:0:0:
256,192,105837,1,8,0:0:0:0:
256,192,105900,1,0,0:0:0:0:
256,192,105962,1,0,0:0:0:0:
256,192,106025,1,8,0:0:0:0:
256,192,106150,1,8,0:0:0:0:
256,192,106212,1,0,0:0:0:0:
256,192,106275,1,0,0:0:0:0:
256,192,106337,1,0,0:0:0:0:
256,192,106400,1,8,0:0:0:0:
256,192,106462,1,8,0:0:0:0:
256,192,106525,1,0,0:0:0:0:
256,192,106587,1,0,0:0:0:0:
256,192,106650,1,8,0:0:0:0:
256,192,106712,1,0,0:0:0:0:
256,192,106775,1,0,0:0:0:0:
256,192,106900,1,8,0:0:0:0:
256,192,106962,1,0,0:0:0:0:
256,192,107025,1,0,0:0:0:0:
256,192,107087,1,0,0:0:0:0:
256,192,107150,1,8,0:0:0:0:
256,192,107212,1,0,0:0:0:0:
256,192,107275,1,0,0:0:0:0:
256,192,107337,1,0,0:0:0:0:
256,192,107400,1,8,0:0:0:0:
256,192,107462,1,8,0:0:0:0:
256,192,107525,1,0,0:0:0:0:
256,192,107650,1,8,0:0:0:0:
256,192,107712,1,0,0:0:0:0:
256,192,107775,1,0,0:0:0:0:
256,192,107900,1,8,0:0:0:0:
256,192,107962,1,8,0:0:0:0:
256,192,108025,1,0,0:0:0:0:
256,192,108150,1,4,0:0:0:0:
256,192,108275,1,8,0:0:0:0:
256,192,108337,1,8,0:0:0:0:
256,192,108400,1,0,0:0:0:0:
256,192,108525,1,0,0:0:0:0:
256,192,108650,1,8,0:0:0:0:
256,192,108712,1,8,0:0:0:0:
256,192,108775,1,0,0:0:0:0:
256,192,108900,1,0,0:0:0:0:
256,192,108962,1,0,0:0:0:0:
256,192,109025,1,8,0:0:0:0:
256,192,109087,1,8,0:0:0:0:
256,192,109150,1,0,0:0:0:0:
256,192,109275,1,8,0:0:0:0:
256,192,109337,1,8,0:0:0:0:
256,192,109400,1,0,0:0:0:0:
256,192,109525,1,0,0:0:0:0:
256,192,109587,1,0,0:0:0:0:
256,192,109650,1,8,0:0:0:0:
256,192,109775,1,8,0:0:0:0:
256,192,109837,1,0,0:0:0:0:
256,192,109900,1,0,0:0:0:0:
256,192,109962,1,0,0:0:0:0:
256,192,110025,1,8,0:0:0:0:
256,192,110150,1,8,0:0:0:0:
256,192,110212,1,0,0:0:0:0:
256,192,110275,1,0,0:0:0:0:
256,192,110337,1,0,0:0:0:0:
256,192,110400,1,8,0:0:0:0:
256,192,110525,1,8,0:0:0:0:
256,192,110587,1,0,0:0:0:0:
256,192,110650,1,0,0:0:0:0:
256,192,110775,1,8,0:0:0:0:
256,192,110837,1,8,0:0:0:0:
256,192,110900,1,0,0:0:0:0:
256,192,111025,1,0,0:0:0:0:
256,192,111087,1,0,0:0:0:0:
256,192,111150,1,8,0:0:0:0:
256,192,111275,1,0,0:0:0:0:
256,192,111337,1,0,0:0:0:0:
256,192,111400,1,0,0:0:0:0:
256,192,111525,1,8,0:0:0:0:
256,192,111650,1,0,0:0:0:0:
256,192,111712,1,0,0:0:0:0:
256,192,111775,1,0,0:0:0:0:
256,192,111900,1,0,0:0:0:0:
256,192,112025,1,8,0:0:0:0:
256,192,112087,1,0,0:0:0:0:
256,192,112150,1,0,0:0:0:0:
256,192,112275,1,8,0:0:0:0:
256,192,112337,1,0,0:0:0:0:
256,192,112400,1,0,0:0:0:0:
256,192,112525,1,0,0:0:0:0:
256,192,112587,1,0,0:0:0:0:
256,192,112650,1,8,0:0:0:0:
256,192,112712,1,0,0:0:0:0:
256,192,112775,1,0,0:0:0:0:
256,192,112837,1,0,0:0:0:0:
256,192,112900,1,0,0:0:0:0:
256,192,113025,1,12,0:0:0:0:
256,192,113150,1,12,0:0:0:0:
256,192,113275,1,12,0:0:0:0:
256,192,113400,1,8,0:0:0:0:
256,192,113462,1,8,0:0:0:0:
256,192,113525,1,0,0:0:0:0:
256,192,113587,1,0,0:0:0:0:
256,192,113650,1,0,0:0:0:0:
256,192,113775,1,12,0:0:0:0:
256,192,113900,1,12,0:0:0:0:
256,192,114025,1,12,0:0:0:0:
256,192,114150,1,0,0:0:0:0:
256,192,114212,1,8,0:0:0:0:
256,192,114275,1,8,0:0:0:0:
256,192,114337,1,8,0:0:0:0:
256,192,114400,1,0,0:0:0:0:
256,192,114525,1,0,0:0:0:0:
256,192,114587,1,8,0:0:0:0:
256,192,114650,1,8,0:0:0:0:
256,192,114712,1,8,0:0:0:0:
256,192,114775,1,0,0:0:0:0:
256,192,114900,1,0,0:0:0:0:
256,192,115025,1,8,0:0:0:0:
256,192,115087,1,8,0:0:0:0:
256,192,115150,1,0,0:0:0:0:
256,192,115275,1,8,0:0:0:0:
256,192,115337,1,8,0:0:0:0:
256,192,115400,1,0,0:0:0:0:
256,192,115525,1,0,0:0:0:0:
256,192,115587,1,0,0:0:0:0:
256,192,115650,1,8,0:0:0:0:
256,192,115712,1,0,0:0:0:0:
256,192,115775,1,0,0:0:0:0:
256,192,115837,1,0,0:0:0:0:
256,192,115900,1,8,0:0:0:0:
256,192,116025,1,8,0:0:0:0:
256,192,116087,1,0,0:0:0:0:
256,192,116150,1,0,0:0:0:0:
256,192,116212,1,0,0:0:0:0:
256,192,116275,1,8,0:0:0:0:
256,192,116400,1,0,0:0:0:0:
256,192,116525,1,8,0:0:0:0:
256,192,116587,1,8,0:0:0:0:
256,192,116650,1,0,0:0:0:0:
256,192,116775,1,8,0:0:0:0:
256,192,116837,1,8,0:0:0:0:
256,192,116900,1,0,0:0:0:0:
256,192,117025,1,0,0:0:0:0:
256,192,117150,1,8,0:0:0:0:
256,192,117212,1,0,0:0:0:0:
256,192,117275,1,0,0:0:0:0:
256,192,117337,1,0,0:0:0:0:
256,192,117400,1,0,0:0:0:0:
256,192,117525,1,8,0:0:0:0:
256,192,117587,1,0,0:0:0:0:
256,192,117650,1,0,0:0:0:0:
256,192,117712,1,0,0:0:0:0:
256,192,117775,1,0,0:0:0:0:
256,192,117900,1,0,0:0:0:0:
256,192,118025,1,8,0:0:0:0:
256,192,118087,1,0,0:0:0:0:
256,192,118150,1,0,0:0:0:0:
256,192,118275,1,8,0:0:0:0:
256,192,118337,1,0,0:0:0:0:
256,192,118400,1,0,0:0:0:0:
256,192,118525,1,0,0:0:0:0:
256,192,118587,1,0,0:0:0:0:
256,192,118650,1,8,0:0:0:0:
256,192,118712,1,0,0:0:0:0:
256,192,118775,1,0,0:0:0:0:
256,192,118837,1,0,0:0:0:0:
256,192,118900,1,0,0:0:0:0:
256,192,119025,1,12,0:0:0:0:
256,192,119150,1,12,0:0:0:0:
256,192,119275,1,12,0:0:0:0:
256,192,119400,1,8,0:0:0:0:
256,192,119462,1,8,0:0:0:0:
256,192,119525,1,0,0:0:0:0:
256,192,119587,1,0,0:0:0:0:
256,192,119650,1,0,0:0:0:0:
256,192,119775,1,12,0:0:0:0:
256,192,119900,1,12,0:0:0:0:
256,192,120025,1,12,0:0:0:0:
256,192,120150,1,0,0:0:0:0:
256,192,120525,1,8,0:0:0:0:
256,192,120587,1,8,0:0:0:0:
256,192,120650,1,0,0:0:0:0:
256,192,120775,1,0,0:0:0:0:
256,192,120900,1,8,0:0:0:0:
256,192,121150,1,0,0:0:0:0:
256,192,121400,1,8,0:0:0:0:
256,192,121525,1,8,0:0:0:0:
256,192,121650,1,0,0:0:0:0:
256,192,121900,1,0,0:0:0:0:
256,192,121962,1,0,0:0:0:0:
256,192,122025,1,8,0:0:0:0:
256,192,122150,1,8,0:0:0:0:
256,192,122275,1,8,0:0:0:0:
256,192,122400,1,0,0:0:0:0:
256,192,122462,1,0,0:0:0:0:
256,192,122525,1,0,0:0:0:0:
256,192,122587,1,0,0:0:0:0:
256,192,122650,1,8,0:0:0:0:
256,192,122712,1,0,0:0:0:0:
256,192,122775,1,0,0:0:0:0:
256,192,122837,1,0,0:0:0:0:
256,192,122900,1,8,0:0:0:0:
256,192,122962,1,8,0:0:0:0:
256,192,123025,1,8,0:0:0:0:
256,192,123150,1,4,0:0:0:0:
256,192,123400,1,8,0:0:0:0:
256,192,123462,1,8,0:0:0:0:
256,192,123525,1,8,0:0:0:0:
256,192,123587,1,0,0:0:0:0:
256,192,123650,1,8,0:0:0:0:
256,192,123712,1,8,0:0:0:0:
256,192,123775,1,8,0:0:0:0:
256,192,123837,1,0,0:0:0:0:
256,192,123900,1,8,0:0:0:0:
256,192,123962,1,8,0:0:0:0:
256,192,124025,1,0,0:0:0:0:
256,192,124150,1,8,0:0:0:0:
256,192,124212,1,8,0:0:0:0:
256,192,124275,1,0,0:0:0:0:
256,192,124400,1,8,0:0:0:0:
256,192,124462,1,0,0:0:0:0:
256,192,124525,1,0,0:0:0:0:
256,192,124650,1,12,0:0:0:0:
256,192,124900,1,0,0:0:0:0:
256,192,124962,1,0,0:0:0:0:
256,192,125025,1,8,0:0:0:0:
256,192,125087,1,8,0:0:0:0:
256,192,125150,1,0,0:0:0:0:
256,192,125212,1,8,0:0:0:0:
256,192,125275,1,0,0:0:0:0:
256,192,125400,1,8,0:0:0:0:
256,192,125462,1,8,0:0:0:0:
256,192,125525,1,8,0:0:0:0:
256,192,125650,1,8,0:0:0:0:
256,192,125775,1,0,0:0:0:0:
256,192,125837,1,0,0:0:0:0:
256,192,125900,1,0,0:0:0:0:
256,192,126025,1,0,0:0:0:0:
256,192,126150,1,12,0:0:0:0:
256,192,126400,1,0,0:0:0:0:
256,192,126525,1,8,0:0:0:0:
256,192,126650,1,8,0:0:0:0:
256,192,126775,1,0,0:0:0:0:
256,192,126900,1,8,0:0:0:0:
256,192,127150,1,8,0:0:0:0:
256,192,127275,1,0,0:0:0:0:
256,192,127400,1,0,0:0:0:0:
256,192,127525,1,0,0:0:0:0:
256,192,127650,1,8,0:0:0:0:
256,192,127900,1,8,0:0:0:0:
256,192,128025,1,8,0:0:0:0:
256,192,128150,1,0,0:0:0:0:
256,192,128275,1,0,0:0:0:0:
256,192,128400,1,8,0:0:0:0:
256,192,128462,1,0,0:0:0:0:
256,192,128525,1,0,0:0:0:0:
256,192,128587,1,0,0:0:0:0:
256,192,128650,1,8,0:0:0:0:
256,192,128712,1,8,0:0:0:0:
256,192,128775,1,0,0:0:0:0:
256,192,128837,1,0,0:0:0:0:
256,192,128900,1,8,0:0:0:0:
256,192,129025,1,8,0:0:0:0:
256,192,129150,1,0,0:0:0:0:
256,192,129212,1,0,0:0:0:0:
256,192,129275,1,0,0:0:0:0:
256,192,129337,1,0,0:0:0:0:
256,192,129400,1,0,0:0:0:0:
256,192,129462,1,0,0:0:0:0:
256,192,129525,1,0,0:0:0:0:
256,192,129587,1,0,0:0:0:0:
256,192,129650,1,0,0:0:0:0:
256,192,129712,1,0,0:0:0:0:
256,192,129775,1,0,0:0:0:0:
256,192,129837,1,0,0:0:0:0:
256,192,129900,1,8,0:0:0:0:
256,192,129962,1,8,0:0:0:0:
256,192,130025,1,0,0:0:0:0:
256,192,130087,1,0,0:0:0:0:
256,192,130150,1,8,0:0:0:0:
256,192,130212,1,8,0:0:0:0:
256,192,130275,1,0,0:0:0:0:
256,192,130337,1,0,0:0:0:0:
256,192,130400,1,8,0:0:0:0:
256,192,130524,1,0,0:0:0:0:
256,192,130650,1,8,0:0:0:0:
256,192,130743,1,8,0:0:0:0:
256,192,130837,1,8,0:0:0:0:
256,192,130931,1,0,0:0:0:0:
256,192,131025,1,8,0:0:0:0:
256,192,131118,1,8,0:0:0:0:
256,192,131212,1,8,0:0:0:0:
256,192,131306,1,0,0:0:0:0:
256,192,131400,1,8,0:0:0:0:
256,192,131493,1,8,0:0:0:0:
256,192,131587,1,0,0:0:0:0:
256,192,131681,1,0,0:0:0:0:
256,192,131775,1,8,0:0:0:0:
256,192,131868,1,0,0:0:0:0:
256,192,131962,1,0,0:0:0:0:
256,192,132056,1,0,0:0:0:0:
256,192,132150,1,12,0:0:0:0:
256,192,132337,1,0,0:0:0:0:
256,192,132431,1,0,0:0:0:0:
256,192,132525,1,0,0:0:0:0:
256,192,132618,1,0,0:0:0:0:
256,192,132712,1,8,0:0:0:0:
256,192,132806,1,0,0:0:0:0:
256,192,132900,1,0,0:0:0:0:
256,192,132993,1,0,0:0:0:0:
256,192,133087,1,0,0:0:0:0:
256,192,133181,1,0,0:0:0:0:
256,192,133275,1,8,0:0:0:0:
256,192,133368,1,8,0:0:0:0:
256,192,133462,1,0,0:0:0:0:
256,192,133556,1,0,0:0:0:0:
256,192,133650,1,0,0:0:0:0:
256,192,133743,1,0,0:0:0:0:
256,192,133837,1,8,0:0:0:0:
256,192,133931,1,0,0:0:0:0:
256,192,134025,1,0,0:0:0:0:
256,192,134118,1,0,0:0:0:0:
256,192,134212,1,0,0:0:0:0:
256,192,134306,1,0,0:0:0:0:
256,192,134400,1,8,0:0:0:0:
256,192,134493,1,0,0:0:0:0:
256,192,134587,1,0,0:0:0:0:
256,192,134681,1,0,0:0:0:0:
256,192,134775,1,0,0:0:0:0:
256,192,134868,1,0,0:0:0:0:
256,192,134962,1,8,0:0:0:0:
256,192,135056,1,0,0:0:0:0:
256,192,135150,1,0,0:0:0:0:
256,192,135243,1,0,0:0:0:0:
256,192,135337,1,0,0:0:0:0:
256,192,135431,1,0,0:0:0:0:
256,192,135525,1,8,0:0:0:0:
256,192,135618,1,8,0:0:0:0:
256,192,135712,1,0,0:0:0:0:
256,192,135806,1,0,0:0:0:0:
256,192,135900,1,0,0:0:0:0:
256,192,135993,1,0,0:0:0:0:
256,192,136087,1,8,0:0:0:0:
256,192,136181,1,0,0:0:0:0:
256,192,136275,1,8,0:0:0:0:
256,192,136368,1,8,0:0:0:0:
256,192,136462,1,0,0:0:0:0:
256,192,136556,1,0,0:0:0:0:
256,192,136650,1,8,0:0:0:0:
256,192,136837,1,0,0:0:0:0:
256,192,136931,1,0,0:0:0:0:
256,192,137025,1,0,0:0:0:0:
256,192,137118,1,0,0:0:0:0:
256,192,137212,1,8,0:0:0:0:
256,192,137306,1,0,0:0:0:0:
256,192,137400,1,0,0:0:0:0:
256,192,137493,1,0,0:0:0:0:
256,192,137587,1,0,0:0:0:0:
256,192,137681,1,0,0:0:0:0:
256,192,137775,1,8,0:0:0:0:
256,192,137868,1,8,0:0:0:0:
256,192,137962,1,0,0:0:0:0:
256,192,138056,1,0,0:0:0:0:
256,192,138150,1,0,0:0:0:0:
256,192,138243,1,0,0:0:0:0:
256,192,138337,1,8,0:0:0:0:
256,192,138431,1,0,0:0:0:0:
256,192,138525,1,0,0:0:0:0:
256,192,138618,1,8,0:0:0:0:
256,192,138712,1,0,0:0:0:0:
256,192,138806,1,8,0:0:0:0:
256,192,138900,1,0,0:0:0:0:
256,192,139087,1,0,0:0:0:0:
256,192,139181,1,0,0:0:0:0:
256,192,139275,1,0,0:0:0:0:
256,192,139368,1,0,0:0:0:0:
256,192,139462,1,8,0:0:0:0:
256,192,139556,1,0,0:0:0:0:
256,192,139650,1,0,0:0:0:0:
256,192,139743,1,0,0:0:0:0:
256,192,139837,1,0,0:0:0:0:
256,192,139931,1,0,0:0:0:0:
256,192,140025,1,8,0:0:0:0:
256,192,140118,1,8,0:0:0:0:
256,192,140212,1,0,0:0:0:0:
256,192,140306,1,0,0:0:0:0:
256,192,140400,1,0,0:0:0:0:
256,192,140493,1,8,0:0:0:0:
256,192,140587,1,8,0:0:0:0:
256,192,140681,1,0,0:0:0:0:
256,192,140775,1,8,0:0:0:0:
256,192,140868,1,8,0:0:0:0:
256,192,140962,1,0,0:0:0:0:
256,192,141056,1,0,0:0:0:0:
256,192,141150,1,8,0:0:0:0:
256,192,141243,1,0,0:0:0:0:
256,192,141337,1,8,0:0:0:0:
256,192,141431,1,0,0:0:0:0:
256,192,141525,1,0,0:0:0:0:
256,192,141618,1,0,0:0:0:0:
256,192,141712,1,8,0:0:0:0:
256,192,141806,1,0,0:0:0:0:
256,192,141900,1,0,0:0:0:0:
256,192,141993,1,0,0:0:0:0:
256,192,142087,1,8,0:0:0:0:
256,192,142181,1,0,0:0:0:0:
256,192,142275,1,8,0:0:0:0:
256,192,142368,1,8,0:0:0:0:
256,192,142462,1,0,0:0:0:0:
256,192,142556,1,8,0:0:0:0:
256,192,142650,1,0,0:0:0:0:
256,192,142743,1,0,0:0:0:0:
256,192,142837,1,8,0:0:0:0:
256,192,142931,1,0,0:0:0:0:
256,192,143025,1,0,0:0:0:0:
256,192,143118,1,8,0:0:0:0:
256,192,143212,1,8,0:0:0:0:
256,192,143306,1,8,0:0:0:0:
256,192,143400,1,0,0:0:0:0:
256,192,143493,1,8,0:0:0:0:
256,192,143587,1,8,0:0:0:0:
256,192,143681,1,0,0:0:0:0:
256,192,143775,1,0,0:0:0:0:
256,192,143868,1,0,0:0:0:0:
256,192,143962,1,8,0:0:0:0:
256,192,144056,1,0,0:0:0:0:
256,192,144150,1,0,0:0:0:0:
256,192,144243,1,0,0:0:0:0:
256,192,144337,1,8,0:0:0:0:
256,192,144431,1,0,0:0:0:0:
256,192,144525,1,8,0:0:0:0:
256,192,144618,1,8,0:0:0:0:
256,192,144712,1,0,0:0:0:0:
256,192,144806,1,8,0:0:0:0:
256,192,144900,1,0,0:0:0:0:
256,192,144993,1,8,0:0:0:0:
256,192,145087,1,8,0:0:0:0:
256,192,145181,1,8,0:0:0:0:
256,192,145275,1,8,0:0:0:0:
256,192,145368,1,0,0:0:0:0:
256,192,145462,1,0,0:0:0:0:
256,192,145556,1,8,0:0:0:0:
256,192,145650,1,0,0:0:0:0:
256,192,145743,1,0,0:0:0:0:
256,192,145837,1,0,0:0:0:0:
256,192,145931,1,0,0:0:0:0:
256,192,146025,1,0,0:0:0:0:
256,192,146212,1,8,0:0:0:0:
256,192,146400,1,8,0:0:0:0:
256,192,146775,1,0,0:0:0:0:
256,192,146868,1,0,0:0:0:0:
256,192,146962,1,0,0:0:0:0:
256,192,147056,1,0,0:0:0:0:
256,192,147150,1,0,0:0:0:0:
256,192,147337,1,8,0:0:0:0:
256,192,147525,1,4,0:0:0:0:
256,192,147712,1,12,0:0:0:0:
256,192,147900,1,0,0:0:0:0:
256,192,147993,1,0,0:0:0:0:
256,192,148087,1,0,0:0:0:0:
256,192,148181,1,0,0:0:0:0:
256,192,148275,1,0,0:0:0:0:
256,192,148462,1,4,0:0:0:0:
256,192,148650,1,12,0:0:0:0:
256,192,148837,1,4,0:0:0:0:
256,192,149025,1,0,0:0:0:0:
256,192,149118,1,0,0:0:0:0:
256,192,149212,1,0,0:0:0:0:
256,192,149306,1,0,0:0:0:0:
256,192,149400,1,0,0:0:0:0:
256,192,149587,1,8,0:0:0:0:
256,192,149681,1,8,0:0:0:0:
256,192,149775,1,0,0:0:0:0:
256,192,149868,1,0,0:0:0:0:
256,192,149962,1,8,0:0:0:0:
256,192,150150,1,0,0:0:0:0:
256,192,150243,1,0,0:0:0:0:
256,192,150337,1,8,0:0:0:0:
256,192,150431,1,0,0:0:0:0:
256,192,150525,1,0,0:0:0:0:
256,192,150618,1,0,0:0:0:0:
256,192,150712,1,8,0:0:0:0:
256,192,150806,1,0,0:0:0:0:
256,192,150900,1,0,0:0:0:0:
256,192,150993,1,0,0:0:0:0:
256,192,151087,1,8,0:0:0:0:
256,192,151181,1,0,0:0:0:0:
256,192,151275,1,8,0:0:0:0:
256,192,151368,1,8,0:0:0:0:
256,192,151462,1,8,0:0:0:0:
256,192,151556,1,0,0:0:0:0:
256,192,151650,1,0,0:0:0:0:
256,192,151743,1,0,0:0:0:0:
256,192,151837,1,8,0:0:0:0:
256,192,151931,1,0,0:0:0:0:
256,192,152025,1,0,0:0:0:0:
256,192,152118,1,8,0:0:0:0:
256,192,152212,1,8,0:0:0:0:
256,192,152306,1,8,0:0:0:0:
256,192,152400,1,0,0:0:0:0:
256,192,152493,1,8,0:0:0:0:
256,192,152587,1,0,0:0:0:0:
256,192,152681,1,8,0:0:0:0:
256,192,152775,1,0,0:0:0:0:
256,192,152868,1,0,0:0:0:0:
256,192,152962,1,8,0:0:0:0:
256,192,153056,1,0,0:0:0:0:
256,192,153150,1,0,0:0:0:0:
256,192,153243,1,0,0:0:0:0:
256,192,153337,1,0,0:0:0:0:
256,192,153431,1,0,0:0:0:0:
256,192,153525,1,12,0:0:0:0:
256,192,153712,1,12,0:0:0:0:
256,192,153900,1,4,0:0:0:0:
256,192,154087,1,4,0:0:0:0:
256,192,154275,1,8,0:0:0:0:
256,192,154368,1,8,0:0:0:0:
256,192,154462,1,8,0:0:0:0:
256,192,154556,1,8,0:0:0:0:
256,192,154650,1,0,0:0:0:0:
256,192,154743,1,8,0:0:0:0:
256,192,154837,1,0,0:0:0:0:
256,192,154931,1,8,0:0:0:0:
256,192,155025,1,0,0:0:0:0:
256,192,155118,1,0,0:0:0:0:
256,192,155212,1,0,0:0:0:0:
256,192,155306,1,0,0:0:0:0:
256,192,155400,1,8,0:0:0:0:
256,192,155493,1,0,0:0:0:0:
256,192,155587,1,0,0:0:0:0:
256,192,155681,1,0,0:0:0:0:
256,192,155775,1,8,0:0:0:0:
256,192,155868,1,8,0:0:0:0:
256,192,155962,1,0,0:0:0:0:
256,192,156056,1,0,0:0:0:0:
256,192,156150,1,8,0:0:0:0:
256,192,156243,1,8,0:0:0:0:
256,192,156337,1,8,0:0:0:0:
256,192,156431,1,0,0:0:0:0:
256,96,156525,2,0,L|288:96,28,30.6250002920628
256,192,158025,1,8,0:0:0:0:
256,192,158306,1,8,0:0:0:0:
256,192,158587,1,0,0:0:0:0:
256,192,158775,1,8,0:0:0:0:
256,192,159056,1,8,0:0:0:0:
256,192,159337,1,0,0:0:0:0:
256,96,159525,2,0,L|288:96,24,30.6250002920628
256,192,161025,1,8,0:0:0:0:
256,192,161212,1,8,0:0:0:0:
256,192,161400,1,0,0:0:0:0:
256,192,161587,1,8,0:0:0:0:
256,192,161681,1,8,0:0:0:0:
256,192,161775,1,0,0:0:0:0:
256,192,161962,1,0,0:0:0:0:
256,192,162150,1,8,0:0:0:0:
256,192,162337,1,8,0:0:0:0:
256,192,162525,1,0,0:0:0:0:
256,192,162712,1,0,0:0:0:0:
256,192,162806,1,8,0:0:0:0:
256,192,162900,1,8,0:0:0:0:
256,192,163087,1,0,0:0:0:0:
256,192,163275,1,8,0:0:0:0:
256,192,163462,1,8,0:0:0:0:
256,192,163650,1,0,0:0:0:0:
256,192,163837,1,8,0:0:0:0:
256,192,163931,1,8,0:0:0:0:
256,192,164025,1,8,0:0:0:0:
256,192,164212,1,0,0:0:0:0:
256,192,164400,1,8,0:0:0:0:
256,192,164587,1,8,0:0:0:0:
256,192,164775,1,0,0:0:0:0:
256,192,164962,1,8,0:0:0:0:
256,192,165056,1,8,0:0:0:0:
256,192,165150,1,0,0:0:0:0:
256,192,165337,1,0,0:0:0:0:
256,192,165525,12,0,166931,0:0:0:0:
256,192,167025,5,8,0:0:0:0:
256,192,167150,1,8,0:0:0:0:
256,192,167275,1,0,0:0:0:0:
256,192,167400,1,8,0:0:0:0:
256,192,167525,1,0,0:0:0:0:
256,192,167650,1,0,0:0:0:0:
256,192,167775,1,8,0:0:0:0:
256,192,167900,1,8,0:0:0:0:
256,192,168025,1,0,0:0:0:0:
256,192,168150,1,8,0:0:0:0:
256,192,168275,1,0,0:0:0:0:
256,192,168400,1,0,0:0:0:0:
256,192,168525,1,8,0:0:0:0:
256,192,168650,1,8,0:0:0:0:
256,192,168775,1,0,0:0:0:0:
256,192,168900,1,8,0:0:0:0:
256,192,169025,1,0,0:0:0:0:
256,192,169150,1,0,0:0:0:0:
256,192,169275,2,0,L|256:224,12,17.5
256,192,170025,1,8,0:0:0:0:
256,192,170150,1,0,0:0:0:0:
256,192,170275,1,0,0:0:0:0:
256,192,170400,1,8,0:0:0:0:
256,192,170525,1,0,0:0:0:0:
256,192,170650,1,0,0:0:0:0:
256,192,170775,1,8,0:0:0:0:
256,192,170900,1,0,0:0:0:0:
256,192,171025,1,0,0:0:0:0:
256,192,171150,1,8,0:0:0:0:
256,192,171275,1,0,0:0:0:0:
256,192,171400,1,0,0:0:0:0:
256,192,171525,1,8,0:0:0:0:
256,192,171618,1,8,0:0:0:0:
256,192,171712,1,0,0:0:0:0:
256,192,171806,1,8,0:0:0:0:
256,192,171900,1,0,0:0:0:0:
256,192,171993,1,0,0:0:0:0:
256,192,172087,1,8,0:0:0:0:
256,192,172181,1,0,0:0:0:0:
256,192,172275,1,8,0:0:0:0:
256,192,172368,1,8,0:0:0:0:
256,192,172462,1,0,0:0:0:0:
256,192,172556,1,0,0:0:0:0:
256,192,172650,1,8,0:0:0:0:
256,192,172743,1,8,0:0:0:0:
256,192,172837,1,8,0:0:0:0:
256,192,172931,1,8,0:0:0:0:
256,192,173025,1,0,0:0:0:0:
256,192,173212,1,0,0:0:0:0:
256,192,173400,1,8,0:0:0:0:
256,192,173587,1,8,0:0:0:0:
256,192,173681,1,0,0:0:0:0:
256,192,173775,1,0,0:0:0:0:
256,192,173962,1,8,0:0:0:0:
256,192,174150,1,0,0:0:0:0:
256,192,174243,1,0,0:0:0:0:
256,192,174337,1,8,0:0:0:0:
256,192,174525,1,8,0:0:0:0:
256,192,174712,1,0,0:0:0:0:
256,192,174900,1,0,0:0:0:0:
256,192,174993,1,8,0:0:0:0:
256,192,175087,1,8,0:0:0:0:
256,192,175275,1,8,0:0:0:0:
256,192,175368,1,8,0:0:0:0:
256,192,175462,1,0,0:0:0:0:
256,192,175650,1,8,0:0:0:0:
256,192,175837,1,0,0:0:0:0:
256,192,175931,1,8,0:0:0:0:
256,192,176025,1,8,0:0:0:0:
256,192,176118,1,0,0:0:0:0:
256,192,176212,1,8,0:0:0:0:
256,192,176400,1,8,0:0:0:0:
256,192,176493,1,0,0:0:0:0:
256,192,176587,1,8,0:0:0:0:
256,192,176775,2,0,L|256:256,12,35
256,192,177525,1,8,0:0:0:0:
256,192,177618,1,8,0:0:0:0:
256,192,177712,1,0,0:0:0:0:
256,192,177806,1,0,0:0:0:0:
256,192,177900,1,8,0:0:0:0:
256,192,177993,1,0,0:0:0:0:
256,192,178087,1,0,0:0:0:0:
256,192,178181,1,8,0:0:0:0:
256,192,178275,1,0,0:0:0:0:
256,192,178337,1,0,0:0:0:0:
256,192,178400,1,8,0:0:0:0:
256,192,178462,1,8,0:0:0:0:
256,192,178525,1,0,0:0:0:0:
256,192,178587,1,0,0:0:0:0:
256,192,178650,1,8,0:0:0:0:
256,192,178743,1,8,0:0:0:0:
256,192,178837,1,0,0:0:0:0:
256,192,178931,1,0,0:0:0:0:
256,192,179025,1,8,0:0:0:0:
256,192,179212,1,0,0:0:0:0:
256,192,179306,1,0,0:0:0:0:
256,192,179400,1,0,0:0:0:0:
256,192,179493,1,0,0:0:0:0:
256,192,179587,1,8,0:0:0:0:
256,192,179681,1,0,0:0:0:0:
256,192,179775,1,0,0:0:0:0:
256,192,179868,1,0,0:0:0:0:
256,192,179962,1,0,0:0:0:0:
256,192,180056,1,0,0:0:0:0:
256,192,180150,1,8,0:0:0:0:
256,192,180243,1,8,0:0:0:0:
256,192,180337,1,0,0:0:0:0:
256,192,180431,1,0,0:0:0:0:
256,192,180525,1,0,0:0:0:0:
256,192,180618,1,0,0:0:0:0:
256,192,180712,1,8,0:0:0:0:
256,192,180806,1,0,0:0:0:0:
256,192,180900,1,0,0:0:0:0:
256,192,180993,1,8,0:0:0:0:
256,192,181087,1,8,0:0:0:0:
256,192,181181,1,8,0:0:0:0:
256,192,181275,1,0,0:0:0:0:
256,192,181368,1,8,0:0:0:0:
256,192,181462,1,0,0:0:0:0:
256,192,181556,1,8,0:0:0:0:
256,192,181650,1,0,0:0:0:0:
256,192,181743,1,0,0:0:0:0:
256,192,181837,1,8,0:0:0:0:
256,192,181931,1,8,0:0:0:0:
256,192,182025,1,0,0:0:0:0:
256,192,182118,1,8,0:0:0:0:
256,192,182212,1,0,0:0:0:0:
256,192,182306,1,0,0:0:0:0:
256,192,182400,1,8,0:0:0:0:
256,192,182493,1,0,0:0:0:0:
256,192,182587,1,8,0:0:0:0:
256,192,182681,1,8,0:0:0:0:
256,192,182775,1,0,0:0:0:0:
256,192,182868,1,0,0:0:0:0:
256,192,182962,1,8,0:0:0:0:
256,192,183056,1,8,0:0:0:0:
256,192,183150,1,0,0:0:0:0:
256,192,183243,1,8,0:0:0:0:
256,192,183337,1,8,0:0:0:0:
256,192,183431,1,8,0:0:0:0:
256,192,183525,1,0,0:0:0:0:
256,192,183618,1,0,0:0:0:0:
256,192,183712,1,0,0:0:0:0:
256,192,183806,1,0,0:0:0:0:
256,192,183900,1,0,0:0:0:0:
256,192,183993,1,0,0:0:0:0:
256,192,184087,1,8,0:0:0:0:
256,192,184181,1,0,0:0:0:0:
256,192,184275,1,0,0:0:0:0:
256,192,184368,1,0,0:0:0:0:
256,192,184462,1,0,0:0:0:0:
256,192,184556,1,0,0:0:0:0:
256,192,184650,1,8,0:0:0:0:
256,192,184743,1,8,0:0:0:0:
256,192,184837,1,0,0:0:0:0:
256,192,184931,1,0,0:0:0:0:
256,192,185025,1,0,0:0:0:0:
256,192,185118,1,0,0:0:0:0:
256,192,185212,1,8,0:0:0:0:
256,192,185306,1,0,0:0:0:0:
256,192,185400,1,0,0:0:0:0:
256,192,185493,1,8,0:0:0:0:
256,192,185587,1,8,0:0:0:0:
256,192,185681,1,8,0:0:0:0:
256,192,185775,1,0,0:0:0:0:
256,192,185868,1,0,0:0:0:0:
256,192,185962,1,8,0:0:0:0:
256,192,186056,1,0,0:0:0:0:
256,192,186150,1,0,0:0:0:0:
256,192,186243,1,8,0:0:0:0:
256,192,186337,1,8,0:0:0:0:
256,192,186431,1,0,0:0:0:0:
256,192,186525,1,8,0:0:0:0:
256,192,186618,1,0,0:0:0:0:
256,192,186712,1,0,0:0:0:0:
256,192,186806,1,0,0:0:0:0:
256,192,186900,1,8,0:0:0:0:
256,192,186993,1,8,0:0:0:0:
256,192,187087,1,8,0:0:0:0:
256,192,187181,1,8,0:0:0:0:
256,192,187275,1,0,0:0:0:0:
256,192,187368,1,8,0:0:0:0:
256,192,187462,1,0,0:0:0:0:
256,192,187556,1,8,0:0:0:0:
256,192,187650,1,0,0:0:0:0:
256,192,187743,1,8,0:0:0:0:
256,192,187837,1,8,0:0:0:0:
256,192,187931,1,0,0:0:0:0:
395,244,188025,5,0,0:0:0:0:
389,182,189150,1,4,0:0:0:0:
371,220,190275,1,4,0:0:0:0:
384,201,190650,1,8,0:0:0:0:
385,201,191025,1,8,0:0:0:0:
447,156,191400,1,8,0:0:0:0:
447,156,191462,1,8,0:0:0:0:
447,156,191525,1,8,0:0:0:0:
447,156,191587,1,8,0:0:0:0:
447,156,191650,1,0,0:0:0:0:
447,156,191712,1,0,0:0:0:0:
344,146,191775,1,8,0:0:0:0:
404,60,191837,1,8,0:0:0:0:
342,112,191962,1,0,0:0:0:0:
342,112,192025,1,0,0:0:0:0:
342,112,192087,1,0,0:0:0:0:
342,112,192150,1,8,0:0:0:0:
404,159,192337,1,8,0:0:0:0:
457,221,192525,1,0,0:0:0:0:
389,175,192618,1,0,0:0:0:0:
389,175,192712,1,0,0:0:0:0:
389,175,192806,1,0,0:0:0:0:
389,175,192993,1,0,0:0:0:0:
389,175,193087,1,0,0:0:0:0:
389,175,193275,1,0,0:0:0:0:
389,175,193462,1,0,0:0:0:0:
389,175,193650,1,8,0:0:0:0:
329,123,193743,1,0,0:0:0:0:
389,175,193837,1,0,0:0:0:0:
389,175,193931,1,0,0:0:0:0:
389,175,194025,1,8,0:0:0:0:
389,175,194118,1,0,0:0:0:0:
389,175,194212,1,8,0:0:0:0:
389,175,194306,1,8,0:0:0:0:
299,172,194400,1,0,0:0:0:0:
299,172,194493,1,8,0:0:0:0:
299,172,194587,1,8,0:0:0:0:
299,172,194681,1,8,0:0:0:0:
299,172,194775,1,0,0:0:0:0:
299,172,194868,1,0,0:0:0:0:
299,172,194962,1,0,0:0:0:0:
299,172,195056,1,0,0:0:0:0:
199,141,195243,1,0,0:0:0:0:
213,144,195337,1,0,0:0:0:0:
256,111,195525,1,0,0:0:0:0:
256,101,195712,1,0,0:0:0:0:
256,101,195900,1,8,0:0:0:0:
374,159,196087,1,0,0:0:0:0:
374,159,196150,1,0,0:0:0:0:
374,159,196212,1,0,0:0:0:0:
458,118,196275,1,8,0:0:0:0:
397,103,196368,1,8,0:0:0:0:
397,103,196462,1,0,0:0:0:0:
397,103,196556,1,0,0:0:0:0:
386,90,196650,1,8,0:0:0:0:
386,90,196837,1,8,0:0:0:0:
386,90,197025,1,0,0:0:0:0:
386,90,197118,1,0,0:0:0:0:
386,90,197212,1,0,0:0:0:0:
386,90,197306,1,0,0:0:0:0:
386,90,197493,1,0,0:0:0:0:
386,90,197587,1,0,0:0:0:0:
313,154,197775,1,0,0:0:0:0:
313,154,197962,1,0,0:0:0:0:
313,154,198150,1,8,0:0:0:0:
313,154,198243,1,0,0:0:0:0:
313,154,198337,1,0,0:0:0:0:
313,154,198431,1,0,0:0:0:0:
324,109,198525,1,8,0:0:0:0:
324,109,198618,1,0,0:0:0:0:
324,109,198712,1,8,0:0:0:0:
324,109,198806,1,8,0:0:0:0:
297,115,198900,1,0,0:0:0:0:
297,115,198993,1,0,0:0:0:0:
297,115,199087,1,8,0:0:0:0:
297,115,199181,1,8,0:0:0:0:
297,115,199275,1,0,0:0:0:0:
297,115,199368,1,0,0:0:0:0:
297,115,199462,1,0,0:0:0:0:
297,115,199556,1,0,0:0:0:0:
297,115,199743,1,0,0:0:0:0:
297,115,199837,1,0,0:0:0:0:
297,115,200025,1,0,0:0:0:0:
297,115,200212,1,0,0:0:0:0:
297,115,200400,1,8,0:0:0:0:
338,126,200587,1,0,0:0:0:0:
338,126,200650,1,0,0:0:0:0:
338,126,200712,1,0,0:0:0:0:
402,95,200775,1,8,0:0:0:0:
413,76,200868,1,8,0:0:0:0:
414,76,200962,1,8,0:0:0:0:
414,76,201056,1,8,0:0:0:0:
413,76,201150,1,0,0:0:0:0:
398,103,201337,1,0,0:0:0:0:
397,103,201431,1,8,0:0:0:0:
398,103,201525,1,0,0:0:0:0:
398,103,201618,1,0,0:0:0:0:
398,103,201712,1,0,0:0:0:0:
398,103,201806,1,0,0:0:0:0:
398,103,201993,1,0,0:0:0:0:
397,103,202087,1,0,0:0:0:0:
391,114,202275,1,0,0:0:0:0:
391,113,202462,1,0,0:0:0:0:
391,113,202650,1,8,0:0:0:0:
391,113,202743,1,0,0:0:0:0:
391,113,202837,1,0,0:0:0:0:
391,113,202931,1,0,0:0:0:0:
391,114,203025,1,8,0:0:0:0:
391,114,203118,1,0,0:0:0:0:
391,113,203212,1,8,0:0:0:0:
391,113,203306,1,8,0:0:0:0:
369,106,203400,1,0,0:0:0:0:
369,106,203493,1,8,0:0:0:0:
369,106,203587,1,8,0:0:0:0:
369,106,203681,1,8,0:0:0:0:
368,106,203775,1,0,0:0:0:0:
370,148,203868,1,0,0:0:0:0:
370,148,203962,1,0,0:0:0:0:
370,148,204056,1,0,0:0:0:0:
370,148,204243,1,0,0:0:0:0:
370,148,204337,1,0,0:0:0:0:
370,148,204525,1,0,0:0:0:0:
370,148,204712,1,0,0:0:0:0:
370,148,204900,1,8,0:0:0:0:
371,119,205087,1,0,0:0:0:0:
371,119,205150,1,0,0:0:0:0:
107,203,205212,1,0,0:0:0:0:
369,119,205275,1,8,0:0:0:0:
393,165,205368,1,8,0:0:0:0:
393,163,205462,1,0,0:0:0:0:
394,162,205556,1,0,0:0:0:0:
394,162,205650,1,8,0:0:0:0:
393,165,205837,1,8,0:0:0:0:
398,103,206025,1,0,0:0:0:0:
398,103,206118,1,0,0:0:0:0:
398,103,206212,1,0,0:0:0:0:
398,103,206306,1,0,0:0:0:0:
398,103,206493,1,0,0:0:0:0:
397,103,206587,1,0,0:0:0:0:
391,114,206775,1,0,0:0:0:0:
391,113,206962,1,0,0:0:0:0:
391,113,207150,1,8,0:0:0:0:
391,113,207243,1,0,0:0:0:0:
391,113,207337,1,0,0:0:0:0:
391,113,207431,1,0,0:0:0:0:
391,114,207525,1,8,0:0:0:0:
391,114,207618,1,8,0:0:0:0:
391,113,207712,1,0,0:0:0:0:
391,113,207806,1,0,0:0:0:0:
369,106,207900,1,8,0:0:0:0:
369,106,207993,1,8,0:0:0:0:
369,106,208087,1,8,0:0:0:0:
369,106,208181,1,8,0:0:0:0:
368,106,208275,1,0,0:0:0:0:
370,148,208368,1,0,0:0:0:0:
370,148,208462,1,0,0:0:0:0:
370,148,208556,1,0,0:0:0:0:
370,148,208743,1,0,0:0:0:0:
370,148,208837,1,0,0:0:0:0:
370,148,209025,1,0,0:0:0:0:
370,148,209212,1,0,0:0:0:0:
370,148,209400,1,8,0:0:0:0:
371,119,209587,1,0,0:0:0:0:
371,119,209650,1,0,0:0:0:0:
371,119,209712,1,0,0:0:0:0:
369,119,209775,1,8,0:0:0:0:
393,165,209868,1,8,0:0:0:0:
393,163,209962,1,8,0:0:0:0:
394,162,210056,1,8,0:0:0:0:
394,162,210150,1,0,0:0:0:0:
393,165,210337,1,8,0:0:0:0:
344,206,210525,1,0,0:0:0:0:
344,206,210618,1,0,0:0:0:0:
344,206,210712,1,0,0:0:0:0:
344,206,210806,1,0,0:0:0:0:
344,206,210993,1,0,0:0:0:0:
344,206,211087,1,0,0:0:0:0:
344,206,211275,1,0,0:0:0:0:
344,206,211462,1,0,0:0:0:0:
344,206,211650,1,8,0:0:0:0:
344,206,211743,1,0,0:0:0:0:
344,206,211837,1,0,0:0:0:0:
344,206,211931,1,0,0:0:0:0:
344,206,212025,1,8,0:0:0:0:
344,206,212118,1,8,0:0:0:0:
344,206,212212,1,0,0:0:0:0:
331,185,212306,1,0,0:0:0:0:
344,206,212400,1,8,0:0:0:0:
295,197,212493,1,8,0:0:0:0:
295,197,212587,1,0,0:0:0:0:
312,192,212681,1,8,0:0:0:0:
312,192,212775,1,0,0:0:0:0:
312,192,212868,1,0,0:0:0:0:
312,192,212962,1,0,0:0:0:0:
312,192,213056,1,0,0:0:0:0:
51,158,213243,1,0,0:0:0:0:
333,120,213337,1,8,0:0:0:0:
302,154,213525,1,0,0:0:0:0:
302,154,213712,1,8,0:0:0:0:
336,170,213806,1,0,0:0:0:0:
333,169,213900,1,8,0:0:0:0:
396,176,213993,1,0,0:0:0:0:
340,189,214087,1,8,0:0:0:0:
340,189,214181,1,8,0:0:0:0:
340,189,214275,1,0,0:0:0:0:
356,178,214368,1,0,0:0:0:0:
405,165,214462,1,8,0:0:0:0:
405,165,214556,1,8,0:0:0:0:
407,165,214650,1,0,0:0:0:0:
407,165,214743,1,8,0:0:0:0:
407,165,214837,1,0,0:0:0:0:
405,165,214931,1,0,0:0:0:0:
405,165,215025,1,8,0:0:0:0:
420,175,215118,1,0,0:0:0:0:
420,175,215306,1,0,0:0:0:0:
420,175,215493,1,0,0:0:0:0:
420,175,215587,1,0,0:0:0:0:
442,183,215775,1,0,0:0:0:0:
442,182,215962,1,0,0:0:0:0:
442,182,216150,1,8,0:0:0:0:
444,183,216243,1,0,0:0:0:0:
444,183,216337,1,0,0:0:0:0:
444,183,216431,1,0,0:0:0:0:
356,161,216525,1,0,0:0:0:0:
346,116,216712,1,0,0:0:0:0:
356,161,216806,1,0,0:0:0:0:
356,161,216900,1,0,0:0:0:0:
356,161,216993,1,0,0:0:0:0:
356,161,217087,1,0,0:0:0:0:
356,161,217181,1,0,0:0:0:0:
356,161,217275,1,8,0:0:0:0:
367,121,217368,1,0,0:0:0:0:
367,121,217556,1,0,0:0:0:0:
367,121,217743,1,0,0:0:0:0:
367,121,217837,1,0,0:0:0:0:
367,121,218025,1,0,0:0:0:0:
367,121,218212,1,0,0:0:0:0:
367,121,218400,1,8,0:0:0:0:
367,121,218493,1,0,0:0:0:0:
367,121,218587,1,0,0:0:0:0:
367,121,218681,1,0,0:0:0:0:
367,121,218775,1,8,0:0:0:0:
367,121,218868,1,0,0:0:0:0:
278,2,219056,1,0,0:0:0:0:
278,2,219150,1,8,0:0:0:0:
300,192,219243,1,8,0:0:0:0:
300,192,219337,1,8,0:0:0:0:
300,192,219431,1,8,0:0:0:0:
300,192,219525,1,8,0:0:0:0:
293,129,219618,1,0,0:0:0:0:
293,129,219806,1,0,0:0:0:0:
293,129,219993,1,0,0:0:0:0:
293,129,220087,1,0,0:0:0:0:
293,129,220275,1,0,0:0:0:0:
293,129,220462,1,0,0:0:0:0:
293,129,220650,1,8,0:0:0:0:
293,129,220743,1,0,0:0:0:0:
293,129,220837,1,0,0:0:0:0:
293,129,220931,1,0,0:0:0:0:
293,129,221025,1,0,0:0:0:0:
293,129,221212,1,0,0:0:0:0:
293,129,221306,1,0,0:0:0:0:
293,129,221400,1,0,0:0:0:0:
293,129,221493,1,0,0:0:0:0:
293,129,221587,1,0,0:0:0:0:
293,129,221681,1,0,0:0:0:0:
293,129,221775,1,8,0:0:0:0:
293,129,221868,1,0,0:0:0:0:
293,129,222056,1,0,0:0:0:0:
293,129,222243,1,0,0:0:0:0:
333,110,222337,1,8,0:0:0:0:
333,110,222525,1,8,0:0:0:0:
333,110,222712,1,0,0:0:0:0:
431,105,222900,1,8,0:0:0:0:
431,105,222962,1,8,0:0:0:0:
431,105,223025,1,8,0:0:0:0:
360,65,223087,1,0,0:0:0:0:
360,65,223150,1,0,0:0:0:0:
360,65,223212,1,0,0:0:0:0:
358,73,223275,1,8,0:0:0:0:
358,72,223368,1,8,0:0:0:0:
360,65,223462,1,0,0:0:0:0:
360,65,223556,1,0,0:0:0:0:
360,65,223650,1,8,0:0:0:0:
360,65,223743,1,0,0:0:0:0:
360,65,223837,1,0,0:0:0:0:
360,65,223931,1,0,0:0:0:0:
360,65,224025,1,8,0:0:0:0:
354,79,224118,1,0,0:0:0:0:
351,79,224306,1,0,0:0:0:0:
351,79,224493,1,0,0:0:0:0:
351,79,224587,1,0,0:0:0:0:
349,75,224775,1,0,0:0:0:0:
354,79,224962,1,0,0:0:0:0:
337,59,225150,1,8,0:0:0:0:
337,59,225243,1,0,0:0:0:0:
338,59,225337,1,0,0:0:0:0:
337,59,225431,1,0,0:0:0:0:
337,59,225525,1,0,0:0:0:0:
337,59,225712,1,0,0:0:0:0:
338,59,225806,1,0,0:0:0:0:
337,59,225900,1,0,0:0:0:0:
316,64,225993,1,0,0:0:0:0:
337,59,226087,1,0,0:0:0:0:
338,59,226181,1,0,0:0:0:0:
332,159,226275,1,8,0:0:0:0:
257,53,226368,1,0,0:0:0:0:
257,53,226556,1,0,0:0:0:0:
257,53,226743,1,0,0:0:0:0:
257,53,226837,1,0,0:0:0:0:
407,192,227025,1,0,0:0:0:0:
407,192,227212,1,0,0:0:0:0:
407,192,227400,1,8,0:0:0:0:
400,132,227525,1,0,0:0:0:0:
380,144,227587,1,0,0:0:0:0:
400,132,227650,1,0,0:0:0:0:
400,132,227712,1,0,0:0:0:0:
400,132,227775,1,8,0:0:0:0:
401,76,227868,1,0,0:0:0:0:
376,93,227962,1,0,0:0:0:0:
205,122,228056,1,0,0:0:0:0:
205,122,228150,1,8,0:0:0:0:
354,98,228243,1,8,0:0:0:0:
354,98,228337,1,0,0:0:0:0:
354,98,228431,1,0,0:0:0:0:
266,94,228525,1,8,0:0:0:0:
281,84,228618,1,8,0:0:0:0:
281,84,228712,1,0,0:0:0:0:
281,84,228806,1,0,0:0:0:0:
128,139,228993,1,0,0:0:0:0:
153,136,229087,1,0,0:0:0:0:
393,182,229275,1,8,0:0:0:0:
393,182,229462,1,0,0:0:0:0:
393,182,229650,1,8,0:0:0:0:
287,129,229743,1,8,0:0:0:0:
287,129,229837,1,0,0:0:0:0:
297,139,229931,1,0,0:0:0:0:
287,129,230025,1,8,0:0:0:0:
346,145,230118,1,0,0:0:0:0:
346,145,230212,1,0,0:0:0:0:
346,145,230306,1,0,0:0:0:0:
346,145,230400,1,8,0:0:0:0:
329,143,230493,1,8,0:0:0:0:
329,143,230587,1,0,0:0:0:0:
329,143,230681,1,0,0:0:0:0:
266,94,230775,1,8,0:0:0:0:
281,84,230868,1,8,0:0:0:0:
281,84,230962,1,0,0:0:0:0:
281,84,231056,1,0,0:0:0:0:
128,139,231243,1,0,0:0:0:0:
153,136,231337,1,0,0:0:0:0:
393,182,231525,1,8,0:0:0:0:
393,182,231712,1,0,0:0:0:0:
393,182,231900,1,8,0:0:0:0:
287,129,231993,1,8,0:0:0:0:
287,129,232087,1,0,0:0:0:0:
297,139,232150,1,0,0:0:0:0:
297,139,232212,1,0,0:0:0:0:
287,129,232275,1,8,0:0:0:0:
300,120,232337,1,8,0:0:0:0:
300,120,232400,1,8,0:0:0:0:
346,145,232462,1,0,0:0:0:0:
346,145,232525,1,0,0:0:0:0:
346,145,232587,1,0,0:0:0:0:
346,145,232650,5,8,0:0:0:0:
329,143,232743,1,8,0:0:0:0:
329,143,232837,1,0,0:0:0:0:
329,143,232931,1,0,0:0:0:0:
256,192,233025,12,0,235275,0:0:0:0:
362,92,236212,5,0,0:0:0:0:
362,92,236259,1,0,0:0:0:0:
362,92,236306,1,0,0:0:0:0:
362,92,236353,1,0,0:0:0:0:
362,92,236400,1,8,0:0:0:0:
356,196,236587,1,0,0:0:0:0:
356,196,236775,1,0,0:0:0:0:
356,196,236962,1,0,0:0:0:0:
356,196,237150,1,0,0:0:0:0:
356,196,237243,1,0,0:0:0:0:
438,216,237337,1,0,0:0:0:0:
356,196,237431,1,0,0:0:0:0:
356,196,237525,1,8,0:0:0:0:
418,247,237618,1,8,0:0:0:0:
300,103,237712,1,0,0:0:0:0:
300,103,237806,1,8,0:0:0:0:
300,103,237900,1,0,0:0:0:0:
300,103,237993,1,0,0:0:0:0:
305,109,238087,1,8,0:0:0:0:
305,109,238181,1,0,0:0:0:0:
305,109,238275,1,0,0:0:0:0:
305,109,238368,1,0,0:0:0:0:
305,123,238462,1,8,0:0:0:0:
306,124,238556,1,8,0:0:0:0:
313,101,238650,1,0,0:0:0:0:
313,101,238743,1,0,0:0:0:0:
313,101,238837,1,8,0:0:0:0:
313,101,238931,1,0,0:0:0:0:
304,130,239025,1,8,0:0:0:0:
304,130,239118,1,8,0:0:0:0:
304,130,239212,1,0,0:0:0:0:
304,130,239306,1,8,0:0:0:0:
304,130,239400,1,0,0:0:0:0:
344,87,239493,1,8,0:0:0:0:
344,87,239587,1,8,0:0:0:0:
344,87,239681,1,8,0:0:0:0:
342,87,239775,1,0,0:0:0:0:
296,137,239868,1,8,0:0:0:0:
296,137,239962,1,0,0:0:0:0:
296,137,240056,1,0,0:0:0:0:
296,137,240150,1,8,0:0:0:0:
297,136,240243,1,8,0:0:0:0:
296,137,240337,1,0,0:0:0:0:
296,137,240431,1,0,0:0:0:0:
278,127,240525,1,8,0:0:0:0:
278,127,240618,1,8,0:0:0:0:
282,126,240712,1,0,0:0:0:0:
282,126,240806,1,8,0:0:0:0:
282,126,240900,1,0,0:0:0:0:
282,126,240993,1,0,0:0:0:0:
282,126,241087,1,0,0:0:0:0:
282,126,241181,1,8,0:0:0:0:
282,126,241275,1,0,0:0:0:0:
278,127,241368,1,0,0:0:0:0:
278,127,241462,1,8,0:0:0:0:
282,126,241556,1,8,0:0:0:0:
282,126,241650,1,8,0:0:0:0:
282,126,241743,1,8,0:0:0:0:
282,126,241837,1,0,0:0:0:0:
282,126,241931,1,8,0:0:0:0:
282,126,242025,1,0,0:0:0:0:
232,135,242118,1,0,0:0:0:0:
232,135,242306,1,0,0:0:0:0:
232,135,242400,1,0,0:0:0:0:
203,93,242587,1,8,0:0:0:0:
203,93,242775,1,8,0:0:0:0:
203,93,242962,1,0,0:0:0:0:
203,93,243150,1,8,0:0:0:0:
305,154,243243,1,0,0:0:0:0:
305,154,243431,1,0,0:0:0:0:
326,145,243525,1,0,0:0:0:0:
326,145,243712,1,8,0:0:0:0:
203,115,243900,1,0,0:0:0:0:
398,143,243993,1,8,0:0:0:0:
398,143,244087,1,8,0:0:0:0:
398,143,244181,1,8,0:0:0:0:
398,143,244275,1,0,0:0:0:0:
398,143,244368,1,0,0:0:0:0:
398,143,244556,1,0,0:0:0:0:
351,177,244650,1,0,0:0:0:0:
328,172,244837,1,8,0:0:0:0:
423,148,245025,1,0,0:0:0:0:
423,148,245118,1,0,0:0:0:0:
423,148,245212,1,0,0:0:0:0:
423,148,245306,1,0,0:0:0:0:
423,148,245400,1,8,0:0:0:0:
423,148,245493,1,0,0:0:0:0:
328,172,245587,1,0,0:0:0:0:
423,148,245681,1,0,0:0:0:0:
423,148,245775,1,8,0:0:0:0:
423,148,245868,1,0,0:0:0:0:
423,148,245962,1,8,0:0:0:0:
423,148,246056,1,0,0:0:0:0:
423,148,246150,1,8,0:0:0:0:
423,148,246243,1,0,0:0:0:0:
423,148,246337,1,8,0:0:0:0:
423,148,246431,1,0,0:0:0:0:
423,148,246525,1,8,0:0:0:0:
423,148,246618,1,8,0:0:0:0:
423,148,246712,1,8,0:0:0:0:
423,148,246806,1,8,0:0:0:0:
423,148,246900,1,0,0:0:0:0:
423,148,247087,1,8,0:0:0:0:
423,148,247181,1,8,0:0:0:0:
423,148,247275,1,0,0:0:0:0:
423,148,247368,1,0,0:0:0:0:
423,148,247462,1,0,0:0:0:0:
423,148,247556,1,0,0:0:0:0:
419,141,247650,1,8,0:0:0:0:
423,148,247837,1,0,0:0:0:0:
420,141,247931,1,0,0:0:0:0:
407,168,248025,1,0,0:0:0:0:
429,179,248212,1,8,0:0:0:0:
429,179,248400,1,0,0:0:0:0:
429,178,248493,1,0,0:0:0:0:
429,178,248587,1,0,0:0:0:0:
429,178,248681,1,0,0:0:0:0:
429,178,248775,1,8,0:0:0:0:
429,178,248868,1,8,0:0:0:0:
429,179,248962,1,0,0:0:0:0:
429,179,249056,1,0,0:0:0:0:
421,179,249150,1,0,0:0:0:0:
421,179,249243,1,0,0:0:0:0:
421,179,249337,1,8,0:0:0:0:
421,179,249431,1,8,0:0:0:0:
420,179,249525,1,0,0:0:0:0:
420,179,249618,1,8,0:0:0:0:
339,139,249712,1,0,0:0:0:0:
339,139,249775,1,0,0:0:0:0:
339,139,249837,1,0,0:0:0:0:
339,139,249900,1,8,0:0:0:0:
341,156,250087,1,0,0:0:0:0:
340,154,250275,1,0,0:0:0:0:
340,154,250462,1,0,0:0:0:0:
340,154,250650,1,8,0:0:0:0:
248,94,250837,1,0,0:0:0:0:
248,94,250900,1,0,0:0:0:0:
248,94,250962,1,0,0:0:0:0:
248,94,251025,1,8,0:0:0:0:
382,128,251118,1,8,0:0:0:0:
67,216,251212,1,8,0:0:0:0:
67,216,251306,1,8,0:0:0:0:
67,216,251400,1,0,0:0:0:0:
391,238,251493,1,0,0:0:0:0:
391,238,251587,1,0,0:0:0:0:
391,238,251681,1,0,0:0:0:0:
391,238,251775,1,0,0:0:0:0:
342,201,252525,1,0,0:0:0:0:
342,201,252618,1,0,0:0:0:0:
342,201,252712,1,0,0:0:0:0:
342,201,252806,1,0,0:0:0:0:
342,201,252900,1,0,0:0:0:0:
239,156,253650,1,0,0:0:0:0:
239,156,253743,1,0,0:0:0:0:
239,156,253837,1,0,0:0:0:0:
239,156,253931,1,0,0:0:0:0:
239,156,254025,1,0,0:0:0:0:
239,156,254775,1,0,0:0:0:0:
239,156,254868,1,0,0:0:0:0:
239,156,254962,1,0,0:0:0:0:
239,156,255056,1,0,0:0:0:0:
239,156,255150,1,0,0:0:0:0:
420,135,255525,1,12,0:0:0:0:
455,135,255900,1,0,0:0:0:0:
455,135,255993,1,0,0:0:0:0:
455,135,256087,1,0,0:0:0:0:
455,135,256181,1,0,0:0:0:0:
455,135,256275,1,0,0:0:0:0:
462,135,256462,1,8,0:0:0:0:
455,135,256650,1,0,0:0:0:0:
455,135,256743,1,8,0:0:0:0:
455,135,256837,1,0,0:0:0:0:
455,135,256931,1,0,0:0:0:0:
464,130,257025,1,8,0:0:0:0:
464,130,257118,1,0,0:0:0:0:
462,135,257212,1,0,0:0:0:0:
462,135,257306,1,0,0:0:0:0:
467,124,257400,1,0,0:0:0:0:
463,123,257587,1,8,0:0:0:0:
463,123,257775,1,0,0:0:0:0:
314,85,257868,1,0,0:0:0:0:
463,123,257962,1,8,0:0:0:0:
463,123,258056,1,0,0:0:0:0:
314,85,258150,1,8,0:0:0:0:
342,111,258243,1,0,0:0:0:0:
342,111,258337,1,0,0:0:0:0:
342,111,258431,1,0,0:0:0:0:
342,111,258525,1,0,0:0:0:0:
430,148,258712,1,8,0:0:0:0:
411,110,258900,1,8,0:0:0:0:
398,102,258993,1,8,0:0:0:0:
398,102,259087,1,0,0:0:0:0:
398,102,259181,1,0,0:0:0:0:
398,102,259275,1,8,0:0:0:0:
365,100,259368,1,0,0:0:0:0:
365,100,259462,1,0,0:0:0:0:
365,100,259556,1,0,0:0:0:0:
365,100,259650,1,0,0:0:0:0:
365,100,259837,1,8,0:0:0:0:
437,92,260025,1,8,0:0:0:0:
437,92,260118,1,8,0:0:0:0:
437,92,260212,1,8,0:0:0:0:
437,92,260306,1,8,0:0:0:0:
437,92,260400,1,0,0:0:0:0:
360,192,260493,1,0,0:0:0:0:
360,192,260587,1,0,0:0:0:0:
360,192,260681,1,0,0:0:0:0:
404,188,260775,1,8,0:0:0:0:
404,188,261150,1,8,0:0:0:0:
376,96,261243,1,0,0:0:0:0:
376,96,261337,1,0,0:0:0:0:
376,96,261431,1,0,0:0:0:0:
376,96,261525,1,8,0:0:0:0:
376,96,261618,1,8,0:0:0:0:
376,96,261712,1,0,0:0:0:0:
376,96,261806,1,0,0:0:0:0:
376,96,261900,1,8,0:0:0:0:
396,110,262275,1,8,0:0:0:0:
397,110,262368,1,8,0:0:0:0:
397,110,262462,1,0,0:0:0:0:
397,110,262556,1,0,0:0:0:0:
397,109,262650,1,8,0:0:0:0:
396,108,262743,1,0,0:0:0:0:
396,110,262837,1,0,0:0:0:0:
396,110,262931,1,0,0:0:0:0:
396,110,263025,1,8,0:0:0:0:
334,117,263212,1,0,0:0:0:0:
334,117,263306,1,0,0:0:0:0:
334,117,263400,1,8,0:0:0:0:
334,117,263493,1,0,0:0:0:0:
334,117,263587,1,0,0:0:0:0:
334,117,263681,1,0,0:0:0:0:
334,117,263775,1,8,0:0:0:0:
334,117,263868,1,8,0:0:0:0:
334,117,263962,1,0,0:0:0:0:
334,117,264056,1,0,0:0:0:0:
334,117,264150,1,8,0:0:0:0:
334,117,264243,1,0,0:0:0:0:
334,117,264337,1,0,0:0:0:0:
334,117,264431,1,0,0:0:0:0:
334,117,264525,1,8,0:0:0:0:
360,69,264618,1,0,0:0:0:0:
334,117,264712,1,0,0:0:0:0:
313,63,264900,1,0,0:0:0:0:
313,63,264993,1,0,0:0:0:0:
313,63,265087,1,8,0:0:0:0:
313,63,265181,1,0,0:0:0:0:
322,99,265275,1,8,0:0:0:0:
337,178,265345,1,0,0:0:0:0:
337,178,265415,1,0,0:0:0:0:
337,178,265485,1,8,0:0:0:0:
348,204,265556,1,0,0:0:0:0:
312,107,265650,1,8,0:0:0:0:
322,83,265720,1,8,0:0:0:0:
182,113,265790,1,0,0:0:0:0:
207,121,265860,1,8,0:0:0:0:
348,204,265931,1,0,0:0:0:0:
333,118,266025,1,8,0:0:0:0:
321,145,266095,1,0,0:0:0:0:
356,109,266165,1,0,0:0:0:0:
328,109,266235,1,8,0:0:0:0:
343,133,266306,1,0,0:0:0:0:
354,109,266400,1,8,0:0:0:0:
370,82,266470,1,8,0:0:0:0:
182,113,266540,1,0,0:0:0:0:
370,82,266610,1,8,0:0:0:0:
375,110,266681,1,0,0:0:0:0:
344,83,266775,1,8,0:0:0:0:
294,151,266845,1,0,0:0:0:0:
294,151,266915,1,0,0:0:0:0:
333,118,266985,1,8,0:0:0:0:
349,142,267056,1,0,0:0:0:0:
354,109,267150,1,8,0:0:0:0:
370,82,267220,1,8,0:0:0:0:
329,68,267290,1,8,0:0:0:0:
333,118,267360,1,8,0:0:0:0:
303,78,267431,1,0,0:0:0:0:
448,110,267525,1,8,0:0:0:0:
435,101,267587,1,0,0:0:0:0:
435,101,267650,1,0,0:0:0:0:
434,100,267712,1,8,0:0:0:0:
435,100,267775,1,0,0:0:0:0:
355,115,267837,1,0,0:0:0:0:
433,99,267900,1,8,0:0:0:0:
433,99,267962,1,8,0:0:0:0:
432,99,268025,1,0,0:0:0:0:
432,99,268087,1,0,0:0:0:0:
432,99,268150,1,8,0:0:0:0:
410,91,268212,1,0,0:0:0:0:
432,99,268275,1,8,0:0:0:0:
463,176,268337,1,8,0:0:0:0:
463,176,268400,1,8,0:0:0:0:
463,176,268462,1,8,0:0:0:0:
361,199,268525,1,8,0:0:0:0:
451,183,268587,1,8,0:0:0:0:
463,176,268650,1,8,0:0:0:0:
299,139,268775,1,8,0:0:0:0:
299,139,268900,1,8,0:0:0:0:
299,139,269025,1,8,0:0:0:0:
291,152,269150,1,8,0:0:0:0:
291,152,269275,1,8,0:0:0:0:
411,219,269400,1,0,0:0:0:0:
372,220,269462,1,0,0:0:0:0:
248,114,269525,1,0,0:0:0:0:
411,219,269587,1,0,0:0:0:0:
411,219,269650,1,0,0:0:0:0:
372,222,269712,1,0,0:0:0:0:
411,219,269775,1,8,0:0:0:0:
213,159,269837,1,0,0:0:0:0:
253,130,269900,1,0,0:0:0:0:
242,166,269962,1,0,0:0:0:0:
260,110,270025,1,0,0:0:0:0:
252,147,270087,1,0,0:0:0:0:
309,105,270150,1,8,0:0:0:0:
309,105,270212,1,8,0:0:0:0:
309,105,270275,1,0,0:0:0:0:
289,137,270337,1,0,0:0:0:0:
265,168,270400,1,0,0:0:0:0:
258,205,270462,1,0,0:0:0:0:
309,105,270525,1,0,0:0:0:0:
258,205,270587,1,0,0:0:0:0:
233,46,270650,1,0,0:0:0:0:
309,105,270712,1,0,0:0:0:0:
307,128,270775,1,0,0:0:0:0:
265,168,270837,1,0,0:0:0:0:
307,128,270900,1,8,0:0:0:0:
307,128,270962,1,8,0:0:0:0:
265,168,271025,1,0,0:0:0:0:
265,168,271087,1,0,0:0:0:0:
307,128,271150,1,0,0:0:0:0:
291,163,271212,1,0,0:0:0:0:
307,128,271275,1,8,0:0:0:0:
307,128,271337,1,0,0:0:0:0:
307,128,271400,1,0,0:0:0:0:
283,119,271462,1,0,0:0:0:0:
307,128,271525,1,0,0:0:0:0:
283,119,271587,1,0,0:0:0:0:
306,128,271650,1,8,0:0:0:0:
283,119,271712,1,0,0:0:0:0:
467,102,271775,1,0,0:0:0:0:
467,102,271837,1,0,0:0:0:0:
467,102,271900,1,0,0:0:0:0:
431,104,271962,1,0,0:0:0:0:
405,93,272025,1,8,0:0:0:0:
397,94,272087,1,8,0:0:0:0:
319,79,272150,1,0,0:0:0:0:
281,78,272212,1,0,0:0:0:0:
338,155,272275,1,0,0:0:0:0:
307,143,272337,1,0,0:0:0:0:
325,50,272400,1,8,0:0:0:0:
325,50,272462,1,8,0:0:0:0:
335,41,272525,1,0,0:0:0:0:
343,65,272587,1,0,0:0:0:0:
320,152,272650,1,0,0:0:0:0:
342,160,272712,1,0,0:0:0:0:
322,166,272775,1,0,0:0:0:0:
292,176,272837,1,0,0:0:0:0:
287,112,272900,1,0,0:0:0:0:
436,104,272962,1,0,0:0:0:0:
436,104,273025,1,0,0:0:0:0:
436,104,273087,1,0,0:0:0:0:
436,104,273150,1,8,0:0:0:0:
407,100,273212,1,8,0:0:0:0:
314,125,273275,1,0,0:0:0:0:
277,107,273337,1,0,0:0:0:0:
323,130,273400,1,8,0:0:0:0:
291,119,273462,1,8,0:0:0:0:
323,130,273525,1,8,0:0:0:0:
405,170,273587,1,8,0:0:0:0:
405,170,273650,1,0,0:0:0:0:
405,170,273712,1,0,0:0:0:0:
306,65,273775,1,0,0:0:0:0:
306,65,273837,1,0,0:0:0:0:
411,219,273900,1,8,0:0:0:0:
379,213,273962,1,0,0:0:0:0:
248,114,274025,1,0,0:0:0:0:
411,219,274087,1,0,0:0:0:0:
411,219,274150,1,0,0:0:0:0:
379,212,274212,1,0,0:0:0:0:
351,195,274275,1,8,0:0:0:0:
323,178,274337,1,8,0:0:0:0:
253,130,274400,1,0,0:0:0:0:
224,115,274462,1,0,0:0:0:0:
260,110,274525,1,0,0:0:0:0:
229,102,274587,1,0,0:0:0:0:
309,105,274650,1,8,0:0:0:0:
309,105,274712,1,8,0:0:0:0:
309,105,274775,1,0,0:0:0:0:
277,100,274837,1,0,0:0:0:0:
309,105,274900,1,0,0:0:0:0:
277,102,274962,1,0,0:0:0:0:
309,105,275025,1,0,0:0:0:0:
281,115,275087,1,0,0:0:0:0:
233,46,275150,1,0,0:0:0:0:
309,105,275212,1,0,0:0:0:0:
298,129,275275,1,0,0:0:0:0:
263,129,275337,1,0,0:0:0:0:
307,128,275400,1,8,0:0:0:0:
307,128,275462,1,8,0:0:0:0:
277,129,275525,1,0,0:0:0:0:
261,132,275587,1,0,0:0:0:0:
307,128,275650,1,0,0:0:0:0:
278,132,275712,1,0,0:0:0:0:
307,128,275775,1,8,0:0:0:0:
303,128,275837,1,8,0:0:0:0:
307,128,275900,1,0,0:0:0:0:
272,133,275962,1,0,0:0:0:0:
307,128,276025,1,0,0:0:0:0:
275,132,276087,1,0,0:0:0:0:
306,128,276150,1,8,0:0:0:0:
414,156,276212,1,0,0:0:0:0:
228,152,276275,1,0,0:0:0:0:
414,156,276337,1,0,0:0:0:0:
467,102,276400,1,0,0:0:0:0:
438,117,276462,1,0,0:0:0:0:
405,93,276525,1,8,0:0:0:0:
171,107,276587,1,8,0:0:0:0:
319,79,276650,1,8,0:0:0:0:
397,94,276712,1,8,0:0:0:0:
338,155,276775,1,0,0:0:0:0:
307,154,276837,1,0,0:0:0:0:
325,50,276900,1,8,0:0:0:0:
335,41,277025,1,0,0:0:0:0:
199,67,277087,1,0,0:0:0:0:
320,152,277150,1,0,0:0:0:0:
304,166,277212,1,0,0:0:0:0:
349,134,277274,1,8,0:0:0:0:
202,116,277337,1,8,0:0:0:0:
287,112,277400,1,0,0:0:0:0:
436,104,277462,1,0,0:0:0:0:
436,104,277525,1,8,0:0:0:0:
436,104,277587,1,8,0:0:0:0:
436,104,277650,1,0,0:0:0:0:
407,115,277712,1,0,0:0:0:0:
323,130,277775,1,8,0:0:0:0:
305,110,277837,1,0,0:0:0:0:
185,107,277900,1,0,0:0:0:0:
208,126,277962,1,0,0:0:0:0:
323,130,278025,1,8,0:0:0:0:
405,170,278087,1,8,0:0:0:0:
405,170,278150,1,0,0:0:0:0:
405,170,278212,1,0,0:0:0:0:
306,65,278275,1,0,0:0:0:0:
306,65,278337,1,0,0:0:0:0:
306,65,278400,1,8,0:0:0:0:
303,83,278493,1,8,0:0:0:0:
303,83,278587,1,0,0:0:0:0:
303,83,278681,1,8,0:0:0:0:
300,83,278775,1,8,0:0:0:0:
279,94,278868,1,8,0:0:0:0:
280,93,278962,1,0,0:0:0:0:
280,93,279056,1,8,0:0:0:0:
280,93,279150,1,8,0:0:0:0:
280,93,279243,1,8,0:0:0:0:
280,93,279337,1,0,0:0:0:0:
280,93,279431,1,8,0:0:0:0:
280,93,279525,1,0,0:0:0:0:
280,93,279618,1,0,0:0:0:0:
251,75,279712,1,8,0:0:0:0:
280,93,279806,1,0,0:0:0:0:
280,78,279900,1,0,0:0:0:0:
280,78,279993,1,0,0:0:0:0:
280,78,280087,1,8,0:0:0:0:
280,78,280181,1,0,0:0:0:0:
280,78,280275,1,0,0:0:0:0:
280,78,280368,1,0,0:0:0:0:
280,78,280462,1,8,0:0:0:0:
280,78,280556,1,0,0:0:0:0:
316,78,280650,1,0,0:0:0:0:
316,77,280743,1,0,0:0:0:0:
316,77,280837,1,8,0:0:0:0:
316,77,280931,1,8,0:0:0:0:
315,77,281025,1,0,0:0:0:0:
315,77,281118,1,0,0:0:0:0:
315,77,281212,1,8,0:0:0:0:
315,77,281306,1,8,0:0:0:0:
315,77,281400,1,0,0:0:0:0:
316,77,281493,1,0,0:0:0:0:
316,77,281587,1,8,0:0:0:0:
316,77,281681,1,0,0:0:0:0:
316,77,281775,1,8,0:0:0:0:
325,149,281900,1,0,0:0:0:0:
325,149,281962,1,0,0:0:0:0:
325,149,282025,1,0,0:0:0:0:
325,149,282087,1,0,0:0:0:0:
335,116,282150,1,8,0:0:0:0:
396,79,282275,1,8,0:0:0:0:
396,79,282400,1,8,0:0:0:0:
396,79,282525,1,8,0:0:0:0:
416,119,282650,1,0,0:0:0:0:
443,172,282712,1,0,0:0:0:0:
431,148,282775,1,0,0:0:0:0:
416,119,282837,1,0,0:0:0:0:
416,119,282900,1,8,0:0:0:0:
307,106,283087,1,8,0:0:0:0:
416,119,283181,1,8,0:0:0:0:
418,120,283275,1,0,0:0:0:0:
302,105,283462,1,0,0:0:0:0:
416,119,283650,1,8,0:0:0:0:
353,99,283743,1,0,0:0:0:0:
416,119,283837,1,0,0:0:0:0:
416,119,283931,1,0,0:0:0:0:
416,119,284025,1,8,0:0:0:0:
305,98,284212,1,0,0:0:0:0:
416,119,284275,1,0,0:0:0:0:
416,119,284337,1,0,0:0:0:0:
416,119,284400,1,8,0:0:0:0:
416,119,284587,1,8,0:0:0:0:
392,95,284650,1,0,0:0:0:0:
384,92,284712,1,0,0:0:0:0:
345,82,284775,1,8,0:0:0:0:
392,95,284868,1,0,0:0:0:0:
392,95,284962,1,8,0:0:0:0:
426,54,285150,1,8,0:0:0:0:
345,82,285212,1,8,0:0:0:0:
345,82,285275,1,8,0:0:0:0:
345,82,285337,1,0,0:0:0:0:
345,82,285400,1,0,0:0:0:0:
345,82,285462,1,0,0:0:0:0:
345,82,285525,1,8,0:0:0:0:
345,82,285618,1,8,0:0:0:0:
345,82,285712,1,0,0:0:0:0:
345,82,285806,1,0,0:0:0:0:
294,94,285900,1,8,0:0:0:0:
294,94,285993,1,8,0:0:0:0:
294,94,286087,1,0,0:0:0:0:
294,94,286181,1,0,0:0:0:0:
294,94,286275,1,8,0:0:0:0:
337,101,286368,1,0,0:0:0:0:
381,109,286462,1,0,0:0:0:0:
381,109,286556,1,0,0:0:0:0:
381,109,286650,1,8,0:0:0:0:
343,125,286712,1,8,0:0:0:0:
303,142,286775,1,8,0:0:0:0:
303,142,286837,1,8,0:0:0:0:
303,142,286900,1,8,0:0:0:0:
303,142,286962,1,8,0:0:0:0:
303,142,287025,1,8,0:0:0:0:
343,125,287118,1,0,0:0:0:0:
343,125,287212,1,0,0:0:0:0:
381,109,287400,1,12,0:0:0:0:
381,109,287587,1,0,0:0:0:0:
381,109,287681,1,0,0:0:0:0:
407,147,287775,1,0,0:0:0:0:
407,147,287962,1,0,0:0:0:0:
407,147,288150,1,8,0:0:0:0:
407,147,288337,1,0,0:0:0:0:
407,147,288525,1,8,0:0:0:0:
407,147,288618,1,8,0:0:0:0:
407,147,288712,1,0,0:0:0:0:
407,147,288806,1,0,0:0:0:0:
407,147,288900,1,0,0:0:0:0:
407,147,289087,1,8,0:0:0:0:
407,147,289275,1,8,0:0:0:0:
407,147,289462,1,0,0:0:0:0:
407,147,289650,1,8,0:0:0:0:
407,147,289743,1,0,0:0:0:0:
407,147,289837,1,0,0:0:0:0:
407,147,289931,1,0,0:0:0:0:
407,147,290025,1,0,0:0:0:0:
407,147,290212,1,0,0:0:0:0:
301,107,290400,1,8,0:0:0:0:
301,107,290587,1,0,0:0:0:0:
301,107,290775,1,8,0:0:0:0:
301,107,290868,1,8,0:0:0:0:
301,107,290962,1,0,0:0:0:0:
301,107,291056,1,0,0:0:0:0:
301,107,291150,1,0,0:0:0:0:
301,107,291337,1,8,0:0:0:0:
301,107,291525,1,8,0:0:0:0:
301,107,291712,1,0,0:0:0:0:
301,107,291900,1,8,0:0:0:0:
301,107,291993,1,0,0:0:0:0:
381,109,292087,1,0,0:0:0:0:
381,109,292181,1,8,0:0:0:0:
407,147,292275,1,0,0:0:0:0:
407,147,292462,1,0,0:0:0:0:
407,147,292650,1,8,0:0:0:0:
407,147,292837,1,0,0:0:0:0:
407,147,293025,1,8,0:0:0:0:
407,147,293118,1,8,0:0:0:0:
407,147,293212,1,0,0:0:0:0:
407,147,293306,1,8,0:0:0:0:
407,147,293400,1,0,0:0:0:0:
407,147,293587,1,8,0:0:0:0:
407,147,293775,1,8,0:0:0:0:
407,147,293962,1,0,0:0:0:0:
407,147,294150,1,8,0:0:0:0:
407,147,294243,1,0,0:0:0:0:
407,147,294337,1,0,0:0:0:0:
407,147,294431,1,8,0:0:0:0:
407,147,294525,1,0,0:0:0:0:
407,147,294712,1,0,0:0:0:0:
301,107,294900,1,8,0:0:0:0:
301,107,295087,1,0,0:0:0:0:
301,107,295275,1,8,0:0:0:0:
301,107,295368,1,8,0:0:0:0:
301,107,295462,1,0,0:0:0:0:
301,107,295556,1,8,0:0:0:0:
301,107,295650,1,0,0:0:0:0:
301,107,295837,1,8,0:0:0:0:
301,107,296025,1,8,0:0:0:0:
301,107,296212,1,0,0:0:0:0:
388,169,296400,1,12,0:0:0:0:
273,150,296587,1,0,0:0:0:0:
322,158,296681,1,0,0:0:0:0:
388,169,296775,1,0,0:0:0:0:
388,169,296962,1,8,0:0:0:0:
388,169,297150,1,0,0:0:0:0:
388,169,297243,1,0,0:0:0:0:
388,169,297337,1,0,0:0:0:0:
388,169,297431,1,0,0:0:0:0:
388,169,297525,1,8,0:0:0:0:
337,151,297618,1,0,0:0:0:0:
337,151,297712,1,0,0:0:0:0:
337,151,297806,1,0,0:0:0:0:
337,151,297900,1,0,0:0:0:0:
337,151,298087,1,8,0:0:0:0:
401,243,298275,1,8,0:0:0:0:
375,206,298368,1,8,0:0:0:0:
375,206,298462,1,0,0:0:0:0:
375,206,298556,1,0,0:0:0:0:
375,206,298650,1,8,0:0:0:0:
380,138,298743,1,0,0:0:0:0:
380,138,298837,1,0,0:0:0:0:
380,138,298931,1,0,0:0:0:0:
380,138,299025,1,0,0:0:0:0:
468,217,299212,1,8,0:0:0:0:
411,127,299400,1,0,0:0:0:0:
438,169,299493,1,0,0:0:0:0:
438,169,299587,1,0,0:0:0:0:
438,169,299681,1,0,0:0:0:0:
438,169,299775,1,8,0:0:0:0:
438,169,299868,1,8,0:0:0:0:
478,228,299962,1,0,0:0:0:0:
439,171,300056,1,0,0:0:0:0:
439,171,300150,1,0,0:0:0:0:
423,46,300337,1,8,0:0:0:0:
433,125,300431,1,0,0:0:0:0:
408,75,300525,1,8,0:0:0:0:
387,28,300618,1,8,0:0:0:0:
387,28,300712,1,0,0:0:0:0:
387,28,300806,1,0,0:0:0:0:
384,94,300900,1,8,0:0:0:0:
381,162,300993,1,0,0:0:0:0:
381,162,301087,1,0,0:0:0:0:
381,162,301181,1,0,0:0:0:0:
383,116,301275,1,8,0:0:0:0:
439,194,301462,1,8,0:0:0:0:
467,233,301556,1,0,0:0:0:0:
467,233,301650,1,8,0:0:0:0:
425,210,301743,1,8,0:0:0:0:
379,186,301837,1,0,0:0:0:0:
342,166,301931,1,0,0:0:0:0:
313,151,302025,1,8,0:0:0:0:
313,151,302118,1,0,0:0:0:0:
313,151,302212,1,0,0:0:0:0:
313,151,302306,1,0,0:0:0:0:
313,151,302400,1,8,0:0:0:0:
313,151,302587,1,8,0:0:0:0:
313,151,302681,1,0,0:0:0:0:
313,151,302775,1,8,0:0:0:0:
313,151,302868,1,8,0:0:0:0:
313,151,302962,1,0,0:0:0:0:
313,151,303056,1,0,0:0:0:0:
313,151,303150,1,8,0:0:0:0:
313,151,303243,1,8,0:0:0:0:
313,151,303337,1,8,0:0:0:0:
313,151,303431,1,8,0:0:0:0:
313,151,303525,1,0,0:0:0:0:
313,151,303712,1,8,0:0:0:0:
313,151,303806,1,0,0:0:0:0:
313,151,303900,1,8,0:0:0:0:
313,151,303993,1,0,0:0:0:0:
313,151,304087,1,8,0:0:0:0:
313,151,304181,1,0,0:0:0:0:
313,151,304275,1,8,0:0:0:0:
313,151,304368,1,8,0:0:0:0:
313,151,304462,1,8,0:0:0:0:
313,151,304556,1,8,0:0:0:0:
313,151,304650,1,0,0:0:0:0:
313,151,304837,1,8,0:0:0:0:
313,151,304931,1,8,0:0:0:0:
313,151,305025,1,0,0:0:0:0:
313,151,305118,1,0,0:0:0:0:
313,151,305212,1,0,0:0:0:0:
297,113,305306,1,8,0:0:0:0:
278,69,305400,1,0,0:0:0:0:
278,69,305493,1,0,0:0:0:0:
278,69,305587,1,0,0:0:0:0:
278,69,305681,1,8,0:0:0:0:
278,69,305775,1,0,0:0:0:0:
358,115,305962,1,0,0:0:0:0:
432,158,306150,1,8,0:0:0:0:
432,158,306337,1,0,0:0:0:0:
256,104,306525,1,8,0:0:0:0:
256,104,306618,1,0,0:0:0:0:
256,104,306712,1,0,0:0:0:0:
256,104,306806,1,8,0:0:0:0:
256,104,306900,1,0,0:0:0:0:
355,96,307087,1,8,0:0:0:0:
355,96,307275,1,8,0:0:0:0:
355,96,307462,1,0,0:0:0:0:
256,104,307650,1,0,0:0:0:0:
256,104,307743,1,0,0:0:0:0:
256,104,307837,1,0,0:0:0:0:
256,104,307931,1,8,0:0:0:0:
256,104,308025,1,0,0:0:0:0:
355,96,308212,1,0,0:0:0:0:
355,96,308400,1,8,0:0:0:0:
355,96,308587,1,0,0:0:0:0:
256,104,308775,1,8,0:0:0:0:
256,104,308868,1,0,0:0:0:0:
256,104,308962,1,0,0:0:0:0:
256,104,309056,1,8,0:0:0:0:
256,104,309150,1,0,0:0:0:0:
355,96,309337,1,8,0:0:0:0:
355,96,309525,1,8,0:0:0:0:
355,96,309712,1,0,0:0:0:0:
256,104,309900,1,8,0:0:0:0:
256,104,309993,1,8,0:0:0:0:
256,104,310087,1,0,0:0:0:0:
256,104,310181,1,0,0:0:0:0:
256,104,310275,1,0,0:0:0:0:
355,96,310462,1,0,0:0:0:0:
355,96,310650,1,8,0:0:0:0:
355,96,310837,1,0,0:0:0:0:
355,96,311025,1,8,0:0:0:0:
355,96,311118,1,8,0:0:0:0:
355,96,311212,1,0,0:0:0:0:
355,96,311306,1,8,0:0:0:0:
355,96,311400,1,0,0:0:0:0:
258,93,311587,1,8,0:0:0:0:
351,97,311775,1,8,0:0:0:0:
355,96,311962,1,0,0:0:0:0:
355,96,312150,1,8,0:0:0:0:
355,96,312243,1,8,0:0:0:0:
351,97,312337,1,0,0:0:0:0:
351,97,312431,1,0,0:0:0:0:
351,97,312525,1,0,0:0:0:0:
355,96,312712,1,0,0:0:0:0:
355,96,312900,1,8,0:0:0:0:
355,96,313087,1,0,0:0:0:0:
351,97,313275,1,8,0:0:0:0:
351,97,313368,1,8,0:0:0:0:
355,96,313462,1,0,0:0:0:0:
355,96,313556,1,8,0:0:0:0:
355,96,313650,1,0,0:0:0:0:
355,96,313837,1,8,0:0:0:0:
351,97,314025,1,8,0:0:0:0:
351,97,314212,1,0,0:0:0:0:
355,96,314400,1,8,0:0:0:0:
355,96,314446,1,0,0:0:0:0:
355,96,314493,1,0,0:0:0:0:
329,127,314587,1,0,0:0:0:0:
329,127,314681,1,8,0:0:0:0:
352,121,314728,1,0,0:0:0:0:
329,127,314775,1,0,0:0:0:0:
329,127,314868,1,0,0:0:0:0:
351,97,314962,1,8,0:0:0:0:
351,97,315056,1,8,0:0:0:0:
323,119,315150,1,0,0:0:0:0:
294,143,315243,1,0,0:0:0:0:
294,143,315337,1,8,0:0:0:0:
334,163,315431,1,0,0:0:0:0:
355,96,315525,1,8,0:0:0:0:
355,96,315571,1,0,0:0:0:0:
355,96,315618,1,0,0:0:0:0:
329,127,315712,1,0,0:0:0:0:
329,127,315806,1,8,0:0:0:0:
352,121,315853,1,0,0:0:0:0:
329,127,315900,1,0,0:0:0:0:
329,127,315993,1,0,0:0:0:0:
351,97,316087,1,8,0:0:0:0:
351,97,316181,1,8,0:0:0:0:
323,119,316275,1,0,0:0:0:0:
294,143,316368,1,0,0:0:0:0:
294,143,316462,1,8,0:0:0:0:
334,163,316556,1,0,0:0:0:0:
355,96,316650,1,8,0:0:0:0:
355,96,316696,1,8,0:0:0:0:
355,96,316743,1,0,0:0:0:0:
329,127,316837,1,0,0:0:0:0:
329,127,316931,1,8,0:0:0:0:
352,121,316978,1,8,0:0:0:0:
329,127,317025,1,0,0:0:0:0:
329,127,317118,1,0,0:0:0:0:
351,97,317212,1,8,0:0:0:0:
351,97,317306,1,0,0:0:0:0:
323,119,317400,1,8,0:0:0:0:
294,143,317493,1,8,0:0:0:0:
294,143,317587,1,8,0:0:0:0:
334,163,317681,1,8,0:0:0:0:
355,96,317775,1,0,0:0:0:0:
355,96,317821,1,0,0:0:0:0:
355,96,317868,1,0,0:0:0:0:
329,127,317962,1,8,0:0:0:0:
329,127,318056,1,0,0:0:0:0:
352,121,318103,1,0,0:0:0:0:
329,127,318150,1,0,0:0:0:0:
329,127,318243,1,8,0:0:0:0:
351,97,318337,1,0,0:0:0:0:
351,97,318431,1,8,0:0:0:0:
323,119,318525,1,0,0:0:0:0:
294,143,318618,1,0,0:0:0:0:
294,143,318712,1,8,0:0:0:0:
334,163,318806,1,8,0:0:0:0:
288,154,318900,1,0,0:0:0:0:
242,145,318993,1,0,0:0:0:0:
242,145,319087,1,0,0:0:0:0:
242,145,319181,1,0,0:0:0:0:
242,145,319275,1,0,0:0:0:0:
242,145,319368,1,0,0:0:0:0:
242,145,319462,1,8,0:0:0:0:
201,136,319556,1,0,0:0:0:0:
201,136,319650,1,0,0:0:0:0:
242,145,319743,1,8,0:0:0:0:
296,150,319837,1,8,0:0:0:0:
296,150,319931,1,8,0:0:0:0:
201,136,320025,1,0,0:0:0:0:
216,132,320071,1,8,0:0:0:0:
234,127,320118,1,8,0:0:0:0:
271,126,320212,1,8,0:0:0:0:
312,125,320306,1,8,0:0:0:0:
339,152,320400,1,0,0:0:0:0:
339,152,320462,1,0,0:0:0:0:
339,152,320525,1,0,0:0:0:0:
339,152,320587,1,8,0:0:0:0:
291,150,320681,1,0,0:0:0:0:
291,150,320775,1,8,0:0:0:0:
326,123,320868,1,0,0:0:0:0:
340,113,320915,1,0,0:0:0:0:
340,113,320962,1,8,0:0:0:0:
340,113,321056,1,8,0:0:0:0:
340,113,321150,1,0,0:0:0:0:
289,120,321243,1,8,0:0:0:0:
289,120,321337,1,8,0:0:0:0:
289,120,321431,1,8,0:0:0:0:
289,120,321525,1,0,0:0:0:0:
299,159,321618,1,0,0:0:0:0:
289,120,321712,1,8,0:0:0:0:
329,145,321806,1,0,0:0:0:0:
329,145,321900,1,8,0:0:0:0:
288,113,321993,1,0,0:0:0:0:
253,76,322087,1,8,0:0:0:0:
253,76,322181,1,0,0:0:0:0:
253,76,322275,1,8,0:0:0:0:
253,76,322368,1,8,0:0:0:0:
253,76,322462,1,0,0:0:0:0:
253,76,322556,1,0,0:0:0:0:
253,76,322650,1,0,0:0:0:0:
282,134,322743,1,8,0:0:0:0:
282,134,322837,1,0,0:0:0:0:
282,134,322884,1,0,0:0:0:0:
282,134,322931,1,0,0:0:0:0:
253,138,322978,1,0,0:0:0:0:
238,135,323025,1,8,0:0:0:0:
297,93,323118,1,8,0:0:0:0:
348,120,323212,1,0,0:0:0:0:
348,120,323306,1,0,0:0:0:0:
305,157,323400,1,12,0:0:0:0:
256,192,323493,12,0,327900,0:0:0:0:
