osu file format v14

[General]
AudioFilename: audio.mp3
AudioLeadIn: 0
PreviewTime: 15
Countdown: 0
SampleSet: Normal
StackLeniency: 0.7
Mode: 0
LetterboxInBreaks: 0
WidescreenStoryboard: 1

[Editor]
Bookmarks: 14566,23815,44102,51641,90603,97421,133969,137826,169814,188632,194360,255285,260763,262850,288889,334980
DistanceSpacing: 1.5
BeatDivisor: 4
GridSize: 16
TimelineZoom: 2.600005

[Metadata]
Title:Enraged and Drowning Sullen
TitleUnicode:Enraged and Drowning Sullen
Artist:Inferi
ArtistUnicode:Inferi
Creator:knwnasdestroyer
Version:Chant for Dying Breath
Source:Revenant
Tags:metal fa featured artist revenant
BeatmapID:4545369
BeatmapSetID:1967137

[Difficulty]
HPDrainRate:5
CircleSize:4
OverallDifficulty:9.7
ApproachRate:10
SliderMultiplier:1.4
SliderTickRate:1

[Events]
//Background and Video events
0,0,"photo_2024-03-24_19-20-27.jpg",0,0
//Break Periods
//Storyboard Layer 0 (Background)
//Storyboard Layer 1 (Fail)
//Storyboard Layer 2 (Pass)
//Storyboard Layer 3 (Foreground)
//Storyboard Layer 4 (Overlay)
//Storyboard Sound Samples

[TimingPoints]
-99,451.127819548872,3,1,0,60,1,0
577,-100,3,1,0,5,0,0
803,-33.3333333333333,4,1,0,60,0,0
878,-33.3333333333333,4,1,0,5,0,0
1028,-33.3333333333333,4,1,0,60,0,0
1103,-33.3333333333333,4,1,0,5,0,0
1254,-33.3333333333333,4,1,0,60,0,0
1329,-33.3333333333333,4,1,0,5,0,0
1479,-33.3333333333333,4,1,0,60,0,0
1555,-33.3333333333333,4,1,0,5,0,0
1705,-50,4,1,0,60,0,0
1855,-33.3333333333333,4,1,0,5,0,0
2152,-66.6666666666667,4,1,0,60,0,0
2607,-66.6666666666667,4,1,0,60,0,0
3058,-25,4,1,0,60,0,0
3359,-25,4,1,0,5,0,0
3509,-25,4,1,0,60,0,0
4412,-25,4,1,0,60,0,0
4712,-25,4,1,0,5,0,0
4863,-25,4,1,0,60,0,0
5765,-19.047619047619,4,1,0,60,0,0
6066,-19.047619047619,4,1,0,5,0,0
6216,-19.047619047619,4,1,0,60,0,0
7118,-25,4,1,0,60,0,0
7645,-25,4,1,0,5,0,0
7795,-25,4,1,0,60,0,0
8321,-25,4,1,0,5,0,0
8472,-25,4,1,0,60,0,0
8773,-25,4,1,0,5,0,0
8923,-25,4,1,0,60,0,0
9828,225.563909774436,4,1,0,60,1,0
9903,-100,4,1,0,5,0,0
10053,-100,4,1,0,60,0,0
10128,-100,4,1,0,5,0,0
10279,-100,4,1,0,60,0,0
10354,-100,4,1,0,5,0,0
10504,-100,4,1,0,60,0,0
10579,-100,4,1,0,5,0,0
10730,-100,4,1,0,60,0,0
10805,-100,4,1,0,5,0,0
10955,-100,4,1,0,60,0,0
11031,-100,4,1,0,5,0,0
11181,-100,4,1,0,60,0,0
11256,-100,4,1,0,5,0,0
11406,-100,4,1,0,60,0,0
11482,-100,4,1,0,5,0,0
11632,-100,4,1,0,60,0,0
11707,-100,4,1,0,5,0,0
11858,-100,4,1,0,60,0,0
11933,-100,4,1,0,5,0,0
12083,-100,4,1,0,60,0,0
12158,-100,4,1,0,5,0,0
12309,-100,4,1,0,60,0,0
12536,451.127819548872,3,1,0,70,1,0
12686,-100,4,1,0,5,0,0
12983,-50,4,1,0,60,0,0
13739,-100,4,1,0,5,0,0
13889,-40,4,1,0,60,0,0
14114,-60.6060606060606,4,1,0,5,0,0
14566,-60.6060606060606,4,1,0,60,0,0
15238,-50,4,1,0,60,0,0
15468,-50,4,1,0,5,0,0
15693,-50,4,1,0,60,0,0
15769,-50,4,1,0,5,0,0
15919,-50,4,1,0,60,0,0
15994,-50,4,1,0,5,0,0
16145,-50,4,1,0,60,0,0
17122,-50,4,1,0,5,0,0
17272,-50,4,1,0,60,0,0
17348,-50,4,1,0,5,0,0
17498,-50,4,1,0,60,0,0
18475,-50,4,1,0,5,0,0
18626,-50,4,1,0,60,0,0
18701,-50,4,1,0,5,0,0
18851,-50,4,1,0,60,0,0
22011,225.563909774436,4,1,0,60,1,0
22086,-100,4,1,0,5,0,0
22236,-100,4,1,0,60,0,0
22311,-100,4,1,0,5,0,0
22462,-100,4,1,0,60,0,0
22537,-100,4,1,0,5,0,0
22687,-100,4,1,0,60,0,0
22762,-100,4,1,0,5,0,0
22913,-100,4,1,0,60,0,0
22988,-100,4,1,0,5,0,0
23138,-100,4,1,0,60,0,0
23214,-100,4,1,0,5,0,0
23364,-100,4,1,0,60,0,0
23439,-100,4,1,0,5,0,0
23589,-100,4,1,0,60,0,0
23665,-100,4,1,0,5,0,0
23815,-100,4,1,0,80,0,0
24718,307.692307692308,3,1,0,100,1,0
24718,-74.0740740740741,4,1,0,80,0,0
25333,-74.0740740740741,4,1,0,80,0,0
26564,-25,4,1,0,80,0,0
27487,-66.6666666666667,4,1,0,80,0,0
27794,-66.6666666666667,4,1,0,80,0,0
28718,-66.6666666666667,4,1,0,80,0,0
34102,-66.6666666666667,4,1,0,80,0,0
34410,-66.6666666666667,4,1,0,80,0,0
34718,-133.333333333333,4,1,0,80,0,0
34871,-66.6666666666667,4,1,0,80,0,0
36410,-133.333333333333,4,1,0,80,0,0
36718,-133.333333333333,4,1,0,80,0,0
37025,-133.333333333333,4,1,0,80,0,0
37487,-133.333333333333,4,1,0,80,0,0
37641,-40,4,1,0,80,0,0
38564,-133.333333333333,4,1,0,80,0,0
41948,-100,4,1,0,80,0,0
42256,-133.333333333333,4,1,0,80,0,0
42871,-100,4,1,0,80,0,0
43179,-133.333333333333,4,1,0,80,0,0
46256,-66.6666666666667,4,1,0,80,0,0
47794,-133.333333333333,4,1,0,80,0,0
50564,-66.6666666666667,4,1,0,80,0,0
51179,-133.333333333333,4,1,0,80,0,0
52410,-66.6666666666667,4,1,0,80,0,0
53641,-133.333333333333,4,1,0,80,0,0
54256,-66.6666666666667,4,1,0,80,0,0
55179,-66.6666666666667,4,1,0,80,0,0
55794,-133.333333333333,4,1,0,80,0,0
56102,-66.6666666666667,4,1,0,80,0,0
56718,-133.333333333333,4,1,0,80,0,0
57025,-66.6666666666667,4,1,0,80,0,0
57641,-133.333333333333,4,1,0,80,0,0
57948,-66.6666666666667,4,1,0,80,0,0
58564,-133.333333333333,4,1,0,80,0,0
58871,-66.6666666666667,4,1,0,80,0,0
59179,-133.333333333333,4,1,0,80,0,0
59794,-66.6666666666667,4,1,0,80,0,0
60102,-133.333333333333,4,1,0,80,0,0
60718,-66.6666666666667,4,1,0,80,0,0
61025,-66.6666666666667,4,1,0,80,0,0
61641,-66.6666666666667,4,1,0,80,0,0
61948,-66.6666666666667,4,1,0,80,0,0
62256,-133.333333333333,4,1,0,80,0,0
64102,-66.6666666666667,4,1,0,80,0,0
65333,-44.4444444444445,4,1,0,80,0,0
65641,-26.6666666666667,4,1,0,80,0,0
65948,-40,4,1,0,80,0,0
69333,-40,4,1,0,80,0,0
69641,-40,4,1,0,80,0,0
69948,-40,4,1,0,80,0,1
71333,-66.6666666666667,4,1,0,80,0,1
71794,-40,4,1,0,80,0,1
73641,458.015267175572,4,1,0,100,1,0
73641,-500,4,1,0,80,0,0
73870,-500,4,1,0,5,0,0
74099,-500,4,1,0,80,0,0
74328,-500,4,1,0,5,0,0
74557,-500,4,1,0,80,0,0
77303,307.692307692308,3,1,0,100,1,0
77303,-72.992700729927,4,1,0,80,0,0
79149,272.727272727273,3,1,0,100,1,0
79149,-133.333333333333,4,1,0,80,0,0
79421,-133.333333333333,4,1,0,80,0,0
80239,-133.333333333333,4,1,0,80,0,0
80785,-100,4,1,0,80,0,0
81330,-100,4,1,0,80,0,0
81603,-133.333333333333,4,1,0,80,0,0
82421,-200,4,1,0,80,0,0
82967,-200,4,1,0,80,0,0
83239,-200,4,1,0,80,0,0
83649,-66.6666666666667,4,1,0,80,0,0
84058,-200,4,1,0,80,0,0
84467,-100,4,1,0,80,0,0
91421,-100,4,1,0,80,0,0
91558,-100,4,1,0,80,0,0
94012,-200,4,1,0,80,0,0
94421,-100,4,1,0,80,0,0
94830,-200,4,1,0,80,0,0
95239,-100,4,1,0,80,0,0
95649,-200,4,1,0,80,0,0
96058,-100,4,1,0,80,0,0
97217,-200,4,1,0,80,0,0
97694,-100,4,1,0,80,0,0
97967,-200,4,1,0,80,0,0
98103,-100,4,1,0,80,0,0
106149,-133.333333333333,4,1,0,80,0,0
106967,214.285714285714,4,1,0,100,1,0
106967,-285.714285714286,4,1,0,90,0,1
109109,-80,4,1,0,90,0,1
109967,-133.333333333333,4,1,0,90,0,1
112538,-285.714285714286,4,1,0,90,0,1
113824,285.714285714286,3,1,0,100,1,1
113824,-50,4,1,0,90,0,1
116395,-133.333333333333,4,1,0,90,0,1
116824,-66.6666666666667,4,1,0,90,0,1
117254,214.285714285714,4,1,0,100,1,0
117254,-133.333333333333,4,1,0,90,0,1
118968,-80,4,1,0,90,0,1
119396,-285.714285714286,4,1,0,90,0,1
120254,-66.6666666666667,4,1,0,90,0,1
120682,-133.333333333333,4,1,0,90,0,1
122450,-66.6666666666667,4,1,0,90,0,1
123253,-285.714285714286,4,1,0,90,0,1
123682,-100,4,1,0,90,0,1
124112,285.714285714286,3,1,0,100,1,0
124112,-50,4,1,0,90,0,1
124969,-50,4,1,0,90,0,1
126683,-200,4,1,0,90,0,1
127112,-66.6666666666667,4,1,0,90,0,1
130969,214.285714285714,4,1,0,100,1,0
130969,-133.333333333333,4,1,0,90,0,0
131254,-200,4,1,0,80,0,0
131397,-133.333333333333,4,1,0,80,0,0
131683,-200,4,1,0,80,0,0
132147,-200,4,1,0,80,0,0
132326,-200,4,1,0,80,0,0
133111,-100,4,1,0,80,0,0
133969,-200,4,1,0,80,0,0
134040,-500,4,1,0,5,0,0
134254,-500,4,1,0,80,0,0
136969,-100,4,1,0,80,0,0
137826,-100,4,1,0,60,0,0
138040,-200,4,1,0,80,0,0
139567,-200,4,1,0,40,0,0
139674,-200,4,1,0,80,0,0
139714,-200,4,1,0,40,0,0
139821,-200,4,1,0,80,0,0
139848,-200,4,1,0,40,0,0
139955,-200,4,1,0,80,0,0
139995,-200,4,1,0,40,0,0
140089,-200,4,1,0,80,0,0
140277,-200,4,1,0,40,0,0
140397,-400,4,1,0,80,0,0
141254,-133.333333333333,4,1,0,80,0,0
141683,-66.6666666666667,4,1,0,80,0,0
142111,-133.333333333333,4,1,0,80,0,0
142540,-66.6666666666667,4,1,0,80,0,0
143397,-133.333333333333,4,1,0,80,0,0
144111,-357.142857142857,4,1,0,80,0,0
144361,-114.942528735632,4,1,0,80,0,0
144683,-50,4,1,0,90,0,1
146826,-66.6666666666667,4,1,0,90,0,1
147254,-50,4,1,0,90,0,1
147683,-25,4,1,0,90,0,1
148111,-66.6666666666667,4,1,0,70,0,1
148326,-66.6666666666667,4,1,0,90,0,1
149826,-66.6666666666667,4,1,0,90,0,1
150683,-50,4,1,0,90,0,1
154111,-66.6666666666667,4,1,0,90,0,1
154540,-50,4,1,0,90,0,1
156683,-133.333333333333,4,1,0,90,0,1
156790,-133.333333333333,4,1,0,5,0,1
156968,-66.6666666666667,4,1,0,90,0,1
157040,-66.6666666666667,4,1,0,5,0,1
157218,-66.6666666666667,4,1,0,90,0,1
157361,-66.6666666666667,4,1,0,5,0,1
157542,272.727272727273,3,1,0,100,1,1
157542,-250,4,1,0,90,0,1
157723,-250,4,1,0,5,0,1
157951,-500,4,1,0,90,0,1
158132,-500,4,1,0,5,0,1
158360,-133.333333333333,4,1,0,90,0,1
158905,-66.6666666666667,4,1,0,90,0,1
159178,-133.333333333333,4,1,0,90,0,1
160814,-40,4,1,0,90,0,1
161905,-133.333333333333,4,1,0,90,0,1
162451,-80,4,1,0,90,0,1
162678,-133.333333333333,4,1,0,5,0,1
162723,-66.6666666666667,4,1,0,90,0,1
164087,-44.4444444444445,4,1,0,90,0,1
167360,-133.333333333333,4,1,0,90,0,1
168178,-80,4,1,0,90,0,1
168996,-100,4,1,0,90,0,1
171451,-100,4,1,0,90,0,0
172542,-200,4,1,0,90,0,0
173087,-66.6666666666667,4,1,0,90,0,0
174723,-133.333333333333,4,1,0,90,0,0
177996,-133.333333333333,4,1,0,90,0,1
178814,-200,4,1,0,90,0,1
180451,-200,4,1,0,90,0,1
181269,-400,4,1,0,90,0,1
182632,-133.333333333333,4,1,0,90,0,1
186178,-133.333333333333,4,1,0,90,0,1
186723,-66.6666666666667,4,1,0,90,0,1
186996,-200,4,1,0,90,0,1
187542,-66.6666666666667,4,1,0,90,0,1
187814,-133.333333333333,4,1,0,90,0,1
188360,-50,4,1,0,90,0,1
188632,-133.333333333333,4,1,0,90,0,1
189723,-133.333333333333,4,1,0,90,0,1
190814,-66.6666666666667,4,1,0,90,0,1
191360,-200,4,1,0,90,0,1
191905,-50,4,1,0,90,0,1
193269,-40,4,1,0,90,0,1
193814,-200,4,1,0,90,0,1
194360,-50,4,1,0,60,0,0
194496,-50,4,1,0,5,0,0
194564,-50,4,1,0,60,0,0
194769,-50,4,1,0,60,0,0
195178,-100,4,1,0,60,0,0
195996,-270.27027027027,4,1,0,60,0,0
196405,-200,4,1,0,60,0,0
196814,-200,4,1,0,60,0,0
197632,-158.730158730159,4,1,0,60,0,0
198451,-222.222222222222,4,1,0,60,0,0
199269,-222.222222222222,4,1,0,60,0,0
199678,-222.222222222222,4,1,0,60,0,0
200905,-40,4,1,0,60,0,0
204996,-120.481927710843,4,1,0,60,0,0
205132,-120.481927710843,4,1,0,5,0,0
205269,-120.481927710843,4,1,0,60,0,0
205405,-120.481927710843,4,1,0,5,0,0
205542,-120.481927710843,4,1,0,60,0,0
205678,-120.481927710843,4,1,0,5,0,0
205814,-44.4444444444445,4,1,0,80,0,0
207451,-133.333333333333,4,1,0,80,0,0
209087,-66.6666666666667,4,1,0,80,0,0
209905,-100,4,1,0,80,0,0
210723,-66.6666666666667,4,1,0,80,0,0
211542,-133.333333333333,4,1,0,80,0,0
212905,-100,4,1,0,80,0,0
213178,-133.333333333333,4,1,0,80,0,0
213996,-66.6666666666667,4,1,0,80,0,0
214814,-200,4,1,0,80,0,0
216178,-66.6666666666667,4,1,0,80,0,0
216451,-100,4,1,0,80,0,0
216723,-133.333333333333,4,1,0,80,0,0
217542,-66.6666666666667,4,1,0,80,0,0
218087,-285.714285714286,4,1,0,80,0,0
220542,-100,4,1,0,80,0,0
233633,260.869565217391,4,1,0,80,1,0
241980,-50,4,1,0,80,0,0
245241,-50,4,1,0,5,0,0
245372,-50,4,1,0,80,0,0
245502,-50,4,1,0,5,0,0
245633,-59.5238095238095,4,1,0,80,0,0
253459,-100,4,1,0,80,0,0
258676,-100,4,1,0,80,0,0
260763,-100,4,1,0,80,0,0
261806,-100,4,1,0,60,0,0
262067,-100,4,1,0,80,0,0
262605,-100,4,1,0,40,0,0
262654,-100,4,1,0,80,0,0
262671,-100,4,1,0,40,0,0
262719,-100,4,1,0,80,0,0
262736,-100,4,1,0,40,0,0
262785,-100,4,1,0,80,0,0
262801,-100,4,1,0,40,0,0
262850,-200,4,1,0,80,0,0
265459,-200,4,1,0,80,0,0
265719,-400,4,1,0,80,0,0
265980,272.727272727273,4,1,0,100,1,0
265980,-303.030303030303,4,1,0,70,0,0
267070,-100,4,1,0,70,0,0
267616,-151.515151515152,4,1,0,70,0,0
268161,-400,4,1,0,70,0,0
268707,-133.333333333333,4,1,0,90,0,0
269252,-100,4,1,0,70,0,0
269798,-151.515151515152,4,1,0,70,0,0
270343,-66.6666666666667,4,1,0,90,0,0
270616,-303.030303030303,4,1,0,70,0,0
271434,-33.3333333333333,4,1,0,90,0,0
271775,-33.3333333333333,4,1,0,5,0,0
271980,-33.3333333333333,4,1,0,90,0,0
272661,-33.3333333333333,4,1,0,5,0,0
272798,-33.3333333333333,4,1,0,90,0,0
273957,-33.3333333333333,4,1,0,5,0,0
274161,-33.3333333333333,4,1,0,90,0,0
274843,-33.3333333333333,4,1,0,5,0,0
274980,-33.3333333333333,4,1,0,90,0,0
276139,-33.3333333333333,4,1,0,5,0,0
276343,-33.3333333333333,4,1,0,90,0,0
278389,-33.3333333333333,4,1,0,5,0,0
278525,-33.3333333333333,4,1,0,90,0,0
280161,-133.333333333333,4,1,0,90,0,0
286161,-66.6666666666667,4,1,0,90,0,0
288889,-66.6666666666667,4,1,0,95,0,1
292707,-100,4,1,0,95,0,0
296525,-100,4,1,0,95,0,0
296798,-200,4,1,0,95,0,0
297070,-666.666666666667,4,1,0,95,0,0
297616,-100,4,1,0,95,0,1
301434,-100,4,1,0,95,0,0
304161,-100,4,1,0,70,0,0
304230,-133.333333333333,4,1,0,5,0,0
304343,-33.3333333333333,4,1,0,70,0,0
304389,-25,4,1,0,5,0,0
304525,-25,4,1,0,70,0,0
304570,-22.2222222222222,4,1,0,5,0,0
304707,-33.3333333333333,4,1,0,70,0,0
304752,-16.6666666666667,4,1,0,5,0,0
304889,-16.6666666666667,4,1,0,70,0,0
304980,-133.333333333333,4,1,0,80,0,0
305525,-200,4,1,0,80,0,0
305798,-400,4,1,0,80,0,0
306207,-400,4,1,0,5,0,0
306345,272.727272727273,3,1,0,70,1,0
306345,-100,4,1,0,90,0,1
307981,-66.6666666666667,4,1,0,90,0,1
308799,-133.333333333333,4,1,0,90,0,1
309617,272.727272727273,4,1,0,90,1,1
309617,-133.333333333333,4,1,0,90,0,1
310709,272.727272727273,3,1,0,90,1,1
310709,-133.333333333333,4,1,0,90,0,1
313163,-100,4,1,0,100,0,1
313981,272.727272727273,4,1,0,90,1,1
313981,-37.7358490566038,4,1,0,90,0,1
314117,-37.7358490566038,4,1,0,5,0,1
314253,-100,4,1,0,90,0,1
314526,-44.4444444444445,4,1,0,100,0,1
315073,272.727272727273,3,1,0,90,1,1
315073,-133.333333333333,4,1,0,90,0,1
318347,272.727272727273,4,1,0,90,1,1
318347,-133.333333333333,4,1,0,90,0,1
318892,-66.6666666666667,4,1,0,90,0,1
319439,272.727272727273,3,1,0,90,1,1
319439,-100,4,1,0,90,0,1
321075,-66.6666666666667,4,1,0,90,0,1
321620,-133.333333333333,4,1,0,90,0,1
321893,-66.6666666666667,4,1,0,90,0,1
322439,-40,4,1,0,100,0,1
322712,272.727272727273,4,1,0,90,1,1
322712,-133.333333333333,4,1,0,90,0,1
323804,272.727272727273,3,1,0,100,1,0
323804,-50,3,1,0,70,0,0
323940,-50,3,1,0,5,0,0
324622,-100,3,1,0,70,0,0
324758,-100,3,1,0,5,0,0
325440,-400,3,1,0,70,0,0
325644,-400,3,1,0,5,0,0
326258,-400,3,1,0,80,0,0
327076,272.727272727273,4,1,0,80,1,0
327621,-66.6666666666667,4,1,0,80,0,0
327894,-50,4,1,0,80,0,0
328164,272.727272727273,3,1,0,70,1,0
328164,-400,3,1,0,70,0,0
328300,-400,3,1,0,5,0,0
328982,-400,3,1,0,70,0,0
329118,-400,3,1,0,5,0,0
329800,-400,3,1,0,70,0,0
329936,-400,3,1,0,5,0,0
330618,-400,3,1,0,80,0,0
331436,272.727272727273,4,1,0,80,1,0
332530,272.727272727273,3,1,0,70,1,0
334980,324.324324324324,3,1,0,100,1,0
334980,-40,4,1,0,80,0,1
335466,-16.6666666666667,4,1,0,65,0,1
335950,279.06976744186,4,1,0,100,1,0
335950,-16.6666666666667,4,1,0,75,0,1
336415,-16.6666666666667,4,1,0,90,0,1
337068,291.26213592233,3,1,0,100,1,0
338233,-33.3333333333333,4,1,0,100,0,0
342966,-33.3333333333333,4,1,0,5,0,0

[HitObjects]
109,173,202,5,0,2:0:0:0:
129,157,277,1,0,2:0:0:0:
146,141,352,2,0,B|162:109|162:109|178:125|178:125|195:78,1,105,0|0,2:2|2:2,2:2:0:0:
277,47,803,2,0,B|331:52|331:52|344:69|344:69|341:77|341:77|348:96,1,105.000004005432,0|0,2:0|2:0,2:0:0:0:
271,249,1028,2,0,B|277:254|277:254|251:231|251:231|239:153,1,105.000004005432,0|0,2:0|2:0,2:0:0:0:
446,179,1254,2,0,B|446:170|446:170|445:220|445:220|433:229|433:229|419:275,1,105.000004005432,0|0,2:0|2:0,2:0:0:0:
351,123,1479,2,0,B|333:107|333:107|413:86,1,105.000004005432,0|0,2:0|2:0,2:0:0:0:
496,300,1705,6,0,B|459:315|470:346|470:346|434:334|434:334|390:361,1,140,0|0,2:0|2:0,2:0:0:0:
249,176,2156,2,0,B|203:149|203:149|151:192|186:179,1,105.000004005432,0|0,2:0|2:0,2:0:0:0:
204,351,2607,2,0,B|198:312|198:312|258:312|258:312|238:274,1,105.000004005432,0|0,2:0|2:0,2:0:0:0:
382,153,3058,6,0,B|369:78|369:78|341:107|341:107|336:118|336:118|309:142|309:142|340:210|340:210|286:186|286:186|282:177|282:177|230:163|230:163|201:235|201:235,1,420,0|0,2:0|2:0,2:0:0:0:
144,336,3510,1,0,2:0:0:0:
45,171,3735,1,0,2:0:0:0:
96,96,3961,1,0,2:0:0:0:
314,351,4412,6,0,B|274:322|274:322|295:302|295:302|283:269|283:269|275:249|275:249|258:233|258:233|343:216|343:216|286:193|286:193|272:192|272:192|206:172|206:172|215:142|215:142|223:120,1,420,0|0,2:0|2:0,2:0:0:0:
253,36,4863,1,0,2:0:0:0:
472,249,5088,1,0,2:0:0:0:
413,336,5314,1,0,2:0:0:0:
189,89,5765,6,0,B|235:99|238:128|238:128|282:154|342:162|342:162|357:129|401:94|401:94|356:116|322:121|322:121|313:131|313:131|209:170|209:170|192:172|192:172|186:160|186:160|169:149|169:149|145:153|137:130|137:130|125:117,1,551.25000525713,0|0,2:0|2:0,2:0:0:0:
0,62,6216,1,0,2:0:0:0:
32,304,6442,1,0,2:0:0:0:
112,368,6667,1,0,2:0:0:0:
138,62,7118,6,0,B|138:142|138:142|211:25|211:25|216:79|216:79|213:84|213:84|219:99|191:157|312:174|312:174|247:176|247:176|235:181|235:181|130:195|130:195|168:207|168:207|178:206|178:206|230:234,1,700,0|0,2:0|2:0,2:0:0:0:
285,253,7795,6,0,B|380:220|380:220|396:94|293:96|293:96|411:102|411:102|419:94|419:94|462:104|462:104|427:153|427:153|423:175|423:175|375:235|375:235|373:245|373:245|324:319,1,700,0|0,2:0|2:0,2:0:0:0:
234,310,8472,6,0,B|205:264|205:264|192:258|192:258|181:228|141:213|183:229|209:208|209:208|231:203|231:203|285:168|285:168|188:123|188:123|185:112|185:112|159:97|159:97|136:180|136:180|157:246,1,420,0|0,2:0|2:0,2:0:0:0:
106,279,8923,5,0,2:0:0:0:
279,254,9148,1,0,2:0:0:0:
198,371,9374,1,0,2:0:0:0:
10,261,9600,1,0,2:0:0:0:
423,230,9828,6,0,L|362:177,1,70,0|0,2:0|2:0,2:0:0:0:
147,225,10053,2,0,L|233:194,1,70,0|0,2:0|2:0,2:0:0:0:
375,301,10279,2,0,L|317:252,1,70,0|0,2:0|2:0,2:0:0:0:
181,92,10504,2,0,L|254:129,1,70,0|0,2:0|2:0,2:0:0:0:
367,121,10729,6,0,B|421:105|421:105|431:127,1,70,0|0,2:0|2:0,2:0:0:0:
114,164,10954,2,0,B|75:143|75:143|50:170,1,70,0|0,2:0|2:0,2:0:0:0:
453,257,11180,2,0,B|489:245|489:245|495:206,1,70,0|0,2:0|2:0,2:0:0:0:
130,380,11406,2,0,B|84:361|84:361|88:329,1,70,0|0,2:0|2:0,2:0:0:0:
157,246,11632,6,0,B|189:248|189:248|191:229|191:229|206:258,1,70,0|0,2:0|2:0,2:0:0:0:
491,347,11858,2,0,B|506:367|506:367|488:365|488:365|519:380,1,70,0|0,2:0|2:0,2:0:0:0:
31,233,12083,2,0,B|47:258|47:258|57:262|57:262|58:272|58:272|27:294,1,70,0|0,2:3|2:3,2:3:0:0:
290,103,12309,2,0,B|302:71|302:71|298:54|298:54|312:53|312:53|335:61,1,70,0|0,2:3|2:3,2:3:0:0:
382,85,12497,1,0,2:0:0:0:
383,101,12534,2,0,B|404:123|404:123|398:150|407:177|430:199|430:199|417:240,1,140,0|0,2:0|2:0,2:0:0:0:
271,331,12987,5,0,2:0:0:0:
101,132,13212,1,0,2:0:0:0:
333,27,13438,1,0,2:0:0:0:
488,218,13663,2,0,B|484:255|484:255|448:269,1,70,0|0,2:0|2:0,2:0:0:0:
359,279,13889,2,0,B|306:240|278:256|278:256|261:260|261:260|250:244|250:244|223:240|200:195|200:195|160:164|160:164|178:170|186:212|215:185|256:201|256:201,1,350,0|0,2:0|2:0,2:0:0:0:
400,196,14566,1,0,2:0:0:0:
183,302,14791,1,0,2:0:0:0:
369,384,15017,1,0,2:0:0:0:
480,240,15242,6,0,B|473:215|487:198|487:198|459:179|452:146|452:146|438:189|399:198|399:198|397:168|358:130,1,233.333333333333,0|0,2:0|2:0,2:0:0:0:
320,48,15693,2,0,B|279:33|279:33|248:47,1,70,0|0,2:0|2:0,2:0:0:0:
192,224,15919,2,0,B|232:238|232:238|263:224,1,70,0|0,2:0|2:0,2:0:0:0:
102,60,16145,2,0,B|82:9|5:39|31:104|57:88|88:89|135:121|157:97|162:66|164:55|164:55|195:113,1,280,0|0,2:0|2:0,2:0:0:0:
65,260,17047,6,0,B|37:250|37:250|55:198,1,70,0|0,2:0|2:0,2:0:0:0:
97,89,17272,2,0,B|139:93|139:93|147:125,1,70,0|0,2:0|2:0,2:0:0:0:
239,353,17498,1,0,2:0:0:0:
256,192,17949,5,0,2:0:0:0:
306,80,18400,6,0,B|317:53|317:53|362:51,1,70,0|0,2:0|2:0,2:0:0:0:
491,110,18626,2,0,B|459:147|459:147|435:139,1,70,0|0,2:0|2:0,2:0:0:0:
114,29,18851,1,0,2:0:0:0:
239,199,19302,5,0,2:0:0:0:
191,151,19979,1,0,2:0:0:0:
207,199,20656,1,0,2:0:0:0:
32,80,21107,5,0,2:0:0:0:
144,32,21332,1,0,2:0:0:0:
16,176,21558,1,0,2:0:0:0:
144,32,21784,1,0,2:0:0:0:
64,240,22011,2,0,B|86:284|86:284|70:295,1,70,0|0,2:0|2:0,2:0:0:0:
196,354,22236,2,0,B|164:348|164:348|156:310,1,70,0|0,2:0|2:0,2:0:0:0:
152,160,22462,2,0,B|155:150|155:150|189:199,1,70,0|0,2:0|2:0,2:0:0:0:
291,318,22687,2,0,B|338:350|338:350|343:333,1,70,0|0,2:0|2:0,2:0:0:0:
274,49,22913,6,0,B|313:29|313:29|349:46,1,70,0|0,2:0|2:0,2:0:0:0:
446,139,23138,2,0,B|473:133|473:133|443:178,1,70,0|0,2:0|2:0,2:0:0:0:
399,300,23364,2,0,B|398:339|398:339|360:350,1,70,0|0,2:0|2:0,2:0:0:0:
166,349,23589,2,0,B|119:306|119:306|147:279,1,70,0|0,2:0|2:0,2:0:0:0:
255,122,23815,6,0,B|300:133|300:133|340:170,2,93.3333333333333,8|0|0,3:3|3:0|3:0,3:0:0:0:
0,152,24266,5,0,3:0:0:0:
297,56,24417,1,0,3:0:0:0:
0,223,24567,1,8,3:3:0:0:
381,241,24718,6,0,B|378:190|378:190|396:186|396:186|409:149|409:149,1,94.5000003604889,4|0,1:3|1:0,1:0:0:0:
456,50,25025,1,0,1:0:0:0:
304,21,25179,1,0,1:0:0:0:
0,61,25487,5,0,1:0:0:0:
87,237,25641,6,0,B|138:246|137:219|137:219|179:279,1,94.5000003604889,8|0,1:3|1:0,1:0:0:0:
233,352,25948,1,4,1:3:0:0:
441,167,26102,1,4,1:3:0:0:
91,350,26410,5,0,1:0:0:0:
354,305,26564,6,0,B|395:321|423:291|423:291|435:297|435:297|467:258|467:258|400:252|375:236|375:236|301:243,1,280,0|0,1:3|1:3,1:3:0:0:
176,256,26871,1,4,1:3:0:0:
34,160,27025,1,0,1:0:0:0:
294,111,27179,1,4,1:3:0:0:
131,76,27333,1,0,1:0:0:0:
395,238,27487,6,0,B|368:259|368:259|327:260,2,70.0000026702882,8|0|0,1:3|1:0|1:0,1:0:0:0:
443,159,27794,1,4,1:3:0:0:
412,72,27897,1,0,1:0:0:0:
327,36,28000,1,0,1:0:0:0:
240,64,28102,1,4,1:3:0:0:
206,146,28205,1,0,1:0:0:0:
130,195,28307,1,0,1:0:0:0:
38,195,28410,6,0,B|28:233|28:233|38:248|38:248|38:318,1,105.000004005432,0|0,1:0|1:0,1:0:0:0:
303,164,28718,1,0,1:0:0:0:
258,326,28871,1,0,1:0:0:0:
383,257,29025,1,0,1:0:0:0:
118,346,29179,5,0,1:0:0:0:
447,190,29333,1,8,1:3:0:0:
405,104,29487,5,0,1:0:0:0:
359,16,29641,1,0,1:0:0:0:
114,29,29794,5,0,1:0:0:0:
347,324,29948,1,8,1:3:0:0:
32,320,30102,5,0,1:0:0:0:
158,88,30256,1,8,1:3:0:0:
130,345,30410,5,0,1:0:0:0:
236,370,30564,1,0,1:0:0:0:
375,221,30718,5,8,1:3:0:0:
350,5,30871,1,0,1:0:0:0:
143,20,31025,1,8,1:3:0:0:
44,60,31179,5,8,3:3:0:0:
80,97,31256,1,0,3:0:0:0:
87,147,31333,1,0,3:0:0:0:
120,188,31410,1,0,3:0:0:0:
98,235,31487,1,8,3:3:0:0:
98,287,31564,1,0,3:0:0:0:
126,330,31641,1,0,3:0:0:0:
173,352,31718,1,0,3:0:0:0:
224,349,31794,1,0,3:0:0:0:
266,318,31871,1,0,3:0:0:0:
283,268,31948,1,0,3:0:0:0:
267,217,32025,1,0,3:0:0:0:
236,174,32102,5,4,1:3:0:0:
23,246,32256,1,0,1:0:0:0:
354,71,32410,5,4,1:3:0:0:
354,71,32564,1,0,1:0:0:0:
354,71,32718,1,4,1:3:0:0:
225,53,32871,5,0,1:0:0:0:
294,145,33025,5,8,1:3:0:0:
294,145,33179,1,0,1:0:0:0:
106,107,33333,5,4,1:3:0:0:
106,107,33487,1,0,1:0:0:0:
66,297,33641,5,4,1:3:0:0:
306,332,33794,1,0,1:0:0:0:
440,94,33948,1,4,1:2:0:0:
176,32,34102,6,0,B|180:62|180:62|196:91|196:91|176:145,1,105.000004005432,0|4,1:0|1:3,1:0:0:0:
437,183,34410,2,0,B|433:219|433:219|422:240|422:240|437:295,1,105.000004005432,0|4,1:0|1:3,1:0:0:0:
41,193,34718,1,0,1:0:0:0:
158,239,34871,2,0,B|155:258|155:258|186:245|213:248,2,70.0000026702882,8|0|0,1:3|1:0|1:0,1:0:0:0:
176,153,35179,5,4,1:3:0:0:
192,41,35282,1,0,1:0:0:0:
176,153,35384,1,0,1:0:0:0:
288,169,35487,1,4,1:3:0:0:
304,57,35589,1,0,1:0:0:0:
192,41,35692,1,0,1:0:0:0:
0,51,35794,5,0,1:0:0:0:
56,126,35897,1,0,1:0:0:0:
23,200,36000,1,0,1:0:0:0:
75,248,36102,1,4,1:2:0:0:
58,290,36205,1,0,1:0:0:0:
76,317,36307,1,0,1:0:0:0:
177,378,36410,6,0,B|193:351|193:351|204:318,1,52.5000020027161,0|0,1:0|1:0,1:0:0:0:
245,105,36718,2,0,B|248:132|248:132|260:154,1,52.5000020027161,12|0,1:3|1:0,1:0:0:0:
380,344,37025,1,4,1:2:0:0:
180,0,37179,6,0,B|207:1|207:1|231:9,1,52.5000020027161,0|0,1:0|1:0,1:0:0:0:
496,80,37487,1,0,1:0:0:0:
337,292,37641,5,4,3:3:0:0:
241,336,37718,1,0,3:0:0:0:
139,312,37794,1,0,3:0:0:0:
100,214,37871,1,0,3:0:0:0:
150,122,37948,1,4,3:3:0:0:
191,144,38025,1,0,3:0:0:0:
231,165,38102,1,0,3:0:0:0:
269,183,38179,1,0,3:0:0:0:
306,206,38256,5,4,3:3:0:0:
335,306,38333,1,0,3:0:0:0:
439,312,38410,1,0,3:0:0:0:
488,219,38487,1,0,3:0:0:0:
397,134,38564,1,12,3:3:0:0:
360,113,38641,1,0,3:0:0:0:
323,92,38718,1,0,3:0:0:0:
286,71,38794,1,0,3:0:0:0:
194,81,38871,5,12,3:3:0:0:
180,107,38948,1,0,3:0:0:0:
165,139,39025,1,0,3:0:0:0:
153,163,39102,1,0,3:0:0:0:
86,165,39179,1,0,3:0:0:0:
134,7,39333,5,0,3:0:0:0:
304,176,39487,6,0,L|346:181,1,26.2500010013581,4|8,3:3|3:3,3:0:0:0:
233,333,39641,2,0,L|204:353,1,26.2500010013581,0|8,3:0|3:3,3:0:0:0:
304,337,39794,2,0,L|306:292,1,26.2500010013581,0|8,3:0|3:3,3:0:0:0:
387,45,39948,6,0,L|358:16,1,26.2500010013581,4|8,3:2|3:3,3:0:0:0:
488,201,40102,2,0,L|526:185,1,26.2500010013581,0|8,3:0|3:3,3:0:0:0:
421,175,40256,2,0,L|383:141,1,26.2500010013581,0|8,3:0|3:3,3:0:0:0:
186,32,40410,6,0,L|160:63,1,26.2500010013581,4|8,3:3|3:3,3:0:0:0:
56,232,40564,2,0,L|84:197,1,26.2500010013581,0|8,3:0|3:3,3:0:0:0:
10,150,40718,2,0,L|-7:189,1,26.2500010013581,0|8,3:0|3:3,3:0:0:0:
257,220,40871,6,0,L|227:198,1,26.2500010013581,4|8,3:3|3:3,3:0:0:0:
150,368,41025,2,0,L|121:353,1,26.2500010013581,0|8,3:0|3:3,3:0:0:0:
86,297,41179,2,0,L|47:315,1,26.2500010013581,0|8,3:0|3:3,3:0:0:0:
300,296,41333,5,4,3:2:0:0:
326,297,41410,1,8,3:3:0:0:
352,298,41487,1,0,3:0:0:0:
378,297,41564,1,8,3:3:0:0:
398,280,41641,5,4,3:3:0:0:
410,257,41718,1,8,3:3:0:0:
424,235,41794,1,0,3:0:0:0:
439,195,41871,1,8,3:3:0:0:
390,175,41948,5,4,3:3:0:0:
337,172,42025,1,8,3:3:0:0:
284,178,42102,2,0,P|261:181|238:201,1,35,0|8,3:0|3:3,0:0:0:0:
190,51,42256,5,4,3:3:0:0:
163,53,42333,1,8,3:3:0:0:
136,49,42410,1,0,3:0:0:0:
111,39,42487,1,8,3:3:0:0:
114,65,42564,5,0,3:0:0:0:
109,90,42641,1,8,3:3:0:0:
99,114,42718,1,0,3:0:0:0:
86,136,42794,1,12,3:3:0:0:
133,113,42871,5,0,3:1:0:0:
182,96,42948,1,8,3:3:0:0:
234,94,43025,2,0,P|262:96|285:114,1,35,0|8,3:3|3:3,3:3:0:0:
440,227,43179,5,4,3:2:0:0:
429,251,43256,1,12,3:3:0:0:
432,277,43333,1,0,3:0:0:0:
445,299,43410,1,8,3:3:0:0:
457,327,43487,5,0,3:0:0:0:
431,334,43564,1,8,3:3:0:0:
409,349,43641,1,0,3:0:0:0:
387,363,43718,1,8,3:3:0:0:
367,345,43794,5,4,3:3:0:0:
359,319,43871,1,8,3:3:0:0:
365,292,43948,2,0,P|372:273|384:256,1,26.2500010013581,0|8,3:3|3:3,3:3:0:0:
448,135,44102,6,4,B|473:105|473:105,1,26.2500010013581,4|12,3:3|3:3,3:3:0:0:
290,121,44256,2,0,L|273:90,1,26.2500010013581,0|8,3:0|3:3,3:0:0:0:
287,270,44410,2,0,L|271:301,1,26.2500010013581,0|8,3:0|3:3,3:0:0:0:
21,304,44564,6,0,L|35:270,1,26.2500010013581,4|8,3:3|3:3,3:0:0:0:
24,78,44718,2,0,L|49:105,1,26.2500010013581,0|8,3:0|3:3,3:0:0:0:
199,167,44871,2,0,L|209:132,1,26.2500010013581,0|8,3:0|3:3,3:0:0:0:
94,367,45025,6,0,L|123:379,1,26.2500010013581,4|8,3:2|3:3,3:0:0:0:
0,172,45179,2,0,L|30:165,1,26.2500010013581,0|8,3:0|3:3,3:0:0:0:
141,9,45333,5,0,3:3:0:0:
217,21,45410,1,0,3:0:0:0:
260,83,45487,1,0,3:0:0:0:
241,147,45564,1,0,3:0:0:0:
193,186,45641,1,0,3:0:0:0:
173,242,45718,1,0,3:0:0:0:
188,287,45794,1,0,3:0:0:0:
216,319,45871,1,0,3:0:0:0:
252,326,45948,1,0,3:0:0:0:
282,319,46025,1,0,3:0:0:0:
331,314,46102,5,8,3:3:0:0:
347,287,46179,1,8,3:3:0:0:
362,258,46256,2,0,B|352:211|352:211|377:198|402:166,1,105.000004005432,0|8,3:0|3:3,3:0:0:0:
427,121,46487,1,8,3:3:0:0:
455,64,46564,1,0,3:3:0:0:
192,200,46718,5,8,3:3:0:0:
213,281,46794,1,8,3:3:0:0:
136,311,46871,1,0,3:3:0:0:
192,64,47025,5,8,3:3:0:0:
171,87,47102,1,0,3:0:0:0:
150,110,47179,1,8,3:3:0:0:
129,133,47256,1,0,3:0:0:0:
108,157,47333,1,8,3:3:0:0:
252,141,47487,5,0,3:0:0:0:
336,48,47641,1,0,3:0:0:0:
60,100,47794,5,4,3:3:0:0:
93,89,47871,1,0,3:0:0:0:
126,78,47948,1,0,3:0:0:0:
159,67,48025,1,0,3:0:0:0:
195,188,48102,1,4,3:3:0:0:
231,182,48179,1,8,3:3:0:0:
272,175,48256,1,0,3:0:0:0:
316,170,48333,1,8,3:3:0:0:
358,158,48410,2,0,L|329:138,1,26.2500010013581,4|8,3:3|3:3,3:0:0:0:
463,145,48564,2,8,L|494:169,1,26.2500010013581,8|0,3:3|3:3,3:3:0:0:
382,252,48718,5,4,3:3:0:0:
347,256,48794,1,8,3:3:0:0:
311,257,48871,1,0,3:0:0:0:
276,261,48948,1,8,3:3:0:0:
155,257,49025,1,4,3:3:0:0:
174,222,49102,1,8,3:3:0:0:
197,182,49179,1,0,3:0:0:0:
217,148,49256,1,8,3:3:0:0:
233,118,49333,2,0,L|209:79,1,26.2500010013581,0|8,3:3|3:3,3:0:0:0:
273,21,49487,2,8,L|304:30,1,26.2500010013581,8|0,3:3|3:3,3:3:0:0:
158,42,49641,5,4,3:3:0:0:
128,51,49718,1,8,3:3:0:0:
98,62,49794,1,0,3:0:0:0:
68,73,49871,1,8,3:3:0:0:
83,166,49948,1,4,3:3:0:0:
95,196,50025,1,8,3:3:0:0:
105,225,50102,1,0,3:0:0:0:
117,253,50179,1,8,3:3:0:0:
128,288,50256,2,0,L|86:294,1,26.2500010013581,4|8,3:3|3:3,3:0:0:0:
224,224,50410,2,0,L|261:228,1,26.2500010013581,0|8,3:0|3:3,3:0:0:0:
288,336,50564,6,0,P|319:317|341:284,1,52.5000020027161,4|8,3:3|3:3,3:0:0:0:
431,184,50718,1,0,3:0:0:0:
473,182,50794,1,8,3:3:0:0:
495,256,50871,6,0,P|460:261|427:249,1,52.5000020027161,4|8,3:3|3:3,3:0:0:0:
290,186,51025,1,0,3:0:0:0:
291,147,51102,1,8,3:3:0:0:
363,144,51179,5,4,3:3:0:0:
362,112,51256,1,8,3:3:0:0:
361,80,51333,1,0,3:0:0:0:
362,48,51410,1,8,3:3:0:0:
257,67,51487,1,4,3:2:0:0:
327,309,51641,5,0,3:0:0:0:
109,305,51794,6,0,L|109:270,1,26.2500010013581,0|8,3:0|3:3,3:0:0:0:
13,106,51948,2,0,L|0:75,1,26.2500010013581,0|8,3:0|3:3,3:0:0:0:
34,269,52102,2,0,L|49:238,1,26.2500010013581,0|8,3:0|3:3,3:0:0:0:
77,58,52256,2,0,L|57:36,1,26.2500010013581,0|8,3:0|3:3,3:0:0:0:
226,277,52410,6,4,B|238:310|238:310|261:309,1,52.5000020027161,4|12,3:2|3:2,3:2:0:0:
405,264,52564,1,0,3:0:0:0:
420,238,52641,1,8,3:3:0:0:
496,275,52718,1,0,3:0:0:0:
385,35,52871,5,0,3:0:0:0:
288,226,53025,5,0,3:0:0:0:
302,198,53102,1,8,3:3:0:0:
318,171,53179,1,0,3:0:0:0:
332,143,53256,1,8,3:3:0:0:
241,92,53333,1,4,3:2:0:0:
0,73,53487,5,0,3:0:0:0:
145,223,53641,6,4,L|112:226,1,26.2500010013581,4|12,3:3|3:3,3:3:0:0:
0,298,53794,2,0,L|19:343,1,26.2500010013581,0|8,3:0|3:3,3:0:0:0:
163,384,53948,2,0,L|193:356,1,26.2500010013581,4|8,3:3|3:3,3:0:0:0:
258,162,54102,2,0,L|231:159,1,26.2500010013581,0|8,3:0|3:3,3:0:0:0:
10,109,54256,5,4,3:3:0:0:
62,102,54333,1,0,3:0:0:0:
124,121,54410,1,0,3:0:0:0:
176,115,54487,1,0,3:0:0:0:
217,79,54564,1,0,3:0:0:0:
269,72,54641,1,0,3:0:0:0:
319,97,54718,6,4,L|444:81,1,105.000004005432,4|0,3:3|3:3,3:3:0:0:
509,0,55025,1,4,3:3:0:0:
464,143,55179,5,4,3:3:0:0:
447,203,55256,1,8,3:3:0:0:
429,263,55333,1,0,3:0:0:0:
411,323,55410,1,8,3:3:0:0:
427,262,55487,5,4,3:3:0:0:
443,201,55564,1,8,3:3:0:0:
459,140,55641,1,0,3:0:0:0:
364,184,55718,1,8,3:3:0:0:
296,277,55794,2,0,L|307:243,1,26.2500010013581,4|8,3:3|3:3,3:0:0:0:
218,300,55948,2,0,L|190:328,1,26.2500010013581,0|8,3:0|3:3,3:0:0:0:
158,194,56102,5,4,3:3:0:0:
218,165,56179,1,8,3:3:0:0:
278,145,56256,1,0,3:0:0:0:
330,118,56333,1,8,3:3:0:0:
277,143,56410,5,4,3:3:0:0:
218,162,56487,1,8,3:3:0:0:
157,190,56564,1,0,3:0:0:0:
264,231,56641,1,8,3:3:0:0:
371,211,56718,2,0,L|362:179,1,26.2500010013581,4|8,3:3|3:3,3:0:0:0:
232,49,56871,2,0,L|189:51,1,26.2500010013581,0|8,3:0|3:3,3:0:0:0:
46,69,57025,5,4,3:3:0:0:
55,98,57102,1,8,3:3:0:0:
65,127,57179,1,0,3:0:0:0:
75,156,57256,1,8,3:3:0:0:
153,131,57333,5,4,3:3:0:0:
142,159,57410,1,8,3:3:0:0:
135,189,57487,1,0,3:0:0:0:
128,219,57564,1,8,3:3:0:0:
164,287,57641,2,0,L|202:307,1,26.2500010013581,4|8,3:3|3:3,3:0:0:0:
37,266,57794,2,0,L|55:293,1,26.2500010013581,4|8,3:3|3:3,3:0:0:0:
269,259,57948,6,0,L|347:268,1,52.5000020027161,4|8,3:3|3:3,3:0:0:0:
483,280,58102,1,0,3:0:0:0:
487,237,58179,1,8,3:3:0:0:
395,175,58256,2,0,L|387:249,1,52.5000020027161,4|8,3:3|3:3,3:0:0:0:
381,367,58410,1,0,3:0:0:0:
367,339,58487,1,8,3:3:0:0:
289,161,58564,6,0,L|313:142,1,26.2500010013581,4|8,3:3|3:3,3:0:0:0:
420,91,58718,2,0,L|408:58,1,26.2500010013581,0|8,3:0|3:3,3:0:0:0:
296,37,58871,2,0,B|269:15|269:15|229:16,1,52.5000020027161,4|8,3:3|3:3,3:0:0:0:
186,97,59025,1,0,3:0:0:0:
154,102,59102,1,8,3:3:0:0:
33,45,59179,6,0,L|62:63,1,26.2500010013581,4|8,3:2|3:3,3:0:0:0:
14,214,59333,2,0,L|44:227,1,26.2500010013581,0|8,3:0|3:3,3:0:0:0:
154,0,59487,2,0,L|187:17,1,26.2500010013581,4|8,3:3|3:3,3:0:0:0:
107,158,59641,2,0,L|139:174,1,26.2500010013581,0|8,3:0|3:3,3:0:0:0:
296,124,59794,2,0,B|307:147|307:147|306:173,1,52.5000020027161,4|8,3:3|3:3,3:0:0:0:
227,235,59948,1,0,3:0:0:0:
222,274,60025,1,8,3:3:0:0:
320,349,60102,6,0,L|320:311,1,26.2500010013581,4|8,3:2|3:3,3:0:0:0:
415,233,60256,2,0,L|412:201,1,26.2500010013581,0|8,3:0|3:3,3:0:0:0:
125,278,60410,2,0,L|127:247,1,26.2500010013581,4|8,3:3|3:3,3:0:0:0:
212,383,60564,2,0,L|216:350,1,26.2500010013581,0|8,3:0|3:3,3:0:0:0:
232,178,60718,2,0,B|244:158|244:158|246:129,1,52.5000020027161,4|8,3:3|3:3,3:0:0:0:
291,42,60871,1,0,3:0:0:0:
276,17,60948,1,8,3:3:0:0:
161,32,61025,5,4,3:2:0:0:
113,73,61102,1,8,3:3:0:0:
63,111,61179,1,0,3:0:0:0:
13,150,61256,1,8,3:3:0:0:
72,170,61333,1,4,3:3:0:0:
132,188,61410,1,8,3:3:0:0:
192,204,61487,1,0,3:0:0:0:
253,218,61564,1,8,3:3:0:0:
311,232,61641,6,8,L|363:189,1,52.5000020027161,8|8,3:2|3:2,3:2:0:0:
475,98,61794,1,8,3:2:0:0:
509,124,61871,1,8,3:2:0:0:
499,220,61948,2,8,L|437:185,1,52.5000020027161,8|8,3:2|3:2,3:2:0:0:
316,107,62102,1,12,3:3:0:0:
349,70,62179,1,0,3:0:0:0:
407,116,62256,1,0,3:0:0:0:
163,22,62410,1,12,0:2:0:0:
20,225,62564,5,4,3:3:0:0:
280,361,62718,1,8,3:2:0:0:
480,144,62871,1,0,3:0:0:0:
217,29,63025,1,0,3:0:0:0:
451,234,63179,5,0,3:0:0:0:
425,253,63256,1,0,3:0:0:0:
400,272,63333,1,0,3:0:0:0:
375,291,63410,1,0,3:0:0:0:
349,309,63487,5,12,3:3:0:0:
414,34,63641,1,0,3:0:0:0:
48,0,63794,1,0,3:0:0:0:
0,259,63948,1,0,3:0:0:0:
349,309,64102,5,0,3:0:0:0:
375,291,64179,1,0,3:0:0:0:
400,272,64256,1,0,3:0:0:0:
425,253,64333,1,0,3:0:0:0:
451,234,64410,5,12,3:2:0:0:
173,26,64564,1,4,3:3:0:0:
25,296,64718,1,4,3:3:0:0:
270,0,64871,1,0,3:0:0:0:
451,234,65025,5,0,3:0:0:0:
425,253,65102,1,0,3:0:0:0:
400,272,65179,1,0,3:0:0:0:
375,291,65256,1,0,3:0:0:0:
353,306,65333,6,4,B|305:308|305:308|293:227|390:218,1,157.500006008148,12|4,3:3|3:3,3:3:0:0:
353,306,65641,2,0,B|261:307|261:307|236:210|353:173,1,262.5,0|4,3:0|3:3,3:0:0:0:
419,36,65948,1,0,3:0:0:0:
473,117,66102,1,0,3:0:0:0:
128,37,66256,5,12,3:2:0:0:
408,108,66410,1,0,3:0:0:0:
291,338,66564,1,0,3:0:0:0:
291,338,66641,1,0,3:0:0:0:
291,338,66718,1,4,3:3:0:0:
53,214,66871,1,0,3:0:0:0:
53,214,66948,1,0,3:0:0:0:
53,214,67025,1,0,3:0:0:0:
53,214,67102,1,0,3:0:0:0:
53,214,67179,5,12,3:3:0:0:
223,36,67333,1,0,3:0:0:0:
479,99,67487,1,0,3:0:0:0:
416,336,67641,1,4,3:3:0:0:
172,278,67794,1,0,3:0:0:0:
172,278,67871,1,0,3:0:0:0:
172,278,67948,1,0,3:0:0:0:
172,278,68025,1,0,3:0:0:0:
172,278,68102,5,12,3:3:0:0:
142,12,68256,1,0,3:0:0:0:
453,201,68410,1,0,3:0:0:0:
453,201,68487,1,0,3:0:0:0:
453,201,68564,1,0,3:0:0:0:
162,31,68718,1,0,3:0:0:0:
162,31,68794,1,0,3:0:0:0:
162,31,68871,1,0,3:0:0:0:
162,31,68948,1,0,3:0:0:0:
160,32,69025,2,0,B|247:27|247:27|260:31|260:31|395:32,1,175,8|0,3:3|3:0,3:0:0:0:
472,149,69333,2,4,B|384:159|384:159|372:149|372:149|219:149,1,175,4|0,3:3|3:3,3:3:0:0:
480,352,69641,1,0,3:0:0:0:
32,352,69794,1,0,3:0:0:0:
189,78,69948,6,0,P|151:98|135:138,1,87.5,4|8,3:2|3:3,3:0:0:0:
238,250,70102,2,0,P|275:229|292:189,1,87.5,0|8,3:0|3:3,3:0:0:0:
256,7,70256,6,0,P|216:-10|175:0,1,87.5,0|8,3:0|3:3,3:0:0:0:
0,96,70410,2,0,P|55:169|88:165,1,87.5,4|8,3:3|3:3,3:0:0:0:
154,207,70564,1,0,3:0:0:0:
238,145,70641,1,0,3:0:0:0:
343,149,70718,1,0,3:0:0:0:
410,227,70794,1,0,3:0:0:0:
416,331,70871,6,0,P|373:353|331:354,1,87.5,4|8,3:3|3:3,3:0:0:0:
238,224,71025,2,0,P|285:217|325:230,1,87.5,0|8,3:0|3:3,3:0:0:0:
224,352,71179,6,0,P|175:342|141:318,1,87.5,0|8,3:0|3:3,3:0:0:0:
100,279,71333,1,4,3:3:0:0:
72,222,71410,1,0,3:0:0:0:
77,159,71487,1,0,3:0:0:0:
120,113,71564,1,0,3:0:0:0:
182,105,71641,1,0,3:0:0:0:
241,125,71718,1,0,3:0:0:0:
280,173,71794,6,4,P|310:209|356:218,1,87.5,4|8,3:3|3:3,3:3:0:0:
454,211,71948,2,0,P|424:175|378:165,1,87.5,0|8,3:0|3:3,3:0:0:0:
300,275,72102,6,0,P|344:290|388:274,1,87.5,0|8,3:0|3:3,3:0:0:0:
451,107,72256,2,0,P|406:91|362:107,1,87.5,4|8,3:3|3:3,3:0:0:0:
363,352,72410,6,0,P|409:346|442:312,1,87.5,0|8,3:0|3:3,3:0:0:0:
382,31,72564,2,0,P|335:36|302:70,1,87.5,0|8,3:0|3:3,3:0:0:0:
80,52,72718,5,12,3:2:0:0:
35,355,72871,1,8,3:2:0:0:
175,176,73025,1,8,3:2:0:0:
240,160,73102,1,8,3:2:0:0:
304,112,73179,1,8,3:2:0:0:
384,128,73256,1,8,3:2:0:0:
432,208,73333,1,8,3:2:0:0:
384,288,73410,1,8,3:2:0:0:
304,304,73487,1,8,3:2:0:0:
240,272,73564,1,8,3:2:0:0:
176,256,73641,6,0,L|147:259,1,28,12|12,3:3|3:2,3:0:0:0:
128,32,74557,1,12,3:2:0:0:
256,192,74633,12,0,76732,2:0:0:0:
214,332,77303,6,0,B|273:300|273:300|266:333|266:333|321:272|321:272|316:186|420:162|447:162|447:162|419:127,1,383.600010828553,8|0,3:2|2:0,1:0:0:0:
59,146,78226,1,8,3:2:0:0:
31,342,79149,5,4,3:2:0:0:
60,324,79217,1,8,3:3:0:0:
93,316,79285,1,0,3:0:0:0:
127,315,79353,1,8,3:3:0:0:
160,321,79421,1,4,3:3:0:0:
190,335,79489,1,8,3:3:0:0:
220,350,79558,1,0,3:0:0:0:
253,355,79626,1,8,3:3:0:0:
287,355,79694,1,4,3:3:0:0:
319,346,79762,1,8,3:3:0:0:
349,331,79830,1,0,3:0:0:0:
374,308,79899,5,8,3:2:0:0:
352,281,79967,1,4,3:2:0:0:
322,263,80035,1,8,3:3:0:0:
289,253,80103,1,0,3:0:0:0:
255,251,80171,1,8,3:3:0:0:
220,251,80239,1,4,3:3:0:0:
186,242,80308,1,8,3:3:0:0:
158,222,80376,1,0,3:0:0:0:
139,193,80444,1,8,3:3:0:0:
133,159,80512,1,4,3:3:0:0:
135,125,80580,1,8,3:3:0:0:
152,95,80649,1,0,3:0:0:0:
180,75,80717,1,8,3:3:0:0:
211,64,80785,5,4,3:2:0:0:
221,108,80853,1,8,3:3:0:0:
245,146,80921,1,0,3:0:0:0:
284,168,80989,1,8,3:3:0:0:
329,173,81058,1,4,3:3:0:0:
370,190,81126,1,8,3:3:0:0:
403,221,81194,1,0,3:0:0:0:
419,263,81262,1,8,3:3:0:0:
413,308,81330,1,4,3:3:0:0:
382,342,81399,1,8,3:3:0:0:
339,357,81467,1,0,3:0:0:0:
294,350,81535,1,8,3:3:0:0:
259,326,81603,5,4,3:2:0:0:
274,295,81671,1,8,3:3:0:0:
276,261,81739,1,0,3:0:0:0:
261,229,81808,1,8,3:3:0:0:
236,204,81876,1,4,3:3:0:0:
202,195,81944,1,8,3:3:0:0:
168,201,82012,1,0,3:0:0:0:
139,218,82080,1,8,3:3:0:0:
105,225,82149,1,4,3:3:0:0:
71,221,82217,1,8,3:3:0:0:
39,208,82285,1,0,3:0:0:0:
13,184,82353,1,8,3:3:0:0:
0,155,82421,5,4,3:2:0:0:
22,150,82489,1,8,3:3:0:0:
44,147,82558,1,0,3:0:0:0:
66,145,82626,1,8,3:3:0:0:
88,144,82694,1,4,3:3:0:0:
110,145,82762,1,8,3:3:0:0:
132,147,82830,1,0,3:0:0:0:
154,151,82899,1,8,3:3:0:0:
175,158,82967,1,4,3:3:0:0:
193,170,83035,1,8,3:3:0:0:
210,184,83103,1,0,3:0:0:0:
225,200,83171,1,8,3:3:0:0:
240,216,83239,5,4,3:2:0:0:
255,196,83308,1,8,3:3:0:0:
264,175,83376,1,0,3:0:0:0:
270,153,83444,1,8,3:3:0:0:
273,130,83512,1,4,3:3:0:0:
273,107,83580,1,8,3:3:0:0:
271,90,83649,5,4,3:2:0:0:
319,42,83717,1,8,3:3:0:0:
386,33,83785,1,0,3:0:0:0:
442,70,83853,1,8,3:3:0:0:
461,135,83921,1,0,3:0:0:0:
432,196,83989,1,8,3:3:0:0:
379,236,84058,5,4,3:2:0:0:
357,245,84126,1,8,3:3:0:0:
335,256,84194,1,0,3:0:0:0:
314,265,84262,1,8,3:3:0:0:
293,274,84330,1,0,3:0:0:0:
271,285,84399,1,8,3:3:0:0:
253,294,84467,5,0,3:0:0:0:
210,311,84535,1,8,3:3:0:0:
165,307,84603,1,0,3:0:0:0:
132,273,84671,1,8,3:3:0:0:
122,229,84739,1,0,3:0:0:0:
144,188,84808,1,8,3:3:0:0:
187,177,84876,5,8,3:2:0:0:
467,149,85012,5,0,3:0:0:0:
467,149,85080,1,8,3:3:0:0:
467,149,85149,1,8,3:3:0:0:
117,92,85285,5,0,3:0:0:0:
117,92,85353,1,8,3:3:0:0:
117,92,85421,1,8,3:3:0:0:
369,337,85558,5,0,3:0:0:0:
369,337,85626,1,8,3:3:0:0:
369,337,85694,1,8,3:3:0:0:
441,41,85830,5,0,3:0:0:0:
441,41,85899,1,8,3:3:0:0:
441,41,85967,1,8,3:3:0:0:
441,41,86035,1,8,3:3:0:0:
441,41,86103,1,0,3:0:0:0:
413,72,86171,5,8,3:2:0:0:
385,103,86239,1,8,3:2:0:0:
357,135,86308,1,8,3:2:0:0:
329,166,86376,1,8,3:2:0:0:
301,197,86444,1,8,3:2:0:0:
271,231,86512,6,0,L|217:245,1,35,4|0,1:2|1:0,1:0:0:0:
260,70,86649,2,0,L|237:108,1,35,8|0,1:3|1:0,1:0:0:0:
135,119,86785,2,0,L|133:167,1,35,0|0,1:0|1:0,1:0:0:0:
188,367,86921,6,4,L|168:315,1,35,12|0,1:3|1:3,1:3:0:0:
116,261,87058,2,0,L|115:216,1,35,0|0,1:0|1:0,1:0:0:0:
2,335,87194,2,0,L|19:299,1,35,8|0,1:3|1:0,1:0:0:0:
267,236,87330,6,4,L|299:265,1,35,4|0,1:3|1:3,1:3:0:0:
356,152,87467,2,0,L|397:150,1,35,8|0,1:3|1:0,1:0:0:0:
253,75,87603,2,0,L|257:26,1,35,0|0,1:0|1:0,1:0:0:0:
481,92,87739,5,12,3:3:0:0:
346,358,87876,1,0,3:0:0:0:
0,292,88012,1,8,3:3:0:0:
195,194,88149,5,4,3:2:0:0:
229,164,88217,1,0,3:0:0:0:
248,123,88285,2,0,L|260:72,1,35,8|0,3:3|3:0,3:0:0:0:
337,177,88421,1,0,3:0:0:0:
357,136,88489,1,0,3:0:0:0:
354,90,88558,2,0,L|335:51,1,35,12|0,3:3|3:0,3:0:0:0:
469,154,88694,1,0,3:0:0:0:
483,110,88762,1,0,3:0:0:0:
466,67,88830,2,0,L|421:31,1,35,8|0,3:3|3:0,3:0:0:0:
189,36,88967,5,4,3:3:0:0:
175,97,89035,1,0,3:0:0:0:
192,154,89103,2,0,L|222:181,1,35,8|0,3:3|3:0,3:0:0:0:
87,108,89239,1,0,3:0:0:0:
91,178,89308,1,0,3:0:0:0:
134,229,89376,2,0,L|166:249,1,35,12|0,3:3|3:0,3:0:0:0:
16,236,89512,1,0,3:0:0:0:
46,305,89580,1,0,3:0:0:0:
119,331,89649,2,0,L|159:323,1,35,8|0,3:3|3:0,3:0:0:0:
320,80,89785,5,4,3:2:0:0:
254,59,89853,1,0,3:0:0:0:
192,80,89921,2,0,L|152:105,1,35,8|0,3:3|3:0,3:0:0:0:
288,176,90058,1,0,3:0:0:0:
369,219,90126,1,0,3:0:0:0:
448,176,90194,2,0,L|489:148,1,35,12|0,3:3|3:0,3:0:0:0:
322,333,90330,1,0,3:0:0:0:
220,301,90399,1,0,3:0:0:0:
186,197,90467,2,0,L|180:146,1,35,8|0,3:3|3:0,3:0:0:0:
38,162,90603,6,0,L|89:172,1,35,4|0,3:2|3:0,3:0:0:0:
113,65,90739,2,0,L|126:27,1,35,8|0,3:3|3:0,3:0:0:0:
241,32,90876,2,0,L|266:73,1,35,0|0,3:0|3:0,3:0:0:0:
338,181,91012,6,0,L|358:219,1,35,12|0,3:3|3:0,3:0:0:0:
423,365,91149,2,0,L|369:362,1,35,0|0,3:0|3:0,3:0:0:0:
182,354,91285,2,0,L|234:337,1,35,8|0,3:3|3:0,3:0:0:0:
242,157,91421,6,0,L|200:155,1,35,4|0,3:2|3:0,3:0:0:0:
47,232,91558,1,8,3:3:0:0:
38,187,91626,1,0,3:0:0:0:
51,143,91694,1,0,3:0:0:0:
88,117,91762,1,0,3:0:0:0:
133,116,91830,1,0,3:0:0:0:
176,101,91899,1,0,3:0:0:0:
203,64,91967,1,0,3:0:0:0:
236,33,92035,1,0,3:0:0:0:
280,25,92103,1,0,3:0:0:0:
323,36,92171,1,0,3:0:0:0:
360,62,92239,5,0,3:0:0:0:
464,144,92376,1,8,3:3:0:0:
416,192,92444,1,0,3:0:0:0:
368,240,92512,1,0,3:0:0:0:
208,160,92649,5,8,3:3:0:0:
288,144,92717,1,0,3:0:0:0:
368,128,92785,1,0,3:0:0:0:
192,32,92921,5,8,3:3:0:0:
112,112,92989,1,0,3:0:0:0:
32,192,93058,1,0,3:0:0:0:
32,336,93194,5,8,3:3:0:0:
192,336,93262,1,0,3:0:0:0:
368,336,93331,1,0,3:0:0:0:
256,256,93467,5,0,3:0:0:0:
416,176,93603,1,0,3:0:0:0:
240,16,93740,1,0,3:0:0:0:
512,144,93876,2,0,L|464:112,1,35,12|0,3:3|3:0,3:0:0:0:
462,113,94012,1,0,3:0:0:0:
442,101,94080,1,0,3:0:0:0:
422,88,94149,1,0,3:0:0:0:
402,76,94217,1,0,3:0:0:0:
382,64,94285,1,4,3:3:0:0:
362,52,94353,1,0,3:0:0:0:
316,114,94421,5,0,3:0:0:0:
276,94,94489,1,0,3:0:0:0:
217,147,94558,1,0,3:0:0:0:
228,191,94626,1,0,3:0:0:0:
305,205,94694,6,0,L|348:218,1,35,12|0,3:3|3:0,3:0:0:0:
359,223,94830,1,0,3:0:0:0:
375,238,94899,1,0,3:0:0:0:
382,259,94967,1,0,3:0:0:0:
381,281,95035,1,0,3:0:0:0:
369,300,95103,1,4,3:3:0:0:
348,308,95171,1,0,3:0:0:0:
268,295,95239,6,0,L|252:343,1,35,0|0,3:0|3:0,3:0:0:0:
257,185,95376,2,0,L|273:233,1,35,0|0,3:0|3:0,3:0:0:0:
174,248,95512,6,0,L|149:195,1,35,12|0,3:3|3:0,3:0:0:0:
148,195,95649,1,0,3:0:0:0:
136,175,95717,1,0,3:0:0:0:
119,159,95785,1,0,3:0:0:0:
101,144,95853,1,0,3:0:0:0:
80,133,95921,1,0,3:0:0:0:
58,125,95989,1,0,3:0:0:0:
112,60,96058,5,0,3:0:0:0:
134,27,96126,1,0,3:0:0:0:
222,50,96194,1,0,3:0:0:0:
244,87,96262,1,0,3:0:0:0:
328,133,96330,6,0,L|353:173,1,35,12|0,3:3|3:0,3:0:0:0:
398,259,96466,1,0,3:0:0:0:
411,279,96535,1,0,3:0:0:0:
288,304,96603,6,0,L|288:269,1,35,12|0,3:3|3:0,3:0:0:0:
256,201,96739,1,0,3:0:0:0:
218,200,96808,6,0,L|175:197,1,35,8|0,3:3|3:0,3:0:0:0:
0,163,96944,2,0,L|56:168,1,35,0|0,3:0|3:0,3:0:0:0:
43,251,97080,6,0,L|71:229,1,35,0|12,3:3|3:3,3:0:0:0:
88,214,97217,1,0,3:0:0:0:
103,197,97285,1,0,3:0:0:0:
116,180,97353,1,0,3:0:0:0:
202,155,97421,5,12,3:3:0:0:
193,133,97489,1,0,3:0:0:0:
184,111,97558,1,0,3:0:0:0:
172,91,97626,1,0,3:0:0:0:
159,74,97694,1,8,3:3:0:0:
79,60,97762,2,0,L|64:20,1,35,0|0,3:0|3:0,3:0:0:0:
235,51,97899,6,0,L|274:50,1,35,0|8,3:0|3:3,3:0:0:0:
291,47,98035,1,0,3:0:0:0:
312,40,98103,1,0,3:0:0:0:
334,30,98172,1,0,3:0:0:0:
363,103,98239,5,12,3:3:0:0:
385,98,98308,1,0,3:0:0:0:
407,100,98377,1,0,3:0:0:0:
428,108,98445,1,4,3:3:0:0:
427,203,98512,6,0,L|396:234,1,35,8|0,3:3|3:0,3:0:0:0:
485,326,98649,2,0,L|523:296,1,35,0|0,3:0|3:0,3:0:0:0:
384,333,98785,1,12,3:3:0:0:
338,332,98853,1,0,3:0:0:0:
298,309,98921,1,0,3:0:0:0:
275,268,98989,1,0,3:0:0:0:
202,213,99058,5,12,3:3:0:0:
171,246,99126,1,0,3:0:0:0:
164,290,99194,1,0,3:0:0:0:
138,327,99262,1,0,3:0:0:0:
93,334,99330,1,8,3:3:0:0:
50,315,99399,1,0,3:0:0:0:
35,271,99467,1,0,3:0:0:0:
48,227,99535,1,0,3:0:0:0:
87,204,99603,5,8,3:3:0:0:
288,112,99739,1,0,3:0:0:0:
48,96,99876,1,0,3:0:0:0:
288,112,100012,2,0,B|329:143|329:143|338:116|338:116|254:150,1,140,4|4,3:2|3:3,3:0:0:0:
192,230,100421,6,0,L|204:264,1,35,12|0,3:3|3:3,3:0:0:0:
269,239,100558,1,0,3:0:0:0:
299,272,100626,1,0,3:0:0:0:
344,268,100694,1,0,3:0:0:0:
365,228,100762,1,0,3:3:0:0:
343,188,100830,1,0,3:0:0:0:
340,142,100899,1,0,3:0:0:0:
294,140,100967,6,0,L|229:141,1,35,8|0,3:3|3:3,3:0:0:0:
171,107,101103,1,0,3:0:0:0:
208,80,101171,1,0,3:0:0:0:
294,26,101239,6,8,L|342:31,1,35,12|0,3:3|3:3,3:0:0:0:
363,40,101376,1,0,3:0:0:0:
399,57,101444,1,0,3:0:0:0:
470,103,101512,1,0,3:0:0:0:
451,140,101580,1,0,3:3:0:0:
449,233,101649,1,0,3:0:0:0:
478,268,101717,1,0,3:0:0:0:
495,311,101785,6,0,L|507:366,1,35,8|0,3:3|3:3,3:0:0:0:
375,293,101921,2,0,L|359:325,1,35,0|0,3:0|3:0,3:0:0:0:
368,192,102058,6,0,L|336:176,1,35,12|0,3:3|3:3,3:0:0:0:
295,157,102194,1,0,3:0:0:0:
250,146,102262,1,0,3:0:0:0:
204,144,102330,1,8,3:3:0:0:
176,224,102399,1,0,3:3:0:0:
131,215,102467,1,0,3:0:0:0:
95,187,102535,1,0,3:0:0:0:
107,97,102603,6,0,L|130:69,1,35,8|0,3:3|3:3,3:0:0:0:
232,51,102739,2,0,L|282:44,1,35,0|0,3:0|3:0,3:0:0:0:
365,86,102876,6,0,L|377:119,1,35,12|0,3:3|3:3,3:0:0:0:
435,124,103012,1,0,3:0:0:0:
468,154,103080,1,0,3:0:0:0:
468,248,103149,6,0,L|433:262,1,35,12|0,3:3|3:3,3:0:0:0:
403,267,103285,1,0,3:0:0:0:
364,258,103353,1,0,3:0:0:0:
202,313,103421,5,12,3:3:0:0:
237,341,103489,1,0,3:3:0:0:
282,338,103558,2,0,L|336:330,1,35,0|0,3:0|3:0,3:0:0:0:
409,198,103694,1,12,3:3:0:0:
367,178,103762,1,0,3:3:0:0:
321,180,103830,2,0,L|269:188,1,35,0|0,3:0|3:0,3:0:0:0:
272,262,103967,5,12,3:3:0:0:
232,240,104035,1,8,3:3:0:0:
151,248,104103,2,0,L|126:273,1,35,0|0,3:0|3:0,3:0:0:0:
54,343,104239,1,8,3:3:0:0:
54,296,104308,1,8,3:3:0:0:
55,250,104376,1,0,3:0:0:0:
56,204,104444,1,0,3:0:0:0:
68,81,104512,5,12,3:3:0:0:
113,80,104580,1,0,3:3:0:0:
159,81,104649,2,0,L|211:81,1,35,0|0,3:0|3:0,3:0:0:0:
345,57,104785,1,12,3:3:0:0:
312,89,104853,1,0,3:3:0:0:
279,121,104921,2,0,L|236:163,1,35,0|0,3:0|3:0,3:0:0:0:
191,202,105058,5,12,3:3:0:0:
143,218,105126,1,0,3:3:0:0:
144,288,105194,2,0,L|192:304,1,35,0|0,3:0|3:0,3:0:0:0:
303,259,105331,1,12,3:3:0:0:
331,252,105399,1,0,3:3:0:0:
362,224,105467,1,0,3:0:0:0:
371,197,105535,1,0,3:0:0:0:
254,152,105603,5,12,3:3:0:0:
243,123,105671,1,0,3:3:0:0:
225,103,105739,2,0,L|186:69,5,35,0|0|0|0|0|0,3:0|3:0|3:0|3:3|3:0|3:0,3:0:0:0:
121,85,106149,5,8,3:0:0:0:
174,10,106217,1,0,3:0:0:0:
266,19,106285,1,0,3:0:0:0:
302,103,106353,1,0,3:0:0:0:
249,178,106421,1,0,3:0:0:0:
157,168,106489,1,0,3:0:0:0:
69,156,106558,6,0,B|39:203|39:203|43:217|43:217|27:261,1,105.000004005432,4|0,3:2|3:0,3:0:0:0:
293,297,106967,6,0,B|278:255|278:255|295:251|295:251|299:245,1,65.3333313395183,4|0,3:3|3:0,3:0:0:0:
378,84,107395,5,12,3:3:0:0:
473,143,107538,2,0,L|441:159,1,32.6666656697591,0|0,3:0|3:0,3:0:0:0:
378,84,107824,1,12,3:3:0:0:
308,176,107967,2,0,L|338:165,1,32.6666656697591,0|0,3:0|3:0,3:0:0:0:
214,226,108252,1,12,3:3:0:0:
265,323,108395,2,0,L|226:329,1,32.6666656697591,0|0,3:0|3:0,3:0:0:0:
128,347,108681,5,12,1:3:0:0:
120,339,108734,1,0,1:0:0:0:
112,329,108788,1,0,1:0:0:0:
105,320,108842,1,0,1:0:0:0:
96,312,108895,1,0,1:0:0:0:
88,304,108949,1,0,1:0:0:0:
80,295,109002,1,0,1:0:0:0:
71,287,109056,1,0,1:0:0:0:
64,279,109109,5,12,1:3:0:0:
107,271,109163,1,0,1:0:0:0:
150,264,109217,1,0,1:0:0:0:
192,257,109270,1,0,1:0:0:0:
235,250,109324,1,0,1:0:0:0:
277,243,109377,1,0,1:0:0:0:
320,236,109431,1,0,1:0:0:0:
362,229,109484,1,0,1:0:0:0:
405,222,109538,5,12,1:3:0:0:
362,211,109592,1,0,1:0:0:0:
319,200,109645,1,0,1:0:0:0:
276,189,109699,1,0,1:0:0:0:
233,179,109752,1,0,1:0:0:0:
190,168,109806,1,0,1:0:0:0:
147,158,109859,1,0,1:0:0:0:
103,148,109913,1,0,1:0:0:0:
59,139,109967,5,12,1:3:0:0:
71,116,110020,1,0,1:0:0:0:
83,92,110074,1,0,1:0:0:0:
95,69,110127,1,0,1:0:0:0:
107,45,110181,1,0,1:0:0:0:
120,23,110234,1,0,1:0:0:0:
144,32,110288,1,0,1:0:0:0:
168,42,110342,1,0,1:0:0:0:
191,53,110395,6,0,B|241:49|229:94|229:94|304:64,1,140.000005340576,12|8,3:3|3:3,3:0:0:0:
411,0,110824,5,12,3:3:0:0:
407,227,110967,1,0,3:0:0:0:
466,125,111109,1,0,3:0:0:0:
321,173,111252,5,12,3:3:0:0:
411,0,111395,2,0,L|370:73,1,70.0000026702882,0|0,3:0|3:0,3:0:0:0:
321,173,111681,1,12,3:3:0:0:
124,137,111824,2,0,L|203:152,1,70.0000026702882,0|0,3:0|3:0,3:0:0:0:
321,173,112109,5,8,1:3:0:0:
362,189,112163,1,0,1:0:0:0:
387,224,112217,1,0,1:0:0:0:
391,268,112270,1,0,1:0:0:0:
372,308,112324,1,0,1:0:0:0:
337,334,112377,1,0,1:0:0:0:
293,335,112431,1,0,1:0:0:0:
252,318,112484,1,0,1:0:0:0:
223,284,112538,5,12,1:3:0:0:
210,283,112592,1,0,1:0:0:0:
197,282,112645,1,0,1:0:0:0:
184,282,112699,1,0,1:0:0:0:
171,282,112752,1,0,1:0:0:0:
158,282,112806,1,0,1:0:0:0:
145,282,112859,1,0,1:0:0:0:
132,282,112913,1,0,1:0:0:0:
119,282,112966,5,8,1:3:0:0:
125,271,113020,1,0,1:0:0:0:
131,260,113074,1,0,1:0:0:0:
137,249,113127,1,0,1:0:0:0:
143,238,113181,1,0,1:0:0:0:
149,227,113234,1,0,1:0:0:0:
155,216,113288,1,0,1:0:0:0:
161,205,113341,1,0,1:0:0:0:
167,194,113395,5,12,1:3:0:0:
135,163,113449,1,0,1:0:0:0:
115,124,113502,1,0,1:0:0:0:
118,80,113556,1,0,1:0:0:0:
140,42,113609,1,0,1:0:0:0:
180,25,113663,1,0,1:0:0:0:
223,28,113716,1,0,1:0:0:0:
262,46,113770,1,0,1:0:0:0:
291,85,113824,6,0,P|302:128|343:163,1,70,4|8,3:2|3:3,3:0:0:0:
457,319,113966,2,0,P|436:285|406:269,1,70,0|8,3:3|3:3,3:0:0:0:
225,153,114109,6,0,P|255:179|300:183,1,70,4|8,3:2|3:3,3:0:0:0:
483,207,114252,2,0,P|443:207|414:222,1,70,0|8,3:3|3:3,3:0:0:0:
241,270,114395,6,0,P|278:256|305:220,1,70,0|8,3:0|3:3,3:0:0:0:
448,144,114538,2,0,P|410:156|387:179,1,70,0|8,3:3|3:3,3:0:0:0:
154,359,114681,6,0,P|120:378|81:385,1,70,4|8,3:2|3:3,3:0:0:0:
208,130,114824,2,0,P|247:133|289:147,1,70,0|8,3:3|3:3,3:0:0:0:
108,306,114966,6,0,P|69:312|30:305,1,70,4|8,3:2|3:3,3:0:0:0:
237,109,115109,2,0,P|272:125|307:152,1,70,0|8,3:3|3:3,3:0:0:0:
84,241,115252,6,0,P|45:233|11:213,1,70,0|8,3:0|3:3,3:0:0:0:
272,100,115395,2,0,P|299:127|323:165,1,70,0|8,3:3|3:3,3:0:0:0:
47,53,115538,6,0,P|93:52|131:30,1,70,4|8,3:2|3:3,3:0:0:0:
317,38,115681,2,0,P|272:40|232:59,1,70,0|8,3:3|3:3,3:0:0:0:
44,56,115824,6,0,P|90:54|128:32,1,70,4|8,3:2|3:3,3:0:0:0:
314,36,115966,2,0,P|269:39|229:59,1,70,0|8,3:3|3:3,3:0:0:0:
42,60,116109,6,0,P|88:57|125:34,1,70,4|8,3:2|3:3,3:0:0:0:
311,35,116252,2,0,P|266:39|227:59,1,70,0|8,3:3|3:3,3:0:0:0:
223,65,116395,1,4,3:3:0:0:
203,81,116466,1,0,3:3:0:0:
188,103,116538,1,0,3:0:0:0:
175,125,116609,1,0,3:0:0:0:
165,149,116681,1,0,3:0:0:0:
155,173,116752,1,0,3:0:0:0:
153,199,116824,5,0,3:0:0:0:
202,183,116895,1,0,3:0:0:0:
254,178,116966,1,0,3:0:0:0:
304,195,117038,1,0,3:0:0:0:
345,226,117109,1,0,3:0:0:0:
376,268,117181,1,0,3:0:0:0:
391,321,117254,6,0,B|318:286|273:325|273:325|300:334|300:334,1,140.000005340576,4|0,3:2|3:0,3:0:0:0:
118,323,117682,5,12,3:3:0:0:
42,106,117825,2,0,L|77:36,1,70.0000026702882,0|0,3:0|3:0,3:0:0:0:
118,323,118111,1,12,3:3:0:0:
250,114,118254,2,0,L|238:42,1,70.0000026702882,0|0,3:0|3:0,3:0:0:0:
118,323,118539,1,12,3:3:0:0:
445,55,118682,2,0,L|365:39,1,70.0000026702882,0|0,3:0|3:0,3:0:0:0:
134,40,118968,5,12,1:3:0:0:
105,72,119021,1,0,1:0:0:0:
86,112,119075,1,0,1:0:0:0:
78,155,119129,1,0,1:0:0:0:
79,198,119182,1,0,1:0:0:0:
92,239,119236,1,0,1:0:0:0:
113,276,119289,1,0,1:0:0:0:
146,304,119343,1,0,1:0:0:0:
184,323,119396,5,12,1:3:0:0:
188,311,119450,1,0,1:0:0:0:
192,299,119504,1,0,1:0:0:0:
196,287,119557,1,0,1:0:0:0:
200,275,119611,1,0,1:0:0:0:
204,263,119664,1,0,1:0:0:0:
208,251,119718,1,0,1:0:0:0:
212,239,119771,1,0,1:0:0:0:
216,227,119825,5,12,1:3:0:0:
228,229,119879,1,0,1:0:0:0:
239,231,119932,1,0,1:0:0:0:
251,233,119986,1,0,1:0:0:0:
262,235,120039,1,0,1:0:0:0:
274,237,120093,1,0,1:0:0:0:
285,239,120146,1,0,1:0:0:0:
297,241,120200,1,0,1:0:0:0:
309,243,120254,5,12,1:3:0:0:
328,290,120307,1,0,1:0:0:0:
371,320,120361,1,0,1:0:0:0:
422,320,120414,1,0,1:0:0:0:
466,290,120468,1,0,1:0:0:0:
482,240,120521,1,0,1:0:0:0:
467,189,120575,1,0,1:0:0:0:
421,162,120629,1,0,1:0:0:0:
368,163,120682,6,8,B|327:111|267:141|267:141|286:106,1,140.000005340576,12|8,3:3|3:3,3:3:0:0:
331,14,121111,5,12,3:3:0:0:
0,128,121254,2,0,L|83:117,1,70.0000026702882,0|0,3:0|3:0,3:0:0:0:
380,85,121539,1,12,3:3:0:0:
0,65,121682,2,8,L|74:82,1,70.0000026702882,0|8,3:3|3:3,3:3:0:0:
431,156,121968,1,12,3:3:0:0:
0,0,122111,2,8,L|62:42,1,70.0000026702882,8|8,3:3|3:3,3:3:0:0:
155,109,122396,5,8,1:3:0:0:
188,149,122449,1,0,1:0:0:0:
185,200,122503,1,0,1:0:0:0:
155,243,122556,1,0,1:0:0:0:
156,293,122610,1,0,1:0:0:0:
192,330,122663,1,0,1:3:0:0:
246,333,122717,1,8,1:3:0:0:
286,298,122771,1,0,1:0:0:0:
339,297,122825,5,4,1:3:0:0:
390,286,122879,1,0,1:0:0:0:
425,247,122932,1,0,1:0:0:0:
433,194,122986,1,8,1:3:0:0:
408,147,123039,1,0,1:3:0:0:
361,120,123093,1,0,1:3:0:0:
309,123,123146,1,0,1:3:0:0:
270,159,123200,1,0,1:3:0:0:
237,200,123253,5,8,1:3:0:0:
224,200,123307,1,0,1:0:0:0:
211,200,123361,1,0,1:0:0:0:
198,200,123414,1,0,1:0:0:0:
185,200,123468,1,0,1:0:0:0:
172,200,123521,1,0,1:0:0:0:
159,201,123575,1,0,1:0:0:0:
146,202,123628,1,0,1:0:0:0:
133,202,123682,5,12,1:3:0:0:
103,182,123736,1,0,1:0:0:0:
90,149,123789,1,0,1:0:0:0:
95,114,123843,1,0,1:0:0:0:
114,85,123896,1,0,1:0:0:0:
146,70,123950,1,0,1:0:0:0:
180,71,124003,1,0,1:0:0:0:
210,88,124057,1,0,1:0:0:0:
231,116,124112,6,0,P|259:141|272:172,1,70,12|8,3:3|3:3,3:0:0:0:
365,285,124254,2,0,P|332:262|320:230,1,70,0|8,3:0|3:3,3:0:0:0:
301,96,124397,6,0,L|299:169,1,70,4|8,3:2|3:3,3:0:0:0:
298,310,124540,2,0,L|299:239,1,70,0|8,3:0|3:3,3:0:0:0:
366,118,124683,6,0,P|336:139|322:174,1,70,0|8,3:0|3:3,3:0:0:0:
234,285,124826,2,0,P|265:262|280:229,1,70,0|8,3:0|3:3,3:0:0:0:
465,53,124969,6,0,P|419:52|381:30,1,70,4|8,3:2|3:3,3:0:0:0:
195,38,125112,2,0,P|240:40|280:59,1,70,0|8,3:0|3:3,3:0:0:0:
457,42,125254,6,0,P|411:43|372:23,1,70,4|8,3:2|3:3,3:0:0:0:
187,41,125397,2,0,P|232:41|273:57,1,70,0|8,3:0|3:3,3:0:0:0:
449,31,125540,6,0,P|403:35|363:17,1,70,0|8,3:0|3:3,3:0:0:0:
179,45,125683,2,8,P|224:42|265:57,1,70,0|8,3:3|3:3,3:3:0:0:
329,342,125826,6,0,P|312:298|319:250,1,70,4|8,3:2|3:3,3:0:0:0:
281,146,125969,2,0,P|296:181|295:226,1,70,0|8,3:0|3:3,3:0:0:0:
329,342,126112,6,0,P|338:301|364:270,1,70,4|8,3:2|3:3,3:0:0:0:
415,153,126254,2,0,P|405:192|379:226,1,70,0|8,3:0|3:3,3:0:0:0:
329,342,126397,6,0,P|352:312|389:288,1,70,4|8,3:2|3:3,3:0:0:0:
496,208,126540,2,0,P|477:237|434:262,1,70,0|8,3:0|3:3,3:0:0:0:
421,273,126683,5,4,3:2:0:0:
404,279,126754,1,0,3:0:0:0:
386,281,126826,1,0,3:0:0:0:
368,280,126897,1,0,3:0:0:0:
350,276,126969,1,0,3:0:0:0:
333,269,127040,1,0,3:0:0:0:
317,260,127112,5,8,3:3:0:0:
312,207,127183,1,0,3:0:0:0:
294,157,127254,1,0,3:0:0:0:
259,117,127326,1,0,3:0:0:0:
209,99,127397,1,0,3:0:0:0:
156,97,127469,1,0,3:0:0:0:
108,117,127540,5,0,3:0:0:0:
169,308,127683,1,0,3:0:0:0:
423,303,127826,1,4,3:2:0:0:
445,255,127897,1,0,3:0:0:0:
447,202,127969,1,0,3:0:0:0:
429,152,128040,1,0,3:0:0:0:
400,107,128112,5,12,3:3:0:0:
375,152,128183,1,0,3:0:0:0:
335,186,128254,1,0,3:0:0:0:
286,207,128326,1,0,3:0:0:0:
234,212,128397,5,4,3:2:0:0:
155,41,128540,1,0,3:0:0:0:
54,217,128683,1,4,3:3:0:0:
105,227,128754,1,0,3:0:0:0:
148,256,128826,1,0,3:0:0:0:
179,297,128897,1,0,3:0:0:0:
206,342,128969,5,12,3:3:0:0:
213,290,129040,1,0,3:0:0:0:
238,243,129112,1,0,3:0:0:0:
279,211,129183,1,0,3:0:0:0:
329,199,129254,5,4,3:2:0:0:
290,43,129397,1,8,3:2:0:0:
93,65,129540,1,8,3:2:0:0:
420,75,129683,1,8,3:2:0:0:
93,65,129826,1,8,3:2:0:0:
420,75,129969,1,8,3:2:0:0:
93,65,130112,5,4,3:2:0:0:
111,113,130183,1,0,3:0:0:0:
158,134,130254,1,0,3:0:0:0:
207,114,130326,1,0,3:0:0:0:
243,76,130397,1,0,3:0:0:0:
293,60,130469,1,0,3:0:0:0:
344,67,130540,1,12,3:3:0:0:
383,102,130612,1,0,3:0:0:0:
398,151,130683,1,0,3:0:0:0:
384,201,130754,1,0,3:0:0:0:
344,236,130826,1,0,3:0:0:0:
293,247,130897,1,0,3:0:0:0:
237,237,130969,6,0,P|198:228|153:239,1,70,12|0,1:3|1:0,1:0:0:0:
108,250,131254,5,0,1:0:0:0:
160,215,131326,1,0,1:0:0:0:
206,163,131397,2,0,P|241:123|256:89,1,70,12|12,1:3|1:3,1:0:0:0:
287,29,131683,5,12,1:3:0:0:
322,80,131754,1,4,1:2:0:0:
375,113,131826,2,0,P|395:129|421:136,1,46.6666666666667,12|12,1:3|1:3,1:0:0:0:
512,158,132111,1,12,3:3:0:0:
356,222,132254,5,12,1:3:0:0:
409,241,132326,1,0,1:0:0:0:
447,248,132397,1,8,1:3:0:0:
453,286,132469,1,4,1:2:0:0:
486,301,132540,1,8,1:3:0:0:
500,341,132611,1,4,1:3:0:0:
393,353,132683,5,12,1:3:0:0:
384,310,132754,1,0,1:0:0:0:
331,308,132826,1,8,1:3:0:0:
318,267,132897,1,0,1:0:0:0:
279,281,132969,1,0,1:0:0:0:
251,238,133040,1,0,1:0:0:0:
356,200,133111,5,8,1:3:0:0:
404,162,133183,1,0,1:0:0:0:
406,101,133254,1,8,1:3:0:0:
370,51,133326,1,0,1:0:0:0:
312,33,133397,1,4,1:2:0:0:
257,61,133469,1,0,1:0:0:0:
171,125,133540,5,12,1:3:0:0:
174,180,133611,1,0,1:0:0:0:
139,224,133683,1,8,1:3:0:0:
84,233,133754,1,0,1:0:0:0:
31,211,133826,1,8,1:3:0:0:
8,160,133897,1,0,1:0:0:0:
21,105,133969,6,8,L|67:104,1,46.6666666666667,12|8,1:2|1:2,1:2:0:0:
314,95,134254,1,8,3:3:0:0:
191,107,134397,5,12,3:3:0:0:
273,191,134540,1,8,3:3:0:0:
391,169,134683,1,8,3:3:0:0:
450,0,134826,5,12,3:3:0:0:
314,95,134969,1,8,3:3:0:0:
443,232,135111,2,0,L|451:237,1,9.33333333333333,12|0,3:3|3:0,3:0:0:0:
231,353,135254,6,0,L|242:351,1,9.33333333333333,12|0,3:3|3:0,3:0:0:0:
227,281,135397,2,0,L|217:278,1,9.33333333333333,12|0,3:3|3:0,3:0:0:0:
142,277,135540,2,0,L|149:271,1,9.33333333333333,12|0,3:3|3:0,3:0:0:0:
171,204,135683,6,0,L|159:200,1,9.33333333333333,12|0,3:3|3:0,3:0:0:0:
111,133,135826,2,0,L|121:127,1,9.33333333333333,12|0,3:3|3:0,3:0:0:0:
202,111,135969,2,0,L|194:105,1,9.33333333333333,12|0,3:3|3:0,3:0:0:0:
425,216,136111,1,8,1:3:0:0:
421,210,136183,1,0,1:0:0:0:
417,204,136254,1,8,1:3:0:0:
353,179,136326,5,0,1:0:0:0:
349,173,136397,1,0,1:0:0:0:
345,167,136469,1,0,1:0:0:0:
374,110,136540,5,8,1:3:0:0:
370,104,136612,1,0,1:0:0:0:
366,98,136683,1,8,1:3:0:0:
302,87,136755,5,0,1:0:0:0:
298,81,136826,1,4,1:3:0:0:
294,75,136898,1,0,1:0:0:0:
237,140,136969,5,12,1:3:0:0:
227,187,137040,1,0,1:0:0:0:
244,241,137111,1,8,1:3:0:0:
231,295,137183,1,0,1:0:0:0:
193,336,137254,1,8,1:3:0:0:
139,352,137326,1,0,1:0:0:0:
84,340,137397,1,12,1:3:0:0:
44,302,137469,1,0,1:0:0:0:
27,248,137540,1,8,1:3:0:0:
40,194,137611,1,0,1:0:0:0:
78,152,137683,1,8,1:3:0:0:
100,100,137754,1,0,1:0:0:0:
100,44,137826,6,0,B|130:41|130:41|153:56|193:51,1,93.3333333333333,12|0,1:3|1:0,1:0:0:0:
414,38,138111,1,0,3:0:0:0:
414,38,138183,1,0,3:0:0:0:
414,38,138254,1,4,3:3:0:0:
315,165,138397,1,0,3:0:0:0:
361,338,138540,1,0,3:0:0:0:
183,272,138683,6,0,L|142:245,2,46.6666666666667,8|0|0,3:3|3:0|3:0,3:0:0:0:
124,134,139111,2,0,L|168:163,2,46.6666666666667,0|0|0,3:0|3:0|3:0,3:0:0:0:
268,11,139540,6,0,L|279:10,1,11.6666666666667,0|0,3:0|3:0,3:0:0:0:
3,195,139683,2,0,L|1:184,1,11.6666666666667,0|0,3:0|3:0,3:0:0:0:
145,16,139826,6,0,L|157:12,1,11.6666666666667,0|0,3:0|3:0,3:0:0:0:
0,59,139969,2,0,L|14:56,1,11.6666666666667,0|0,3:0|3:0,3:0:0:0:
108,199,140111,5,0,3:0:0:0:
252,176,140254,2,0,L|265:170,1,11.6666666666667,0|0,3:0|3:0,3:0:0:0:
17,303,140397,6,0,L|31:306,1,11.6666666666667,8|0,3:3|3:0,3:0:0:0:
95,115,140540,2,0,L|110:117,1,11.6666666666667,4|0,3:2|3:0,3:0:0:0:
144,384,140683,1,0,3:0:0:0:
249,182,140826,6,0,L|236:182,1,11.6666666666667,4|0,3:2|3:0,3:0:0:0:
512,261,140969,2,0,L|499:264,1,11.6666666666667,4|0,3:2|3:0,3:0:0:0:
291,356,141111,1,4,3:3:0:0:
415,137,141254,5,4,1:2:0:0:
425,96,141326,1,0,1:0:0:0:
416,54,141397,1,0,1:0:0:0:
383,25,141469,1,0,1:0:0:0:
340,24,141540,1,0,1:0:0:0:
303,42,141611,1,0,1:0:0:0:
283,81,141683,5,4,1:3:0:0:
280,164,141754,1,0,1:0:0:0:
222,226,141826,1,0,1:0:0:0:
138,229,141897,1,0,1:0:0:0:
71,177,141969,1,0,1:0:0:0:
62,93,142040,1,0,1:0:0:0:
106,22,142111,6,0,P|141:13|182:24,1,70.0000026702882,8|0,1:3|1:0,1:0:0:0:
210,124,142397,1,0,3:3:0:0:
448,64,142540,6,0,P|440:97|416:128,1,70.0000026702882,0|0,1:0|1:0,1:0:0:0:
288,224,142683,2,0,P|301:186|336:160,1,70.0000026702882,0|0,1:0|1:0,1:0:0:0:
452,70,142826,2,0,P|442:106|418:133,1,70.0000026702882,0|0,1:0|1:0,1:0:0:0:
286,225,142968,2,0,P|294:187|337:162,1,70.0000026702882,0|0,1:0|1:0,1:0:0:0:
456,77,143111,2,0,P|447:110|420:139,1,70.0000026702882,0|0,1:0|1:0,1:0:0:0:
285,226,143254,2,0,P|283:199|338:165,1,70.0000026702882,0|0,1:0|1:0,1:0:0:0:
456,77,143397,5,0,3:0:0:0:
462,235,143540,1,0,3:0:0:0:
285,225,143683,1,0,3:0:0:0:
285,225,143754,1,0,3:0:0:0:
285,225,143826,1,8,3:3:0:0:
233,362,143968,1,0,3:0:0:0:
399,321,144111,6,0,L|369:321,1,26.1333336523438,0|8,1:0|1:3,1:0:0:0:
428,254,144397,2,0,L|340:254,1,81.2000006814575,0|0,1:0|1:0,1:0:0:0:
20,366,144683,5,4,3:2:0:0:
183,11,144826,1,0,3:0:0:0:
152,314,144968,1,0,3:0:0:0:
2,51,145111,1,0,3:0:0:0:
248,369,145254,1,0,3:0:0:0:
401,14,145397,1,0,3:0:0:0:
478,188,145540,5,4,3:2:0:0:
199,8,145683,1,0,3:0:0:0:
138,359,145826,1,0,3:0:0:0:
0,81,145968,1,0,3:0:0:0:
333,364,146111,1,0,3:0:0:0:
422,17,146254,1,0,3:0:0:0:
6,206,146397,5,4,3:2:0:0:
267,12,146540,1,0,3:0:0:0:
256,368,146683,1,0,3:0:0:0:
121,63,146826,2,0,P|86:38|117:76,1,140.000005340576,0|0,1:0|1:0,1:0:0:0:
352,0,147111,1,0,1:0:0:0:
61,254,147254,2,0,P|71:358|145:318,1,186.666666666667,4|0,1:2|1:0,1:0:0:0:
496,176,147540,1,0,1:0:0:0:
108,169,147683,2,0,P|49:32|192:76,1,373.333333333333,0|4,1:0|1:3,1:0:0:0:
320,368,147968,1,0,1:0:0:0:
320,48,148111,6,0,B|353:32|405:64|405:64|426:50|426:50|452:79,1,140.000005340576,4|0,1:2|1:0,2:0:0:0:
512,165,148397,1,0,3:0:0:0:
120,1,148540,1,0,3:0:0:0:
46,383,148683,1,4,3:2:0:0:
512,253,148826,1,0,3:0:0:0:
200,5,148968,1,4,3:3:0:0:
380,363,149111,5,0,3:0:0:0:
12,167,149254,1,4,3:3:0:0:
331,4,149397,1,0,3:0:0:0:
430,371,149540,1,4,3:2:0:0:
5,109,149683,1,0,3:0:0:0:
384,64,149826,5,4,1:2:0:0:
457,104,149897,1,8,1:3:0:0:
462,187,149968,1,0,1:0:0:0:
409,253,150040,1,8,1:3:0:0:
325,257,150111,1,0,1:0:0:0:
268,193,150183,1,8,1:3:0:0:
320,127,150254,5,4,1:2:0:0:
281,54,150326,1,8,1:3:0:0:
204,20,150397,1,0,1:0:0:0:
124,43,150468,1,8,1:3:0:0:
83,117,150540,1,0,1:0:0:0:
109,196,150611,1,8,1:3:0:0:
161,261,150683,5,4,1:2:0:0:
146,142,150754,1,8,1:3:0:0:
220,57,150826,1,0,1:0:0:0:
331,52,150897,1,8,1:3:0:0:
410,129,150968,1,0,1:0:0:0:
402,241,151040,1,8,1:3:0:0:
316,312,151111,6,0,P|300:256|277:223,1,93.3333333333333,0|8,1:3|1:3,1:0:0:0:
183,165,151254,2,0,P|209:210|219:257,1,93.3333333333333,0|8,1:0|1:3,1:0:0:0:
181,338,151397,2,0,P|171:288|135:239,1,93.3333333333333,0|8,1:0|1:3,1:0:0:0:
42,118,151540,2,0,B|31:192|74:265|137:310|226:349|320:363|403:317|403:317|358:309|332:281|332:281,1,560,4|8,1:2|3:3,1:0:0:0:
108,63,152111,1,8,3:3:0:0:
482,152,152254,1,12,3:3:0:0:
213,1,152397,5,12,3:3:0:0:
213,1,152468,1,0,3:3:0:0:
213,1,152540,1,0,3:3:0:0:
512,264,152682,1,8,3:3:0:0:
290,115,152825,1,8,3:3:0:0:
58,347,152968,1,12,3:3:0:0:
209,91,153111,1,12,3:3:0:0:
486,297,153254,5,8,1:3:0:0:
51,14,153397,1,8,1:3:0:0:
183,384,153540,1,8,1:3:0:0:
480,0,153683,5,12,1:3:0:0:
0,137,153826,1,12,1:3:0:0:
416,384,153968,1,12,1:3:0:0:
287,103,154111,5,12,1:3:0:0:
224,48,154183,1,0,1:0:0:0:
139,56,154254,1,8,1:3:0:0:
82,119,154326,1,0,1:0:0:0:
90,202,154397,1,8,1:3:0:0:
153,256,154468,1,0,1:0:0:0:
239,248,154540,5,12,1:3:0:0:
286,147,154611,1,0,1:0:0:0:
398,133,154683,1,8,1:3:0:0:
481,206,154754,1,0,1:0:0:0:
474,318,154826,1,8,1:3:0:0:
381,380,154897,1,0,1:0:0:0:
272,352,154968,5,12,1:3:0:0:
272,4,155111,1,0,1:0:0:0:
67,285,155254,1,8,1:3:0:0:
398,178,155397,1,12,1:3:0:0:
67,70,155540,1,12,1:3:0:0:
272,352,155683,1,12,1:3:0:0:
160,7,155826,5,8,1:2:0:0:
272,352,155968,1,0,1:0:0:0:
384,7,156111,1,8,1:3:0:0:
65,232,156254,1,12,1:3:0:0:
484,232,156397,1,12,1:3:0:0:
160,0,156540,1,12,1:3:0:0:
112,304,156683,6,0,L|205:258,1,87.5000033378602,0|0,1:0|3:0,1:0:0:0:
77,166,156968,2,0,L|245:167,1,140.000005340576,0|0,1:0|3:0,1:0:0:0:
352,64,157218,2,0,L|278:295,1,210.000008010865,0|0,1:0|3:0,1:0:0:0:
455,255,157542,2,0,L|391:255,1,56,0|0,1:0|3:0,1:0:0:0:
455,319,157951,2,0,L|423:319,1,27.9999991455078,0|0,1:0|3:0,1:0:0:0:
314,321,158360,5,4,3:2:0:0:
293,296,158428,1,8,3:3:0:0:
267,278,158496,1,0,3:0:0:0:
237,268,158564,1,8,3:3:0:0:
206,261,158632,5,4,3:3:0:0:
230,240,158701,1,8,3:3:0:0:
246,213,158769,1,0,3:0:0:0:
244,181,158837,1,8,3:3:0:0:
231,152,158905,5,4,3:3:0:0:
292,141,158973,1,8,3:3:0:0:
351,164,159042,1,0,3:0:0:0:
386,211,159110,1,8,3:3:0:0:
398,269,159178,2,0,L|441:269,3,26.2500010013581,4|8|0|8,3:2|3:3|3:0|3:3,3:0:0:0:
131,323,159451,2,0,L|174:323,3,26.2500010013581,4|8|0|8,3:3|3:3|3:0|3:3,3:0:0:0:
186,310,159723,5,4,3:3:0:0:
206,285,159792,1,8,3:3:0:0:
206,253,159860,1,0,3:0:0:0:
190,225,159928,1,8,3:3:0:0:
166,204,159996,2,0,L|126:203,3,26.2500010013581,4|8|0|8,3:2|3:3|3:0|3:3,3:0:0:0:
78,151,160269,2,0,L|38:150,3,26.2500010013581,4|8|0|8,3:3|3:3|3:0|3:3,3:0:0:0:
83,257,160542,2,0,L|43:256,3,26.2500010013581,4|8|0|8,3:3|3:3|3:0|3:3,3:0:0:0:
224,208,160814,5,12,3:2:0:0:
160,320,160951,1,0,3:0:0:0:
438,301,161087,1,8,3:3:0:0:
428,195,161155,1,0,3:0:0:0:
344,133,161223,1,0,3:0:0:0:
200,81,161360,5,8,3:3:0:0:
291,27,161428,1,8,3:3:0:0:
388,65,161496,1,8,3:3:0:0:
512,129,161632,5,8,3:3:0:0:
410,139,161700,1,0,3:3:0:0:
339,216,161769,1,0,3:0:0:0:
225,331,161905,6,0,L|214:283,1,26.2500010013581,8|8,3:3|3:3,3:0:0:0:
436,351,162042,2,0,L|446:384,1,26.2500010013581,0|8,3:0|3:3,3:0:0:0:
251,193,162178,2,0,L|251:161,1,26.2500010013581,0|8,3:0|3:3,3:0:0:0:
490,193,162314,2,0,L|479:226,1,26.2500010013581,0|8,3:0|3:3,3:0:0:0:
309,27,162451,2,0,L|260:27,1,43.75,0|8,0:0|0:3,0:0:0:0:
347,59,162587,2,0,L|288:58,1,43.75,0|8,0:0|0:3,0:0:0:0:
155,39,162723,6,0,P|136:60|113:73,1,52.5000020027161,0|8,3:0|3:3,3:0:0:0:
34,114,162859,6,0,P|45:88|46:62,1,52.5000020027161,4|8,3:2|3:3,3:0:0:0:
224,73,162995,6,0,P|207:92|183:107,1,52.5000020027161,0|8,3:0|3:3,3:0:0:0:
94,189,163132,6,0,P|101:161|98:136,1,52.5000020027161,0|8,3:0|3:3,3:0:0:0:
297,101,163269,6,0,P|280:120|255:135,1,52.5000020027161,4|8,3:2|3:3,3:0:0:0:
159,252,163405,6,0,P|158:279|173:301,1,52.5000020027161,0|8,3:0|3:3,3:0:0:0:
344,328,163542,6,0,P|366:315|383:284,1,52.5000020027161,0|8,3:0|3:3,3:0:0:0:
382,48,163678,6,0,P|402:64|415:86,1,52.5000020027161,0|8,3:0|3:3,3:0:0:0:
473,327,163814,6,0,P|454:348|432:360,1,52.5000020027161,0|8,3:0|3:3,3:0:0:0:
73,325,163951,6,0,P|61:302|58:277,1,52.5000020027161,0|8,3:0|3:3,3:0:0:0:
64,112,164087,5,0,3:0:0:0:
320,48,164223,1,8,3:3:0:0:
399,100,164292,1,8,3:3:0:0:
375,191,164360,1,8,3:3:0:0:
86,330,164496,5,0,3:0:0:0:
366,342,164632,1,8,3:3:0:0:
447,292,164701,1,8,3:3:0:0:
442,197,164769,1,8,3:3:0:0:
138,42,164905,5,0,3:0:0:0:
68,87,165042,1,0,3:3:0:0:
333,39,165178,1,8,3:3:0:0:
421,71,165246,1,8,3:3:0:0:
440,163,165314,1,8,3:3:0:0:
221,334,165451,5,8,3:3:0:0:
144,285,165519,1,8,3:3:0:0:
167,193,165587,1,8,3:3:0:0:
261,190,165655,1,8,3:3:0:0:
296,277,165723,5,8,3:3:0:0:
48,336,165996,1,4,3:3:0:0:
432,336,166269,1,0,3:0:0:0:
35,162,166542,5,4,3:2:0:0:
256,134,166678,1,0,3:0:0:0:
72,37,166814,1,0,3:0:0:0:
263,145,166951,1,0,3:0:0:0:
40,172,167087,1,0,3:0:0:0:
267,152,167223,1,0,3:0:0:0:
76,41,167360,5,4,3:2:0:0:
101,36,167428,1,8,3:3:0:0:
126,39,167496,1,0,3:0:0:0:
149,50,167564,1,8,3:3:0:0:
164,71,167632,1,0,3:0:0:0:
172,96,167701,1,8,3:3:0:0:
169,122,167769,1,0,3:0:0:0:
156,145,167837,1,8,3:3:0:0:
135,160,167905,1,0,3:0:0:0:
111,170,167973,1,8,3:3:0:0:
84,171,168042,1,0,3:0:0:0:
60,160,168110,1,8,3:3:0:0:
44,139,168178,5,4,3:2:0:0:
78,112,168246,1,8,3:3:0:0:
120,102,168314,1,0,3:0:0:0:
163,108,168382,1,8,3:3:0:0:
201,129,168451,1,0,3:0:0:0:
232,159,168519,1,8,3:3:0:0:
247,199,168587,1,0,3:0:0:0:
250,244,168655,1,8,3:3:0:0:
237,285,168723,1,4,3:3:0:0:
206,317,168792,1,8,3:3:0:0:
168,339,168860,1,0,3:0:0:0:
124,339,168928,1,8,3:3:0:0:
82,324,168996,5,4,3:2:0:0:
111,305,169064,1,8,3:3:0:0:
143,292,169132,1,0,3:0:0:0:
178,289,169201,1,8,3:3:0:0:
212,292,169269,1,4,3:3:0:0:
245,301,169337,1,8,3:3:0:0:
276,315,169405,1,0,3:0:0:0:
303,336,169473,1,8,3:3:0:0:
329,359,169542,5,4,3:3:0:0:
182,139,169610,1,8,3:3:0:0:
271,180,169678,1,0,3:0:0:0:
318,262,169746,1,8,3:3:0:0:
81,122,169814,6,0,L|121:90,1,35,4|8,3:2|3:3,3:0:0:0:
237,23,169951,2,0,L|195:22,1,35,0|8,3:0|3:3,3:0:0:0:
0,45,170087,2,0,L|8:87,1,35,0|8,3:0|3:3,3:0:0:0:
59,270,170223,2,0,L|94:249,1,35,4|8,3:2|3:3,3:0:0:0:
249,109,170360,6,0,L|282:136,1,35,0|8,3:0|3:3,3:0:0:0:
401,214,170496,2,0,L|387:181,1,35,0|8,3:0|3:3,3:0:0:0:
316,19,170632,2,0,L|270:26,1,35,4|8,3:2|3:3,3:0:0:0:
94,62,170769,2,0,L|105:96,1,35,0|8,3:0|3:3,3:0:0:0:
165,260,170905,1,4,3:3:0:0:
230,317,170973,1,0,3:3:0:0:
314,290,171042,1,0,3:0:0:0:
341,207,171110,1,0,3:3:0:0:
253,205,171178,5,0,3:0:0:0:
212,282,171246,1,0,3:3:0:0:
254,358,171314,1,0,3:0:0:0:
340,369,171382,1,0,3:3:0:0:
418,330,171451,5,4,3:2:0:0:
425,317,171519,1,0,3:0:0:0:
428,303,171587,1,0,3:0:0:0:
432,286,171655,1,0,3:0:0:0:
427,267,171723,5,4,3:3:0:0:
411,247,171792,1,0,3:0:0:0:
386,232,171860,1,0,3:0:0:0:
398,205,171928,5,0,3:0:0:0:
436,189,171996,1,4,3:3:0:0:
482,188,172064,1,0,3:0:0:0:
456,140,172132,5,0,3:0:0:0:
396,132,172201,1,0,3:0:0:0:
344,160,172269,1,12,3:3:0:0:
287,141,172337,5,0,3:0:0:0:
241,114,172405,1,0,3:0:0:0:
195,115,172473,1,0,3:0:0:0:
162,133,172542,1,4,3:3:0:0:
150,163,172610,1,0,3:0:0:0:
152,194,172678,1,4,3:3:0:0:
171,216,172746,1,0,3:0:0:0:
197,223,172814,1,0,3:0:0:0:
221,214,172882,1,0,3:3:0:0:
232,192,172951,1,4,3:3:0:0:
215,175,173019,1,0,3:0:0:0:
196,149,173087,5,4,3:3:0:0:
217,119,173155,1,0,3:0:0:0:
263,123,173223,1,4,3:3:0:0:
305,154,173292,1,0,3:0:0:0:
361,164,173360,1,4,3:3:0:0:
416,134,173428,1,0,3:0:0:0:
429,72,173496,1,4,3:3:0:0:
393,20,173564,1,0,3:0:0:0:
331,8,173632,5,0,3:0:0:0:
368,59,173701,1,0,3:0:0:0:
370,121,173769,1,4,3:3:0:0:
326,166,173837,1,0,3:0:0:0:
263,162,173905,5,12,3:3:0:0:
298,213,173973,1,0,3:0:0:0:
298,282,174042,1,0,3:0:0:0:
253,309,174110,5,0,3:0:0:0:
229,248,174178,1,4,3:3:0:0:
172,192,174246,1,4,3:3:0:0:
181,151,174314,5,4,3:3:0:0:
124,142,174382,1,4,3:3:0:0:
85,199,174451,1,4,3:3:0:0:
39,134,174519,5,0,3:0:0:0:
46,82,174587,1,0,3:0:0:0:
69,61,174655,1,0,3:0:0:0:
82,69,174723,5,4,3:2:0:0:
99,75,174792,1,0,3:0:0:0:
121,80,174860,1,0,3:0:0:0:
149,79,174928,1,0,3:0:0:0:
178,67,174996,1,4,3:2:0:0:
205,46,175064,1,0,3:0:0:0:
239,33,175132,1,8,3:2:0:0:
278,34,175201,1,0,3:0:0:0:
314,53,175269,1,0,3:0:0:0:
337,90,175337,1,0,3:0:0:0:
333,139,175405,1,0,3:0:0:0:
300,179,175473,1,0,3:0:0:0:
246,193,175542,5,12,3:3:0:0:
266,141,175610,1,0,3:0:0:0:
317,114,175678,1,0,3:0:0:0:
376,120,175746,1,0,3:0:0:0:
423,161,175814,1,0,3:0:0:0:
424,226,175882,1,0,3:0:0:0:
380,279,175951,1,0,3:0:0:0:
309,279,176019,1,0,3:0:0:0:
238,260,176087,1,0,3:0:0:0:
185,257,176155,1,0,3:0:0:0:
161,277,176223,1,0,3:0:0:0:
176,304,176292,1,0,3:0:0:0:
192,311,176360,6,0,L|156:313,3,26.2500010013581,0|0|0|0,3:0|3:0|3:0|3:0,3:0:0:0:
9,276,176632,5,0,3:0:0:0:
216,46,176769,2,0,L|246:44,3,26.2500010013581,0|0|0|0,3:0|3:0|3:0|3:0,3:0:0:0:
511,130,177042,5,0,3:0:0:0:
261,205,177178,2,0,L|301:204,3,26.2500010013581,4|0|0|0,3:3|3:0|3:0|3:0,3:0:0:0:
168,96,177451,5,8,3:2:0:0:
130,105,177519,1,8,3:2:0:0:
98,131,177587,1,8,3:2:0:0:
77,162,177655,1,8,3:2:0:0:
95,198,177723,5,8,3:3:0:0:
87,237,177792,1,8,3:3:0:0:
68,271,177860,1,8,3:3:0:0:
38,297,177928,1,8,3:3:0:0:
6,317,177996,5,4,3:2:0:0:
52,307,178064,1,8,3:3:0:0:
99,309,178132,1,0,3:0:0:0:
156,317,178201,1,8,3:3:0:0:
208,340,178269,1,4,3:2:0:0:
262,357,178337,1,8,3:3:0:0:
332,358,178405,1,0,3:0:0:0:
393,323,178473,1,8,3:3:0:0:
422,251,178542,1,4,3:2:0:0:
393,180,178610,1,8,3:3:0:0:
327,140,178678,1,0,3:0:0:0:
247,157,178746,1,8,3:3:0:0:
201,231,178814,5,4,3:2:0:0:
274,239,178882,1,8,3:3:0:0:
340,197,178951,1,0,3:0:0:0:
358,109,179019,1,8,3:3:0:0:
322,39,179087,1,4,3:2:0:0:
232,17,179155,1,8,3:3:0:0:
152,66,179223,1,0,3:0:0:0:
135,160,179292,1,8,3:3:0:0:
112,203,179360,5,4,3:2:0:0:
80,231,179428,1,8,3:3:0:0:
47,243,179496,1,0,3:0:0:0:
24,240,179564,1,8,3:3:0:0:
55,281,179632,5,4,3:2:0:0:
113,310,179701,1,8,3:3:0:0:
183,291,179769,1,0,3:0:0:0:
238,230,179837,1,8,3:3:0:0:
214,142,179905,1,4,3:2:0:0:
249,57,179973,1,8,3:3:0:0:
335,26,180042,1,0,3:0:0:0:
426,62,180110,1,8,3:3:0:0:
457,145,180178,1,4,3:2:0:0:
409,218,180246,1,8,3:3:0:0:
413,278,180314,1,0,3:0:0:0:
435,303,180382,1,8,3:3:0:0:
455,303,180451,5,4,3:2:0:0:
466,289,180519,1,8,3:3:0:0:
464,271,180587,1,0,3:0:0:0:
447,255,180655,1,8,3:3:0:0:
418,245,180723,1,4,3:2:0:0:
379,250,180792,1,8,3:3:0:0:
337,279,180860,1,0,3:0:0:0:
298,321,180928,1,8,3:3:0:0:
242,342,180996,1,4,3:2:0:0:
182,356,181064,1,8,3:3:0:0:
121,334,181132,1,0,3:0:0:0:
86,293,181201,1,8,3:3:0:0:
95,253,181269,5,4,3:2:0:0:
68,237,181337,1,8,3:3:0:0:
65,213,181405,1,0,3:0:0:0:
82,186,181473,1,8,3:3:0:0:
118,177,181542,1,4,3:2:0:0:
154,201,181610,1,8,3:3:0:0:
171,245,181678,1,0,3:0:0:0:
214,274,181746,1,8,3:3:0:0:
265,264,181814,1,4,3:2:0:0:
299,225,181882,1,8,3:3:0:0:
294,172,181951,1,0,3:0:0:0:
262,130,182019,1,8,3:3:0:0:
210,123,182087,1,4,3:2:0:0:
185,76,182155,1,8,3:3:0:0:
203,27,182223,1,0,3:0:0:0:
252,8,182292,1,8,3:3:0:0:
298,32,182360,1,4,3:2:0:0:
314,81,182428,1,0,3:0:0:0:
358,108,182496,1,0,3:0:0:0:
409,100,182564,1,0,3:0:0:0:
441,59,182632,5,12,3:2:0:0:
436,40,182701,1,0,3:0:0:0:
418,33,182769,1,0,3:0:0:0:
391,34,182837,1,0,3:0:0:0:
360,63,182905,1,0,3:2:0:0:
344,113,182973,1,0,3:0:0:0:
354,173,183042,1,0,3:0:0:0:
382,228,183110,1,0,3:0:0:0:
386,290,183178,1,0,3:2:0:0:
352,343,183246,1,0,3:0:0:0:
291,360,183314,1,0,3:0:0:0:
220,351,183382,1,0,3:0:0:0:
176,281,183451,5,8,3:2:0:0:
195,195,183519,1,0,3:0:0:0:
265,134,183587,1,0,3:0:0:0:
245,41,183655,1,0,3:0:0:0:
157,3,183723,1,12,3:3:0:0:
66,29,183792,1,0,3:0:0:0:
30,124,183860,1,0,3:0:0:0:
68,200,183928,1,0,3:0:0:0:
148,251,183996,6,0,L|179:250,3,26.2500010013581,0|0|8|0,3:0|3:0|3:3|3:0,3:0:0:0:
374,242,184269,2,0,L|403:224,3,26.2500010013581,0|0|0|0,3:0|3:0|3:0|3:0,3:0:0:0:
393,48,184542,5,12,3:3:0:0:
0,143,184678,1,8,3:3:0:0:
332,351,184814,1,8,3:3:0:0:
220,18,184951,1,12,3:3:0:0:
11,309,185087,1,8,3:3:0:0:
379,143,185223,1,8,3:3:0:0:
340,41,185360,5,12,3:3:0:0:
403,355,185496,1,0,3:0:0:0:
40,165,185632,1,8,3:3:0:0:
304,361,185769,1,8,3:3:0:0:
107,28,185905,1,12,3:3:0:0:
47,354,186042,1,12,3:3:0:0:
192,352,186178,5,12,3:3:0:0:
176,324,186246,1,0,3:0:0:0:
172,292,186314,1,8,3:3:0:0:
182,262,186382,1,0,3:0:0:0:
206,241,186451,1,8,3:3:0:0:
237,238,186519,1,0,3:0:0:0:
265,250,186587,1,8,3:3:0:0:
288,271,186655,1,0,3:0:0:0:
304,297,186723,5,12,3:3:0:0:
355,334,186792,1,0,3:0:0:0:
417,330,186860,1,8,3:3:0:0:
458,283,186928,1,0,3:0:0:0:
447,221,186996,5,12,3:3:0:0:
426,216,187064,1,0,3:0:0:0:
405,212,187132,1,8,3:3:0:0:
384,207,187201,1,0,3:0:0:0:
363,203,187269,1,12,3:3:0:0:
342,199,187337,1,0,3:0:0:0:
321,195,187405,1,8,3:3:0:0:
300,191,187473,1,0,3:0:0:0:
279,187,187542,5,12,3:3:0:0:
257,127,187610,1,0,3:0:0:0:
201,97,187678,1,8,3:3:0:0:
138,101,187746,1,0,3:0:0:0:
98,150,187814,5,8,3:3:0:0:
114,176,187882,1,0,3:0:0:0:
130,203,187951,1,8,3:2:0:0:
146,229,188019,1,8,3:2:0:0:
162,255,188087,1,8,3:2:0:0:
178,281,188155,1,0,3:0:0:0:
194,307,188223,1,8,3:3:0:0:
211,333,188292,1,0,3:0:0:0:
226,360,188360,5,12,3:3:0:0:
282,298,188428,1,0,3:0:0:0:
283,214,188496,1,8,3:3:0:0:
237,143,188564,1,0,3:0:0:0:
159,116,188632,5,12,3:3:0:0:
178,90,188701,1,0,3:0:0:0:
206,75,188769,1,8,3:3:0:0:
237,72,188837,1,0,3:0:0:0:
267,80,188905,1,8,3:3:0:0:
311,107,188973,1,0,3:0:0:0:
361,122,189042,1,12,3:3:0:0:
411,108,189110,1,0,3:0:0:0:
423,57,189178,1,8,3:2:0:0:
394,13,189246,1,0,3:0:0:0:
341,10,189314,1,8,3:3:0:0:
306,48,189382,1,0,3:0:0:0:
309,101,189451,1,12,3:3:0:0:
306,153,189519,1,0,3:0:0:0:
276,195,189587,1,0,3:3:0:0:
228,217,189655,1,0,3:0:0:0:
177,211,189723,6,8,L|152:191,1,26.2500010013581,8|8,3:3|3:3,3:3:0:0:
43,343,189860,2,0,L|61:311,1,26.2500010013581,8|8,3:3|3:3,3:0:0:0:
285,381,189996,2,0,L|306:350,1,26.2500010013581,8|8,3:3|3:0,3:0:0:0:
182,355,190132,2,0,L|155:330,1,26.2500010013581,8|8,3:3|3:0,3:0:0:0:
402,292,190269,5,12,3:3:0:0:
406,260,190337,1,8,3:3:0:0:
410,228,190405,1,0,3:0:0:0:
414,196,190473,1,8,3:3:0:0:
418,164,190542,5,0,3:0:0:0:
388,174,190610,1,8,3:3:0:0:
358,184,190678,1,0,3:0:0:0:
328,194,190746,1,8,3:3:0:0:
298,204,190814,5,4,3:2:0:0:
294,266,190882,1,8,3:3:0:0:
253,314,190951,1,0,3:0:0:0:
194,338,191019,1,8,3:3:0:0:
131,332,191087,5,4,3:2:0:0:
143,270,191155,1,8,3:3:0:0:
180,219,191223,1,0,3:0:0:0:
231,182,191292,1,8,3:3:0:0:
279,141,191360,5,0,3:0:0:0:
261,129,191428,1,8,3:3:0:0:
243,117,191496,1,0,3:0:0:0:
225,105,191564,1,8,3:3:0:0:
207,93,191632,1,4,3:2:0:0:
189,81,191701,1,8,3:3:0:0:
171,69,191769,1,0,3:0:0:0:
153,57,191837,1,8,3:3:0:0:
136,43,191905,5,4,3:2:0:0:
67,91,191973,1,8,3:3:0:0:
48,173,192042,1,0,3:0:0:0:
84,248,192110,1,8,3:3:0:0:
159,284,192178,1,0,3:0:0:0:
241,268,192246,1,8,3:3:0:0:
290,200,192314,1,0,3:0:0:0:
288,116,192382,1,8,3:3:0:0:
226,56,192451,5,4,3:2:0:0:
307,37,192519,1,8,3:3:0:0:
382,73,192587,1,0,3:0:0:0:
401,154,192655,1,8,3:3:0:0:
356,224,192723,1,4,3:2:0:0:
271,231,192792,1,8,3:3:0:0:
208,174,192860,1,0,3:0:0:0:
124,166,192928,1,8,3:3:0:0:
74,233,192996,1,0,3:0:0:0:
110,308,193064,1,8,3:3:0:0:
193,319,193132,1,4,3:3:0:0:
276,302,193201,1,8,3:3:0:0:
351,336,193269,5,0,3:0:0:0:
438,278,193337,1,8,3:3:0:0:
420,174,193405,1,0,3:0:0:0:
319,144,193473,1,8,3:3:0:0:
238,213,193542,1,4,3:3:0:0:
156,279,193610,1,8,3:3:0:0:
56,246,193678,1,0,3:0:0:0:
43,142,193746,1,8,3:3:0:0:
128,87,193814,5,0,3:0:0:0:
148,85,193882,1,8,3:3:0:0:
169,83,193951,1,4,3:3:0:0:
189,81,194019,1,8,3:3:0:0:
179,99,194087,5,0,3:0:0:0:
169,117,194155,1,8,3:3:0:0:
160,136,194223,1,0,3:0:0:0:
151,155,194292,1,8,3:3:0:0:
144,171,194360,6,0,B|186:174|235:105|280:156|280:156,1,140,4|0,3:2|3:0,3:0:0:0:
304,177,194564,1,0,3:0:0:0:
319,200,194632,1,0,3:0:0:0:
319,228,194701,1,0,3:0:0:0:
308,253,194769,1,4,3:2:0:0:
288,272,194837,1,0,3:0:0:0:
261,281,194905,1,0,3:0:0:0:
233,283,194973,1,0,3:0:0:0:
204,280,195042,1,0,3:0:0:0:
177,270,195110,1,0,3:0:0:0:
148,249,195178,2,0,L|175:224,3,35,12|0|0|0,3:3|3:0|3:0|3:0,3:0:0:0:
144,164,195451,2,0,L|116:190,7,35,4|0|4|0|4|0|0|0,3:3|3:0|3:3|3:0|3:3|3:0|3:0|3:0,3:0:0:0:
167,143,195996,5,4,3:2:0:0:
190,130,196064,1,0,3:0:0:0:
217,128,196132,1,0,3:0:0:0:
242,137,196201,1,0,3:0:0:0:
264,154,196269,1,4,3:3:0:0:
277,178,196337,1,0,3:0:0:0:
302,206,196405,5,4,3:3:0:0:
338,216,196473,1,0,3:0:0:0:
376,207,196542,1,0,3:0:0:0:
404,181,196610,1,0,3:0:0:0:
415,144,196678,1,0,3:0:0:0:
408,106,196746,1,0,3:0:0:0:
379,80,196814,5,12,3:3:0:0:
360,113,196882,1,0,3:0:0:0:
348,150,196951,1,0,3:0:0:0:
345,188,197019,1,0,3:0:0:0:
378,206,197087,5,4,3:3:0:0:
371,243,197155,1,4,3:3:0:0:
349,275,197223,1,4,3:3:0:0:
317,297,197292,1,4,3:3:0:0:
292,267,197360,5,4,3:3:0:0:
254,275,197428,1,0,3:0:0:0:
222,296,197496,1,4,3:3:0:0:
193,321,197564,1,0,3:0:0:0:
207,367,197632,5,4,3:2:0:0:
159,380,197701,1,0,3:0:0:0:
113,362,197769,1,0,3:0:0:0:
98,315,197837,1,0,3:0:0:0:
108,267,197905,1,0,3:0:0:0:
142,232,197973,1,0,3:0:0:0:
189,219,198042,1,4,3:2:0:0:
232,198,198110,1,0,3:0:0:0:
264,162,198178,1,0,3:0:0:0:
279,116,198246,1,0,3:0:0:0:
276,67,198314,1,0,3:0:0:0:
244,30,198382,1,0,3:0:0:0:
197,20,198451,5,8,3:3:0:0:
200,66,198519,1,0,3:0:0:0:
189,111,198587,1,0,3:0:0:0:
153,142,198655,1,0,3:0:0:0:
109,160,198723,1,4,3:3:0:0:
68,185,198792,1,0,3:0:0:0:
46,227,198860,1,4,3:3:0:0:
50,273,198928,1,0,3:0:0:0:
81,307,198996,1,4,3:3:0:0:
125,321,199064,1,0,3:0:0:0:
171,311,199132,1,4,3:3:0:0:
205,277,199201,1,0,3:0:0:0:
146,274,199269,5,4,3:2:0:0:
170,266,199338,1,0,3:0:0:0:
188,247,199406,1,0,3:0:0:0:
198,222,199474,1,0,3:0:0:0:
196,194,199542,1,4,3:3:0:0:
188,167,199610,1,0,3:0:0:0:
172,139,199679,1,4,3:3:0:0:
164,110,199747,1,0,3:0:0:0:
169,79,199815,1,0,3:0:0:0:
186,53,199883,1,0,3:0:0:0:
214,34,199951,1,0,3:0:0:0:
248,28,200019,1,0,3:0:0:0:
281,40,200087,1,12,3:3:0:0:
310,64,200156,1,0,3:0:0:0:
321,106,200224,1,0,3:0:0:0:
310,142,200292,1,0,3:0:0:0:
253,171,200360,5,0,3:0:0:0:
255,186,200428,1,0,3:0:0:0:
254,201,200496,1,0,3:0:0:0:
250,216,200564,1,0,3:0:0:0:
245,230,200632,1,0,3:0:0:0:
244,245,200701,1,0,3:0:0:0:
245,260,200769,1,0,3:0:0:0:
250,274,200837,1,0,3:0:0:0:
255,284,200905,2,4,B|312:390|332:337|332:337|322:228|384:280|384:280|411:259|411:259|417:275|417:275|438:251|438:251|344:204|344:204|359:91|367:182|367:182|452:174|452:174|507:153|405:93,1,700,4|0,1:2|1:0,2:0:0:0:
308,93,201723,6,0,B|253:107|253:107|246:117|246:117|213:128|182:94|164:60|164:60|210:166|210:166|180:176|180:176|148:159|166:197|192:230|192:230|138:223|81:232|81:232|116:202|114:168|114:168|75:155|57:128|57:128|132:104,1,700,12|0,2:3|2:0,2:0:0:0:
405,83,202542,6,0,B|378:118|367:180|367:180|379:119|372:48|372:48|409:205|446:247|446:247|387:269|351:323|351:323|347:239|258:213,1,700,4|0,2:3|2:0,2:0:0:0:
150,189,203223,5,0,2:0:0:0:
67,50,203360,2,0,B|131:57|174:84|174:84|164:63|164:63|204:61|250:53|250:53|253:71|253:71|276:88|282:137|282:137|309:105|391:70|391:70|309:105|222:116|222:116|244:144|244:144|247:160|247:160|302:216,1,700,12|0,2:3|2:0,2:0:0:0:
373,271,204042,5,0,2:0:0:0:
222,249,204178,2,0,B|173:272|173:272|171:257|171:257|115:281|18:337|18:337|115:281|169:221|169:221|215:165|230:94|230:94|255:163|296:221|296:221|334:190,1,700,4|0,2:3|2:0,2:0:0:0:
353,345,204860,1,0,2:0:0:0:
71,100,204996,6,0,P|105:75|111:33,1,87.5,12|0,2:3|2:0,2:0:0:0:
191,48,205269,6,0,P|155:71|149:114,1,87.5,4|0,2:3|2:0,2:0:0:0:
86,112,205542,6,0,P|109:76|99:35,1,87.5,4|0,2:3|2:0,2:0:0:0:
183,31,205814,5,4,3:2:0:0:
416,240,206087,1,0,3:0:0:0:
336,304,206155,1,0,3:0:0:0:
240,272,206223,1,0,3:0:0:0:
256,273,206360,5,0,3:0:0:0:
352,305,206428,1,0,3:0:0:0:
432,241,206496,1,0,3:0:0:0:
432,336,206632,5,4,3:2:0:0:
271,95,206905,1,0,3:0:0:0:
176,63,206973,1,0,3:0:0:0:
96,128,207041,1,0,3:0:0:0:
80,123,207178,5,0,3:0:0:0:
160,59,207246,1,0,3:0:0:0:
256,91,207314,1,0,3:0:0:0:
480,54,207451,5,4,3:3:0:0:
464,80,207519,1,0,3:0:0:0:
445,104,207587,1,0,3:0:0:0:
422,126,207655,1,0,3:0:0:0:
397,144,207723,1,0,3:0:0:0:
369,156,207792,1,0,3:0:0:0:
339,164,207860,1,0,3:0:0:0:
311,178,207928,1,0,3:0:0:0:
284,194,207996,1,0,3:0:0:0:
263,217,208064,1,0,3:0:0:0:
251,246,208132,1,0,3:0:0:0:
255,283,208201,1,0,3:0:0:0:
269,310,208269,5,12,3:3:0:0:
281,281,208337,1,0,3:0:0:0:
288,250,208405,1,4,3:2:0:0:
286,218,208473,1,0,3:0:0:0:
274,188,208542,1,0,3:0:0:0:
254,163,208610,1,0,3:0:0:0:
227,145,208678,1,0,3:0:0:0:
195,140,208746,1,0,3:0:0:0:
164,147,208814,1,4,3:3:0:0:
136,162,208882,1,0,3:0:0:0:
118,188,208951,1,4,3:3:0:0:
109,218,209019,1,0,3:0:0:0:
116,248,209087,5,4,3:3:0:0:
166,286,209155,1,0,3:0:0:0:
228,296,209223,1,0,3:0:0:0:
289,280,209292,1,0,3:0:0:0:
332,235,209360,1,0,3:0:0:0:
355,176,209428,1,0,3:0:0:0:
342,114,209496,1,4,3:3:0:0:
302,64,209564,1,0,3:0:0:0:
241,47,209632,1,0,3:0:0:0:
177,49,209701,1,0,3:0:0:0:
123,81,209769,1,0,3:0:0:0:
98,138,209837,1,0,3:0:0:0:
99,199,209905,2,0,P|145:201|193:183,1,70,12|4,3:3|3:3,3:0:0:0:
384,128,210178,1,0,3:0:0:0:
448,208,210246,1,0,3:0:0:0:
416,304,210314,1,0,3:0:0:0:
429,312,210451,5,0,3:0:0:0:
461,216,210519,1,0,3:0:0:0:
397,136,210587,1,0,3:0:0:0:
160,320,210723,6,0,B|183:314|200:323|224:320,3,52.5000020027161,4|0|0|0,3:2|3:0|3:0|3:0,3:0:0:0:
32,256,210996,6,0,P|62:263|96:256,3,52.5000020027161,0|0|0|4,3:0|3:0|3:0|3:3,3:0:0:0:
208,192,211269,6,0,P|240:187|272:192,3,52.5000020027161,0|0|0|0,3:0|3:0|3:0|3:0,3:0:0:0:
327,131,211542,5,12,3:3:0:0:
348,153,211610,1,0,3:0:0:0:
372,172,211678,1,0,3:0:0:0:
399,186,211746,1,0,3:0:0:0:
428,197,211814,1,0,3:0:0:0:
458,203,211882,1,0,3:0:0:0:
489,200,211951,5,0,3:0:0:0:
462,216,212019,1,0,3:0:0:0:
438,237,212087,1,0,3:0:0:0:
421,263,212155,1,0,3:0:0:0:
412,293,212223,1,0,3:0:0:0:
409,324,212292,1,0,3:0:0:0:
443,361,212360,5,4,3:3:0:0:
443,361,212428,1,0,3:0:0:0:
443,361,212496,1,0,3:0:0:0:
443,361,212564,1,0,3:0:0:0:
443,361,212632,1,0,3:0:0:0:
443,361,212701,1,0,3:0:0:0:
443,361,212769,1,0,3:0:0:0:
443,361,212837,1,0,3:0:0:0:
443,361,212905,2,0,P|398:360|349:334,1,70,0|0,3:0|3:0,3:0:0:0:
358,236,213178,5,0,3:0:0:0:
259,208,213246,1,0,3:0:0:0:
180,275,213314,1,0,3:0:0:0:
164,274,213451,5,0,3:0:0:0:
153,172,213519,1,0,3:0:0:0:
233,109,213587,1,0,3:0:0:0:
213,102,213724,5,0,3:0:0:0:
115,72,213792,1,0,3:0:0:0:
37,140,213860,1,0,3:0:0:0:
253,271,213996,5,4,3:2:0:0:
258,209,214064,1,0,3:0:0:0:
295,158,214132,1,0,3:0:0:0:
357,146,214201,1,0,3:0:0:0:
417,164,214269,1,0,3:0:0:0:
449,215,214337,1,0,3:0:0:0:
446,277,214405,1,4,3:3:0:0:
408,327,214473,1,0,3:0:0:0:
346,345,214542,1,0,3:0:0:0:
286,326,214610,1,0,3:0:0:0:
223,326,214678,1,0,3:0:0:0:
163,345,214746,1,0,3:0:0:0:
103,326,214814,5,12,3:3:0:0:
119,312,214882,1,0,3:0:0:0:
134,297,214951,1,0,3:0:0:0:
147,279,215019,1,0,3:0:0:0:
156,261,215087,1,0,3:0:0:0:
163,240,215155,1,0,3:0:0:0:
166,220,215223,1,4,3:3:0:0:
167,198,215292,1,0,3:0:0:0:
171,176,215360,1,0,3:0:0:0:
179,156,215428,1,0,3:0:0:0:
190,138,215496,1,0,3:0:0:0:
204,122,215564,1,0,3:0:0:0:
222,110,215632,5,4,3:2:0:0:
200,109,215701,1,0,3:0:0:0:
179,112,215769,1,0,3:0:0:0:
158,115,215837,1,0,3:0:0:0:
138,123,215905,1,0,3:0:0:0:
119,132,215973,1,0,3:0:0:0:
101,144,216042,1,0,3:0:0:0:
85,158,216110,1,0,3:0:0:0:
71,172,216178,5,4,3:2:0:0:
98,228,216246,1,0,3:0:0:0:
147,266,216314,1,0,3:0:0:0:
208,277,216382,1,0,3:0:0:0:
268,260,216451,6,0,B|302:233|333:251|333:251,1,70,12|0,3:3|3:3,3:3:0:0:
420,283,216723,1,0,3:0:0:0:
408,183,216791,1,0,3:0:0:0:
316,137,216859,1,0,3:0:0:0:
333,71,216996,5,0,3:0:0:0:
461,135,217064,1,0,3:0:0:0:
493,295,217132,1,0,3:0:0:0:
304,272,217269,5,4,3:2:0:0:
278,253,217337,1,0,3:0:0:0:
248,241,217405,1,0,3:0:0:0:
216,236,217473,1,0,3:0:0:0:
184,238,217542,5,0,3:0:0:0:
121,234,217610,1,0,3:0:0:0:
73,193,217678,1,4,3:3:0:0:
78,130,217746,1,0,3:0:0:0:
123,87,217814,1,0,3:0:0:0:
185,87,217882,1,0,3:0:0:0:
231,130,217951,1,0,3:0:0:0:
293,132,218019,1,0,3:0:0:0:
340,90,218087,5,12,3:3:0:0:
325,92,218155,1,0,3:0:0:0:
311,97,218223,1,0,3:0:0:0:
298,104,218292,1,0,3:0:0:0:
286,113,218360,1,0,3:0:0:0:
276,124,218428,1,0,3:0:0:0:
266,135,218496,1,0,3:0:0:0:
255,144,218564,1,0,3:0:0:0:
243,152,218632,1,4,3:3:0:0:
229,158,218701,1,0,3:0:0:0:
215,163,218769,1,0,3:0:0:0:
200,166,218837,1,0,3:0:0:0:
185,168,218905,5,4,3:2:0:0:
105,232,218973,1,8,3:2:0:0:
137,328,219042,1,8,3:2:0:0:
233,328,219110,1,8,3:2:0:0:
265,232,219178,1,8,3:2:0:0:
368,64,219451,5,8,3:3:0:0:
368,160,219519,1,8,3:3:0:0:
368,256,219587,1,8,3:3:0:0:
123,223,219723,6,0,L|138:223,3,12.2499996261597,8|0|0|0,3:2|3:0|3:0|3:0,3:0:0:0:
12,281,219996,2,0,L|27:281,3,12.2499996261597,8|0|0|0,3:2|3:0|3:0|3:0,3:0:0:0:
155,287,220269,2,0,L|170:287,3,12.2499996261597,8|0|0|0,3:2|3:0|3:0|3:0,3:0:0:0:
463,223,220542,5,12,1:2:0:0:
159,93,220678,1,0,1:0:0:0:
225,187,220814,1,8,1:2:0:0:
362,377,220951,5,12,1:3:0:0:
356,35,221087,1,0,1:0:0:0:
265,97,221223,1,8,1:3:0:0:
22,253,221360,5,0,1:0:0:0:
417,302,221496,1,8,1:3:0:0:
355,211,221632,1,0,1:0:0:0:
222,23,221769,2,0,B|206:2|206:2|184:-6,1,35,8|0,1:3|1:0,1:0:0:0:
34,15,221905,2,0,B|17:29|17:29|9:52,1,35,0|0,1:0|1:0,1:0:0:0:
108,175,222042,2,0,B|125:176|125:176|141:169,1,35,12|0,1:3|1:0,1:0:0:0:
115,64,222178,6,0,L|146:94,1,35,0|0,1:0|1:0,1:0:0:0:
248,247,222314,2,0,L|240:203,1,35,8|0,1:3|1:0,1:0:0:0:
343,47,222451,2,0,L|317:89,1,35,0|0,1:0|1:0,1:0:0:0:
433,172,222587,1,12,1:3:0:0:
389,304,222723,1,0,1:0:0:0:
223,327,222860,1,8,1:3:0:0:
478,25,222996,5,0,1:0:0:0:
460,347,223132,1,8,1:3:0:0:
75,348,223269,1,0,1:0:0:0:
48,187,223405,5,8,1:3:0:0:
48,187,223542,1,0,1:0:0:0:
53,190,223678,1,8,1:3:0:0:
202,25,223814,5,4,3:2:0:0:
331,45,223951,1,0,3:0:0:0:
277,320,224087,2,0,L|213:313,1,35,8|0,1:3|1:0,1:0:0:0:
447,338,224223,5,4,3:2:0:0:
15,101,224360,6,0,L|-2:63,1,35,8|0,1:3|1:0,1:0:0:0:
177,357,224496,2,0,L|170:317,1,35,8|0,1:3|1:0,1:0:0:0:
84,384,224632,6,0,L|73:346,1,35,4|0,1:2|1:0,1:0:0:0:
198,154,224769,2,0,L|188:116,1,35,0|0,1:0|1:0,1:0:0:0:
483,120,224905,6,0,L|456:160,1,35,8|0,1:3|1:0,1:0:0:0:
376,366,225041,2,0,L|410:326,1,35,4|0,1:3|1:0,1:0:0:0:
478,84,225178,6,0,L|462:132,1,35,8|0,1:3|1:0,1:0:0:0:
403,372,225314,2,0,L|422:328,1,35,0|0,1:0|1:0,1:0:0:0:
464,64,225450,6,0,L|463:98,1,35,12|0,1:3|1:0,1:0:0:0:
432,384,225587,2,0,L|432:336,1,35,0|0,1:3|1:0,1:0:0:0:
448,48,225723,6,0,L|448:96,1,35,4|0,1:2|1:0,1:0:0:0:
462,383,225860,2,0,L|456:345,1,35,0|0,1:3|1:0,1:0:0:0:
427,30,225996,6,0,L|434:67,1,35,0|0,1:0|1:0,1:0:0:0:
482,382,226132,2,0,L|472:342,1,35,4|0,1:3|1:0,1:0:0:0:
405,11,226269,6,0,L|416:49,1,35,4|0,1:3|1:0,1:0:0:0:
506,383,226405,2,0,L|492:347,1,35,4|0,1:3|1:0,1:0:0:0:
387,1,226542,6,0,L|400:35,1,35,12|0,1:3|1:0,1:0:0:0:
457,203,226678,2,0,L|420:222,1,35,0|0,1:0|1:0,1:0:0:0:
21,332,226814,2,0,L|46:291,1,35,8|0,1:3|1:0,1:0:0:0:
82,236,226951,2,0,L|107:197,1,35,8|0,1:3|1:0,1:0:0:0:
228,23,227087,6,0,L|240:55,1,35,12|0,1:3|1:0,1:0:0:0:
318,350,227224,2,0,L|269:350,1,35,0|0,1:3|1:0,1:0:0:0:
159,348,227360,2,0,L|194:348,1,35,0|0,1:0|1:0,1:0:0:0:
372,351,227496,6,0,L|321:321,1,35,4|0,1:3|1:0,1:0:0:0:
24,116,227632,2,0,L|40:147,1,35,0|0,1:0|1:0,1:0:0:0:
135,349,227768,2,0,L|131:306,1,35,8|0,1:3|1:0,1:0:0:0:
119,34,227905,5,0,3:0:0:0:
119,34,228042,1,8,3:3:0:0:
208,211,228178,1,0,3:0:0:0:
208,211,228314,1,12,1:3:0:0:
446,287,228451,5,0,3:0:0:0:
427,245,228519,1,0,3:0:0:0:
394,214,228587,2,0,L|350:197,1,35,0|0,1:0|1:0,1:0:0:0:
22,95,228723,2,0,L|38:125,1,35,4|0,1:2|1:0,1:0:0:0:
154,351,228860,2,0,L|136:317,1,35,8|0,1:3|1:0,1:0:0:0:
19,189,228996,2,0,L|55:206,1,35,0|0,1:0|1:0,1:0:0:0:
162,250,229132,2,0,L|158:208,1,35,12|0,1:3|1:0,1:0:0:0:
147,18,229269,5,0,1:0:0:0:
489,121,229405,1,8,1:3:0:0:
433,207,229542,1,0,1:0:0:0:
313,384,229678,1,8,1:3:0:0:
130,224,229814,5,0,3:0:0:0:
152,184,229882,1,0,3:0:0:0:
188,155,229951,1,8,3:3:0:0:
230,134,230019,1,0,3:0:0:0:
255,96,230087,1,0,3:0:0:0:
254,52,230155,1,0,3:0:0:0:
222,19,230223,1,0,3:0:0:0:
175,19,230292,1,0,3:0:0:0:
144,53,230360,1,4,3:2:0:0:
0,231,230496,5,8,3:3:0:0:
246,359,230632,2,0,L|276:322,1,35,8|0,1:3|1:0,1:0:0:0:
176,192,230769,1,4,3:3:0:0:
366,356,230905,6,0,L|359:319,1,35,4|0,1:3|1:0,1:0:0:0:
278,30,231042,2,0,L|298:67,1,35,12|0,1:3|1:0,1:0:0:0:
486,300,231178,6,0,L|451:274,1,35,4|0,1:3|1:0,1:0:0:0:
167,75,231314,2,0,L|211:94,1,35,8|0,1:3|1:0,1:0:0:0:
511,196,231451,2,0,L|456:192,1,35,8|0,1:3|1:0,1:0:0:0:
231,156,231587,6,0,L|268:138,1,35,4|0,1:2|1:0,1:0:0:0:
448,62,231723,2,0,L|419:95,1,35,8|0,1:3|1:0,1:0:0:0:
288,223,231860,2,0,L|298:181,1,35,0|0,1:0|1:0,1:0:0:0:
343,81,231996,6,0,L|371:130,1,35,4|0,1:2|1:0,1:0:0:0:
434,213,232132,2,0,L|401:186,1,35,8|0,1:3|1:0,1:0:0:0:
294,126,232269,2,0,L|334:152,1,35,4|0,1:3|1:0,1:0:0:0:
508,223,232405,6,0,L|454:207,1,35,8|0,1:3|1:0,1:0:0:0:
33,93,232542,2,0,L|83:99,1,35,0|0,1:0|1:0,1:0:0:0:
496,129,232678,2,0,L|445:139,1,35,0|0,1:0|1:0,1:0:0:0:
32,206,232814,6,0,P|58:206|122:206,1,70,12|4,3:3|3:3,3:0:0:0:
16,0,233223,1,4,3:2:0:0:
224,336,233496,1,8,3:3:0:0:
420,239,233633,5,4,1:2:0:0:
374,291,233763,1,0,1:0:0:0:
350,225,233893,1,0,1:0:0:0:
279,227,234024,1,0,1:0:0:0:
218,192,234154,1,4,1:3:0:0:
147,192,234285,1,0,1:0:0:0:
89,231,234415,1,0,3:0:0:0:
100,245,234480,1,0,3:0:0:0:
112,259,234546,1,0,3:0:0:0:
123,273,234611,1,0,3:0:0:0:
134,287,234676,5,12,3:3:0:0:
178,340,234806,1,0,1:0:0:0:
204,274,234937,1,0,1:0:0:0:
230,209,235067,1,0,1:0:0:0:
254,143,235198,1,4,1:3:0:0:
278,77,235328,1,0,1:0:0:0:
307,13,235459,1,0,3:0:0:0:
307,31,235524,1,0,3:0:0:0:
307,49,235589,1,0,3:0:0:0:
307,67,235655,1,0,3:0:0:0:
307,85,235720,5,4,3:3:0:0:
376,89,235850,1,0,1:0:0:0:
378,158,235980,1,4,1:2:0:0:
307,157,236111,1,0,1:0:0:0:
308,226,236241,1,4,1:2:0:0:
378,229,236372,1,0,1:0:0:0:
380,298,236502,1,0,1:0:0:0:
309,298,236633,1,0,1:0:0:0:
239,300,236763,5,12,1:3:0:0:
169,302,236893,1,0,1:0:0:0:
98,301,237024,1,0,1:0:0:0:
28,301,237154,1,0,1:0:0:0:
63,240,237285,1,4,1:2:0:0:
33,176,237415,1,0,1:0:0:0:
76,121,237546,1,0,1:0:0:0:
28,69,237676,1,0,1:0:0:0:
82,25,237806,5,4,3:2:0:0:
99,29,237871,1,0,3:0:0:0:
117,33,237937,1,0,3:0:0:0:
134,38,238002,1,0,3:0:0:0:
152,42,238067,1,0,3:0:0:0:
150,112,238198,1,0,1:0:0:0:
220,112,238328,1,4,1:3:0:0:
289,121,238459,1,0,1:0:0:0:
355,141,238589,1,0,1:0:0:0:
418,170,238719,1,0,1:0:0:0:
477,207,238850,5,12,3:3:0:0:
467,222,238915,1,0,3:0:0:0:
456,236,238981,1,0,3:0:0:0:
446,251,239046,1,0,3:0:0:0:
371,252,239111,1,0,3:0:0:0:
360,265,239176,1,0,3:0:0:0:
349,280,239241,1,0,3:0:0:0:
339,294,239307,1,0,3:0:0:0:
328,309,239372,5,4,3:3:0:0:
160,304,239502,1,0,1:0:0:0:
272,256,239632,5,0,1:0:0:0:
144,128,239762,1,0,1:0:0:0:
336,224,239893,5,4,1:3:0:0:
256,0,240023,1,0,1:0:0:0:
272,192,240154,5,0,1:0:0:0:
368,16,240284,1,0,1:0:0:0:
192,176,240415,5,4,1:3:0:0:
224,96,240545,1,0,1:0:0:0:
96,160,240675,5,0,1:0:0:0:
144,128,240806,1,0,1:0:0:0:
0,0,240937,5,12,1:3:0:0:
106,0,241067,1,0,1:0:0:0:
0,139,241198,1,0,1:0:0:0:
281,0,241328,1,0,1:0:0:0:
0,248,241459,1,0,1:2:0:0:
433,128,241589,5,0,1:0:0:0:
142,363,241719,1,0,1:0:0:0:
0,73,241850,1,0,1:0:0:0:
422,341,241980,6,0,B|395:299|395:299|393:274|393:274|386:267|356:238|356:238|398:161|339:95|339:95|205:62|205:62|255:117|298:190,1,560,4|4,2:2|2:2,2:0:0:0:
327,355,242633,1,0,1:0:0:0:
0,171,242763,1,0,1:0:0:0:
512,241,242893,1,0,1:0:0:0:
124,57,243024,6,0,B|157:74|198:80|198:80|232:82|262:58|262:58|300:103|356:107|356:107|393:92|409:64|409:64|405:112|413:168|413:168|356:151|306:158|306:158|305:158|241:112|241:112|187:102|199:185|199:185|122:132|38:150,1,840,12|0,2:3|2:0,2:0:0:0:
0,150,243937,1,0,1:0:0:0:
40,258,244067,6,0,B|73:241|117:276|117:276|156:343|273:294|273:294|253:194|189:205|169:227|169:227|196:141|196:141|291:159|277:137|277:137|212:63|212:63|198:62,1,700,4|0,2:2|2:0,2:0:0:0:
154,4,244850,1,0,1:0:0:0:
504,119,244980,1,0,1:0:0:0:
477,363,245111,6,0,B|447:304|423:332|423:332|469:287|469:287|399:250,1,210,12|0,1:3|1:0,1:0:0:0:
333,212,245372,2,0,B|304:218|283:195|304:158|304:158|221:156|205:157|205:157|183:176,1,210,8|0,1:2|1:0,1:0:0:0:
129,246,245633,2,8,B|86:258|90:288|90:288|43:290|43:290|35:242|11:235|11:235|52:236|66:189,1,235.199992822266,8|8,1:2|1:2,1:2:0:0:
193,91,246024,1,8,3:2:0:0:
431,327,246154,5,4,1:2:0:0:
467,68,246285,1,0,1:0:0:0:
345,137,246415,1,0,1:0:0:0:
305,1,246546,1,0,1:0:0:0:
403,100,246676,1,4,1:2:0:0:
32,138,246806,1,0,1:0:0:0:
144,32,246937,1,0,3:0:0:0:
144,48,247002,1,0,3:0:0:0:
144,64,247067,1,0,3:0:0:0:
144,80,247133,1,0,3:0:0:0:
144,96,247198,5,12,3:3:0:0:
358,380,247328,1,0,1:0:0:0:
308,248,247459,1,0,1:0:0:0:
421,167,247589,1,0,1:0:0:0:
281,173,247719,1,4,1:2:0:0:
463,36,247850,1,0,1:0:0:0:
372,142,247980,1,0,1:0:0:0:
153,163,248111,1,0,1:0:0:0:
68,51,248241,5,4,1:3:0:0:
65,191,248372,1,0,1:0:0:0:
62,330,248502,1,0,1:0:0:0:
201,333,248632,1,0,1:0:0:0:
400,320,248763,1,4,3:3:0:0:
384,304,248828,1,0,3:0:0:0:
368,288,248893,1,0,3:0:0:0:
352,272,248959,1,0,3:0:0:0:
336,256,249024,1,0,3:0:0:0:
171,22,249154,1,0,3:0:0:0:
151,157,249285,5,12,3:3:0:0:
151,157,249350,1,0,3:0:0:0:
151,157,249415,1,0,3:0:0:0:
151,157,249480,1,0,3:0:0:0:
151,157,249546,1,0,3:0:0:0:
155,296,249676,1,0,1:0:0:0:
480,256,249806,1,4,1:3:0:0:
384,176,249937,1,0,1:0:0:0:
224,224,250067,1,0,1:0:0:0:
112,64,250198,1,0,1:0:0:0:
48,320,250328,5,4,3:3:0:0:
56,306,250393,1,0,3:0:0:0:
64,292,250459,1,0,3:0:0:0:
72,278,250524,1,0,3:0:0:0:
80,265,250589,1,0,3:0:0:0:
192,176,250719,1,0,1:0:0:0:
320,288,250850,1,4,1:3:0:0:
416,160,250980,1,0,1:0:0:0:
416,368,251111,1,0,1:0:0:0:
144,304,251241,1,0,1:0:0:0:
144,96,251372,5,12,3:3:0:0:
176,96,251437,1,0,3:0:0:0:
208,96,251502,1,0,3:0:0:0:
240,96,251567,1,0,3:0:0:0:
272,96,251632,1,0,3:0:0:0:
416,176,251763,1,0,1:0:0:0:
416,32,251893,1,0,1:0:0:0:
304,176,252024,1,0,1:0:0:0:
240,304,252154,1,4,1:3:0:0:
192,256,252285,1,0,1:0:0:0:
0,368,252415,5,4,1:3:0:0:
112,368,252546,1,0,1:0:0:0:
80,240,252676,1,4,1:3:0:0:
16,176,252806,1,0,1:0:0:0:
384,256,252937,1,4,1:2:0:0:
384,144,253067,1,0,1:0:0:0:
208,224,253198,1,4,1:2:0:0:
0,256,253328,1,0,1:0:0:0:
80,80,253459,5,12,3:3:0:0:
112,66,253524,1,0,3:0:0:0:
146,63,253589,1,0,3:0:0:0:
180,69,253654,1,0,3:0:0:0:
209,88,253719,1,12,3:2:0:0:
230,116,253785,1,0,3:0:0:0:
237,150,253850,1,0,3:0:0:0:
231,184,253915,1,0,3:0:0:0:
234,218,253980,1,8,3:2:0:0:
249,249,254046,1,0,3:0:0:0:
273,273,254111,1,0,3:0:0:0:
304,287,254176,1,0,3:0:0:0:
338,292,254241,1,8,3:2:0:0:
372,285,254306,1,0,3:0:0:0:
402,267,254372,1,0,3:0:0:0:
423,239,254437,1,0,3:0:0:0:
435,206,254502,5,12,3:2:0:0:
448,32,254632,1,4,3:3:0:0:
224,112,254763,1,4,3:3:0:0:
304,16,254893,1,4,3:3:0:0:
304,16,255024,1,4,3:2:0:0:
512,197,255285,5,4,3:3:0:0:
96,45,255546,5,0,3:0:0:0:
199,103,255676,1,12,3:3:0:0:
30,384,255806,5,0,3:0:0:0:
22,261,255937,1,8,3:3:0:0:
418,305,256067,5,4,3:3:0:0:
325,377,256198,1,12,3:3:0:0:
249,58,256328,5,4,3:3:0:0:
364,95,256459,1,12,3:3:0:0:
195,341,256589,5,4,3:3:0:0:
67,299,256719,1,12,3:3:0:0:
204,0,256850,5,0,3:0:0:0:
176,121,256980,1,8,3:3:0:0:
481,267,257111,5,4,3:3:0:0:
393,183,257241,1,12,3:3:0:0:
103,291,257372,5,4,3:3:0:0:
195,384,257502,1,12,3:3:0:0:
453,120,257632,5,4,3:3:0:0:
380,226,257763,1,8,3:3:0:0:
68,144,257893,5,8,3:3:0:0:
94,168,257959,1,0,3:0:0:0:
126,183,258024,1,0,3:0:0:0:
161,185,258089,1,0,3:0:0:0:
195,174,258154,1,0,3:0:0:0:
220,147,258219,1,0,3:0:0:0:
235,114,258285,1,0,3:0:0:0:
208,137,258350,1,0,3:0:0:0:
190,167,258415,1,0,3:0:0:0:
186,202,258480,1,0,3:0:0:0:
192,237,258545,1,0,3:0:0:0:
216,265,258610,1,0,3:0:0:0:
244,285,258676,6,0,P|282:298|324:276,1,70,4|0,1:2|1:0,1:0:0:0:
474,120,258937,1,0,1:0:0:0:
356,241,259067,1,12,1:3:0:0:
508,246,259198,1,0,1:0:0:0:
366,93,259328,6,0,P|318:92|285:119,1,70,8|4,1:3|1:3,1:0:0:0:
163,223,259589,1,8,1:3:0:0:
360,325,259720,1,0,1:0:0:0:
265,188,259850,1,12,1:3:0:0:
437,359,259981,1,0,1:0:0:0:
464,164,260111,1,8,1:3:0:0:
288,352,260241,5,12,1:2:0:0:
187,377,260328,5,8,1:2:0:0:
91,329,260415,5,8,1:2:0:0:
43,233,260502,5,8,1:2:0:0:
68,124,260589,5,8,1:2:0:0:
160,64,260676,5,8,1:2:0:0:
272,80,260763,6,0,L|336:116,1,70,4|0,1:2|1:0,1:0:0:0:
458,178,261024,1,0,3:0:0:0:
275,257,261154,2,0,L|314:179,1,70,12|0,1:3|1:0,1:0:0:0:
370,68,261415,1,8,3:3:0:0:
490,241,261546,2,0,L|422:272,1,70,4|8,1:2|1:3,1:0:0:0:
352,288,261806,6,0,L|336:288,1,8.75,8|0,3:3|2:0,3:0:0:0:
352,256,261872,2,0,L|336:256,1,8.75,8|0,3:2|2:0,3:0:0:0:
384,208,261937,2,0,L|400:208,1,8.75,8|0,3:2|2:0,3:0:0:0:
384,176,262002,2,0,L|400:176,1,8.75,8|0,3:2|2:0,3:0:0:0:
384,144,262067,1,8,3:1:0:0:
381,109,262132,1,0,3:0:0:0:
367,76,262198,1,0,3:0:0:0:
338,55,262263,1,0,3:0:0:0:
303,47,262328,1,8,3:1:0:0:
268,51,262393,1,0,3:0:0:0:
236,67,262459,1,0,3:0:0:0:
216,95,262524,1,0,3:0:0:0:
206,130,262589,2,0,L|204:158,1,17.5,8|0,1:1|2:0,1:0:0:0:
263,164,262654,2,0,L|241:177,1,17.5,8|0,3:1|2:0,3:0:0:0:
275,226,262719,2,0,L|249:221,1,17.5,8|0,1:1|2:0,1:0:0:0:
230,270,262785,2,0,L|218:247,1,17.5,8|0,3:1|2:0,3:0:0:0:
167,260,262850,6,0,L|128:233,1,35,12|8,1:2|1:3,1:0:0:0:
1,134,263111,1,0,3:0:0:0:
109,75,263241,6,0,L|98:109,1,35,12|0,1:3|1:0,1:0:0:0:
31,321,263502,1,8,3:3:0:0:
145,324,263632,2,0,L|194:325,1,35,4|8,1:2|1:3,1:0:0:0:
393,328,263893,5,0,3:0:0:0:
473,252,264024,1,8,3:3:0:0:
209,211,264154,5,0,3:0:0:0:
286,55,264285,1,8,3:3:0:0:
69,33,264415,5,0,3:0:0:0:
0,175,264546,1,8,3:3:0:0:
118,326,264676,5,0,1:0:0:0:
149,311,264741,1,0,1:0:0:0:
171,284,264806,1,0,1:0:0:0:
177,249,264872,1,0,1:0:0:0:
176,214,264937,5,4,1:3:0:0:
174,179,265002,1,0,1:0:0:0:
172,144,265067,1,8,1:3:0:0:
171,109,265132,1,0,1:0:0:0:
237,116,265198,5,0,1:0:0:0:
238,142,265263,1,0,1:0:0:0:
239,167,265328,1,12,1:3:0:0:
241,192,265393,1,0,1:0:0:0:
302,178,265459,5,0,1:0:0:0:
301,160,265524,1,0,1:0:0:0:
300,142,265589,1,8,1:3:0:0:
299,124,265654,1,0,1:0:0:0:
353,128,265719,5,4,1:3:0:0:
354,136,265785,1,0,1:0:0:0:
355,144,265850,1,8,1:3:0:0:
356,152,265915,1,0,1:0:0:0:
371,227,265980,6,0,L|365:245,3,11.5499999647522,8|8|8|8,3:3|3:3|3:3|3:3,3:0:0:0:
226,152,266252,6,8,L|220:167,3,11.5499999647522,8|8|8|8,3:2|3:2|3:2|3:2,3:2:0:0:
281,212,266525,5,0,3:0:0:0:
276,226,266593,1,0,3:0:0:0:
271,240,266661,1,0,3:0:0:0:
266,254,266730,1,0,3:0:0:0:
200,275,266798,5,0,3:0:0:0:
194,288,266866,1,0,3:0:0:0:
188,301,266934,1,0,3:0:0:0:
182,314,267002,1,0,3:0:0:0:
176,328,267070,5,4,3:2:0:0:
136,351,267139,1,0,3:0:0:0:
90,347,267207,1,0,3:0:0:0:
51,322,267275,1,0,3:0:0:0:
40,277,267343,1,0,3:0:0:0:
53,233,267411,1,0,3:0:0:0:
70,190,267480,1,0,3:0:0:0:
86,147,267548,1,0,3:0:0:0:
103,105,267616,5,4,3:2:0:0:
129,118,267684,1,0,3:0:0:0:
156,130,267752,1,0,3:0:0:0:
184,140,267820,1,0,3:0:0:0:
212,149,267889,1,0,3:0:0:0:
241,155,267957,1,0,3:0:0:0:
270,159,268025,1,0,3:0:0:0:
299,161,268093,1,0,3:0:0:0:
328,156,268161,5,12,3:2:0:0:
319,163,268230,1,0,3:0:0:0:
310,171,268298,1,0,3:0:0:0:
302,180,268366,1,0,3:0:0:0:
293,188,268434,1,0,3:0:0:0:
284,196,268502,1,0,3:0:0:0:
275,204,268570,1,0,3:0:0:0:
266,212,268639,1,0,3:0:0:0:
257,220,268707,5,4,3:3:0:0:
233,244,268775,1,0,3:0:0:0:
220,275,268843,1,0,3:0:0:0:
222,308,268911,1,0,3:0:0:0:
239,338,268980,1,0,3:0:0:0:
266,358,269048,1,0,3:0:0:0:
299,362,269116,1,0,3:0:0:0:
332,356,269184,1,4,3:3:0:0:
364,362,269252,5,4,3:2:0:0:
414,347,269320,1,4,3:3:0:0:
392,298,269389,1,0,3:0:0:0:
419,253,269457,1,0,3:0:0:0:
471,258,269525,1,4,3:3:0:0:
505,205,269593,1,0,3:0:0:0:
498,142,269661,1,4,3:3:0:0:
446,104,269730,1,0,3:0:0:0:
414,113,269798,5,4,3:3:0:0:
386,125,269866,1,0,3:0:0:0:
358,137,269934,1,0,3:0:0:0:
330,149,270002,1,0,3:0:0:0:
302,161,270070,1,0,3:0:0:0:
274,173,270139,1,0,3:0:0:0:
246,185,270207,1,0,3:0:0:0:
218,197,270275,1,0,3:0:0:0:
190,209,270343,5,12,3:3:0:0:
122,199,270411,1,0,3:0:0:0:
87,138,270480,1,0,3:0:0:0:
130,85,270548,1,0,3:0:0:0:
198,87,270616,5,8,3:2:0:0:
212,87,270684,1,0,3:0:0:0:
226,87,270752,1,0,3:0:0:0:
240,87,270820,1,0,3:0:0:0:
284,45,270889,5,0,3:0:0:0:
298,45,270957,1,0,3:0:0:0:
312,45,271025,1,0,3:0:0:0:
326,45,271093,1,0,3:0:0:0:
373,91,271161,5,0,3:0:0:0:
388,91,271230,1,0,3:0:0:0:
402,91,271298,1,0,3:0:0:0:
416,91,271366,1,0,3:0:0:0:
430,91,271434,6,0,B|456:52|456:52|431:92|431:92|449:123|449:123|457:128|457:128|467:154|467:154|404:181|404:181|355:160|355:160|364:174|364:174|376:181|376:181|404:234|404:234|359:263|359:263|402:236|402:236|416:237|416:237|446:209|446:209|400:272|400:272|398:279|398:279|352:352,1,700.000026702882,4|0,2:2|2:0,2:0:0:0:
272,352,271980,1,4,3:3:0:0:
272,272,272070,1,0,3:0:0:0:
272,192,272161,1,0,3:0:0:0:
272,112,272252,1,0,3:0:0:0:
272,0,272343,5,0,3:0:0:0:
352,112,272434,1,0,3:0:0:0:
192,112,272525,2,0,B|168:63|168:63|142:96|142:96|172:139|172:139|185:188|185:188|89:132,1,280.000010681153,4|0,2:2|2:0,2:0:0:0:
48,112,272798,1,8,3:3:0:0:
257,338,273616,6,0,B|244:293|244:293|208:304|208:304|202:298|202:298|160:304|160:304|304:320|304:320|262:261|251:212|251:212|178:196|178:196|208:176|208:176|224:176|224:176|279:124|240:157|240:157|251:213|320:256,1,700.000026702882,4|0,2:2|2:0,2:0:0:0:
448,336,274161,1,4,3:3:0:0:
448,272,274252,1,0,3:0:0:0:
448,208,274343,1,0,3:0:0:0:
448,144,274434,1,0,3:0:0:0:
368,192,274525,5,0,3:0:0:0:
352,80,274616,1,0,3:0:0:0:
256,144,274707,2,0,B|187:132|155:79|155:79|133:118|127:159|127:159|133:117|93:58|93:58|78:83,1,280.000010681153,4|0,2:3|2:0,2:0:0:0:
80,16,274980,1,8,3:3:0:0:
80,352,275252,1,4,3:3:0:0:
464,352,275525,1,4,3:3:0:0:
448,16,275798,6,0,B|373:52|288:64|288:64|340:116|416:160|416:160|251:140|176:160|176:160|174:229|109:303,1,700.000026702882,4|0,2:2|2:0,2:0:0:0:
80,368,276343,1,4,3:3:0:0:
240,368,276525,1,0,3:0:0:0:
240,224,276707,1,0,3:0:0:0:
80,224,276889,1,12,3:3:0:0:
240,224,277434,5,12,3:3:0:0:
240,368,277616,1,0,3:0:0:0:
80,368,277798,1,0,3:0:0:0:
116,278,277980,2,0,B|173:224|176:160|176:160|251:141|416:160|416:160|340:116|288:64|288:64|373:52|448:16,1,700.000026702882,12|0,2:3|2:0,2:0:0:0:
448,0,278525,5,4,3:3:0:0:
400,96,278616,1,0,3:0:0:0:
464,144,278707,1,0,3:0:0:0:
352,192,278798,5,0,3:0:0:0:
432,240,278889,1,0,3:0:0:0:
384,368,278980,1,0,3:0:0:0:
293,279,279070,6,0,B|251:256|219:258|219:258|253:234|278:193|278:193|253:150|277:109|277:109|237:182|204:188|204:188|171:243|171:243|146:226,1,420.000016021729,4|12,2:3|2:3,2:0:0:0:
125,351,279616,1,4,3:2:0:0:
125,351,279889,1,0,3:0:0:0:
36,221,280025,1,0,3:0:0:0:
114,91,280161,5,4,3:3:0:0:
149,62,280252,1,0,3:0:0:0:
191,44,280343,1,0,3:0:0:0:
236,38,280434,1,0,3:0:0:0:
281,39,280525,1,0,3:0:0:0:
324,53,280616,1,0,3:0:0:0:
360,79,280707,1,4,3:3:0:0:
385,116,280798,1,0,3:0:0:0:
396,160,280889,1,0,3:0:0:0:
396,205,280980,1,0,3:0:0:0:
396,250,281070,1,0,3:0:0:0:
396,295,281161,1,0,3:0:0:0:
439,374,281252,5,12,3:3:0:0:
439,374,281343,1,0,3:0:0:0:
439,374,281434,1,0,3:0:0:0:
439,374,281525,1,4,3:2:0:0:
439,374,281616,1,0,3:0:0:0:
439,374,281707,1,0,3:0:0:0:
439,374,281798,1,4,3:3:0:0:
439,374,281889,1,0,3:0:0:0:
439,374,281980,1,0,3:0:0:0:
439,374,282070,1,0,3:2:0:0:
439,374,282161,1,0,3:0:0:0:
439,374,282252,1,0,3:0:0:0:
397,340,282343,5,4,3:3:0:0:
397,340,282434,1,0,3:0:0:0:
397,340,282525,1,0,3:0:0:0:
397,340,282616,1,0,3:0:0:0:
397,340,282707,1,0,3:0:0:0:
397,340,282798,1,0,3:0:0:0:
397,340,282889,1,4,3:2:0:0:
397,340,282980,1,0,3:0:0:0:
397,340,283070,1,0,3:0:0:0:
397,340,283161,1,0,3:0:0:0:
397,340,283252,1,0,3:0:0:0:
397,340,283343,1,0,3:0:0:0:
312,253,283434,5,12,3:3:0:0:
344,221,283525,1,0,3:0:0:0:
357,177,283616,1,0,3:0:0:0:
350,131,283707,1,4,3:3:0:0:
187,180,283798,5,0,3:0:0:0:
226,157,283889,1,0,3:0:0:0:
252,120,283980,1,4,3:3:0:0:
270,78,284070,1,0,3:0:0:0:
20,151,284161,5,0,3:0:0:0:
64,142,284252,1,4,3:3:0:0:
103,119,284343,1,0,3:0:0:0:
137,88,284434,1,0,3:0:0:0:
199,24,284525,5,4,3:2:0:0:
243,15,284616,1,0,3:0:0:0:
287,19,284707,1,0,3:0:0:0:
327,43,284798,1,0,3:0:0:0:
354,79,284889,1,0,3:0:0:0:
370,121,284980,1,0,3:0:0:0:
372,165,285070,5,4,3:2:0:0:
327,155,285161,1,0,3:0:0:0:
281,157,285252,1,0,3:0:0:0:
240,178,285343,5,0,3:0:0:0:
282,160,285434,1,0,3:0:0:0:
327,155,285525,1,0,3:0:0:0:
363,181,285616,1,12,3:3:0:0:
363,181,286161,5,12,3:3:0:0:
367,225,286252,1,0,3:0:0:0:
331,262,286343,1,0,3:0:0:0:
285,261,286434,1,4,3:3:0:0:
252,225,286525,2,0,P|225:202|192:191,1,70.0000026702882,0|0,3:0|3:0,3:0:0:0:
128,34,286707,5,4,3:2:0:0:
212,0,286798,1,0,3:0:0:0:
299,25,286889,1,0,3:0:0:0:
361,90,286980,1,0,3:0:0:0:
358,180,287070,1,0,3:0:0:0:
314,260,287161,1,0,3:0:0:0:
233,299,287252,5,4,3:2:0:0:
323,291,287343,1,0,3:0:0:0:
378,218,287434,1,0,3:0:0:0:
355,129,287525,1,0,3:0:0:0:
284,71,287616,1,0,3:0:0:0:
196,86,287707,1,0,3:0:0:0:
139,157,287798,5,12,3:3:0:0:
502,156,287934,1,4,3:2:0:0:
331,10,288070,5,12,3:3:0:0:
338,44,288139,1,8,3:2:0:0:
326,79,288207,1,8,3:2:0:0:
338,111,288275,1,8,3:2:0:0:
265,84,288343,5,8,3:2:0:0:
231,75,288411,1,8,3:2:0:0:
197,96,288480,1,8,3:2:0:0:
162,75,288548,1,8,3:2:0:0:
91,74,288616,5,8,3:2:0:0:
73,108,288684,1,8,3:2:0:0:
106,142,288752,1,8,3:2:0:0:
72,184,288820,1,8,3:2:0:0:
82,277,288889,5,4,3:2:0:0:
136,241,288957,1,8,3:3:0:0:
194,250,289025,1,0,3:0:0:0:
222,286,289093,1,8,3:3:0:0:
275,257,289161,1,4,3:3:0:0:
330,233,289230,1,8,3:3:0:0:
337,288,289298,1,0,3:0:0:0:
352,315,289366,1,8,3:3:0:0:
421,310,289434,5,4,3:3:0:0:
449,330,289502,1,8,3:3:0:0:
459,249,289570,1,0,3:0:0:0:
434,182,289639,1,8,3:3:0:0:
467,124,289707,1,4,3:3:0:0:
446,67,289775,1,8,3:3:0:0:
394,87,289843,1,0,3:0:0:0:
368,82,289911,1,8,3:3:0:0:
328,39,289980,5,4,3:3:0:0:
275,62,290048,1,8,3:3:0:0:
272,109,290116,1,0,3:0:0:0:
299,133,290184,1,8,3:3:0:0:
329,175,290252,1,4,3:3:0:0:
319,237,290320,1,8,3:3:0:0:
259,290,290389,1,0,3:0:0:0:
185,250,290457,1,8,3:3:0:0:
191,177,290525,5,4,3:3:0:0:
188,135,290593,1,8,3:3:0:0:
125,125,290661,1,0,3:0:0:0:
110,78,290730,1,8,3:3:0:0:
64,58,290798,1,4,3:3:0:0:
18,68,290866,1,8,3:3:0:0:
38,127,290934,1,0,3:0:0:0:
34,152,291002,1,8,3:3:0:0:
85,191,291070,5,4,3:3:0:0:
116,240,291139,1,8,3:3:0:0:
112,302,291207,1,0,3:0:0:0:
65,344,291275,1,8,3:3:0:0:
33,346,291343,1,4,3:3:0:0:
14,320,291411,1,8,3:3:0:0:
15,298,291480,1,0,3:0:0:0:
29,293,291548,1,8,3:3:0:0:
110,343,291616,5,4,3:3:0:0:
158,370,291684,1,8,3:3:0:0:
228,351,291752,1,0,3:0:0:0:
309,365,291820,1,8,3:3:0:0:
367,323,291889,1,4,3:3:0:0:
346,298,291957,1,8,3:3:0:0:
325,292,292025,1,0,3:0:0:0:
315,295,292093,1,8,3:3:0:0:
237,309,292161,5,4,3:2:0:0:
261,221,292230,1,8,3:3:0:0:
337,186,292298,1,0,3:0:0:0:
412,207,292366,1,8,3:3:0:0:
473,178,292434,1,0,3:0:0:0:
496,125,292502,1,8,3:3:0:0:
491,78,292570,1,0,3:0:0:0:
464,51,292639,1,8,3:3:0:0:
429,37,292707,6,0,L|365:37,3,35,4|8|0|8,3:2|3:3|3:0|3:3,3:0:0:0:
344,92,292980,2,0,L|344:141,3,35,0|8|0|8,3:0|3:3|3:0|3:3,3:0:0:0:
265,33,293252,6,0,L|219:32,1,35,4|8,3:2|3:3,3:0:0:0:
118,49,293389,1,0,3:0:0:0:
87,66,293457,1,8,3:3:0:0:
72,97,293525,1,4,3:3:0:0:
151,117,293593,1,8,3:3:0:0:
177,139,293661,1,0,3:0:0:0:
191,171,293730,1,8,3:3:0:0:
125,237,293798,6,0,L|89:231,1,35,4|8,3:3|3:3,3:0:0:0:
1,286,293934,1,0,3:0:0:0:
22,313,294002,1,8,3:3:0:0:
55,323,294070,1,4,3:3:0:0:
147,304,294139,1,8,3:3:0:0:
180,295,294207,1,0,3:0:0:0:
213,305,294275,1,8,3:3:0:0:
310,331,294343,6,0,L|290:288,7,35,4|8|0|8|4|8|0|8,3:3|3:3|3:0|3:3|3:3|3:3|3:0|3:3,3:0:0:0:
322,245,294889,1,4,3:3:0:0:
307,213,294957,1,8,3:3:0:0:
284,191,295025,1,0,3:0:0:0:
260,175,295093,1,8,3:3:0:0:
238,164,295161,1,4,3:3:0:0:
217,159,295230,1,8,3:3:0:0:
199,159,295298,1,0,3:0:0:0:
185,163,295366,1,8,3:3:0:0:
117,190,295434,5,4,3:3:0:0:
113,141,295502,1,8,3:3:0:0:
129,102,295570,1,0,3:0:0:0:
155,78,295639,1,8,3:3:0:0:
189,73,295707,5,4,3:3:0:0:
222,91,295775,1,8,3:3:0:0:
263,89,295843,1,0,3:0:0:0:
302,67,295911,1,8,3:3:0:0:
350,15,295980,5,4,3:3:0:0:
389,58,296048,1,8,3:3:0:0:
408,106,296116,1,0,3:0:0:0:
405,158,296184,1,8,3:3:0:0:
427,226,296252,5,12,3:3:0:0:
368,234,296320,1,8,3:3:0:0:
308,243,296389,1,8,3:3:0:0:
249,252,296457,1,8,3:3:0:0:
260,315,296525,5,6,3:3:0:0:
221,319,296593,1,2,3:3:0:0:
182,323,296661,1,2,3:3:0:0:
143,327,296730,1,2,3:3:0:0:
105,382,296798,5,6,3:3:0:0:
103,348,296866,1,2,3:3:0:0:
101,314,296934,1,2,3:3:0:0:
99,280,297002,1,2,3:3:0:0:
149,232,297070,6,2,L|147:221,1,10.4999996795654,6|2,3:3|3:3,3:3:0:0:
140,53,297275,6,2,L|145:65,1,10.4999996795654,2|2,3:3|3:3,3:3:0:0:
238,226,297480,6,2,L|242:221,1,5.24999983978272,6|2,3:3|3:3,3:3:0:0:
287,162,297616,5,4,3:2:0:0:
315,151,297684,1,8,3:3:0:0:
381,181,297752,1,0,3:0:0:0:
442,156,297820,1,8,3:3:0:0:
426,99,297889,1,4,3:3:0:0:
444,66,297957,1,8,3:3:0:0:
384,39,298025,1,0,3:0:0:0:
339,46,298093,1,8,3:3:0:0:
271,30,298161,5,4,3:3:0:0:
253,66,298230,1,8,3:3:0:0:
235,67,298298,1,0,3:0:0:0:
194,39,298366,1,8,3:3:0:0:
141,18,298434,1,4,3:3:0:0:
71,23,298502,1,8,3:3:0:0:
60,60,298570,1,0,3:0:0:0:
85,78,298639,1,8,3:3:0:0:
48,130,298707,5,4,3:3:0:0:
95,169,298775,1,8,3:3:0:0:
123,240,298843,1,0,3:0:0:0:
107,282,298911,1,8,3:3:0:0:
75,316,298980,1,4,3:3:0:0:
82,353,299048,1,8,3:3:0:0:
139,382,299116,1,0,3:0:0:0:
195,340,299184,1,8,3:3:0:0:
279,380,299252,5,4,3:3:0:0:
286,307,299320,1,8,3:3:0:0:
250,267,299389,1,0,3:0:0:0:
232,245,299457,1,8,3:3:0:0:
251,229,299525,1,4,3:3:0:0:
300,190,299593,1,8,3:3:0:0:
327,129,299661,1,0,3:0:0:0:
369,128,299730,1,8,3:3:0:0:
399,190,299798,5,4,3:3:0:0:
423,193,299866,1,8,3:3:0:0:
449,165,299934,1,0,3:0:0:0:
434,100,300002,1,8,3:3:0:0:
404,65,300070,1,4,3:3:0:0:
420,22,300139,1,8,3:3:0:0:
440,22,300207,1,0,3:0:0:0:
453,37,300275,1,8,3:3:0:0:
363,37,300343,5,4,3:3:0:0:
312,48,300411,1,8,3:3:0:0:
260,21,300480,1,0,3:0:0:0:
183,19,300548,1,8,3:3:0:0:
140,36,300616,1,4,3:3:0:0:
129,61,300684,1,8,3:3:0:0:
179,92,300752,1,0,3:0:0:0:
180,165,300820,1,8,3:3:0:0:
110,190,300889,5,4,3:2:0:0:
102,241,300957,1,8,3:3:0:0:
137,284,301025,1,0,3:0:0:0:
194,297,301093,1,8,3:3:0:0:
256,287,301161,1,0,3:0:0:0:
296,233,301230,1,8,3:3:0:0:
311,164,301298,1,0,3:0:0:0:
379,137,301366,1,8,3:3:0:0:
447,173,301434,6,0,L|468:202,4,35,4|8|0|8|0,3:2|3:3|3:0|3:0|3:0,3:0:0:0:
460,98,301775,6,0,L|486:74,1,35,8|0,3:3|3:0,3:0:0:0:
370,59,301911,2,0,L|391:21,1,35,8|4,3:3|3:2,3:0:0:0:
308,99,302048,2,0,L|275:71,1,35,8|0,3:3|3:0,3:0:0:0:
212,62,302184,2,0,L|162:51,4,35,8|0|8|0|8,3:3|3:0|3:3|3:0|3:3,3:0:0:0:
105,47,302525,1,4,3:3:0:0:
49,67,302593,1,8,3:3:0:0:
19,118,302661,1,0,3:0:0:0:
29,181,302730,1,8,3:3:0:0:
76,215,302798,1,0,3:0:0:0:
142,234,302866,6,0,L|147:191,1,35,8|0,3:3|3:0,3:0:0:0:
208,168,303002,2,0,L|241:205,1,35,8|4,3:3|3:3,3:0:0:0:
280,142,303139,2,0,L|271:82,1,35,8|0,3:3|3:0,3:0:0:0:
339,81,303275,2,0,L|394:94,4,35,8|0|8|0|8,3:3|3:0|3:3|3:0|3:3,3:0:0:0:
441,110,303616,5,4,3:2:0:0:
472,143,303684,1,8,3:3:0:0:
489,184,303752,1,0,3:0:0:0:
483,222,303820,1,8,3:3:0:0:
463,255,303889,1,0,3:0:0:0:
439,274,303957,1,8,3:3:0:0:
432,292,304025,1,0,3:0:0:0:
443,315,304093,1,8,3:3:0:0:
457,330,304161,6,0,P|425:328|399:341,1,46.6666666666667,12|8,1:2|1:3,1:0:0:0:
362,346,304343,2,0,B|354:301|374:266|374:266|342:298|287:307,1,140.000005340576,0|8,0:0|0:3,0:0:0:0:
291,278,304525,2,0,B|318:247|318:247|303:226|310:197|310:197|282:207|282:207|267:185|222:112|222:112,1,186.666666666667,0|8,1:0|1:3,1:0:0:0:
230,131,304707,2,0,B|192:159|192:159|186:176|186:176|148:196|148:196|140:213|140:213|148:232|148:232|136:248|136:248|134:280|134:280|56:179,1,280.000010681153,12|12,1:2|1:3,1:0:0:0:
37,148,304980,5,8,3:2:0:0:
48,94,305048,1,8,3:2:0:0:
85,62,305116,1,8,3:2:0:0:
127,56,305184,1,8,3:2:0:0:
158,66,305252,6,2,L|201:81,3,26.2500010013581,2|2|2|2,3:3|3:3|3:3|3:3,3:3:0:0:
220,24,305525,2,2,L|243:31,3,17.5,2|2|2|2,3:3|3:3|3:3|3:3,3:3:0:0:
434,44,305798,2,2,L|438:53,3,8.75,2|2|2|2,3:3|3:3|3:3|3:3,3:3:0:0:
509,131,306070,2,8,L|512:157,1,23.3333333333333,12|8,3:3|3:3,3:3:0:0:
422,310,306345,5,12,3:3:0:0:
360,342,306413,1,0,3:0:0:0:
290,344,306481,1,8,3:3:0:0:
236,310,306549,1,0,3:0:0:0:
213,251,306617,1,8,3:3:0:0:
173,211,306685,1,0,3:0:0:0:
116,207,306754,1,8,3:3:0:0:
84,234,306822,1,0,3:0:0:0:
84,275,306890,1,12,3:3:0:0:
111,296,306958,1,0,3:0:0:0:
144,285,307026,1,8,3:3:0:0:
149,257,307095,1,0,3:0:0:0:
124,243,307163,5,8,3:3:0:0:
115,216,307231,1,0,3:0:0:0:
126,182,307299,1,8,3:3:0:0:
160,173,307367,1,0,3:0:0:0:
193,197,307435,1,12,3:3:0:0:
209,235,307504,1,0,3:0:0:0:
240,273,307572,1,8,3:3:0:0:
285,291,307640,1,0,3:0:0:0:
339,277,307708,1,8,3:3:0:0:
370,230,307776,1,0,3:0:0:0:
359,166,307845,1,8,3:3:0:0:
319,118,307913,1,0,3:0:0:0:
315,143,307981,5,12,3:3:0:0:
291,171,308049,1,0,3:0:0:0:
244,167,308117,1,8,3:3:0:0:
226,112,308185,1,0,3:0:0:0:
268,71,308254,5,12,3:3:0:0:
222,52,308322,1,0,3:0:0:0:
160,61,308390,1,8,3:3:0:0:
127,126,308458,1,0,3:0:0:0:
166,187,308526,5,12,3:3:0:0:
89,151,308595,1,0,3:0:0:0:
32,188,308663,1,8,3:3:0:0:
27,239,308731,1,0,3:0:0:0:
47,256,308799,5,8,3:3:0:0:
78,249,308867,1,0,3:0:0:0:
116,257,308935,1,8,3:3:0:0:
149,291,309004,1,0,3:0:0:0:
148,347,309072,5,12,3:3:0:0:
205,327,309140,1,0,3:0:0:0:
246,325,309208,1,8,3:3:0:0:
271,297,309276,1,0,3:0:0:0:
303,296,309345,5,12,3:3:0:0:
306,250,309413,1,0,3:0:0:0:
264,218,309481,1,8,3:3:0:0:
265,160,309549,1,0,3:0:0:0:
323,127,309617,5,12,3:3:0:0:
254,101,309685,1,0,3:0:0:0:
182,118,309753,1,8,3:3:0:0:
124,163,309821,1,0,3:0:0:0:
50,167,309889,5,12,3:3:0:0:
74,108,309957,1,0,3:0:0:0:
126,144,310026,1,8,3:3:0:0:
78,193,310094,1,0,3:0:0:0:
56,263,310162,5,12,3:3:0:0:
116,288,310230,1,0,3:0:0:0:
182,262,310298,1,8,3:3:0:0:
232,291,310367,1,0,3:0:0:0:
275,353,310435,5,12,3:3:0:0:
316,312,310503,1,0,3:0:0:0:
296,241,310571,1,8,3:3:0:0:
346,177,310639,1,0,3:0:0:0:
431,200,310707,5,12,3:3:0:0:
467,133,310777,1,0,3:0:0:0:
436,72,310845,1,8,3:3:0:0:
372,47,310913,1,0,3:0:0:0:
323,58,310981,1,12,3:3:0:0:
288,93,311049,1,4,3:3:0:0:
252,110,311118,1,12,3:3:0:0:
212,106,311186,1,0,3:0:0:0:
185,89,311254,1,12,3:3:0:0:
158,72,311322,1,0,3:0:0:0:
143,53,311390,1,8,3:3:0:0:
141,37,311459,1,0,3:0:0:0:
147,0,311527,5,12,3:3:0:0:
180,33,311595,1,0,3:0:0:0:
176,87,311663,1,8,3:3:0:0:
134,137,311731,1,0,3:0:0:0:
74,163,311799,1,12,3:3:0:0:
30,223,311868,1,0,3:0:0:0:
26,296,311936,1,8,3:3:0:0:
78,347,312004,1,0,3:0:0:0:
159,350,312072,1,8,3:3:0:0:
217,293,312140,1,0,3:0:0:0:
207,205,312209,1,8,3:3:0:0:
124,177,312277,1,0,3:0:0:0:
59,242,312345,5,12,3:3:0:0:
100,302,312413,1,0,3:0:0:0:
172,292,312481,1,8,3:3:0:0:
225,249,312549,1,0,3:0:0:0:
223,187,312618,1,8,3:3:0:0:
184,155,312686,1,0,3:0:0:0:
134,155,312754,1,8,3:3:0:0:
116,189,312822,1,0,3:0:0:0:
139,220,312890,5,12,3:3:0:0:
170,221,312959,1,0,3:0:0:0:
182,198,313027,1,0,3:0:0:0:
176,172,313095,1,0,3:0:0:0:
198,145,313163,5,8,3:3:0:0:
326,165,313254,1,8,3:3:0:0:
283,35,313345,1,8,3:3:0:0:
198,145,313436,5,8,3:2:0:0:
336,234,313527,1,8,3:2:0:0:
348,56,313618,1,8,3:2:0:0:
198,145,313709,5,8,3:1:0:0:
344,304,313799,1,8,3:1:0:0:
414,78,313890,1,8,3:1:0:0:
128,112,313981,6,0,B|96:96|96:128|96:128|144:144|144:144|112:176|32:160|32:160|76:210|76:210|65:219,1,278.250011675835,4|0,3:2|3:0,3:0:0:0:
108,239,314253,2,0,L|164:239,3,35,4|0|0|0,3:3|3:0|3:0|3:0,3:0:0:0:
124,340,314526,5,8,3:2:0:0:
299,344,314594,1,8,3:2:0:0:
344,189,314662,1,8,3:2:0:0:
206,95,314731,1,8,3:2:0:0:
153,185,314799,5,8,3:3:0:0:
259,145,314867,1,8,3:3:0:0:
259,37,314935,1,8,3:3:0:0:
154,0,315003,1,8,3:3:0:0:
64,48,315071,5,12,3:3:0:0:
42,120,315141,1,0,3:0:0:0:
63,190,315209,1,8,3:3:0:0:
119,228,315277,1,0,3:0:0:0:
186,232,315345,1,8,3:3:0:0:
247,202,315413,1,0,3:0:0:0:
280,153,315482,1,8,3:3:0:0:
299,98,315550,1,0,3:0:0:0:
337,62,315618,5,12,3:3:0:0:
389,58,315686,1,0,3:0:0:0:
433,72,315754,1,8,3:3:0:0:
461,96,315823,1,0,3:0:0:0:
466,121,315891,5,12,3:3:0:0:
432,117,315959,1,0,3:0:0:0:
402,134,316027,1,8,3:3:0:0:
380,166,316095,1,0,3:0:0:0:
342,153,316163,5,12,3:3:0:0:
310,120,316232,1,0,3:0:0:0:
318,71,316300,1,8,3:3:0:0:
272,40,316368,1,0,3:0:0:0:
211,35,316436,1,8,3:3:0:0:
162,70,316504,1,0,3:0:0:0:
156,136,316573,1,8,3:3:0:0:
186,193,316641,1,0,3:0:0:0:
253,213,316709,5,12,3:3:0:0:
330,203,316777,1,0,3:0:0:0:
410,224,316845,1,8,3:3:0:0:
474,285,316913,1,0,3:0:0:0:
405,262,316982,5,8,3:3:0:0:
342,269,317050,1,0,3:0:0:0:
304,305,317118,1,8,3:3:0:0:
294,340,317186,1,0,3:0:0:0:
209,334,317254,1,12,3:3:0:0:
160,269,317323,1,0,3:0:0:0:
186,193,317391,1,8,3:3:0:0:
261,170,317459,1,0,3:0:0:0:
512,146,317527,6,0,L|476:163,1,26.2500010013581,12|0,3:3|3:0,3:0:0:0:
243,260,317663,2,0,L|260:236,1,26.2500010013581,8|0,3:3|3:0,3:0:0:0:
382,0,317800,6,0,L|381:27,1,26.2500010013581,12|0,3:3|3:0,3:0:0:0:
380,355,317936,2,0,L|372:325,1,26.2500010013581,8|0,3:3|3:0,3:0:0:0:
289,34,318073,6,0,L|307:71,1,26.2500010013581,12|0,3:3|3:0,3:0:0:0:
469,367,318209,2,0,L|458:334,1,26.2500010013581,8|0,3:3|3:0,3:0:0:0:
403,196,318347,5,12,3:3:0:0:
362,119,318415,1,0,3:0:0:0:
282,85,318483,1,8,3:3:0:0:
210,110,318551,1,0,3:0:0:0:
177,177,318619,1,8,3:3:0:0:
190,246,318687,1,0,3:0:0:0:
232,282,318756,1,0,3:0:0:0:
284,275,318824,1,0,3:0:0:0:
303,237,318892,5,0,3:0:0:0:
300,205,318960,1,0,3:0:0:0:
283,178,319028,1,0,3:0:0:0:
266,165,319097,1,0,3:0:0:0:
297,166,319165,5,4,3:3:0:0:
342,178,319233,1,0,3:0:0:0:
388,220,319301,1,8,3:3:0:0:
421,291,319369,1,0,3:0:0:0:
404,367,319437,5,12,3:3:0:0:
368,285,319507,1,0,3:0:0:0:
367,204,319575,1,8,3:3:0:0:
399,138,319643,1,0,3:0:0:0:
434,90,319711,1,8,3:3:0:0:
473,68,319779,1,0,3:0:0:0:
395,24,319848,5,12,3:3:0:0:
314,84,319916,1,0,3:0:0:0:
227,94,319984,1,8,3:3:0:0:
154,67,320052,1,0,3:0:0:0:
90,87,320120,1,8,3:3:0:0:
55,136,320189,1,0,3:0:0:0:
52,184,320257,1,12,3:3:0:0:
72,220,320325,1,0,3:0:0:0:
98,228,320393,1,8,3:3:0:0:
118,221,320461,1,0,3:0:0:0:
128,203,320529,5,8,3:3:0:0:
137,183,320598,1,0,3:0:0:0:
161,163,320666,1,12,3:3:0:0:
213,167,320734,1,0,3:0:0:0:
259,218,320802,1,8,3:3:0:0:
259,294,320870,1,0,3:0:0:0:
187,340,320939,1,8,3:3:0:0:
95,304,321007,1,0,3:0:0:0:
87,189,321075,5,12,3:3:0:0:
191,110,321143,1,0,3:0:0:0:
314,152,321211,1,8,3:3:0:0:
346,240,321279,1,0,3:0:0:0:
348,298,321348,5,8,3:3:0:0:
362,220,321416,1,0,3:0:0:0:
397,168,321484,1,8,3:3:0:0:
432,145,321552,1,0,3:0:0:0:
452,143,321620,5,12,3:3:0:0:
427,127,321689,1,0,3:0:0:0:
395,102,321757,1,0,3:0:0:0:
364,62,321825,1,0,3:0:0:0:
302,33,321893,5,8,3:2:0:0:
291,116,321961,1,8,3:2:0:0:
223,181,322029,1,8,3:2:0:0:
113,160,322098,1,8,3:2:0:0:
42,62,322166,5,8,3:2:0:0:
71,151,322234,1,8,3:2:0:0:
87,233,322302,1,8,3:2:0:0:
69,298,322370,1,8,3:2:0:0:
45,324,322439,5,12,3:2:0:0:
125,283,322507,1,8,3:2:0:0:
236,263,322575,1,8,3:2:0:0:
371,295,322643,1,8,3:2:0:0:
484,384,322712,6,8,L|522:374,3,26.2500010013581,8|8|8|8,3:2|3:2|3:2|3:2,3:2:0:0:
491,209,322984,2,8,L|513:225,3,26.2500010013581,8|8|8|8,3:1|3:1|3:1|3:1,3:1:0:0:
392,220,323257,6,8,L|352:204,3,26.2500010013581,8|8|8|8,3:1|3:1|3:1|3:1,3:1:0:0:
391,44,323530,2,8,L|407:19,3,26.2500010013581,12|8|8|8,3:3|3:3|3:3|3:3,3:3:0:0:
209,50,323804,6,0,B|150:41|140:106|195:113|264:71|264:71|290:76|313:67|313:67|327:99|357:117|357:117|295:139|281:158|281:158|259:185|227:194|227:194|258:201|284:224|284:224|267:235|255:264,1,560,12|0,2:3|2:0,2:0:0:0:
98,290,324622,2,0,B|122:371|144:294|144:294|173:324|210:346|210:346|239:346|274:357|274:357|280:339|302:317,1,280,4|0,2:3|2:0,2:0:0:0:
377,179,325440,2,0,P|331:167|300:141,1,87.5,4|0,2:2|2:0,2:0:0:0:
141,83,326258,5,8,3:3:0:0:
121,111,326326,1,8,3:3:0:0:
100,139,326394,1,8,3:3:0:0:
79,167,326463,1,8,3:3:0:0:
162,171,326531,1,8,3:3:0:0:
255,119,326667,5,0,3:0:0:0:
139,239,326804,1,0,3:0:0:0:
362,244,326940,1,0,3:0:0:0:
451,76,327076,5,12,1:3:0:0:
384,326,327212,1,0,3:0:0:0:
122,317,327348,1,2,1:2:0:0:
103,287,327416,1,2,3:2:0:0:
88,254,327485,1,2,3:2:0:0:
78,220,327553,1,2,3:2:0:0:
72,186,327621,5,2,1:2:0:0:
124,186,327689,1,2,3:2:0:0:
173,202,327757,1,2,3:2:0:0:
216,232,327826,1,2,3:2:0:0:
246,274,327894,5,2,1:2:0:0:
315,263,327962,1,2,3:2:0:0:
368,218,328030,1,2,3:2:0:0:
381,149,328098,1,2,3:2:0:0:
358,81,328164,6,0,P|316:91|273:77,1,70,14|0,2:3|2:3,2:3:0:0:
65,49,328982,2,0,P|103:59|124:81,1,70,12|0,2:3|2:0,2:0:0:0:
445,319,329800,2,0,P|398:319|363:299,1,87.5,12|0,2:3|2:0,2:0:0:0:
144,46,330618,5,0,3:2:0:0:
222,265,330891,5,0,3:2:0:0:
81,303,331027,1,0,3:2:0:0:
273,357,331164,1,0,3:2:0:0:
512,151,331436,5,0,3:2:0:0:
166,167,331708,5,0,3:2:0:0:
230,206,331845,1,0,3:2:0:0:
173,83,331981,5,0,3:2:0:0:
309,39,332117,1,0,3:2:0:0:
88,188,332254,1,0,3:2:0:0:
126,0,332390,1,0,3:2:0:0:
0,298,332530,5,12,1:3:0:0:
421,142,333348,1,4,1:3:0:0:
66,183,334196,1,4,1:3:0:0:
291,37,334848,5,2,3:2:0:0:
444,135,335020,5,2,3:2:0:0:
431,240,335109,1,2,3:2:0:0:
505,322,335202,1,2,3:2:0:0:
416,363,335304,1,2,3:2:0:0:
287,354,335396,1,2,3:2:0:0:
78,337,335489,5,2,3:2:0:0:
44,234,335582,1,2,3:2:0:0:
168,248,335674,1,2,3:2:0:0:
114,158,335767,1,2,3:2:0:0:
28,89,335860,1,2,3:2:0:0:
210,85,335950,5,2,3:2:0:0:
318,147,336054,1,2,3:2:0:0:
366,29,336159,1,2,3:2:0:0:
229,169,336263,1,2,3:2:0:0:
442,112,336368,1,2,3:2:0:0:
314,280,336455,5,2,3:2:0:0:
440,313,336543,1,2,3:2:0:0:
165,358,336647,1,2,3:2:0:0:
327,211,336734,1,2,3:2:0:0:
185,274,336839,1,2,3:2:0:0:
403,141,336926,1,2,3:2:0:0:
122,182,337043,1,6,1:2:0:0:
196,86,337917,1,4,0:2:0:0:
256,192,338791,1,4,0:2:0:0:
256,192,338912,12,0,343135,2:0:0:0:
