osu file format v14

[General]
AudioFilename: audio.mp3
AudioLeadIn: 0
PreviewTime: 61848
Countdown: 0
SampleSet: Normal
StackLeniency: 0.7
Mode: 1
LetterboxInBreaks: 0
WidescreenStoryboard: 1

[Editor]
Bookmarks: 3700,25146,31274,114763,166082,172210,175274
DistanceSpacing: 2
BeatDivisor: 4
GridSize: 32
TimelineZoom: 4.199997

[Metadata]
Title:Eldritch Evolution
TitleUnicode:Eldritch Evolution
Artist:Inferi
ArtistUnicode:Inferi
Creator:Raiden
Version:Oni
Source:
Tags:lovecraftian technical english melodic death metal featured artist fa of sunless realms
BeatmapID:2974922
BeatmapSetID:1416982

[Difficulty]
HPDrainRate:5
CircleSize:2
OverallDifficulty:6
ApproachRate:10
SliderMultiplier:1.4
SliderTickRate:1

[Events]
//Background and Video events
0,0,"mountains_of_madness.jpg",0,0
//Break Periods
//Storyboard Layer 0 (Background)
//Storyboard Layer 1 (Fail)
//Storyboard Layer 2 (Pass)
//Storyboard Layer 3 (Foreground)
//Storyboard Layer 4 (Overlay)
//Storyboard Sound Samples

[TimingPoints]
3700,255.31914893617,3,1,0,70,1,0
61912,-100,3,1,0,70,0,1
86423,-100,3,1,0,70,0,0
91785,-100,3,1,0,70,0,0
91848,-101.683057975612,3,1,0,70,0,0
91912,-103.423632506875,3,1,0,70,0,0
91976,-105.224944625373,3,1,0,70,0,0
92040,-107.090115261091,3,1,0,70,0,0
92104,-109.022601475512,3,1,0,70,0,0
92168,-111.025991184536,3,1,0,70,0,0
92231,-113.104515358462,3,1,0,70,0,0
92295,-115.262348631721,3,1,0,70,0,0
92359,-117.504118519354,3,1,0,70,0,0
92423,-119.834676080879,3,1,0,70,0,0
92487,-122.259701612972,3,1,0,70,0,0
92551,-125,3,1,0,70,0,0
103785,-125,3,1,0,70,0,0
103848,-123.076923076923,3,1,0,70,0,0
103912,-121.212121212121,3,1,0,70,0,0
103976,-119.402985074627,3,1,0,70,0,0
104040,-117.647058823529,3,1,0,70,0,0
104168,-114.285714285714,3,1,0,70,0,0
104295,-111.111111111111,3,1,0,70,0,0
104359,-109.58904109589,3,1,0,70,0,0
104423,-108.108108108108,3,1,0,70,0,0
104487,-106.666666666667,3,1,0,70,0,0
104551,-105.263157894737,3,1,0,70,0,0
104678,-102.564102564103,3,1,0,70,0,0
104806,-100,3,1,0,70,0,0
153827,-100,3,1,0,70,0,1
164551,-100,3,1,0,70,0,0
185997,260.869565217391,3,1,0,70,1,0
187529,255.31914893617,3,1,0,70,1,8
187587,272.727272727273,4,1,0,70,1,0
187587,-95.6937799043062,4,1,0,70,0,0
188677,-117.647058823529,4,1,0,70,0,0
193791,-117.647058823529,4,1,0,40,0,0
194200,-117.647058823529,4,1,0,70,0,0
195700,-111.111111111111,4,1,0,70,0,0
195973,-105.263157894737,4,1,0,70,0,0
196246,-100,4,1,0,70,0,0

[HitObjects]
256,192,636,5,4,0:0:0:0:
256,192,891,5,8,0:0:0:0:
256,192,955,5,8,0:0:0:0:
256,192,1019,5,8,0:0:0:0:
256,192,1082,5,8,0:0:0:0:
256,192,1146,5,0,0:0:0:0:
256,192,1274,5,0,0:0:0:0:
256,192,1402,5,4,0:0:0:0:
256,192,1657,5,8,0:0:0:0:
256,192,1721,5,8,0:0:0:0:
256,192,1785,5,0,0:0:0:0:
256,192,1848,5,0,0:0:0:0:
256,192,1912,5,8,0:0:0:0:
256,192,2040,5,0,0:0:0:0:
256,192,2168,5,12,0:0:0:0:
256,192,2423,5,0,0:0:0:0:
256,192,2487,5,0,0:0:0:0:
256,192,2551,5,0,0:0:0:0:
256,192,2614,5,0,0:0:0:0:
256,192,2678,5,8,0:0:0:0:
256,192,2806,5,0,0:0:0:0:
256,192,2934,5,8,0:0:0:0:
256,192,2997,5,8,0:0:0:0:
256,192,3061,5,0,0:0:0:0:
256,192,3125,5,0,0:0:0:0:
256,192,3189,5,8,0:0:0:0:
256,192,3317,5,0,0:0:0:0:
256,192,3444,5,8,0:0:0:0:
256,192,3700,5,8,0:0:0:0:
256,192,3763,5,8,0:0:0:0:
256,192,3827,5,8,0:0:0:0:
256,192,3891,5,8,0:0:0:0:
256,192,3955,5,0,0:0:0:0:
256,192,4082,5,0,0:0:0:0:
256,192,4210,5,8,0:0:0:0:
256,192,4274,5,8,0:0:0:0:
256,192,4338,5,0,0:0:0:0:
256,192,4402,5,0,0:0:0:0:
256,192,4465,5,8,0:0:0:0:
256,192,4593,5,0,0:0:0:0:
256,192,4721,5,8,0:0:0:0:
256,192,4976,5,8,0:0:0:0:
256,192,5040,5,8,0:0:0:0:
256,192,5104,5,0,0:0:0:0:
256,192,5168,5,0,0:0:0:0:
256,192,5231,5,8,0:0:0:0:
256,192,5359,5,0,0:0:0:0:
256,192,5487,5,8,0:0:0:0:
256,192,5614,5,8,0:0:0:0:
256,192,5742,5,0,0:0:0:0:
256,192,5870,5,0,0:0:0:0:
256,192,5997,5,8,0:0:0:0:
256,192,6061,5,8,0:0:0:0:
256,192,6125,5,8,0:0:0:0:
256,192,6189,5,8,0:0:0:0:
256,192,6253,5,0,0:0:0:0:
256,192,6508,5,8,0:0:0:0:
256,192,6763,5,8,0:0:0:0:
256,192,6891,5,0,0:0:0:0:
256,192,6955,5,0,0:0:0:0:
256,192,7019,5,8,0:0:0:0:
256,192,7146,5,0,0:0:0:0:
256,192,7274,5,8,0:0:0:0:
256,192,7402,5,0,0:0:0:0:
256,192,7529,5,8,0:0:0:0:
256,192,7593,5,0,0:0:0:0:
256,192,7657,5,0,0:0:0:0:
256,192,7721,5,0,0:0:0:0:
256,192,7785,5,8,0:0:0:0:
256,192,7912,5,8,0:0:0:0:
256,192,8040,5,0,0:0:0:0:
256,192,8295,5,8,0:0:0:0:
256,192,8359,5,8,0:0:0:0:
256,192,8423,5,0,0:0:0:0:
256,192,8487,5,0,0:0:0:0:
256,192,8551,5,8,0:0:0:0:
256,192,8678,5,8,0:0:0:0:
256,192,8806,5,0,0:0:0:0:
256,192,8870,5,0,0:0:0:0:
256,192,8934,5,0,0:0:0:0:
256,192,8997,5,0,0:0:0:0:
256,192,9061,5,8,0:0:0:0:
256,192,9189,5,0,0:0:0:0:
256,192,9317,5,8,0:0:0:0:
256,192,9444,5,0,0:0:0:0:
256,192,9572,5,8,0:0:0:0:
256,192,9827,5,8,0:0:0:0:
256,192,9891,5,8,0:0:0:0:
256,192,9955,5,8,0:0:0:0:
256,192,10019,5,8,0:0:0:0:
256,192,10082,5,8,0:0:0:0:
256,192,10210,5,0,0:0:0:0:
256,192,10338,5,8,0:0:0:0:
256,192,10465,5,8,0:0:0:0:
256,192,10593,5,0,0:0:0:0:
256,192,10657,5,0,0:0:0:0:
256,192,10721,5,0,0:0:0:0:
256,192,10785,5,0,0:0:0:0:
256,192,10848,5,0,0:0:0:0:
256,192,10976,5,8,0:0:0:0:
256,192,11104,5,0,0:0:0:0:
256,192,11231,5,8,0:0:0:0:
256,192,11359,5,0,0:0:0:0:
256,192,11423,5,0,0:0:0:0:
256,192,11487,5,0,0:0:0:0:
256,192,11551,5,0,0:0:0:0:
256,192,11614,5,0,0:0:0:0:
256,192,11742,5,0,0:0:0:0:
256,192,11870,5,8,0:0:0:0:
256,192,11997,5,0,0:0:0:0:
256,192,12125,5,8,0:0:0:0:
256,192,12189,5,8,0:0:0:0:
256,192,12253,5,8,0:0:0:0:
256,192,12317,5,8,0:0:0:0:
256,192,12380,5,8,0:0:0:0:
256,192,12508,5,0,0:0:0:0:
256,192,12636,5,8,0:0:0:0:
256,192,12891,5,4,0:0:0:0:
256,192,13019,5,8,0:0:0:0:
256,192,13146,5,8,0:0:0:0:
256,192,13274,5,0,0:0:0:0:
256,192,13402,5,8,0:0:0:0:
256,192,13529,5,0,0:0:0:0:
256,192,13657,5,8,0:0:0:0:
256,192,13912,5,0,0:0:0:0:
256,192,14040,5,8,0:0:0:0:
256,192,14168,5,0,0:0:0:0:
256,192,14295,5,0,0:0:0:0:
256,192,14423,5,8,0:0:0:0:
256,192,14551,5,0,0:0:0:0:
256,192,14678,5,0,0:0:0:0:
256,192,14806,5,8,0:0:0:0:
256,192,14934,5,0,0:0:0:0:
256,192,15061,5,8,0:0:0:0:
256,192,15189,5,0,0:0:0:0:
256,192,15253,5,0,0:0:0:0:
256,192,15317,5,0,0:0:0:0:
256,192,15380,5,0,0:0:0:0:
256,192,15444,5,8,0:0:0:0:
256,192,15572,5,8,0:0:0:0:
256,192,15699,5,0,0:0:0:0:
256,192,15827,5,0,0:0:0:0:
256,192,15955,5,8,0:0:0:0:
256,192,16082,5,8,0:0:0:0:
256,192,16210,5,0,0:0:0:0:
256,192,16338,5,8,0:0:0:0:
256,192,16465,5,8,0:0:0:0:
256,192,16593,5,0,0:0:0:0:
256,192,16721,5,8,0:0:0:0:
256,192,16976,5,8,0:0:0:0:
256,192,17104,5,8,0:0:0:0:
256,192,17231,5,0,0:0:0:0:
256,192,17359,5,0,0:0:0:0:
256,192,17487,5,8,0:0:0:0:
256,192,17614,5,0,0:0:0:0:
256,192,17742,5,8,0:0:0:0:
256,192,17870,5,0,0:0:0:0:
256,192,17934,5,0,0:0:0:0:
256,192,17997,5,8,0:0:0:0:
256,192,18125,5,0,0:0:0:0:
256,192,18253,5,8,0:0:0:0:
256,192,18317,5,8,0:0:0:0:
256,192,18380,5,8,0:0:0:0:
256,192,18444,5,8,0:0:0:0:
256,192,18508,5,0,0:0:0:0:
256,192,18636,5,0,0:0:0:0:
256,192,18763,5,8,0:0:0:0:
256,192,19019,5,0,0:0:0:0:
256,192,19082,5,0,0:0:0:0:
256,192,19146,5,0,0:0:0:0:
256,192,19210,5,0,0:0:0:0:
256,192,19274,5,0,0:0:0:0:
256,192,19402,5,0,0:0:0:0:
256,192,19529,5,8,0:0:0:0:
256,192,19657,5,0,0:0:0:0:
256,192,19785,5,8,0:0:0:0:
256,192,19848,5,8,0:0:0:0:
256,192,19912,5,8,0:0:0:0:
256,192,19976,5,8,0:0:0:0:
256,192,20040,5,8,0:0:0:0:
256,192,20168,5,8,0:0:0:0:
256,192,20295,5,0,0:0:0:0:
256,192,20423,5,8,0:0:0:0:
256,192,20551,5,0,0:0:0:0:
256,192,20614,5,0,0:0:0:0:
256,192,20678,5,0,0:0:0:0:
256,192,20742,5,0,0:0:0:0:
256,192,20806,5,0,0:0:0:0:
256,192,20934,5,8,0:0:0:0:
256,192,21061,5,0,0:0:0:0:
256,192,21189,5,0,0:0:0:0:
256,192,21317,5,8,0:0:0:0:
256,192,21380,5,8,0:0:0:0:
256,192,21444,5,8,0:0:0:0:
256,192,21508,5,8,0:0:0:0:
256,192,21572,5,8,0:0:0:0:
256,192,21699,5,8,0:0:0:0:
256,192,21827,5,0,0:0:0:0:
256,192,21955,5,0,0:0:0:0:
256,192,22082,5,4,0:0:0:0:
256,192,23614,5,8,0:0:0:0:
256,192,23742,5,8,0:0:0:0:
256,192,23870,5,8,0:0:0:0:
256,192,23997,5,0,0:0:0:0:
256,192,24061,5,0,0:0:0:0:
256,192,24125,5,8,0:0:0:0:
256,192,24189,5,8,0:0:0:0:
256,192,24253,5,0,0:0:0:0:
256,192,24380,5,8,0:0:0:0:
256,192,24508,5,0,0:0:0:0:
256,192,24636,5,0,0:0:0:0:
256,192,24699,5,0,0:0:0:0:
256,192,24763,5,0,0:0:0:0:
256,192,24827,5,0,0:0:0:0:
256,192,24891,5,8,0:0:0:0:
256,192,25146,5,8,0:0:0:0:
256,192,25274,5,0,0:0:0:0:
256,192,25402,5,8,0:0:0:0:
256,192,25465,5,0,0:0:0:0:
256,192,25529,5,8,0:0:0:0:
256,192,25593,5,0,0:0:0:0:
256,192,25657,5,8,0:0:0:0:
256,192,25785,5,0,0:0:0:0:
256,192,25912,5,8,0:0:0:0:
256,192,25976,5,8,0:0:0:0:
256,192,26040,5,8,0:0:0:0:
256,192,26104,5,8,0:0:0:0:
256,192,26168,5,0,0:0:0:0:
256,192,26295,5,0,0:0:0:0:
256,192,26423,5,8,0:0:0:0:
256,192,26551,5,8,0:0:0:0:
256,192,26678,5,8,0:0:0:0:
256,192,26934,5,0,0:0:0:0:
256,192,27061,5,8,0:0:0:0:
256,192,27189,5,0,0:0:0:0:
256,192,27317,5,0,0:0:0:0:
256,192,27444,5,8,0:0:0:0:
256,192,27508,5,8,0:0:0:0:
256,192,27572,5,8,0:0:0:0:
256,192,27636,5,8,0:0:0:0:
256,192,27699,5,0,0:0:0:0:
256,192,27827,5,8,0:0:0:0:
256,192,27955,5,0,0:0:0:0:
256,192,28082,5,0,0:0:0:0:
256,192,28210,5,12,0:0:0:0:
256,192,28465,5,0,0:0:0:0:
256,192,28593,5,0,0:0:0:0:
256,192,28721,5,0,0:0:0:0:
256,192,28848,5,0,0:0:0:0:
256,192,28976,5,8,0:0:0:0:
256,192,29104,5,0,0:0:0:0:
256,192,29231,5,8,0:0:0:0:
256,192,29359,5,8,0:0:0:0:
256,192,29487,5,0,0:0:0:0:
256,192,29614,5,0,0:0:0:0:
256,192,29742,5,8,0:0:0:0:
256,192,29997,5,8,0:0:0:0:
256,192,30125,5,0,0:0:0:0:
256,192,30253,5,0,0:0:0:0:
256,192,30380,5,0,0:0:0:0:
256,192,30508,5,8,0:0:0:0:
256,192,30636,5,0,0:0:0:0:
256,192,30699,5,0,0:0:0:0:
256,192,30763,5,8,0:0:0:0:
256,192,30891,5,8,0:0:0:0:
256,192,31019,5,0,0:0:0:0:
256,192,31274,5,8,0:0:0:0:
256,192,31402,5,8,0:0:0:0:
256,192,31465,5,8,0:0:0:0:
256,192,31529,5,0,0:0:0:0:
256,192,31657,5,0,0:0:0:0:
256,192,31785,5,8,0:0:0:0:
256,192,31848,5,8,0:0:0:0:
256,192,31912,5,0,0:0:0:0:
256,192,31976,5,0,0:0:0:0:
256,192,32040,5,8,0:0:0:0:
256,192,32168,5,8,0:0:0:0:
256,192,32295,5,0,0:0:0:0:
256,192,32423,5,8,0:0:0:0:
256,192,32487,5,0,0:0:0:0:
256,192,32551,5,8,0:0:0:0:
256,192,32614,5,8,0:0:0:0:
256,192,32678,5,0,0:0:0:0:
256,192,32806,5,8,0:0:0:0:
256,192,32934,5,8,0:0:0:0:
256,192,33061,5,0,0:0:0:0:
256,192,33125,5,0,0:0:0:0:
256,192,33189,5,8,0:0:0:0:
256,192,33253,5,8,0:0:0:0:
256,192,33317,5,0,0:0:0:0:
256,192,33444,5,0,0:0:0:0:
256,192,33572,5,8,0:0:0:0:
256,192,33699,5,8,0:0:0:0:
256,192,33827,5,0,0:0:0:0:
256,192,33891,5,0,0:0:0:0:
256,192,33955,5,0,0:0:0:0:
256,192,34082,5,12,0:0:0:0:
256,192,34338,5,8,0:0:0:0:
256,192,34402,5,8,0:0:0:0:
256,192,34465,5,8,0:0:0:0:
256,192,34529,5,8,0:0:0:0:
256,192,34593,5,0,0:0:0:0:
256,192,34721,5,0,0:0:0:0:
256,192,34848,5,0,0:0:0:0:
256,192,34912,5,0,0:0:0:0:
256,192,34976,5,0,0:0:0:0:
256,192,35040,5,0,0:0:0:0:
256,192,35104,5,8,0:0:0:0:
256,192,35231,5,0,0:0:0:0:
256,192,35359,5,0,0:0:0:0:
256,192,35487,5,0,0:0:0:0:
256,192,35614,5,8,0:0:0:0:
256,192,35678,5,0,0:0:0:0:
256,192,35742,5,0,0:0:0:0:
256,192,35806,5,0,0:0:0:0:
256,192,35870,5,8,0:0:0:0:
256,192,35997,5,0,0:0:0:0:
256,192,36125,5,8,0:0:0:0:
256,192,36189,5,8,0:0:0:0:
256,192,36253,5,8,0:0:0:0:
256,192,36317,5,8,0:0:0:0:
256,192,36380,5,0,0:0:0:0:
256,192,36508,5,0,0:0:0:0:
256,192,36636,5,8,0:0:0:0:
256,192,36763,5,0,0:0:0:0:
256,192,36827,5,0,0:0:0:0:
256,192,36891,5,8,0:0:0:0:
256,192,37019,5,8,0:0:0:0:
256,192,37146,5,0,0:0:0:0:
256,192,37274,5,0,0:0:0:0:
256,192,37338,5,0,0:0:0:0:
256,192,37402,5,8,0:0:0:0:
256,192,37657,5,8,0:0:0:0:
256,192,37785,5,8,0:0:0:0:
256,192,37912,5,0,0:0:0:0:
256,192,38040,5,0,0:0:0:0:
256,192,38168,5,8,0:0:0:0:
256,192,38295,5,0,0:0:0:0:
256,192,38423,5,0,0:0:0:0:
256,192,38551,5,8,0:0:0:0:
256,192,38678,5,0,0:0:0:0:
256,192,38806,5,0,0:0:0:0:
256,192,38934,5,8,0:0:0:0:
256,192,39061,5,0,0:0:0:0:
256,192,39125,5,0,0:0:0:0:
256,192,39189,5,0,0:0:0:0:
256,192,39253,5,0,0:0:0:0:
256,192,39317,5,8,0:0:0:0:
256,192,39444,5,0,0:0:0:0:
256,192,39572,5,0,0:0:0:0:
256,192,39699,5,8,0:0:0:0:
256,192,39827,5,0,0:0:0:0:
256,192,39891,5,0,0:0:0:0:
256,192,39955,5,0,0:0:0:0:
256,192,40019,5,0,0:0:0:0:
256,192,40082,5,8,0:0:0:0:
256,192,40210,5,8,0:0:0:0:
256,192,40338,5,8,0:0:0:0:
256,192,40465,5,0,0:0:0:0:
256,192,40721,5,0,0:0:0:0:
256,192,40976,5,0,0:0:0:0:
256,192,41104,5,0,0:0:0:0:
256,192,41231,5,8,0:0:0:0:
256,192,41359,5,0,0:0:0:0:
256,192,41423,5,0,0:0:0:0:
256,192,41487,5,8,0:0:0:0:
256,192,41614,5,0,0:0:0:0:
256,192,41742,5,8,0:0:0:0:
256,192,41806,5,8,0:0:0:0:
256,192,41870,5,0,0:0:0:0:
256,192,41934,5,0,0:0:0:0:
256,192,41997,5,8,0:0:0:0:
256,192,42125,5,0,0:0:0:0:
256,192,42253,5,0,0:0:0:0:
256,192,42380,5,8,0:0:0:0:
256,192,42508,5,8,0:0:0:0:
256,192,42636,5,0,0:0:0:0:
256,192,42763,5,8,0:0:0:0:
256,192,42827,5,8,0:0:0:0:
256,192,42891,5,8,0:0:0:0:
256,192,42955,5,8,0:0:0:0:
256,192,43019,5,0,0:0:0:0:
256,192,43274,5,0,0:0:0:0:
256,192,43529,5,8,0:0:0:0:
256,192,43657,5,8,0:0:0:0:
256,192,43785,5,0,0:0:0:0:
256,192,43912,5,0,0:0:0:0:
256,192,44040,5,8,0:0:0:0:
256,192,44168,5,0,0:0:0:0:
256,192,44295,5,8,0:0:0:0:
256,192,44423,5,0,0:0:0:0:
256,192,44487,5,0,0:0:0:0:
256,192,44551,5,0,0:0:0:0:
256,192,44678,5,8,0:0:0:0:
256,192,44806,5,0,0:0:0:0:
256,192,44934,5,0,0:0:0:0:
256,192,45061,5,8,0:0:0:0:
256,192,45317,5,0,0:0:0:0:
256,192,45380,5,0,0:0:0:0:
256,192,45444,5,8,0:0:0:0:
256,192,45572,5,0,0:0:0:0:
256,192,45699,5,0,0:0:0:0:
256,192,45763,5,0,0:0:0:0:
256,192,45827,5,8,0:0:0:0:
256,192,45955,5,8,0:0:0:0:
256,192,46082,5,0,0:0:0:0:
256,192,46210,5,8,0:0:0:0:
256,192,46338,5,8,0:0:0:0:
256,192,46465,5,8,0:0:0:0:
256,192,46593,5,8,0:0:0:0:
256,192,46657,5,8,0:0:0:0:
256,192,46721,5,8,0:0:0:0:
256,192,46785,5,8,0:0:0:0:
256,192,46848,5,0,0:0:0:0:
256,192,46976,5,8,0:0:0:0:
256,192,47104,5,0,0:0:0:0:
256,192,47231,5,8,0:0:0:0:
256,192,47359,5,8,0:0:0:0:
256,192,47487,5,0,0:0:0:0:
256,192,47551,5,0,0:0:0:0:
256,192,47614,5,8,0:0:0:0:
256,192,47678,5,0,0:0:0:0:
256,192,47742,5,8,0:0:0:0:
256,192,47870,5,8,0:0:0:0:
256,192,47997,5,0,0:0:0:0:
256,192,48061,5,0,0:0:0:0:
256,192,48125,5,8,0:0:0:0:
256,192,48380,5,8,0:0:0:0:
256,192,48508,5,8,0:0:0:0:
256,192,48636,5,0,0:0:0:0:
256,192,48699,5,0,0:0:0:0:
256,192,48763,5,0,0:0:0:0:
256,192,48891,5,8,0:0:0:0:
256,192,49019,5,8,0:0:0:0:
256,192,49082,5,8,0:0:0:0:
256,192,49146,5,0,0:0:0:0:
256,192,49274,5,0,0:0:0:0:
256,192,49402,5,8,0:0:0:0:
256,192,49657,5,8,0:0:0:0:
256,192,49785,5,0,0:0:0:0:
256,192,49848,5,8,0:0:0:0:
256,192,49912,5,0,0:0:0:0:
256,192,49976,5,0,0:0:0:0:
256,192,50040,5,8,0:0:0:0:
256,192,50168,5,8,0:0:0:0:
256,192,50295,5,0,0:0:0:0:
256,192,50359,5,0,0:0:0:0:
256,192,50423,5,8,0:0:0:0:
256,192,50551,5,8,0:0:0:0:
256,192,50678,5,0,0:0:0:0:
256,192,50806,5,0,0:0:0:0:
256,192,50934,5,8,0:0:0:0:
256,192,50997,5,0,0:0:0:0:
256,192,51061,5,8,0:0:0:0:
256,192,51125,5,0,0:0:0:0:
256,192,51189,5,8,0:0:0:0:
256,192,51317,5,8,0:0:0:0:
256,192,51444,5,0,0:0:0:0:
256,192,51572,5,0,0:0:0:0:
256,192,51636,5,0,0:0:0:0:
256,192,51699,5,8,0:0:0:0:
256,192,51827,5,8,0:0:0:0:
256,192,51955,5,0,0:0:0:0:
256,192,52082,5,8,0:0:0:0:
256,192,52210,5,0,0:0:0:0:
256,192,52274,5,8,0:0:0:0:
256,192,52338,5,0,0:0:0:0:
256,192,52402,5,0,0:0:0:0:
256,192,52465,5,8,0:0:0:0:
256,192,52593,5,8,0:0:0:0:
256,192,52721,5,8,0:0:0:0:
256,192,52976,5,0,0:0:0:0:
256,192,53104,5,8,0:0:0:0:
256,192,53231,5,0,0:0:0:0:
256,192,53295,5,0,0:0:0:0:
256,192,53359,5,8,0:0:0:0:
256,192,53423,5,0,0:0:0:0:
256,192,53487,5,8,0:0:0:0:
256,192,53742,5,0,0:0:0:0:
256,192,53806,5,0,0:0:0:0:
256,192,53870,5,0,0:0:0:0:
256,192,53997,5,0,0:0:0:0:
256,192,54125,5,0,0:0:0:0:
256,192,54253,5,8,0:0:0:0:
256,192,54317,5,8,0:0:0:0:
256,192,54380,5,0,0:0:0:0:
256,192,54444,5,0,0:0:0:0:
256,192,54508,5,8,0:0:0:0:
256,192,54636,5,8,0:0:0:0:
256,192,54763,5,0,0:0:0:0:
256,192,54891,5,8,0:0:0:0:
256,192,54955,5,0,0:0:0:0:
256,192,55019,5,8,0:0:0:0:
256,192,55146,5,0,0:0:0:0:
256,192,55274,5,8,0:0:0:0:
256,192,55338,5,8,0:0:0:0:
256,192,55402,5,0,0:0:0:0:
256,192,55465,5,0,0:0:0:0:
256,192,55529,5,8,0:0:0:0:
256,192,55785,5,8,0:0:0:0:
256,192,55912,5,8,0:0:0:0:
256,192,56040,5,0,0:0:0:0:
256,192,56168,5,0,0:0:0:0:
256,192,56231,5,0,0:0:0:0:
256,192,56295,5,8,0:0:0:0:
256,192,56359,5,0,0:0:0:0:
256,192,56423,5,8,0:0:0:0:
256,192,56551,5,8,0:0:0:0:
256,192,56678,5,8,0:0:0:0:
256,192,56806,5,0,0:0:0:0:
256,192,56934,5,0,0:0:0:0:
256,192,57061,5,8,0:0:0:0:
256,192,57189,5,8,0:0:0:0:
256,192,57253,5,0,0:0:0:0:
256,192,57317,5,8,0:0:0:0:
256,192,57444,5,8,0:0:0:0:
256,192,57572,5,0,0:0:0:0:
256,192,57636,5,0,0:0:0:0:
256,192,57699,5,0,0:0:0:0:
256,192,57763,5,0,0:0:0:0:
256,192,57827,5,8,0:0:0:0:
256,192,57955,5,8,0:0:0:0:
256,192,58082,5,8,0:0:0:0:
256,192,58210,5,0,0:0:0:0:
256,192,58338,5,0,0:0:0:0:
256,192,58402,5,0,0:0:0:0:
256,192,58465,5,8,0:0:0:0:
256,192,58529,5,0,0:0:0:0:
256,192,58593,5,8,0:0:0:0:
256,192,58721,5,0,0:0:0:0:
256,192,58848,5,8,0:0:0:0:
256,192,58912,5,0,0:0:0:0:
256,192,58976,5,8,0:0:0:0:
256,192,59040,5,8,0:0:0:0:
256,192,59104,5,0,0:0:0:0:
256,192,59231,5,8,0:0:0:0:
256,192,59359,5,8,0:0:0:0:
256,192,59487,5,0,0:0:0:0:
256,192,59614,5,8,0:0:0:0:
256,192,59742,5,8,0:0:0:0:
256,192,59806,5,8,0:0:0:0:
256,192,59870,5,0,0:0:0:0:
256,192,59934,5,0,0:0:0:0:
256,192,59997,5,8,0:0:0:0:
256,192,60125,5,0,0:0:0:0:
256,192,60253,5,0,0:0:0:0:
256,192,60380,5,8,0:0:0:0:
256,192,60636,5,8,0:0:0:0:
256,192,60763,5,0,0:0:0:0:
256,192,60827,5,0,0:0:0:0:
256,192,60891,5,8,0:0:0:0:
256,192,61019,5,0,0:0:0:0:
256,192,61146,5,8,0:0:0:0:
256,192,61210,5,8,0:0:0:0:
256,192,61274,5,8,0:0:0:0:
256,192,61338,5,8,0:0:0:0:
256,192,61402,5,0,0:0:0:0:
256,192,61529,5,0,0:0:0:0:
256,192,61657,5,8,0:0:0:0:
256,192,61785,5,0,0:0:0:0:
256,192,61912,5,12,0:0:0:0:
256,192,62040,5,0,0:0:0:0:
256,192,62168,5,8,0:0:0:0:
256,192,62295,5,0,0:0:0:0:
256,192,62359,5,0,0:0:0:0:
256,192,62423,5,0,0:0:0:0:
256,192,62551,5,0,0:0:0:0:
256,192,62678,5,8,0:0:0:0:
256,192,62806,5,8,0:0:0:0:
256,192,62934,5,8,0:0:0:0:
256,192,63061,5,8,0:0:0:0:
256,192,63189,5,0,0:0:0:0:
256,192,63317,5,0,0:0:0:0:
256,192,63444,5,0,0:0:0:0:
256,192,63508,5,0,0:0:0:0:
256,192,63572,5,0,0:0:0:0:
256,192,63636,5,0,0:0:0:0:
256,192,63699,5,8,0:0:0:0:
256,192,63827,5,0,0:0:0:0:
256,192,63955,5,0,0:0:0:0:
256,192,64082,5,0,0:0:0:0:
256,192,64210,5,8,0:0:0:0:
256,192,64274,5,0,0:0:0:0:
256,192,64338,5,0,0:0:0:0:
256,192,64402,5,0,0:0:0:0:
256,192,64465,5,8,0:0:0:0:
256,192,64593,5,0,0:0:0:0:
256,192,64657,5,0,0:0:0:0:
256,192,64721,5,8,0:0:0:0:
256,192,64976,5,8,0:0:0:0:
256,192,65040,5,0,0:0:0:0:
256,192,65104,5,8,0:0:0:0:
256,192,65168,5,0,0:0:0:0:
256,192,65231,5,8,0:0:0:0:
256,192,65359,5,8,0:0:0:0:
256,192,65487,5,0,0:0:0:0:
256,192,65551,5,0,0:0:0:0:
256,192,65614,5,8,0:0:0:0:
256,192,65678,5,0,0:0:0:0:
256,192,65742,5,8,0:0:0:0:
256,192,65870,5,8,0:0:0:0:
256,192,65997,5,8,0:0:0:0:
256,192,66061,5,0,0:0:0:0:
256,192,66125,5,8,0:0:0:0:
256,192,66189,5,8,0:0:0:0:
256,192,66253,5,0,0:0:0:0:
256,192,66380,5,8,0:0:0:0:
256,192,66508,5,8,0:0:0:0:
256,192,66636,5,8,0:0:0:0:
256,192,66699,5,0,0:0:0:0:
256,192,66763,5,8,0:0:0:0:
256,192,66827,5,0,0:0:0:0:
256,192,66891,5,8,0:0:0:0:
256,192,67019,5,0,0:0:0:0:
256,192,67146,5,8,0:0:0:0:
256,192,67274,5,8,0:0:0:0:
256,192,67338,5,8,0:0:0:0:
256,192,67402,5,8,0:0:0:0:
256,192,67465,5,8,0:0:0:0:
256,192,67529,5,0,0:0:0:0:
256,192,67657,5,8,0:0:0:0:
256,192,67785,5,0,0:0:0:0:
256,192,67912,5,0,0:0:0:0:
256,192,68040,5,12,0:0:0:0:
256,192,68295,5,0,0:0:0:0:
256,192,68423,5,8,0:0:0:0:
256,192,68806,5,8,0:0:0:0:
256,192,68870,5,8,0:0:0:0:
256,192,68934,5,0,0:0:0:0:
256,192,68997,5,0,0:0:0:0:
256,192,69061,5,0,0:0:0:0:
256,192,69189,5,8,0:0:0:0:
256,192,69317,5,0,0:0:0:0:
256,192,69444,5,0,0:0:0:0:
256,192,69572,5,8,0:0:0:0:
256,192,69955,5,0,0:0:0:0:
256,192,70082,5,0,0:0:0:0:
256,192,70210,5,0,0:0:0:0:
256,192,70338,5,8,0:0:0:0:
256,192,70465,5,0,0:0:0:0:
256,192,70529,5,0,0:0:0:0:
256,192,70593,5,8,0:0:0:0:
256,192,70721,5,0,0:0:0:0:
256,192,70785,5,0,0:0:0:0:
256,192,70848,5,8,0:0:0:0:
256,192,71104,5,8,0:0:0:0:
256,192,71231,5,0,0:0:0:0:
256,192,71295,5,0,0:0:0:0:
256,192,71359,5,8,0:0:0:0:
256,192,71423,5,0,0:0:0:0:
256,192,71487,5,8,0:0:0:0:
256,192,71614,5,8,0:0:0:0:
256,192,71742,5,8,0:0:0:0:
256,192,71870,5,0,0:0:0:0:
256,192,71997,5,8,0:0:0:0:
256,192,72125,5,0,0:0:0:0:
256,192,72189,5,0,0:0:0:0:
256,192,72253,5,8,0:0:0:0:
256,192,72380,5,8,0:0:0:0:
256,192,72508,5,0,0:0:0:0:
256,192,72636,5,8,0:0:0:0:
256,192,72699,5,0,0:0:0:0:
256,192,72763,5,8,0:0:0:0:
256,192,72827,5,8,0:0:0:0:
256,192,72891,5,0,0:0:0:0:
256,192,73019,5,8,0:0:0:0:
256,192,73146,5,0,0:0:0:0:
256,192,73274,5,0,0:0:0:0:
256,192,73338,5,0,0:0:0:0:
256,192,73402,5,8,0:0:0:0:
256,192,73529,5,0,0:0:0:0:
256,192,73657,5,8,0:0:0:0:
256,192,73785,5,8,0:0:0:0:
256,192,73912,5,0,0:0:0:0:
256,192,74168,5,8,0:0:0:0:
256,192,74231,5,8,0:0:0:0:
256,192,74295,5,8,0:0:0:0:
256,192,74423,5,0,0:0:0:0:
256,192,74551,5,8,0:0:0:0:
256,192,74614,5,0,0:0:0:0:
256,192,74678,5,8,0:0:0:0:
256,192,74742,5,8,0:0:0:0:
256,192,74806,5,0,0:0:0:0:
256,192,74934,5,8,0:0:0:0:
256,192,75061,5,0,0:0:0:0:
256,192,75125,5,0,0:0:0:0:
256,192,75189,5,8,0:0:0:0:
256,192,75253,5,0,0:0:0:0:
256,192,75317,5,8,0:0:0:0:
256,192,75444,5,8,0:0:0:0:
256,192,75572,5,0,0:0:0:0:
256,192,75636,5,0,0:0:0:0:
256,192,75699,5,8,0:0:0:0:
256,192,75827,5,0,0:0:0:0:
256,192,75955,5,0,0:0:0:0:
256,192,76019,5,0,0:0:0:0:
256,192,76082,5,8,0:0:0:0:
256,192,76146,5,8,0:0:0:0:
256,192,76210,5,0,0:0:0:0:
256,192,76338,5,0,0:0:0:0:
256,192,76465,5,8,0:0:0:0:
256,192,76593,5,0,0:0:0:0:
256,192,76721,5,0,0:0:0:0:
256,192,76848,5,8,0:0:0:0:
256,192,76976,5,0,0:0:0:0:
256,192,77231,5,8,0:0:0:0:
256,192,77295,5,0,0:0:0:0:
256,192,77359,5,8,0:0:0:0:
256,192,77423,5,0,0:0:0:0:
256,192,77487,5,8,0:0:0:0:
256,192,77614,5,8,0:0:0:0:
256,192,77742,5,8,0:0:0:0:
256,192,77870,5,0,0:0:0:0:
256,192,77934,5,0,0:0:0:0:
256,192,77997,5,8,0:0:0:0:
256,192,78125,5,8,0:0:0:0:
256,192,78253,5,8,0:0:0:0:
256,192,78317,5,0,0:0:0:0:
256,192,78380,5,8,0:0:0:0:
256,192,78444,5,8,0:0:0:0:
256,192,78508,5,0,0:0:0:0:
256,192,78636,5,0,0:0:0:0:
256,192,78763,5,8,0:0:0:0:
256,192,78827,5,0,0:0:0:0:
256,192,78891,5,8,0:0:0:0:
256,192,78955,5,0,0:0:0:0:
256,192,79019,5,8,0:0:0:0:
256,192,79146,5,8,0:0:0:0:
256,192,79274,5,0,0:0:0:0:
256,192,79338,5,0,0:0:0:0:
256,192,79402,5,8,0:0:0:0:
256,192,79529,5,8,0:0:0:0:
256,192,79657,5,8,0:0:0:0:
256,192,79721,5,0,0:0:0:0:
256,192,79785,5,8,0:0:0:0:
256,192,79912,5,8,0:0:0:0:
256,192,80040,5,8,0:0:0:0:
256,192,80104,5,8,0:0:0:0:
256,192,80168,5,0,0:0:0:0:
256,192,80231,5,0,0:0:0:0:
256,192,80295,5,8,0:0:0:0:
256,192,80423,5,0,0:0:0:0:
256,192,80551,5,0,0:0:0:0:
256,192,80678,5,8,0:0:0:0:
256,192,81061,5,8,0:0:0:0:
256,192,81125,5,8,0:0:0:0:
256,192,81189,5,0,0:0:0:0:
256,192,81253,5,0,0:0:0:0:
256,192,81317,5,0,0:0:0:0:
256,192,81444,5,8,0:0:0:0:
256,192,81572,5,0,0:0:0:0:
256,192,81699,5,0,0:0:0:0:
256,192,81827,5,8,0:0:0:0:
256,192,82210,5,0,0:0:0:0:
256,192,82338,5,0,0:0:0:0:
256,192,82465,5,0,0:0:0:0:
256,192,82593,5,8,0:0:0:0:
256,192,82721,5,0,0:0:0:0:
256,192,82848,5,8,0:0:0:0:
256,192,82912,5,0,0:0:0:0:
256,192,82976,5,0,0:0:0:0:
256,192,83040,5,0,0:0:0:0:
256,192,83104,5,8,0:0:0:0:
256,192,83359,5,8,0:0:0:0:
256,192,83487,5,0,0:0:0:0:
256,192,83551,5,0,0:0:0:0:
256,192,83614,5,8,0:0:0:0:
256,192,83678,5,0,0:0:0:0:
256,192,83742,5,8,0:0:0:0:
256,192,83870,5,0,0:0:0:0:
256,192,83997,5,8,0:0:0:0:
256,192,84061,5,0,0:0:0:0:
256,192,84125,5,8,0:0:0:0:
256,192,84253,5,8,0:0:0:0:
256,192,84380,5,0,0:0:0:0:
256,192,84444,5,0,0:0:0:0:
256,192,84508,5,8,0:0:0:0:
256,192,84636,5,8,0:0:0:0:
256,192,84763,5,0,0:0:0:0:
256,192,84891,5,8,0:0:0:0:
256,192,84955,5,8,0:0:0:0:
256,192,85019,5,8,0:0:0:0:
256,192,85082,5,8,0:0:0:0:
256,192,85146,5,0,0:0:0:0:
256,192,85274,5,8,0:0:0:0:
256,192,85402,5,8,0:0:0:0:
256,192,85465,5,8,0:0:0:0:
256,192,85529,5,0,0:0:0:0:
256,192,85593,5,0,0:0:0:0:
256,192,85657,5,8,0:0:0:0:
256,192,85785,5,8,0:0:0:0:
256,192,85912,5,0,0:0:0:0:
256,192,86040,5,12,0:0:0:0:
256,192,86423,5,4,0:0:0:0:
256,192,86806,5,0,0:0:0:0:
256,192,86934,5,0,0:0:0:0:
256,192,87061,5,0,0:0:0:0:
256,192,87189,5,8,0:0:0:0:
256,192,87572,5,8,0:0:0:0:
256,192,88338,5,8,0:0:0:0:
256,192,89104,5,8,0:0:0:0:
256,192,89487,5,0,0:0:0:0:
256,192,89551,5,0,0:0:0:0:
256,192,89614,5,0,0:0:0:0:
256,192,89678,5,0,0:0:0:0:
256,192,89742,5,8,0:0:0:0:
256,192,89870,5,8,0:0:0:0:
256,192,89997,5,0,0:0:0:0:
256,192,90061,5,0,0:0:0:0:
256,192,90125,5,0,0:0:0:0:
256,192,90253,5,12,0:0:0:0:
256,192,90508,5,4,0:0:0:0:
256,192,90763,5,12,0:0:0:0:
256,192,91019,5,4,0:0:0:0:
256,192,91529,5,4,0:0:0:0:
256,192,91785,5,8,0:0:0:0:
256,192,91912,5,0,0:0:0:0:
256,192,91976,5,0,0:0:0:0:
256,192,92040,5,8,0:0:0:0:
256,192,92168,5,0,0:0:0:0:
256,192,92295,5,0,0:0:0:0:
256,192,92359,5,0,0:0:0:0:
256,192,92423,5,0,0:0:0:0:
256,192,92487,5,0,0:0:0:0:
256,192,92551,5,8,0:0:0:0:
256,192,92934,5,0,0:0:0:0:
256,192,92997,5,0,0:0:0:0:
256,192,93061,5,0,0:0:0:0:
256,192,93125,5,0,0:0:0:0:
256,192,93189,5,0,0:0:0:0:
256,192,93317,5,8,0:0:0:0:
256,192,93699,5,0,0:0:0:0:
256,192,93763,5,0,0:0:0:0:
256,192,93827,5,0,0:0:0:0:
256,192,93891,5,0,0:0:0:0:
256,192,93955,5,0,0:0:0:0:
256,192,94082,5,0,0:0:0:0:
256,192,94465,5,0,0:0:0:0:
256,192,94529,5,0,0:0:0:0:
256,192,94593,5,0,0:0:0:0:
256,192,94657,5,0,0:0:0:0:
256,192,94721,5,0,0:0:0:0:
256,192,94848,5,8,0:0:0:0:
256,192,94976,5,0,0:0:0:0:
256,192,95104,5,8,0:0:0:0:
256,192,95231,5,0,0:0:0:0:
256,192,95359,5,8,0:0:0:0:
256,192,95487,5,0,0:0:0:0:
256,192,95614,5,8,0:0:0:0:
256,192,95678,5,8,0:0:0:0:
256,192,95742,5,0,0:0:0:0:
256,192,95806,5,0,0:0:0:0:
256,192,95870,5,0,0:0:0:0:
256,192,95997,5,8,0:0:0:0:
256,192,96125,5,0,0:0:0:0:
256,192,96189,5,0,0:0:0:0:
256,192,96253,5,0,0:0:0:0:
256,192,96317,5,0,0:0:0:0:
256,192,96380,5,8,0:0:0:0:
256,192,96636,5,0,0:0:0:0:
256,192,96699,5,0,0:0:0:0:
256,192,96763,5,8,0:0:0:0:
256,192,96891,5,0,0:0:0:0:
256,192,97019,5,0,0:0:0:0:
256,192,97146,5,8,0:0:0:0:
256,192,97274,5,0,0:0:0:0:
256,192,97338,5,0,0:0:0:0:
256,192,97402,5,8,0:0:0:0:
256,192,97529,5,0,0:0:0:0:
256,192,97657,5,8,0:0:0:0:
256,192,97721,5,8,0:0:0:0:
256,192,97785,5,0,0:0:0:0:
256,192,97848,5,0,0:0:0:0:
256,192,97912,5,8,0:0:0:0:
256,192,98040,5,0,0:0:0:0:
256,192,98168,5,8,0:0:0:0:
256,192,98231,5,8,0:0:0:0:
256,192,98295,5,8,0:0:0:0:
256,192,98423,5,8,0:0:0:0:
256,192,98487,5,8,0:0:0:0:
256,192,98551,5,8,0:0:0:0:
256,192,98678,5,4,0:0:0:0:
256,192,99061,5,4,0:0:0:0:
256,192,99444,5,8,0:0:0:0:
256,192,99508,5,8,0:0:0:0:
256,192,99572,5,8,0:0:0:0:
256,192,99636,5,8,0:0:0:0:
256,192,99699,5,0,0:0:0:0:
256,192,99827,5,8,0:0:0:0:
256,192,99955,5,0,0:0:0:0:
256,192,100019,5,8,0:0:0:0:
256,192,100082,5,0,0:0:0:0:
256,192,100146,5,0,0:0:0:0:
256,192,100210,5,8,0:0:0:0:
256,192,100593,5,0,0:0:0:0:
256,192,100721,5,0,0:0:0:0:
256,192,100848,5,0,0:0:0:0:
256,192,100976,5,8,0:0:0:0:
256,192,101359,5,0,0:0:0:0:
256,192,101487,5,0,0:0:0:0:
256,192,101614,5,8,0:0:0:0:
256,192,101742,5,12,0:0:0:0:
256,192,102125,5,4,0:0:0:0:
256,192,102508,5,8,0:0:0:0:
256,192,102572,5,8,0:0:0:0:
256,192,102636,5,8,0:0:0:0:
256,192,102699,5,8,0:0:0:0:
256,192,102763,5,0,0:0:0:0:
256,192,102891,5,0,0:0:0:0:
256,192,103019,5,0,0:0:0:0:
256,192,103082,5,0,0:0:0:0:
256,192,103146,5,0,0:0:0:0:
256,192,103210,5,0,0:0:0:0:
256,192,103274,5,8,0:0:0:0:
256,192,103529,5,0,0:0:0:0:
256,192,103785,5,0,0:0:0:0:
256,192,103848,5,0,0:0:0:0:
256,192,103912,5,0,0:0:0:0:
256,192,103976,5,0,0:0:0:0:
256,192,104040,5,8,0:0:0:0:
256,192,104168,5,8,0:0:0:0:
256,192,104295,5,0,0:0:0:0:
256,192,104359,5,8,0:0:0:0:
256,192,104423,5,8,0:0:0:0:
256,192,104487,5,8,0:0:0:0:
256,192,104551,5,0,0:0:0:0:
256,192,104678,5,0,0:0:0:0:
256,192,104806,5,8,0:0:0:0:
256,192,105189,5,8,0:0:0:0:
256,192,105317,5,0,0:0:0:0:
256,192,105444,5,8,0:0:0:0:
256,192,105572,5,0,0:0:0:0:
256,192,105699,5,8,0:0:0:0:
256,192,105827,5,0,0:0:0:0:
256,192,105955,5,8,0:0:0:0:
256,192,106082,5,8,0:0:0:0:
256,192,106210,5,0,0:0:0:0:
256,192,106338,5,8,0:0:0:0:
256,192,106465,5,8,0:0:0:0:
256,192,106593,5,0,0:0:0:0:
256,192,106721,5,8,0:0:0:0:
256,192,106848,5,0,0:0:0:0:
256,192,106976,5,8,0:0:0:0:
256,192,107104,5,8,0:0:0:0:
256,192,107168,5,0,0:0:0:0:
256,192,107231,5,8,0:0:0:0:
256,192,107295,5,8,0:0:0:0:
256,192,107359,5,0,0:0:0:0:
256,192,107487,5,0,0:0:0:0:
256,192,107614,5,8,0:0:0:0:
256,192,107870,5,8,0:0:0:0:
256,192,107997,5,8,0:0:0:0:
256,192,108125,5,0,0:0:0:0:
256,192,108253,5,8,0:0:0:0:
256,192,108380,5,8,0:0:0:0:
256,192,108508,5,0,0:0:0:0:
256,192,108636,5,8,0:0:0:0:
256,192,108721,5,0,0:0:0:0:
256,192,108806,5,0,0:0:0:0:
256,192,108891,5,8,0:0:0:0:
256,192,109019,5,0,0:0:0:0:
256,192,109146,5,8,0:0:0:0:
256,192,109231,5,8,0:0:0:0:
256,192,109317,5,8,0:0:0:0:
256,192,109402,5,0,0:0:0:0:
256,192,109529,5,8,0:0:0:0:
256,192,109657,5,0,0:0:0:0:
256,192,109742,5,0,0:0:0:0:
256,192,109827,5,0,0:0:0:0:
256,192,109912,5,8,0:0:0:0:
256,192,110040,5,0,0:0:0:0:
256,192,110168,5,12,0:0:0:0:
256,192,110295,5,0,0:0:0:0:
256,192,110423,5,0,0:0:0:0:
256,192,110551,5,12,0:0:0:0:
256,192,110806,5,0,0:0:0:0:
256,192,110934,5,8,0:0:0:0:
256,192,110997,5,8,0:0:0:0:
256,192,111061,5,8,0:0:0:0:
256,192,111125,5,8,0:0:0:0:
256,192,111189,5,0,0:0:0:0:
256,192,111317,5,0,0:0:0:0:
256,192,111444,5,8,0:0:0:0:
256,192,111508,5,0,0:0:0:0:
256,192,111572,5,0,0:0:0:0:
256,192,111636,5,0,0:0:0:0:
256,192,111699,5,8,0:0:0:0:
256,192,111827,5,0,0:0:0:0:
256,192,111955,5,8,0:0:0:0:
256,192,112082,5,8,0:0:0:0:
256,192,112210,5,0,0:0:0:0:
256,192,112338,5,8,0:0:0:0:
256,192,112465,5,4,0:0:0:0:
256,192,112721,5,0,0:0:0:0:
256,192,112848,5,8,0:0:0:0:
256,192,112976,5,8,0:0:0:0:
256,192,113104,5,0,0:0:0:0:
256,192,113231,5,8,0:0:0:0:
256,192,113295,5,0,0:0:0:0:
256,192,113359,5,8,0:0:0:0:
256,192,113423,5,8,0:0:0:0:
256,192,113487,5,0,0:0:0:0:
256,192,113614,5,0,0:0:0:0:
256,192,113742,5,8,0:0:0:0:
256,192,113806,5,8,0:0:0:0:
256,192,113870,5,8,0:0:0:0:
256,192,113997,5,4,0:0:0:0:
256,192,114380,5,12,0:0:0:0:
256,192,114763,5,8,0:0:0:0:
256,192,114891,5,0,0:0:0:0:
256,192,115019,5,8,0:0:0:0:
256,192,115082,5,8,0:0:0:0:
256,192,115146,5,0,0:0:0:0:
256,192,115210,5,0,0:0:0:0:
256,192,115274,5,8,0:0:0:0:
256,192,115402,5,8,0:0:0:0:
256,192,115529,5,0,0:0:0:0:
256,192,115593,5,0,0:0:0:0:
256,192,115657,5,8,0:0:0:0:
256,192,115721,5,0,0:0:0:0:
256,192,115785,5,8,0:0:0:0:
256,192,115912,5,8,0:0:0:0:
256,192,116040,5,0,0:0:0:0:
256,192,116168,5,0,0:0:0:0:
256,192,116231,5,0,0:0:0:0:
256,192,116295,5,8,0:0:0:0:
256,192,116423,5,8,0:0:0:0:
256,192,116551,5,0,0:0:0:0:
256,192,116806,5,8,0:0:0:0:
256,192,117061,5,8,0:0:0:0:
256,192,117189,5,8,0:0:0:0:
256,192,117253,5,0,0:0:0:0:
256,192,117317,5,0,0:0:0:0:
256,192,117380,5,0,0:0:0:0:
256,192,117444,5,8,0:0:0:0:
256,192,117572,5,8,0:0:0:0:
256,192,117699,5,0,0:0:0:0:
256,192,117763,5,0,0:0:0:0:
256,192,117827,5,8,0:0:0:0:
256,192,117955,5,0,0:0:0:0:
256,192,118082,5,8,0:0:0:0:
256,192,118210,5,8,0:0:0:0:
256,192,118338,5,0,0:0:0:0:
256,192,118465,5,8,0:0:0:0:
256,192,118593,5,8,0:0:0:0:
256,192,118721,5,0,0:0:0:0:
256,192,118785,5,0,0:0:0:0:
256,192,118848,5,8,0:0:0:0:
256,192,118912,5,8,0:0:0:0:
256,192,118976,5,0,0:0:0:0:
256,192,119104,5,8,0:0:0:0:
256,192,119231,5,8,0:0:0:0:
256,192,119359,5,0,0:0:0:0:
256,192,119487,5,0,0:0:0:0:
256,192,119551,5,0,0:0:0:0:
256,192,119614,5,0,0:0:0:0:
256,192,119678,5,0,0:0:0:0:
256,192,119742,5,8,0:0:0:0:
256,192,119870,5,8,0:0:0:0:
256,192,119997,5,8,0:0:0:0:
256,192,120125,5,0,0:0:0:0:
256,192,120508,5,0,0:0:0:0:
256,192,120763,5,0,0:0:0:0:
256,192,120891,5,8,0:0:0:0:
256,192,121019,5,0,0:0:0:0:
256,192,121274,5,0,0:0:0:0:
256,192,121338,5,0,0:0:0:0:
256,192,121402,5,0,0:0:0:0:
256,192,121465,5,0,0:0:0:0:
256,192,121529,5,0,0:0:0:0:
256,192,121657,5,8,0:0:0:0:
256,192,121785,5,0,0:0:0:0:
256,192,121912,5,8,0:0:0:0:
256,192,122040,5,8,0:0:0:0:
256,192,122168,5,0,0:0:0:0:
256,192,122295,5,0,0:0:0:0:
256,192,122423,5,8,0:0:0:0:
256,192,122487,5,8,0:0:0:0:
256,192,122551,5,0,0:0:0:0:
256,192,122614,5,0,0:0:0:0:
256,192,122678,5,0,0:0:0:0:
256,192,122806,5,0,0:0:0:0:
256,192,122934,5,8,0:0:0:0:
256,192,123189,5,0,0:0:0:0:
256,192,123317,5,0,0:0:0:0:
256,192,123444,5,8,0:0:0:0:
256,192,123572,5,0,0:0:0:0:
256,192,123699,5,8,0:0:0:0:
256,192,123827,5,8,0:0:0:0:
256,192,123955,5,0,0:0:0:0:
256,192,124082,5,8,0:0:0:0:
256,192,124210,5,8,0:0:0:0:
256,192,124338,5,8,0:0:0:0:
256,192,124465,5,0,0:0:0:0:
256,192,124593,5,0,0:0:0:0:
256,192,124657,5,0,0:0:0:0:
256,192,124721,5,8,0:0:0:0:
256,192,124848,5,0,0:0:0:0:
256,192,124976,5,8,0:0:0:0:
256,192,125104,5,0,0:0:0:0:
256,192,125231,5,8,0:0:0:0:
256,192,125359,5,0,0:0:0:0:
256,192,125487,5,8,0:0:0:0:
256,192,125614,5,8,0:0:0:0:
256,192,125742,5,0,0:0:0:0:
256,192,125870,5,8,0:0:0:0:
256,192,125997,5,0,0:0:0:0:
256,192,126125,5,8,0:0:0:0:
256,192,126253,5,8,0:0:0:0:
256,192,126380,5,8,0:0:0:0:
256,192,126508,5,0,0:0:0:0:
256,192,126572,5,0,0:0:0:0:
256,192,126636,5,8,0:0:0:0:
256,192,126763,5,8,0:0:0:0:
256,192,126891,5,0,0:0:0:0:
256,192,126955,5,0,0:0:0:0:
256,192,127019,5,8,0:0:0:0:
256,192,127146,5,0,0:0:0:0:
256,192,127210,5,0,0:0:0:0:
256,192,127274,5,8,0:0:0:0:
256,192,127338,5,8,0:0:0:0:
256,192,127402,5,8,0:0:0:0:
256,192,127529,5,8,0:0:0:0:
256,192,127657,5,0,0:0:0:0:
256,192,127785,5,12,0:0:0:0:
256,192,128295,5,4,0:0:0:0:
256,192,128551,5,12,0:0:0:0:
256,192,128806,5,8,0:0:0:0:
256,192,128934,5,0,0:0:0:0:
256,192,128997,5,0,0:0:0:0:
256,192,129061,5,0,0:0:0:0:
256,192,129189,5,0,0:0:0:0:
256,192,129317,5,8,0:0:0:0:
256,192,129444,5,8,0:0:0:0:
256,192,129572,5,8,0:0:0:0:
256,192,129699,5,0,0:0:0:0:
256,192,129955,5,0,0:0:0:0:
256,192,130082,5,8,0:0:0:0:
256,192,130210,5,8,0:0:0:0:
256,192,130338,5,8,0:0:0:0:
256,192,130465,5,0,0:0:0:0:
256,192,130593,5,0,0:0:0:0:
256,192,130721,5,0,0:0:0:0:
256,192,130785,5,0,0:0:0:0:
256,192,130848,5,8,0:0:0:0:
256,192,131104,5,0,0:0:0:0:
256,192,131231,5,8,0:0:0:0:
256,192,131359,5,0,0:0:0:0:
256,192,131487,5,0,0:0:0:0:
256,192,131614,5,8,0:0:0:0:
256,192,131699,5,0,0:0:0:0:
256,192,131785,5,0,0:0:0:0:
256,192,131870,5,8,0:0:0:0:
256,192,131997,5,0,0:0:0:0:
256,192,132125,5,8,0:0:0:0:
256,192,132189,5,8,0:0:0:0:
256,192,132253,5,0,0:0:0:0:
256,192,132317,5,0,0:0:0:0:
256,192,132380,5,8,0:0:0:0:
256,192,132636,5,8,0:0:0:0:
256,192,132891,5,8,0:0:0:0:
256,192,133019,5,0,0:0:0:0:
256,192,133146,5,8,0:0:0:0:
256,192,133274,5,8,0:0:0:0:
256,192,133402,5,8,0:0:0:0:
256,192,133529,5,0,0:0:0:0:
256,192,133657,5,8,0:0:0:0:
256,192,133785,5,0,0:0:0:0:
256,192,133912,5,8,0:0:0:0:
256,192,133997,5,0,0:0:0:0:
256,192,134082,5,0,0:0:0:0:
256,192,134168,5,8,0:0:0:0:
256,192,134295,5,8,0:0:0:0:
256,192,134551,5,0,0:0:0:0:
256,192,134614,5,0,0:0:0:0:
256,192,134678,5,8,0:0:0:0:
256,192,134806,5,0,0:0:0:0:
256,192,134934,5,8,0:0:0:0:
256,192,135061,5,8,0:0:0:0:
256,192,135189,5,0,0:0:0:0:
256,192,135444,5,4,0:0:0:0:
256,192,135572,5,8,0:0:0:0:
256,192,135636,5,8,0:0:0:0:
256,192,135699,5,0,0:0:0:0:
256,192,135827,5,8,0:0:0:0:
256,192,135955,5,0,0:0:0:0:
256,192,136019,5,0,0:0:0:0:
256,192,136082,5,8,0:0:0:0:
256,192,136210,5,8,0:0:0:0:
256,192,136338,5,0,0:0:0:0:
256,192,136465,5,0,0:0:0:0:
256,192,136529,5,0,0:0:0:0:
256,192,136593,5,8,0:0:0:0:
256,192,136721,5,8,0:0:0:0:
256,192,136848,5,0,0:0:0:0:
256,192,136976,5,8,0:0:0:0:
256,192,137061,5,0,0:0:0:0:
256,192,137146,5,0,0:0:0:0:
256,192,137231,5,8,0:0:0:0:
256,192,137359,5,0,0:0:0:0:
256,192,137487,5,0,0:0:0:0:
256,192,137572,5,0,0:0:0:0:
256,192,137657,5,0,0:0:0:0:
256,192,137742,5,8,0:0:0:0:
256,192,137997,5,0,0:0:0:0:
256,192,138253,5,8,0:0:0:0:
256,192,138380,5,0,0:0:0:0:
256,192,138508,5,12,0:0:0:0:
256,192,138636,5,0,0:0:0:0:
256,192,138763,5,0,0:0:0:0:
256,192,138891,5,12,0:0:0:0:
256,192,139019,5,0,0:0:0:0:
256,192,139146,5,0,0:0:0:0:
256,192,139274,5,8,0:0:0:0:
256,192,139402,5,8,0:0:0:0:
256,192,139529,5,0,0:0:0:0:
256,192,139657,5,8,0:0:0:0:
256,192,139785,5,0,0:0:0:0:
256,192,139912,5,0,0:0:0:0:
256,192,139976,5,0,0:0:0:0:
256,192,140040,5,8,0:0:0:0:
256,192,140295,5,0,0:0:0:0:
256,192,140551,5,0,0:0:0:0:
256,192,140614,5,0,0:0:0:0:
256,192,140678,5,0,0:0:0:0:
256,192,140806,5,8,0:0:0:0:
256,192,140934,5,0,0:0:0:0:
256,192,141061,5,0,0:0:0:0:
256,192,141189,5,8,0:0:0:0:
256,192,141317,5,8,0:0:0:0:
256,192,141444,5,8,0:0:0:0:
256,192,141572,5,0,0:0:0:0:
256,192,141636,5,0,0:0:0:0:
256,192,141699,5,0,0:0:0:0:
256,192,141763,5,0,0:0:0:0:
256,192,141827,5,0,0:0:0:0:
256,192,141955,5,8,0:0:0:0:
256,192,142338,5,8,0:0:0:0:
256,192,142402,5,8,0:0:0:0:
256,192,142465,5,0,0:0:0:0:
256,192,142529,5,0,0:0:0:0:
256,192,142593,5,0,0:0:0:0:
256,192,142721,5,0,0:0:0:0:
256,192,142848,5,0,0:0:0:0:
256,192,142976,5,0,0:0:0:0:
256,192,143104,5,8,0:0:0:0:
256,192,143168,5,8,0:0:0:0:
256,192,143231,5,8,0:0:0:0:
256,192,143295,5,8,0:0:0:0:
256,192,143359,5,0,0:0:0:0:
256,192,143487,5,8,0:0:0:0:
256,192,143870,5,8,0:0:0:0:
256,192,143934,5,0,0:0:0:0:
256,192,143997,5,0,0:0:0:0:
256,192,144061,5,0,0:0:0:0:
256,192,144125,5,0,0:0:0:0:
256,192,144253,5,0,0:0:0:0:
256,192,144380,5,0,0:0:0:0:
256,192,144508,5,0,0:0:0:0:
256,192,144636,5,8,0:0:0:0:
256,192,144699,5,8,0:0:0:0:
256,192,144763,5,8,0:0:0:0:
256,192,144827,5,8,0:0:0:0:
256,192,144891,5,8,0:0:0:0:
256,192,145019,5,0,0:0:0:0:
256,192,145402,5,8,0:0:0:0:
256,192,145465,5,0,0:0:0:0:
256,192,145529,5,8,0:0:0:0:
256,192,145593,5,8,0:0:0:0:
256,192,145657,5,0,0:0:0:0:
256,192,145785,5,8,0:0:0:0:
256,192,145912,5,8,0:0:0:0:
256,192,145976,5,0,0:0:0:0:
256,192,146040,5,8,0:0:0:0:
256,192,146104,5,8,0:0:0:0:
256,192,146168,5,0,0:0:0:0:
256,192,146295,5,8,0:0:0:0:
256,192,146423,5,0,0:0:0:0:
256,192,146551,5,8,0:0:0:0:
256,192,146934,5,8,0:0:0:0:
256,192,146997,5,8,0:0:0:0:
256,192,147061,5,8,0:0:0:0:
256,192,147125,5,8,0:0:0:0:
256,192,147189,5,8,0:0:0:0:
256,192,147317,5,0,0:0:0:0:
256,192,147380,5,0,0:0:0:0:
256,192,147444,5,0,0:0:0:0:
256,192,147508,5,0,0:0:0:0:
256,192,147572,5,0,0:0:0:0:
256,192,147699,5,8,0:0:0:0:
256,192,147763,5,8,0:0:0:0:
256,192,147827,5,8,0:0:0:0:
256,192,147891,5,8,0:0:0:0:
256,192,147955,5,8,0:0:0:0:
256,192,148082,5,0,0:0:0:0:
256,192,148465,5,8,0:0:0:0:
256,192,148529,5,8,0:0:0:0:
256,192,148593,5,8,0:0:0:0:
256,192,148657,5,8,0:0:0:0:
256,192,148721,5,0,0:0:0:0:
256,192,148848,5,8,0:0:0:0:
256,192,148912,5,0,0:0:0:0:
256,192,148976,5,8,0:0:0:0:
256,192,149104,5,0,0:0:0:0:
256,192,149231,5,8,0:0:0:0:
256,192,149295,5,8,0:0:0:0:
256,192,149359,5,8,0:0:0:0:
256,192,149423,5,8,0:0:0:0:
256,192,149487,5,8,0:0:0:0:
256,192,149614,5,0,0:0:0:0:
256,192,149997,5,8,0:0:0:0:
256,192,150061,5,0,0:0:0:0:
256,192,150125,5,0,0:0:0:0:
256,192,150189,5,0,0:0:0:0:
256,192,150253,5,0,0:0:0:0:
256,192,150380,5,8,0:0:0:0:
256,192,150508,5,0,0:0:0:0:
256,192,150763,5,8,0:0:0:0:
256,192,150827,5,0,0:0:0:0:
256,192,150891,5,8,0:0:0:0:
256,192,150955,5,8,0:0:0:0:
256,192,151019,5,0,0:0:0:0:
256,192,151146,5,0,0:0:0:0:
256,192,151274,5,8,0:0:0:0:
256,192,151338,5,8,0:0:0:0:
256,192,151402,5,8,0:0:0:0:
256,192,151529,5,8,0:0:0:0:
256,192,151657,5,8,0:0:0:0:
256,192,151721,5,8,0:0:0:0:
256,192,151785,5,0,0:0:0:0:
256,192,151848,5,0,0:0:0:0:
256,192,151912,5,8,0:0:0:0:
256,192,152040,5,0,0:0:0:0:
256,192,152168,5,8,0:0:0:0:
256,192,152231,5,8,0:0:0:0:
256,192,152295,5,8,0:0:0:0:
256,192,152423,5,0,0:0:0:0:
256,192,152551,5,0,0:0:0:0:
256,192,152614,5,0,0:0:0:0:
256,192,152678,5,8,0:0:0:0:
256,192,152742,5,0,0:0:0:0:
256,192,152806,5,8,0:0:0:0:
256,192,152934,5,0,0:0:0:0:
256,192,153061,5,8,0:0:0:0:
256,192,153189,5,8,0:0:0:0:
256,192,153317,5,0,0:0:0:0:
256,192,153444,5,0,0:0:0:0:
256,192,153572,5,0,0:0:0:0:
256,192,153827,5,12,0:0:0:0:
256,192,153955,5,0,0:0:0:0:
256,192,154083,5,8,0:0:0:0:
256,192,154210,5,0,0:0:0:0:
256,192,154274,5,0,0:0:0:0:
256,192,154338,5,0,0:0:0:0:
256,192,154466,5,0,0:0:0:0:
256,192,154593,5,8,0:0:0:0:
256,192,154721,5,8,0:0:0:0:
256,192,154849,5,8,0:0:0:0:
256,192,154976,5,8,0:0:0:0:
256,192,155104,5,0,0:0:0:0:
256,192,155232,5,0,0:0:0:0:
256,192,155359,5,0,0:0:0:0:
256,192,155423,5,0,0:0:0:0:
256,192,155487,5,0,0:0:0:0:
256,192,155551,5,0,0:0:0:0:
256,192,155614,5,8,0:0:0:0:
256,192,155742,5,0,0:0:0:0:
256,192,155870,5,0,0:0:0:0:
256,192,155997,5,0,0:0:0:0:
256,192,156125,5,8,0:0:0:0:
256,192,156189,5,0,0:0:0:0:
256,192,156253,5,0,0:0:0:0:
256,192,156317,5,0,0:0:0:0:
256,192,156380,5,8,0:0:0:0:
256,192,156508,5,0,0:0:0:0:
256,192,156572,5,0,0:0:0:0:
256,192,156636,5,8,0:0:0:0:
256,192,156891,5,8,0:0:0:0:
256,192,156955,5,0,0:0:0:0:
256,192,157019,5,8,0:0:0:0:
256,192,157083,5,0,0:0:0:0:
256,192,157146,5,8,0:0:0:0:
256,192,157274,5,8,0:0:0:0:
256,192,157402,5,0,0:0:0:0:
256,192,157466,5,0,0:0:0:0:
256,192,157529,5,8,0:0:0:0:
256,192,157593,5,0,0:0:0:0:
256,192,157657,5,8,0:0:0:0:
256,192,157785,5,8,0:0:0:0:
256,192,157912,5,8,0:0:0:0:
256,192,157976,5,0,0:0:0:0:
256,192,158040,5,8,0:0:0:0:
256,192,158104,5,8,0:0:0:0:
256,192,158168,5,0,0:0:0:0:
256,192,158295,5,8,0:0:0:0:
256,192,158423,5,8,0:0:0:0:
256,192,158551,5,8,0:0:0:0:
256,192,158614,5,0,0:0:0:0:
256,192,158678,5,8,0:0:0:0:
256,192,158742,5,0,0:0:0:0:
256,192,158806,5,8,0:0:0:0:
256,192,158934,5,0,0:0:0:0:
256,192,159061,5,8,0:0:0:0:
256,192,159189,5,8,0:0:0:0:
256,192,159253,5,8,0:0:0:0:
256,192,159317,5,8,0:0:0:0:
256,192,159380,5,8,0:0:0:0:
256,192,159444,5,0,0:0:0:0:
256,192,159572,5,8,0:0:0:0:
256,192,159700,5,0,0:0:0:0:
256,192,159827,5,0,0:0:0:0:
256,192,159955,5,12,0:0:0:0:
256,192,160210,5,0,0:0:0:0:
256,192,160338,5,8,0:0:0:0:
256,192,160721,5,8,0:0:0:0:
256,192,160785,5,8,0:0:0:0:
256,192,160849,5,0,0:0:0:0:
256,192,160912,5,0,0:0:0:0:
256,192,160976,5,0,0:0:0:0:
256,192,161104,5,8,0:0:0:0:
256,192,161232,5,0,0:0:0:0:
256,192,161359,5,0,0:0:0:0:
256,192,161487,5,8,0:0:0:0:
256,192,161870,5,0,0:0:0:0:
256,192,161997,5,0,0:0:0:0:
256,192,162125,5,0,0:0:0:0:
256,192,162253,5,8,0:0:0:0:
256,192,162380,5,0,0:0:0:0:
256,192,162444,5,0,0:0:0:0:
256,192,162508,5,8,0:0:0:0:
256,192,162636,5,0,0:0:0:0:
256,192,162700,5,0,0:0:0:0:
256,192,162763,5,8,0:0:0:0:
256,192,163019,5,8,0:0:0:0:
256,192,163146,5,0,0:0:0:0:
256,192,163210,5,0,0:0:0:0:
256,192,163274,5,8,0:0:0:0:
256,192,163338,5,0,0:0:0:0:
256,192,163402,5,8,0:0:0:0:
256,192,163529,5,8,0:0:0:0:
256,192,163657,5,8,0:0:0:0:
256,192,163785,5,0,0:0:0:0:
256,192,163912,5,8,0:0:0:0:
256,192,164040,5,0,0:0:0:0:
256,192,164104,5,0,0:0:0:0:
256,192,164168,5,8,0:0:0:0:
256,192,164295,5,8,0:0:0:0:
256,192,164551,5,8,0:0:0:0:
256,192,164614,5,8,0:0:0:0:
256,192,164678,5,8,0:0:0:0:
256,192,164806,5,8,0:0:0:0:
256,192,164934,5,0,0:0:0:0:
256,192,164997,5,0,0:0:0:0:
256,192,165061,5,0,0:0:0:0:
256,192,165189,5,0,0:0:0:0:
256,192,165316,5,8,0:0:0:0:
256,192,165380,5,8,0:0:0:0:
256,192,165444,5,0,0:0:0:0:
256,192,165572,5,8,0:0:0:0:
256,192,165699,5,0,0:0:0:0:
256,192,165763,5,0,0:0:0:0:
256,192,165827,5,0,0:0:0:0:
256,192,166082,5,8,0:0:0:0:
256,192,166145,5,8,0:0:0:0:
256,192,166209,5,8,0:0:0:0:
256,192,166273,5,8,0:0:0:0:
256,192,166337,5,0,0:0:0:0:
256,192,166464,5,0,0:0:0:0:
256,192,166592,5,8,0:0:0:0:
256,192,166656,5,8,0:0:0:0:
256,192,166720,5,0,0:0:0:0:
256,192,166784,5,0,0:0:0:0:
256,192,166847,5,8,0:0:0:0:
256,192,166975,5,0,0:0:0:0:
256,192,167103,5,8,0:0:0:0:
256,192,167358,5,8,0:0:0:0:
256,192,167422,5,8,0:0:0:0:
256,192,167486,5,0,0:0:0:0:
256,192,167550,5,0,0:0:0:0:
256,192,167613,5,8,0:0:0:0:
256,192,167741,5,0,0:0:0:0:
256,192,167869,5,8,0:0:0:0:
256,192,167996,5,8,0:0:0:0:
256,192,168124,5,0,0:0:0:0:
256,192,168252,5,0,0:0:0:0:
256,192,168379,5,8,0:0:0:0:
256,192,168443,5,8,0:0:0:0:
256,192,168507,5,8,0:0:0:0:
256,192,168571,5,8,0:0:0:0:
256,192,168635,5,0,0:0:0:0:
256,192,168890,5,8,0:0:0:0:
256,192,169145,5,8,0:0:0:0:
256,192,169273,5,0,0:0:0:0:
256,192,169337,5,0,0:0:0:0:
256,192,169401,5,8,0:0:0:0:
256,192,169528,5,0,0:0:0:0:
256,192,169656,5,8,0:0:0:0:
256,192,169784,5,0,0:0:0:0:
256,192,169911,5,8,0:0:0:0:
256,192,169975,5,0,0:0:0:0:
256,192,170039,5,0,0:0:0:0:
256,192,170103,5,0,0:0:0:0:
256,192,170167,5,8,0:0:0:0:
256,192,170294,5,8,0:0:0:0:
256,192,170422,5,0,0:0:0:0:
256,192,170677,5,8,0:0:0:0:
256,192,170741,5,8,0:0:0:0:
256,192,170805,5,0,0:0:0:0:
256,192,170869,5,0,0:0:0:0:
256,192,170933,5,8,0:0:0:0:
256,192,171060,5,8,0:0:0:0:
256,192,171188,5,0,0:0:0:0:
256,192,171252,5,0,0:0:0:0:
256,192,171316,5,0,0:0:0:0:
256,192,171379,5,0,0:0:0:0:
256,192,171443,5,8,0:0:0:0:
256,192,171571,5,0,0:0:0:0:
256,192,171636,1,0,0:0:0:0:
256,192,171699,5,8,0:0:0:0:
256,192,171826,5,0,0:0:0:0:
256,192,171954,5,8,0:0:0:0:
256,192,172209,5,8,0:0:0:0:
256,192,172273,5,8,0:0:0:0:
256,192,172337,5,8,0:0:0:0:
256,192,172401,5,8,0:0:0:0:
256,192,172464,5,0,0:0:0:0:
256,192,172592,5,0,0:0:0:0:
256,192,172720,5,8,0:0:0:0:
256,192,172848,5,0,0:0:0:0:
256,192,172976,5,8,0:0:0:0:
256,192,173040,5,0,0:0:0:0:
256,192,173104,5,0,0:0:0:0:
256,192,173168,5,0,0:0:0:0:
256,192,173231,5,8,0:0:0:0:
256,192,173359,5,8,0:0:0:0:
256,192,173486,5,0,0:0:0:0:
256,192,173613,5,8,0:0:0:0:
256,192,173742,5,0,0:0:0:0:
256,192,173806,5,0,0:0:0:0:
256,192,173870,5,0,0:0:0:0:
256,192,173933,5,0,0:0:0:0:
256,192,173997,5,8,0:0:0:0:
256,192,174125,5,0,0:0:0:0:
256,192,174253,5,8,0:0:0:0:
256,192,174380,5,0,0:0:0:0:
256,192,174508,5,8,0:0:0:0:
256,192,174572,5,8,0:0:0:0:
256,192,174636,5,8,0:0:0:0:
256,192,174700,5,8,0:0:0:0:
256,192,174763,5,0,0:0:0:0:
256,192,174891,5,0,0:0:0:0:
256,192,175019,5,8,0:0:0:0:
256,192,175274,5,4,0:0:0:0:
256,192,175402,5,8,0:0:0:0:
256,192,175529,5,8,0:0:0:0:
256,192,175657,5,0,0:0:0:0:
256,192,175785,5,8,0:0:0:0:
256,192,175912,5,0,0:0:0:0:
256,192,176040,5,8,0:0:0:0:
256,192,176295,5,0,0:0:0:0:
256,192,176423,5,8,0:0:0:0:
256,192,176551,5,0,0:0:0:0:
256,192,176678,5,0,0:0:0:0:
256,192,176806,5,8,0:0:0:0:
256,192,176934,5,0,0:0:0:0:
256,192,177061,5,0,0:0:0:0:
256,192,177189,5,8,0:0:0:0:
256,192,177317,5,0,0:0:0:0:
256,192,177444,5,8,0:0:0:0:
256,192,177572,5,0,0:0:0:0:
256,192,177636,5,0,0:0:0:0:
256,192,177700,5,0,0:0:0:0:
256,192,177763,5,0,0:0:0:0:
256,192,177827,5,8,0:0:0:0:
256,192,177955,5,8,0:0:0:0:
256,192,178082,5,0,0:0:0:0:
256,192,178339,5,8,0:0:0:0:
256,192,178402,5,8,0:0:0:0:
256,192,178466,5,8,0:0:0:0:
256,192,178530,5,8,0:0:0:0:
256,192,178594,5,8,0:0:0:0:
256,192,178722,5,0,0:0:0:0:
256,192,178849,5,8,0:0:0:0:
256,192,178977,5,0,0:0:0:0:
256,192,179105,5,8,0:0:0:0:
256,192,179168,5,8,0:0:0:0:
256,192,179232,5,8,0:0:0:0:
256,192,179296,5,8,0:0:0:0:
256,192,179360,5,8,0:0:0:0:
256,192,179488,5,8,0:0:0:0:
256,192,179615,5,0,0:0:0:0:
256,192,179743,5,8,0:0:0:0:
256,192,179871,5,0,0:0:0:0:
256,192,179934,5,0,0:0:0:0:
256,192,179998,5,0,0:0:0:0:
256,192,180062,5,0,0:0:0:0:
256,192,180126,5,0,0:0:0:0:
256,192,180254,5,8,0:0:0:0:
256,192,180381,5,0,0:0:0:0:
256,192,180509,5,0,0:0:0:0:
256,192,180637,5,8,0:0:0:0:
256,192,180700,5,8,0:0:0:0:
256,192,180764,5,8,0:0:0:0:
256,192,180828,5,8,0:0:0:0:
256,192,180892,5,8,0:0:0:0:
256,192,181019,5,8,0:0:0:0:
256,192,181147,5,0,0:0:0:0:
256,192,181275,5,0,0:0:0:0:
256,192,181402,5,4,0:0:0:0:
256,192,181656,5,0,0:0:0:0:
256,192,181720,5,0,0:0:0:0:
256,192,181784,5,8,0:0:0:0:
256,192,181911,5,8,0:0:0:0:
256,192,182039,5,0,0:0:0:0:
256,192,182167,5,8,0:0:0:0:
256,192,182230,5,8,0:0:0:0:
256,192,182294,5,0,0:0:0:0:
256,192,182422,5,0,0:0:0:0:
256,192,182550,5,8,0:0:0:0:
256,192,182677,5,8,0:0:0:0:
256,192,182805,5,0,0:0:0:0:
256,192,182869,5,0,0:0:0:0:
256,192,182933,5,8,0:0:0:0:
256,192,183060,5,8,0:0:0:0:
256,192,183188,5,0,0:0:0:0:
256,192,183316,5,8,0:0:0:0:
256,192,183443,5,0,0:0:0:0:
256,192,183507,5,0,0:0:0:0:
256,192,183571,5,0,0:0:0:0:
256,192,183635,5,0,0:0:0:0:
256,192,183699,5,8,0:0:0:0:
256,192,183826,5,8,0:0:0:0:
256,192,183954,5,8,0:0:0:0:
256,192,184018,5,8,0:0:0:0:
256,192,184081,5,8,0:0:0:0:
256,192,184145,5,8,0:0:0:0:
256,192,184209,5,0,0:0:0:0:
256,192,184337,5,0,0:0:0:0:
256,192,184464,5,4,0:0:0:0:
256,192,184721,5,0,0:0:0:0:
256,192,184976,5,0,0:0:0:0:
256,192,185040,5,0,0:0:0:0:
256,192,185104,5,0,0:0:0:0:
256,192,185168,5,0,0:0:0:0:
256,192,185231,5,8,0:0:0:0:
256,192,185487,5,0,0:0:0:0:
256,192,185742,5,0,0:0:0:0:
256,192,185997,5,8,0:0:0:0:
256,192,186127,5,0,0:0:0:0:
256,192,186257,5,0,0:0:0:0:
256,192,186388,5,8,0:0:0:0:
256,192,186518,5,0,0:0:0:0:
256,192,186649,5,0,0:0:0:0:
256,192,186779,5,8,0:0:0:0:
256,192,186844,1,8,0:0:0:0:
256,192,186910,5,0,0:0:0:0:
256,192,186975,1,0,0:0:0:0:
256,192,187040,5,8,0:0:0:0:
256,192,187170,5,8,0:0:0:0:
256,192,187301,5,0,0:0:0:0:
256,192,187431,5,0,0:0:0:0:
256,192,187587,5,4,0:0:0:0:
256,192,191950,5,4,0:0:0:0:
256,192,193859,5,8,0:0:0:0:
256,192,193996,5,8,0:0:0:0:
256,192,194132,5,8,0:0:0:0:
256,192,195223,5,4,0:0:0:0:
256,192,195768,5,4,0:0:0:0:
256,192,196041,5,8,0:0:0:0:
256,192,196314,5,12,0:0:0:0:
256,192,196450,5,8,0:0:0:0:
256,192,196587,5,0,0:0:0:0:
256,192,196723,5,0,0:0:0:0:
256,192,196859,5,8,0:0:0:0:
256,192,196996,5,0,0:0:0:0:
256,192,197132,5,0,0:0:0:0:
256,192,197268,5,0,0:0:0:0:
256,192,197405,5,8,0:0:0:0:
256,192,197677,5,0,0:0:0:0:
256,192,197950,5,8,0:0:0:0:
256,192,198087,5,0,0:0:0:0:
256,192,198223,5,0,0:0:0:0:
256,192,198359,5,0,0:0:0:0:
256,192,198496,5,8,0:0:0:0:
256,192,198632,5,8,0:0:0:0:
256,192,198768,5,0,0:0:0:0:
256,192,198905,5,0,0:0:0:0:
256,192,199041,5,8,0:0:0:0:
256,192,199177,5,0,0:0:0:0:
256,192,199314,5,8,0:0:0:0:
256,192,199450,5,8,0:0:0:0:
256,192,199587,5,8,0:0:0:0:
256,192,199859,5,0,0:0:0:0:
256,192,200132,5,8,0:0:0:0:
256,192,200268,5,0,0:0:0:0:
256,192,200405,5,0,0:0:0:0:
256,192,200541,5,0,0:0:0:0:
256,192,200677,5,8,0:0:0:0:
256,192,200768,5,0,0:0:0:0:
256,192,200859,5,0,0:0:0:0:
256,192,200950,5,8,0:0:0:0:
256,192,201132,5,0,0:0:0:0:
256,192,201223,5,8,0:0:0:0:
256,192,201314,5,8,0:0:0:0:
256,192,201405,5,8,0:0:0:0:
256,192,201496,5,0,0:0:0:0:
256,192,201677,5,0,0:0:0:0:
256,192,201768,5,8,0:0:0:0:
256,192,201859,5,8,0:0:0:0:
256,192,201950,5,8,0:0:0:0:
256,192,202041,5,0,0:0:0:0:
256,192,202223,5,0,0:0:0:0:
256,192,202314,5,8,0:0:0:0:
256,192,202405,5,0,0:0:0:0:
256,192,202496,5,0,0:0:0:0:
256,192,202587,5,8,0:0:0:0:
256,192,202859,5,12,0:0:0:0:
256,192,202996,5,0,0:0:0:0:
256,192,203132,5,0,0:0:0:0:
256,192,203268,5,8,0:0:0:0:
256,192,203541,5,0,0:0:0:0:
256,192,203609,5,0,0:0:0:0:
256,192,203677,5,0,0:0:0:0:
256,192,203814,5,0,0:0:0:0:
256,192,203950,5,8,0:0:0:0:
256,192,204223,5,0,0:0:0:0:
256,192,204291,5,0,0:0:0:0:
256,192,204359,5,0,0:0:0:0:
256,192,204427,5,0,0:0:0:0:
256,192,204496,5,8,0:0:0:0:
256,192,204632,5,8,0:0:0:0:
256,192,204768,5,8,0:0:0:0:
256,192,204905,5,8,0:0:0:0:
256,192,205041,5,4,0:0:0:0:
256,192,205177,5,0,0:0:0:0:
256,192,205314,5,0,0:0:0:0:
256,192,205450,5,8,0:0:0:0:
256,192,205723,5,0,0:0:0:0:
256,192,205859,5,0,0:0:0:0:
256,192,205996,5,0,0:0:0:0:
256,192,206132,5,8,0:0:0:0:
256,192,206405,5,0,0:0:0:0:
256,192,206814,5,0,0:0:0:0:
256,192,206950,5,0,0:0:0:0:
256,192,207223,5,8,0:0:0:0:
256,192,207359,5,0,0:0:0:0:
256,192,207496,5,0,0:0:0:0:
256,192,207632,5,8,0:0:0:0:
256,192,207905,5,0,0:0:0:0:
256,192,208041,5,0,0:0:0:0:
256,192,208177,5,0,0:0:0:0:
256,192,208314,5,8,0:0:0:0:
256,192,208587,5,0,0:0:0:0:
256,192,208996,5,8,0:0:0:0:
256,192,209132,5,0,0:0:0:0:
256,192,209405,5,8,0:0:0:0:
256,192,209541,5,8,0:0:0:0:
256,192,209677,5,0,0:0:0:0:
256,192,209814,5,8,0:0:0:0:
256,192,210087,5,0,0:0:0:0:
256,192,210223,5,8,0:0:0:0:
256,192,210359,5,0,0:0:0:0:
256,192,210496,5,8,0:0:0:0:
256,192,210768,5,0,0:0:0:0:
256,192,211177,5,0,0:0:0:0:
256,192,211587,5,0,0:0:0:0:
256,192,211996,5,12,0:0:0:0:
256,192,212268,5,0,0:0:0:0:
256,192,212405,5,0,0:0:0:0:
256,192,212541,5,0,0:0:0:0:
256,192,212677,5,12,0:0:0:0:
256,192,212814,5,0,0:0:0:0:
256,192,212950,5,8,0:0:0:0:
256,192,213018,5,0,0:0:0:0:
256,192,213087,5,8,0:0:0:0:
256,192,213155,5,8,0:0:0:0:
256,192,213223,5,0,0:0:0:0:
256,192,213359,5,0,0:0:0:0:
256,192,213496,5,8,0:0:0:0:
256,192,213768,5,12,0:0:0:0:
256,192,213905,5,0,0:0:0:0:
256,192,214041,5,0,0:0:0:0:
256,192,214177,5,8,0:0:0:0:
256,192,214450,5,0,0:0:0:0:
256,192,214587,5,0,0:0:0:0:
256,192,214723,5,0,0:0:0:0:
256,192,214859,5,8,0:0:0:0:
256,192,215132,5,0,0:0:0:0:
256,192,215541,5,8,0:0:0:0:
256,192,215677,5,0,0:0:0:0:
256,192,215950,5,0,0:0:0:0:
256,192,216087,5,8,0:0:0:0:
256,192,216223,5,0,0:0:0:0:
256,192,216359,5,8,0:0:0:0:
256,192,216632,5,8,0:0:0:0:
256,192,216768,5,0,0:0:0:0:
256,192,216905,5,0,0:0:0:0:
256,192,217041,5,8,0:0:0:0:
256,192,217314,5,0,0:0:0:0:
256,192,217723,5,0,0:0:0:0:
256,192,217859,5,0,0:0:0:0:
256,192,218132,5,0,0:0:0:0:
256,192,218268,5,8,0:0:0:0:
256,192,218405,5,0,0:0:0:0:
256,192,218541,5,8,0:0:0:0:
256,192,218814,5,0,0:0:0:0:
256,192,218950,5,0,0:0:0:0:
256,192,219087,5,8,0:0:0:0:
256,192,219223,5,8,0:0:0:0:
256,192,219359,5,0,0:0:0:0:
256,192,219496,5,8,0:0:0:0:
256,192,219632,5,0,0:0:0:0:
256,192,219700,5,0,0:0:0:0:
256,192,219768,5,0,0:0:0:0:
256,192,219837,5,0,0:0:0:0:
256,192,219905,5,8,0:0:0:0:
256,192,220041,5,0,0:0:0:0:
256,192,220109,5,0,0:0:0:0:
256,192,220177,5,0,0:0:0:0:
256,192,220246,5,0,0:0:0:0:
256,192,220314,5,8,0:0:0:0:
256,192,220450,5,0,0:0:0:0:
256,192,220518,5,0,0:0:0:0:
256,192,220587,5,0,0:0:0:0:
256,192,220655,5,0,0:0:0:0:
256,192,220723,5,8,0:0:0:0:
256,192,220996,5,0,0:0:0:0:
256,192,221064,5,0,0:0:0:0:
256,192,221132,5,0,0:0:0:0:
256,192,221268,5,0,0:0:0:0:
256,192,221405,5,8,0:0:0:0:
256,192,221541,5,0,0:0:0:0:
256,192,221677,5,8,0:0:0:0:
256,192,221746,5,0,0:0:0:0:
256,192,221814,5,8,0:0:0:0:
256,192,221882,5,8,0:0:0:0:
256,192,221950,5,0,0:0:0:0:
256,192,222087,5,8,0:0:0:0:
256,192,222223,5,8,0:0:0:0:
256,192,222359,5,8,0:0:0:0:
256,192,222496,5,4,0:0:0:0:
256,192,222632,5,0,0:0:0:0:
256,192,222768,5,0,0:0:0:0:
256,192,222905,5,8,0:0:0:0:
256,192,223177,5,0,0:0:0:0:
256,192,223314,5,0,0:0:0:0:
256,192,223450,5,0,0:0:0:0:
256,192,223587,5,8,0:0:0:0:
256,192,223859,5,0,0:0:0:0:
256,192,224268,5,0,0:0:0:0:
256,192,224405,5,0,0:0:0:0:
256,192,224677,5,8,0:0:0:0:
256,192,224814,5,0,0:0:0:0:
256,192,224950,5,0,0:0:0:0:
256,192,225087,5,8,0:0:0:0:
256,192,225359,5,0,0:0:0:0:
256,192,225496,5,0,0:0:0:0:
256,192,225632,5,0,0:0:0:0:
256,192,225768,5,8,0:0:0:0:
256,192,226041,5,0,0:0:0:0:
256,192,226450,5,8,0:0:0:0:
256,192,226587,5,0,0:0:0:0:
256,192,226859,5,8,0:0:0:0:
256,192,226996,5,8,0:0:0:0:
256,192,227132,5,0,0:0:0:0:
256,192,227268,5,8,0:0:0:0:
256,192,227541,5,8,0:0:0:0:
256,192,227677,5,0,0:0:0:0:
256,192,227814,5,0,0:0:0:0:
256,192,227950,5,8,0:0:0:0:
256,192,228087,5,0,0:0:0:0:
256,192,228155,5,0,0:0:0:0:
256,192,228223,5,8,0:0:0:0:
256,192,228291,5,0,0:0:0:0:
256,192,228359,5,8,0:0:0:0:
256,192,228496,5,0,0:0:0:0:
256,192,228632,5,8,0:0:0:0:
256,192,228768,5,0,0:0:0:0:
256,192,228905,5,0,0:0:0:0:
256,192,228973,5,0,0:0:0:0:
256,192,229041,5,8,0:0:0:0:
256,192,229109,5,8,0:0:0:0:
256,192,229177,5,0,0:0:0:0:
256,192,229314,5,8,0:0:0:0:
256,192,229450,5,8,0:0:0:0:
256,192,229723,5,0,0:0:0:0:
256,192,229791,5,0,0:0:0:0:
256,192,229859,5,0,0:0:0:0:
256,192,229996,5,0,0:0:0:0:
256,192,230132,5,8,0:0:0:0:
256,192,230268,5,0,0:0:0:0:
256,192,230337,5,0,0:0:0:0:
256,192,230405,5,0,0:0:0:0:
256,192,230541,5,8,0:0:0:0:
256,192,230677,5,8,0:0:0:0:
256,192,230814,5,0,0:0:0:0:
256,192,230950,5,8,0:0:0:0:
256,192,231087,5,0,0:0:0:0:
256,192,231223,5,0,0:0:0:0:
256,192,231359,5,0,0:0:0:0:
256,192,231496,5,0,0:0:0:0:
256,192,231632,5,8,0:0:0:0:
256,192,231905,5,8,0:0:0:0:
256,192,232041,5,0,0:0:0:0:
256,192,232177,5,0,0:0:0:0:
256,192,232314,5,8,0:0:0:0:
256,192,232587,5,0,0:0:0:0:
256,192,232996,5,0,0:0:0:0:
256,192,233132,5,8,0:0:0:0:
256,192,233200,5,0,0:0:0:0:
256,192,233268,5,8,0:0:0:0:
256,192,233337,5,8,0:0:0:0:
256,192,233405,5,0,0:0:0:0:
256,192,233541,5,0,0:0:0:0:
256,192,233677,5,0,0:0:0:0:
256,192,233814,5,8,0:0:0:0:
256,192,234087,5,8,0:0:0:0:
256,192,234223,5,0,0:0:0:0:
256,192,234359,5,0,0:0:0:0:
256,192,234496,5,8,0:0:0:0:
256,192,234632,5,0,0:0:0:0:
256,192,234768,5,0,0:0:0:0:
256,192,235177,5,0,0:0:0:0:
256,192,235246,5,8,0:0:0:0:
256,192,235314,5,8,0:0:0:0:
256,192,235382,5,8,0:0:0:0:
256,192,235450,5,0,0:0:0:0:
256,192,235587,5,8,0:0:0:0:
256,192,235723,5,8,0:0:0:0:
256,192,235859,5,0,0:0:0:0:
256,192,235996,5,8,0:0:0:0:
256,192,236268,5,8,0:0:0:0:
256,192,236405,5,8,0:0:0:0:
256,192,236541,5,0,0:0:0:0:
256,192,236677,5,8,0:0:0:0:
256,192,236950,5,8,0:0:0:0:
256,192,237087,5,0,0:0:0:0:
256,192,237155,5,0,0:0:0:0:
256,192,237223,5,0,0:0:0:0:
256,192,237291,5,0,0:0:0:0:
256,192,237359,5,8,0:0:0:0:
256,192,237496,5,0,0:0:0:0:
256,192,237564,5,0,0:0:0:0:
256,192,237632,5,0,0:0:0:0:
256,192,237700,5,0,0:0:0:0:
256,192,237768,5,8,0:0:0:0:
256,192,237905,5,0,0:0:0:0:
256,192,237973,5,0,0:0:0:0:
256,192,238041,5,0,0:0:0:0:
256,192,238109,5,0,0:0:0:0:
256,192,238177,5,8,0:0:0:0:
256,192,238314,5,0,0:0:0:0:
256,192,238382,5,0,0:0:0:0:
256,192,238450,5,0,0:0:0:0:
256,192,238518,5,0,0:0:0:0:
256,192,238587,5,8,0:0:0:0:
256,192,238723,5,0,0:0:0:0:
256,192,238859,5,8,0:0:0:0:
256,192,238927,5,8,0:0:0:0:
256,192,238996,5,0,0:0:0:0:
256,192,239064,5,0,0:0:0:0:
256,192,239132,5,8,0:0:0:0:
256,192,239268,5,0,0:0:0:0:
256,192,239405,5,8,0:0:0:0:
256,192,239541,5,0,0:0:0:0:
256,192,239609,5,0,0:0:0:0:
256,192,239677,5,8,0:0:0:0:
256,192,239950,5,8,0:0:0:0:
256,192,240018,5,0,0:0:0:0:
256,192,240087,5,8,0:0:0:0:
256,192,240155,5,0,0:0:0:0:
256,192,240223,5,8,0:0:0:0:
256,192,240291,5,0,0:0:0:0:
256,192,240359,5,8,0:0:0:0:
256,192,240496,5,0,0:0:0:0:
256,192,240632,5,0,0:0:0:0:
256,192,240700,5,0,0:0:0:0:
256,192,240768,5,8,0:0:0:0:
256,192,240837,5,0,0:0:0:0:
256,192,240905,5,8,0:0:0:0:
256,192,241041,5,8,0:0:0:0:
256,192,241177,5,8,0:0:0:0:
256,192,241246,5,0,0:0:0:0:
256,192,241314,5,8,0:0:0:0:
256,192,241382,5,8,0:0:0:0:
256,192,241450,5,0,0:0:0:0:
256,192,241723,5,8,0:0:0:0:
256,192,241859,5,8,0:0:0:0:
256,192,241996,5,0,0:0:0:0:
256,192,242064,5,0,0:0:0:0:
256,192,242132,5,8,0:0:0:0:
256,192,242268,5,0,0:0:0:0:
256,192,242337,5,0,0:0:0:0:
256,192,242405,5,8,0:0:0:0:
256,192,242473,5,0,0:0:0:0:
256,192,242541,5,8,0:0:0:0:
256,192,242814,5,8,0:0:0:0:
256,192,242882,5,0,0:0:0:0:
256,192,242950,5,8,0:0:0:0:
256,192,243018,5,8,0:0:0:0:
256,192,243087,5,0,0:0:0:0:
256,192,243223,5,8,0:0:0:0:
256,192,243359,5,8,0:0:0:0:
256,192,243427,5,8,0:0:0:0:
256,192,243496,5,0,0:0:0:0:
256,192,243905,5,8,0:0:0:0:
256,192,243973,5,0,0:0:0:0:
256,192,244041,5,8,0:0:0:0:
256,192,244109,5,8,0:0:0:0:
256,192,244177,5,0,0:0:0:0:
256,192,244314,5,8,0:0:0:0:
256,192,244382,5,0,0:0:0:0:
256,192,244450,5,8,0:0:0:0:
256,192,244518,5,0,0:0:0:0:
256,192,244587,5,8,0:0:0:0:
256,192,244655,5,0,0:0:0:0:
256,192,244723,5,8,0:0:0:0:
256,192,244859,5,0,0:0:0:0:
256,192,244996,5,8,0:0:0:0:
256,192,245064,5,0,0:0:0:0:
256,192,245132,5,8,0:0:0:0:
256,192,245200,5,0,0:0:0:0:
256,192,245268,5,8,0:0:0:0:
256,192,245337,5,0,0:0:0:0:
256,192,245405,5,8,0:0:0:0:
256,192,245541,5,0,0:0:0:0:
256,192,245677,5,8,0:0:0:0:
256,192,245814,5,0,0:0:0:0:
256,192,245882,5,0,0:0:0:0:
256,192,245950,5,0,0:0:0:0:
256,192,246018,5,0,0:0:0:0:
256,192,246087,5,8,0:0:0:0:
256,192,246223,5,0,0:0:0:0:
256,192,246291,5,0,0:0:0:0:
256,192,246359,5,0,0:0:0:0:
256,192,246427,5,0,0:0:0:0:
256,192,246496,5,8,0:0:0:0:
256,192,246632,5,0,0:0:0:0:
256,192,246700,5,0,0:0:0:0:
256,192,246768,5,0,0:0:0:0:
256,192,246905,5,12,0:0:0:0:
256,192,247177,5,0,0:0:0:0:
256,192,247246,5,0,0:0:0:0:
256,192,247314,5,0,0:0:0:0:
256,192,247450,5,0,0:0:0:0:
256,192,247587,5,12,0:0:0:0:
256,192,247859,5,4,0:0:0:0:
