osu file format v14

[General]
AudioFilename: Destroyer.mp3
AudioLeadIn: 0
PreviewTime: 46126
Countdown: 1
SampleSet: Normal
StackLeniency: 0.1
Mode: 0
LetterboxInBreaks: 0
WidescreenStoryboard: 0

[Editor]
DistanceSpacing: 3.5
BeatDivisor: 4
GridSize: 4
TimelineZoom: 3

[Metadata]
Title:Destroyer
TitleUnicode:Destroyer
Artist:Inferi
ArtistUnicode:Inferi
Creator:_Nico_
Version:The Covenant
Source:
Tags:Melodic technical death metal the path of apotheosis marathon stream deathstream rsi
BeatmapID:1773082
BeatmapSetID:847848

[Difficulty]
HPDrainRate:5
CircleSize:4
OverallDifficulty:10
ApproachRate:10
SliderMultiplier:2.1
SliderTickRate:1

[Events]
//Background and Video events
0,0,"qweasdzxc.jpg",0,0
//Break Periods
2,100086,101426
//Storyboard Layer 0 (Background)
//Storyboard Layer 1 (Fail)
//Storyboard Layer 2 (Pass)
//Storyboard Layer 3 (Foreground)
//Storyboard Sound Samples

[TimingPoints]
46,240,4,1,1,40,1,0
226,-100,4,1,1,40,0,0
286,-100,4,1,1,40,0,0
466,-100,4,1,1,40,0,0
526,-250,4,1,1,40,0,0
766,-100,4,1,1,40,0,0
1006,-100,4,1,1,40,0,0
1246,-100,4,1,1,40,0,0
2206,-100,4,1,1,40,0,0
2926,-133.333333333333,4,1,1,40,0,0
3406,-117.647058823529,4,1,1,40,0,0
3886,-144.927536231884,4,1,1,40,0,0
7246,-133.333333333333,4,1,1,40,0,0
7726,-144.927536231884,4,1,1,40,0,0
7966,-111.111111111111,4,1,1,40,0,0
8446,-100,4,1,1,40,0,0
8926,-144.927536231884,4,1,1,40,0,0
10606,-153.846153846154,4,1,1,40,0,0
11026,-133.333333333333,4,1,1,40,0,0
11086,-103.092783505155,4,1,1,40,0,0
11506,-200,4,1,1,40,0,0
11566,-144.927536231884,4,1,1,40,0,0
13486,-133.333333333333,4,1,1,40,0,0
14446,-133.333333333333,4,1,1,40,0,0
15406,-100,4,1,1,40,0,1
19246,-100,4,1,1,40,0,1
22126,-133.333333333333,4,1,1,40,0,1
22366,-100,4,1,1,40,0,1
22606,-133.333333333333,4,1,1,40,0,1
23086,-100,4,1,1,40,0,1
25966,-100,4,1,1,40,0,1
28366,-100,4,1,1,40,0,1
29566,-90.9090909090909,4,1,1,40,0,1
30766,-100,4,1,1,40,0,0
34606,-100,4,1,1,40,0,0
40366,-100,4,1,1,40,0,0
44206,-80,4,1,1,40,0,0
44686,-100,4,1,1,40,0,0
45166,-133.333333333333,4,1,1,40,0,0
46006,-100,4,1,1,40,0,1
46126,-100,4,1,1,40,0,1
48286,-90.9090909090909,4,1,1,40,0,1
49966,-83.3333333333333,4,1,1,40,0,1
51886,-90.9090909090909,4,1,1,40,0,1
52846,-95.2380952380952,4,1,1,40,0,1
53806,-133.333333333333,4,1,1,40,0,1
54046,-100,4,1,1,40,0,1
54766,-100,4,1,1,40,0,1
57646,-100,4,1,1,40,0,1
60046,-74.0740740740741,4,1,1,40,0,1
60286,-80,4,1,1,40,0,1
60526,-100,4,1,1,40,0,1
61486,-100,4,1,1,40,0,0
63406,-100,4,1,1,40,0,0
65326,-100,4,1,1,40,0,0
69166,-100,4,1,1,40,0,0
70126,-100,4,1,1,40,0,0
73966,-100,4,1,1,40,0,0
75646,-80,4,1,1,40,0,0
75826,-80,4,1,1,40,0,0
75886,-80,4,1,1,40,0,0
76066,-80,4,1,1,40,0,0
76126,-100,4,1,1,40,0,0
76306,-80,4,1,1,40,0,0
76366,-80,4,1,1,40,0,0
76846,-86.9565217391304,4,1,1,40,0,0
79006,-80,4,1,1,40,0,0
79246,-86.9565217391304,4,1,1,40,0,0
79726,-100,4,1,1,40,0,0
80206,-117.647058823529,4,1,1,40,0,0
80686,-100,4,1,1,40,0,0
83206,-133.333333333333,4,1,1,40,0,0
83446,-100,4,1,1,40,0,0
83686,-133.333333333333,4,1,1,40,0,0
83926,-100,4,1,1,40,0,0
84166,-133.333333333333,4,1,1,40,0,0
84526,-100,4,1,1,40,0,0
87406,-100,4,1,1,40,0,0
88366,-100,4,1,1,40,0,0
90286,-90.9090909090909,4,1,1,40,0,0
91246,-83.3333333333333,4,1,1,40,0,0
92206,-100,4,1,1,40,0,0
92926,-133.333333333333,4,1,1,40,0,0
93166,-100,4,1,1,40,0,0
97966,-80,4,1,1,40,0,0
98926,-133.333333333333,4,1,1,40,0,0
99406,-100,4,1,1,40,0,0
102766,-100,4,1,1,40,0,0
104686,-100,4,1,1,40,0,0
105886,-133.333333333333,4,1,1,40,0,0
107566,-100,4,1,1,40,0,0
109486,-111.111111111111,4,1,1,40,0,0
111406,-100,4,1,1,40,0,0
115246,-100,4,1,1,40,0,0
115726,-100,4,1,1,40,0,0
119086,-100,4,1,1,40,0,0
119266,-100,4,1,1,40,0,0
119326,-100,4,1,1,40,0,0
119506,-100,4,1,1,40,0,0
119566,-100,4,1,1,40,0,0
124846,-113.636363636364,4,1,1,40,0,0
125086,-100,4,1,1,40,0,0
125326,-113.636363636364,4,1,1,40,0,0
126766,-100,4,1,1,40,0,0
128686,-100,4,1,1,40,0,0
130606,-100,4,1,1,40,0,1
131566,-100,4,1,1,40,0,1
135406,-100,4,1,1,40,0,1
136366,-100,4,1,1,40,0,1
139486,-100,4,1,1,40,0,1
142006,-200,4,1,1,40,0,1
142126,-100,4,1,1,40,0,1
145966,-158.730158730159,4,1,1,40,0,0
146446,-222.222222222222,4,1,1,40,0,0
146926,-181.818181818182,4,1,1,40,0,0
147166,-151.515151515152,4,1,1,40,0,0
147406,-129.87012987013,4,1,1,40,0,0
147646,-113.636363636364,4,1,1,40,0,0
147886,-100,4,1,1,40,0,0
150766,-133.333333333333,4,1,1,40,0,0
151726,-133.333333333333,4,1,1,40,0,0
152206,-133.333333333333,4,1,1,40,0,0
155566,-100,4,1,1,40,0,0
156526,-100,4,1,1,40,0,0
158446,-111.111111111111,4,1,1,40,0,0
159406,-100,4,1,1,40,0,0
160366,-90.9090909090909,4,1,1,40,0,0
161326,-100,4,1,1,40,0,0
163246,-100,4,1,1,40,0,0
164446,-100,4,1,1,40,0,0
169006,-133.333333333333,4,1,1,40,0,0
170446,-80,4,1,1,40,0,0
170926,-133.333333333333,4,1,1,40,0,0
172846,-100,4,1,1,40,0,0
173806,-111.111111111111,4,1,1,40,0,0
175726,-200,4,1,1,40,0,0
176446,-133.333333333333,4,1,1,40,0,0
178606,-100,4,1,1,40,0,1
182446,-100,4,1,1,40,0,1
184366,-80,4,1,1,40,0,1
186286,-90.9090909090909,4,1,1,40,0,1
188446,-80,4,1,1,40,0,1
189646,-111.111111111111,4,1,1,40,0,1
189886,-100,4,1,1,40,0,1
193966,-125,4,1,1,40,0,1
194926,-95.2380952380952,4,1,1,40,0,1
196846,-80,4,1,1,40,0,1
197806,-111.111111111111,4,1,1,40,0,1
201166,-111.111111111111,4,1,1,40,0,1
201406,-100,4,1,1,40,0,1
201646,-100,4,1,1,40,0,1
203566,-100,4,1,1,40,0,1
205006,-117.647058823529,4,1,1,40,0,1
205486,-100,4,1,1,40,0,1
208726,-100,4,1,1,40,0,1
208846,-100,4,1,1,40,0,1
208966,-100,4,1,1,40,0,1
209326,1021.27659574468,4,1,1,8,1,0
209836,-133.333333333333,4,1,1,9,0,0
212900,-100,4,1,1,10,0,0
215453,-80,4,1,1,12,0,0
217496,-100,4,1,1,14,0,0
218006,-200,4,1,1,16,0,0
221581,-133.333333333333,4,1,1,18,0,0
225666,-192.307692307692,4,1,1,20,0,0
227708,-100,4,1,1,20,0,0
229751,-133.333333333333,4,1,1,20,0,0
233836,-147.058823529412,4,1,1,20,0,0
237921,-121.951219512195,4,1,1,20,0,0
240985,-121.951219512195,4,1,1,20,0,0
242006,-66.6666666666667,4,1,1,30,0,0
245070,-80,4,1,1,30,0,0
245836,-100,4,1,1,30,0,0
246857,-80,4,1,1,30,0,0
249155,-100,4,1,1,30,0,0
249666,-66.6666666666667,4,1,1,30,0,0
250177,-66.6666666666667,4,1,1,35,0,0
252219,-66.6666666666667,4,1,1,35,0,0
254006,-90.9090909090909,4,1,1,35,0,0
256304,-100,4,1,1,40,0,0
257325,-66.6666666666667,4,1,1,40,0,0
258347,-100,4,1,1,40,0,0
260389,-66.6666666666667,4,1,1,40,0,0
263198,-74.0740740740741,4,1,1,40,0,0
263453,-66.6666666666667,4,1,1,40,0,0
266517,-100,4,1,1,40,0,0
267538,-57.1428571428571,4,1,1,40,0,0
273666,255.31914893617,4,1,1,40,1,0
273666,-100,4,1,1,40,0,0
274687,510.63829787234,4,1,1,40,1,0
281325,-57.1428571428571,4,1,1,40,0,0
282857,-100,4,1,1,40,0,0
288984,-66.6666666666667,4,1,1,40,0,0
291027,255.31914893617,4,1,1,40,1,0
291282,-100,4,1,1,40,0,1
299197,-100,4,1,1,40,0,1
306601,-100,4,1,1,40,0,1
306856,-100,4,1,1,40,0,1
307367,255.31914893617,3,1,1,40,1,0
307367,-100,3,1,1,40,0,0
309664,-80,3,1,1,40,0,0
309920,-100,3,1,1,40,0,0
311962,-100,3,1,1,40,0,1
313494,-111.111111111111,3,1,1,40,0,1
317324,-100,4,1,1,40,0,1
318090,-90.9090909090909,4,1,1,40,0,1
318856,-83.3333333333333,4,1,1,40,0,1
319622,-133.333333333333,3,1,1,40,0,0
324218,-117.647058823529,3,1,1,40,0,0
325239,-83.3333333333333,3,1,1,40,0,0
325367,-83.3333333333333,3,1,1,40,0,0
325494,-83.3333333333333,3,1,1,40,0,0
325622,-83.3333333333333,3,1,1,40,0,0
325749,-100,3,1,1,40,0,1
328047,-100,3,1,1,40,0,1
331877,-100,3,1,1,40,0,1
338005,-100,3,1,1,40,0,0
339537,-133.333333333333,3,1,1,40,0,0
339920,-100,3,1,1,40,0,0
341069,-133.333333333333,3,1,1,40,0,0
342601,-114.942528735632,3,1,1,40,0,0
343367,-133.333333333333,3,1,1,40,0,0
347196,-200,3,1,1,40,0,0
347579,-100,4,1,1,40,0,0
350643,-133.333333333333,4,1,1,40,0,0
352175,-250,3,1,1,40,0,0
352558,-133.333333333333,4,1,1,40,0,0
353324,-100,3,1,1,40,0,0
353707,-200,3,1,1,40,0,0
354090,-133.333333333333,4,1,1,40,0,0
356388,-133.333333333333,4,1,1,40,0,1
359452,-200,3,1,1,40,0,1
359835,-133.333333333333,4,1,1,40,0,1
362515,-100,3,1,1,40,0,0
367111,-100,3,1,1,40,0,0
368643,-100,3,1,1,40,0,1
374771,-100,3,1,1,40,0,0
381664,-100,3,1,1,5,0,0

[Colours]
Combo1 : 0,0,64
Combo2 : 0,128,255
Combo3 : 0,128,192
Combo4 : 0,0,160

[HitObjects]
459,345,46,6,0,B|421:281|421:281|429:243|429:243|452:291,1,157.5,4|0,0:0|0:0,0:0:0:0:
359,209,286,2,0,P|428:166|495:206,1,157.5,4|0,0:0|0:0,0:0:0:0:
441,280,526,1,6,0:0:0:0:
437,283,766,6,0,B|317:283|317:283|388:273,1,157.5,4|0,0:0|0:0,0:0:0:0:
357,216,1006,1,10,0:0:0:0:
353,200,1246,5,2,0:0:0:0:
348,185,1306,1,2,0:0:0:0:
344,170,1366,1,2,0:0:0:0:
339,155,1426,1,2,0:0:0:0:
335,140,1486,1,2,0:0:0:0:
175,267,1726,5,2,0:0:0:0:
180,252,1786,1,2,0:0:0:0:
184,237,1846,1,2,0:0:0:0:
189,222,1906,1,2,0:0:0:0:
193,207,1966,1,2,0:0:0:0:
329,108,2206,5,4,0:0:0:0:
49,239,2446,1,4,0:0:0:0:
176,113,2686,1,4,0:0:0:0:
80,97,2926,6,0,B|66:140|97:165|97:165|129:183|129:183|134:215|134:215|183:211|183:211|198:257|191:297,1,275.62501051426,6|0,0:0|0:0,0:0:0:0:
183,212,3406,2,0,B|197:257|191:302|191:302|182:325|182:325|217:298|243:324|272:258|319:276|257:373|220:371,1,312.37500595808,6|0,0:0|0:0,0:0:0:0:
221,370,3886,5,6,0:0:0:0:
273,300,4126,1,0,0:0:0:0:
312,378,4366,1,0,0:0:0:0:
364,308,4606,1,0,0:0:0:0:
273,300,4846,5,8,0:0:0:0:
238,219,5086,1,0,0:0:0:0:
325,225,5326,1,0,0:0:0:0:
290,145,5566,1,0,0:0:0:0:
377,148,5806,5,10,0:0:0:0:
377,126,5866,1,2,0:0:0:0:
377,104,5926,1,2,0:0:0:0:
377,82,5986,1,2,0:0:0:0:
377,61,6046,2,0,B|396:93|396:93|396:154,1,72.4500001105499,10|0,0:0|0:0,0:0:0:0:
206,136,6286,5,10,0:0:0:0:
206,114,6346,1,2,0:0:0:0:
206,92,6406,1,2,0:0:0:0:
206,70,6466,1,2,0:0:0:0:
206,49,6526,2,0,B|187:81|187:81|187:142,1,72.4500001105499,10|0,0:0|0:0,0:0:0:0:
79,174,6766,5,10,0:0:0:0:
95,188,6826,1,0,0:0:0:0:
103,207,6886,1,0,0:0:0:0:
108,230,6946,1,0,0:0:0:0:
99,250,7006,5,10,0:0:0:0:
112,267,7066,1,0,0:0:0:0:
112,288,7126,1,0,0:0:0:0:
104,308,7186,1,0,0:0:0:0:
84,321,7246,5,10,0:0:0:0:
273,300,7366,1,10,0:0:0:0:
179,241,7486,1,10,0:0:0:0:
367,222,7606,1,10,0:0:0:0:
277,173,7726,6,0,B|305:122|305:122|307:87|307:87|289:100,1,108.675000165825,4|0,0:0|0:0,0:0:0:0:
374,61,7966,2,0,P|314:15|245:47,1,141.749995674133,4|0,0:0|0:0,0:0:0:0:
193,147,8206,1,6,0:0:0:0:
375,62,8446,6,0,B|495:62|495:62|424:52,1,157.5,4|0,0:0|0:0,0:0:0:0:
377,54,8686,1,0,0:0:0:0:
491,149,8926,5,8,0:0:0:0:
486,164,8986,1,8,0:0:0:0:
482,179,9046,1,8,0:0:0:0:
477,194,9106,1,8,0:0:0:0:
473,209,9166,1,8,0:0:0:0:
410,269,9406,5,8,0:0:0:0:
415,284,9466,1,8,0:0:0:0:
419,299,9526,1,8,0:0:0:0:
424,314,9586,1,8,0:0:0:0:
428,329,9646,1,8,0:0:0:0:
394,227,9886,5,4,0:0:0:0:
250,250,10126,1,4,0:0:0:0:
349,355,10366,1,4,0:0:0:0:
402,231,10606,6,0,B|363:217|340:144|340:144|292:137|274:122|247:117|247:117|261:155,1,238.874989065171,6|0,0:0|0:0,0:0:0:0:
289,215,11086,2,0,B|308:265|363:295|363:295|312:282|265:304|245:326|229:341|229:341|206:363|186:371|130:371,1,356.475008431034,12|0,0:0|0:0,0:0:0:0:
52,371,11566,5,6,0:0:0:0:
171,293,11806,1,0,0:0:0:0:
32,217,12046,1,0,0:0:0:0:
133,114,12286,1,0,0:0:0:0:
34,216,12526,5,10,0:0:0:0:
163,284,12766,1,0,0:0:0:0:
134,117,13006,1,0,0:0:0:0:
35,218,13246,1,0,0:0:0:0:
154,267,13486,5,8,0:0:0:0:
193,268,13546,1,8,0:0:0:0:
228,249,13606,1,8,0:0:0:0:
248,216,13666,1,8,0:0:0:0:
249,177,13726,2,0,L|299:168,3,39.3750015020371,8|0|0|0,0:0|0:0|0:0|0:0,0:0:0:0:
350,109,13966,5,8,0:0:0:0:
378,136,14026,1,8,0:0:0:0:
389,174,14086,1,8,0:0:0:0:
380,212,14146,1,8,0:0:0:0:
353,240,14206,2,0,L|383:283,3,39.3750015020371,8|0|0|0,0:0|0:0|0:0|0:0,0:0:0:0:
436,350,14446,5,4,0:0:0:0:
240,351,14566,1,4,0:0:0:0:
482,219,14686,5,4,0:0:0:0:
334,368,14806,1,4,0:0:0:0:
483,226,14926,6,0,P|487:187|487:174,3,39.3750015020371,6|0|0|0,0:0|0:0|0:0|0:0,0:0:0:0:
488,24,15166,1,6,0:0:0:0:
350,109,15406,5,8,0:0:0:0:
344,111,15466,1,0,0:0:0:0:
335,112,15526,1,8,0:0:0:0:
325,112,15586,1,0,0:0:0:0:
312,105,15646,1,8,0:0:0:0:
298,89,15706,1,0,0:0:0:0:
291,69,15766,1,8,0:0:0:0:
297,48,15826,1,0,0:0:0:0:
314,34,15886,5,8,0:0:0:0:
334,26,15946,1,0,0:0:0:0:
355,26,16006,1,8,0:0:0:0:
375,33,16066,1,0,0:0:0:0:
393,44,16126,1,8,0:0:0:0:
404,61,16186,1,0,0:0:0:0:
410,81,16246,1,8,0:0:0:0:
410,102,16306,1,0,0:0:0:0:
404,121,16366,5,8,0:0:0:0:
391,137,16426,1,0,0:0:0:0:
375,150,16486,1,8,0:0:0:0:
356,158,16546,1,0,0:0:0:0:
339,170,16606,1,8,0:0:0:0:
326,186,16666,1,0,0:0:0:0:
318,205,16726,1,8,0:0:0:0:
318,225,16786,1,0,0:0:0:0:
324,245,16846,5,8,0:0:0:0:
338,224,16906,1,0,0:0:0:0:
340,200,16966,1,8,0:0:0:0:
331,177,17026,1,0,0:0:0:0:
310,165,17086,1,8,0:0:0:0:
286,164,17146,1,0,0:0:0:0:
264,175,17206,1,8,0:0:0:0:
249,195,17266,1,0,0:0:0:0:
242,214,17326,6,0,P|241:247|251:271,3,52.5,8|0|8|0,0:0|0:0|0:0|0:0,0:0:0:0:
139,155,17566,5,8,0:0:0:0:
119,157,17626,1,0,0:0:0:0:
99,159,17686,1,8,0:0:0:0:
79,161,17746,1,0,0:0:0:0:
59,163,17806,6,0,L|31:112,3,52.5,8|0|8|0,0:0|0:0|0:0|0:0,0:0:0:0:
114,80,18046,2,0,L|127:18,3,52.5,8|0|8|0,0:0|0:0|0:0|0:0,0:0:0:0:
139,159,18286,5,8,0:0:0:0:
149,178,18346,1,0,0:0:0:0:
155,198,18406,1,8,0:0:0:0:
157,218,18466,1,0,0:0:0:0:
153,239,18526,1,8,0:0:0:0:
146,259,18586,1,0,0:0:0:0:
134,276,18646,1,8,0:0:0:0:
119,291,18706,1,0,0:0:0:0:
99,298,18766,6,0,L|50:256,3,52.5,8|0|8|0,0:0|0:0|0:0|0:0,0:0:0:0:
240,272,19006,2,0,L|227:222,3,52.5,8|0|8|0,0:0|0:0|0:0|0:0,0:0:0:0:
344,351,19246,5,8,0:0:0:0:
344,319,19306,1,0,0:0:0:0:
344,287,19366,1,8,0:0:0:0:
344,255,19426,1,0,0:0:0:0:
344,223,19486,5,10,0:0:0:0:
371,261,19546,1,0,0:0:0:0:
417,267,19606,1,10,0:0:0:0:
460,249,19666,1,0,0:0:0:0:
481,206,19726,6,0,L|497:263,3,52.5,10|0|8|0,0:0|0:0|0:0|0:0,0:0:0:0:
370,154,19966,2,0,L|370:102,3,52.5,8|0|8|0,0:0|0:0|0:0|0:0,0:0:0:0:
456,41,20206,5,10,0:0:0:0:
430,22,20266,1,0,0:0:0:0:
400,12,20326,1,8,0:0:0:0:
368,13,20386,1,0,0:0:0:0:
337,20,20446,1,10,0:0:0:0:
309,34,20506,1,0,0:0:0:0:
279,43,20566,1,8,0:0:0:0:
247,44,20626,1,0,0:0:0:0:
220,26,20686,6,0,P|203:49|199:82,3,52.5,10|0|8|0,0:0|0:0|0:0|0:0,0:0:0:0:
248,207,20926,2,0,P|265:184|269:151,3,52.5,10|0|8|0,0:0|0:0|0:0|0:0,0:0:0:0:
82,62,21166,5,8,0:0:0:0:
38,81,21226,1,0,0:0:0:0:
18,124,21286,1,10,0:0:0:0:
21,171,21346,1,0,0:0:0:0:
52,205,21406,1,8,0:0:0:0:
77,244,21466,1,0,0:0:0:0:
84,289,21526,1,10,0:0:0:0:
66,332,21586,1,0,0:0:0:0:
26,357,21646,6,8,P|1:302|13:239,1,105,10|8,0:0|0:0,0:0:0:0:
132,319,21886,5,10,0:0:0:0:
147,156,22006,1,8,0:0:0:0:
284,297,22126,2,8,P|335:304|372:301,1,78.7500030040742,10|8,0:0|0:0,0:0:0:0:
476,257,22366,5,8,0:0:0:0:
296,60,22486,1,8,0:0:0:0:
215,347,22606,2,10,P|259:376|304:388,1,78.7500030040742
399,173,22846,2,10,P|354:143|309:131,1,78.7500030040742
128,239,23086,5,8,0:0:0:0:
34,154,23206,1,0,0:0:0:0:
191,215,23326,5,8,0:0:0:0:
125,61,23446,1,0,0:0:0:0:
256,225,23566,5,8,0:0:0:0:
273,17,23686,1,0,0:0:0:0:
299,273,23806,5,8,0:0:0:0:
429,58,23926,1,0,0:0:0:0:
330,329,24046,6,0,P|369:284|386:223,1,105,8|0,0:0|0:0,0:0:0:0:
158,21,24286,2,0,P|118:65|101:126,1,105,8|0,0:0|0:0,0:0:0:0:
73,304,24526,2,0,B|129:316|129:316|180:308,1,105,8|0,0:0|0:0,0:0:0:0:
368,120,24766,2,0,B|312:108|312:108|261:116,1,105,8|0,0:0|0:0,0:0:0:0:
300,250,25006,5,8,0:0:0:0:
431,60,25126,1,8,0:0:0:0:
300,246,25246,5,8,0:0:0:0:
344,19,25366,1,8,0:0:0:0:
300,242,25486,5,8,0:0:0:0:
243,17,25606,1,8,0:0:0:0:
300,238,25726,5,10,0:0:0:0:
154,58,25846,1,10,0:0:0:0:
300,234,25966,5,8,0:0:0:0:
280,241,26026,1,0,0:0:0:0:
265,256,26086,1,8,0:0:0:0:
256,276,26146,1,0,0:0:0:0:
253,297,26206,6,8,L|197:323,1,52.5
120,251,26326,2,8,L|59:267,1,52.5
113,134,26446,5,10,0:0:0:0:
143,139,26506,1,0,0:0:0:0:
175,137,26566,1,0,0:0:0:0:
204,125,26626,1,0,0:0:0:0:
231,110,26686,6,0,P|241:135|244:173,3,52.5,10|0|0|0,0:0|0:0|0:0|0:0,0:0:0:0:
256,356,26926,5,8,0:0:0:0:
479,176,27046,1,8,0:0:0:0:
488,170,27166,1,8,0:0:0:0:
497,164,27286,1,8,0:0:0:0:
256,348,27406,5,8,0:0:0:0:
33,176,27526,1,8,0:0:0:0:
25,168,27646,1,8,0:0:0:0:
17,161,27766,1,8,0:0:0:0:
10,154,27886,6,0,P|20:93|55:56,1,105,8|0,0:0|0:0,0:0:0:0:
505,159,28126,2,0,P|495:220|460:257,1,105,8|0,0:0|0:0,0:0:0:0:
246,355,28366,5,4,0:0:0:0:
246,314,28426,1,0,0:0:0:0:
246,272,28486,1,0,0:0:0:0:
246,230,28546,1,0,0:0:0:0:
246,189,28606,5,4,0:0:0:0:
246,191,28666,1,0,0:0:0:0:
246,193,28726,1,0,0:0:0:0:
246,195,28786,1,0,0:0:0:0:
275,226,28846,5,8,0:0:0:0:
186,34,28966,1,8,0:0:0:0:
409,153,29086,5,8,0:0:0:0:
86,122,29206,1,8,0:0:0:0:
135,276,29326,5,8,0:0:0:0:
327,35,29446,1,8,0:0:0:0:
76,187,29566,5,8,0:0:0:0:
84,172,29626,1,8,0:0:0:0:
85,154,29686,1,8,0:0:0:0:
75,139,29746,1,8,0:0:0:0:
59,130,29806,5,0,0:0:0:0:
37,102,29866,1,0,0:0:0:0:
39,67,29926,1,0,0:0:0:0:
58,38,29986,1,0,0:0:0:0:
90,27,30046,5,8,0:0:0:0:
93,78,30106,1,8,0:0:0:0:
135,108,30166,1,8,0:0:0:0:
185,96,30226,1,8,0:0:0:0:
209,50,30286,5,8,0:0:0:0:
268,14,30346,1,8,0:0:0:0:
335,27,30406,1,8,0:0:0:0:
376,82,30466,1,8,0:0:0:0:
365,150,30526,5,10,0:0:0:0:
220,223,30646,1,10,0:0:0:0:
369,150,30766,2,2,P|378:208|374:266,1,105,10|2,0:0|0:0,0:0:0:0:
342,361,31006,5,8,0:0:0:0:
269,145,31126,1,0,0:0:0:0:
458,195,31246,2,0,P|402:153|350:149,1,105,10|0,0:0|0:0,0:0:0:0:
278,282,31486,5,8,0:0:0:0:
401,347,31606,1,0,0:0:0:0:
369,267,31726,5,8,0:0:0:0:
181,298,31846,1,0,0:0:0:0:
278,290,31966,5,8,0:0:0:0:
164,217,32086,1,0,0:0:0:0:
278,298,32206,6,8,L|274:350,2,52.5
407,205,32446,2,8,L|459:205,2,52.5
353,96,32686,5,12,0:0:0:0:
328,115,32746,1,0,0:0:0:0:
297,114,32806,1,0,0:0:0:0:
273,95,32866,1,0,0:0:0:0:
259,67,32926,1,12,0:0:0:0:
234,49,32986,1,0,0:0:0:0:
203,44,33046,1,0,0:0:0:0:
173,54,33106,1,0,0:0:0:0:
151,76,33166,6,0,P|139:124|140:145,3,52.5,12|0|0|0,0:0|0:0|0:0|0:0,0:0:0:0:
29,147,33406,2,0,P|28:176|18:203,3,52.5,12|0|0|0,0:0|0:0|0:0|0:0,0:0:0:0:
111,266,33646,5,12,0:0:0:0:
142,274,33706,1,0,0:0:0:0:
174,269,33766,1,0,0:0:0:0:
200,252,33826,1,0,0:0:0:0:
222,230,33886,5,12,0:0:0:0:
216,261,33946,1,0,0:0:0:0:
199,287,34006,1,0,0:0:0:0:
173,305,34066,1,0,0:0:0:0:
142,312,34126,5,12,0:0:0:0:
147,323,34186,1,0,0:0:0:0:
150,332,34246,1,0,0:0:0:0:
154,342,34306,1,0,0:0:0:0:
159,352,34366,5,12,0:0:0:0:
176,325,34426,1,8,0:0:0:0:
150,293,34486,1,8,0:0:0:0:
103,305,34546,1,8,0:0:0:0:
90,350,34606,6,0,L|113:233,1,105,10|0,0:0|0:0,0:0:0:0:
134,139,34846,5,8,0:0:0:0:
49,48,34966,1,0,0:0:0:0:
222,232,35086,5,8,0:0:0:0:
24,174,35206,1,0,0:0:0:0:
222,234,35326,5,10,0:0:0:0:
184,23,35446,1,0,0:0:0:0:
222,236,35566,6,0,B|242:271|242:271|310:300,1,105,10|0,0:0|0:0,0:0:0:0:
484,189,35806,2,0,P|484:134|446:94,1,105,10|0,0:0|0:0,0:0:0:0:
268,160,36046,5,8,0:0:0:0:
273,140,36106,1,8,0:0:0:0:
278,120,36166,1,8,0:0:0:0:
407,251,36286,5,8,0:0:0:0:
402,231,36346,1,8,0:0:0:0:
397,211,36406,1,8,0:0:0:0:
222,240,36526,5,12,0:0:0:0:
226,271,36586,1,0,0:0:0:0:
249,292,36646,1,0,0:0:0:0:
279,296,36706,1,0,0:0:0:0:
309,286,36766,1,12,0:0:0:0:
340,291,36826,1,0,0:0:0:0:
365,309,36886,1,0,0:0:0:0:
379,337,36946,1,0,0:0:0:0:
371,368,37006,5,12,0:0:0:0:
356,368,37066,1,0,0:0:0:0:
341,368,37126,2,0,L|284:368,1,52.5
398,255,37246,5,12,0:0:0:0:
413,255,37306,1,0,0:0:0:0:
428,255,37366,2,0,L|485:255,1,52.5
371,141,37486,5,12,0:0:0:0:
356,141,37546,1,0,0:0:0:0:
341,141,37606,2,0,L|284:141,1,52.5
398,28,37726,5,12,0:0:0:0:
413,28,37786,1,0,0:0:0:0:
428,28,37846,2,0,L|485:28,1,52.5
323,34,37966,5,12,0:0:0:0:
299,15,38026,1,8,0:0:0:0:
268,16,38086,1,8,0:0:0:0:
243,35,38146,1,8,0:0:0:0:
229,63,38206,1,8,0:0:0:0:
204,81,38266,1,8,0:0:0:0:
173,86,38326,1,8,0:0:0:0:
144,76,38386,1,8,0:0:0:0:
126,51,38446,6,0,L|115:165,1,105,8|0,0:0|0:0,0:0:0:0:
195,171,38686,2,0,P|166:220|105:238,1,105,8|0,0:0|0:0,0:0:0:0:
32,241,38926,5,8,0:0:0:0:
115,155,39046,1,0,0:0:0:0:
28,241,39166,5,8,0:0:0:0:
101,338,39286,1,0,0:0:0:0:
24,241,39406,6,0,L|138:241,1,105,8|0,0:0|0:0,0:0:0:0:
348,350,39646,2,0,L|234:350,1,105,8|0,0:0|0:0,0:0:0:0:
29,242,39886,5,8,0:0:0:0:
16,226,39946,1,8,0:0:0:0:
3,210,40006,1,8,0:0:0:0:
191,187,40126,5,8,0:0:0:0:
204,171,40186,1,8,0:0:0:0:
217,155,40246,1,8,0:0:0:0:
42,91,40366,5,12,0:0:0:0:
66,110,40426,1,0,0:0:0:0:
97,109,40486,1,0,0:0:0:0:
122,90,40546,1,0,0:0:0:0:
136,62,40606,1,12,0:0:0:0:
161,44,40666,1,0,0:0:0:0:
192,39,40726,1,0,0:0:0:0:
221,49,40786,1,0,0:0:0:0:
243,72,40846,6,0,P|253:55|257:21,3,52.5,12|0|0|0,0:0|0:0|0:0|0:0,0:0:0:0:
293,144,41086,2,0,P|283:161|279:195,3,52.5,12|0|0|0,0:0|0:0|0:0|0:0,0:0:0:0:
413,61,41326,5,12,0:0:0:0:
405,81,41386,1,0,0:0:0:0:
401,102,41446,1,0,0:0:0:0:
402,122,41506,1,0,0:0:0:0:
407,143,41566,6,0,P|432:143|455:130,3,52.5,12|0|0|0,0:0|0:0|0:0|0:0,0:0:0:0:
445,314,41806,5,14,0:0:0:0:
450,314,41866,1,0,0:0:0:0:
455,314,41926,1,0,0:0:0:0:
460,314,41986,1,0,0:0:0:0:
455,314,42046,5,12,0:0:0:0:
420,282,42106,1,8,0:0:0:0:
372,279,42166,1,8,0:0:0:0:
339,313,42226,1,8,0:0:0:0:
348,360,42286,5,8,0:0:0:0:
357,209,42406,1,0,0:0:0:0:
377,358,42526,5,8,0:0:0:0:
208,265,42646,1,0,0:0:0:0:
392,354,42766,6,0,P|334:377|287:364,1,105,8|0,0:0|0:0,0:0:0:0:
299,144,43006,2,0,P|357:121|404:134,1,105,8|0,0:0|0:0,0:0:0:0:
437,243,43246,5,8,0:0:0:0:
209,178,43366,1,0,0:0:0:0:
441,245,43486,5,8,0:0:0:0:
234,59,43606,1,0,0:0:0:0:
84,112,43726,5,8,0:0:0:0:
92,98,43786,1,8,0:0:0:0:
100,85,43846,1,8,0:0:0:0:
3,199,43966,5,8,0:0:0:0:
11,186,44026,1,8,0:0:0:0:
19,172,44086,1,8,0:0:0:0:
80,120,44206,6,0,B|89:160|89:160|90:188|77:219|77:219|102:247|116:273|116:315,1,196.875,12|0,0:0|0:0,0:0:0:0:
115,337,44446,2,0,B|126:219|126:219|196:157,1,196.875,12|0,0:0|0:0,0:0:0:0:
193,254,44686,5,12,0:0:0:0:
177,246,44746,1,8,0:0:0:0:
162,238,44806,1,8,0:0:0:0:
148,231,44866,1,8,0:0:0:0:
119,246,44926,5,12,0:0:0:0:
112,232,44986,1,8,0:0:0:0:
104,217,45046,1,8,0:0:0:0:
98,204,45106,1,8,0:0:0:0:
113,172,45166,6,0,B|99:235|99:235|118:287,1,118.125004506111,12|0,0:0|0:0,0:0:0:0:
256,32,45406,2,0,B|256:97|256:97|227:144,1,118.125004506111,12|0,0:0|0:0,0:0:0:0:
142,103,45646,5,12,0:0:0:0:
140,105,46006,5,8,0:0:0:0:
155,105,46066,1,0,0:0:0:0:
170,105,46126,5,10,0:0:0:0:
166,58,46186,1,0,0:0:0:0:
197,23,46246,1,8,0:0:0:0:
244,19,46306,1,0,0:0:0:0:
286,41,46366,6,0,L|322:99,1,52.5,8|0,0:0|0:0,0:0:0:0:
238,131,46486,2,0,L|273:189,1,52.5,8|0,0:0|0:0,0:0:0:0:
380,38,46606,2,0,L|416:88,1,52.5,8|0,0:0|0:0,0:0:0:0:
357,158,46726,2,0,L|386:209,1,52.5,8|0,0:0|0:0,0:0:0:0:
478,260,46846,5,10,0:0:0:0:
484,239,46906,1,0,0:0:0:0:
486,218,46966,1,8,0:0:0:0:
481,197,47026,1,0,0:0:0:0:
468,183,47086,5,10,0:0:0:0:
469,203,47146,1,0,0:0:0:0:
466,224,47206,1,8,0:0:0:0:
458,243,47266,1,0,0:0:0:0:
446,260,47326,1,8,0:0:0:0:
430,274,47386,1,0,0:0:0:0:
411,283,47446,1,8,0:0:0:0:
390,287,47506,1,0,0:0:0:0:
369,286,47566,1,8,0:0:0:0:
349,281,47626,1,0,0:0:0:0:
331,270,47686,1,8,0:0:0:0:
316,256,47746,1,0,0:0:0:0:
309,236,47806,5,8,0:0:0:0:
331,259,47866,1,0,0:0:0:0:
341,289,47926,1,8,0:0:0:0:
338,320,47986,1,0,0:0:0:0:
322,347,48046,1,8,0:0:0:0:
288,362,48106,1,0,0:0:0:0:
251,364,48166,1,8,0:0:0:0:
219,345,48226,1,0,0:0:0:0:
206,306,48286,5,12,0:0:0:0:
188,258,48346,1,0,0:0:0:0:
141,239,48406,1,8,0:0:0:0:
96,261,48466,1,0,0:0:0:0:
74,308,48526,5,12,0:0:0:0:
72,304,48586,1,0,0:0:0:0:
70,300,48646,2,0,L|63:240,1,57.7500017623902,8|0,0:0|0:0,0:0:0:0:
184,170,48766,5,12,0:0:0:0:
186,166,48826,1,0,0:0:0:0:
188,162,48886,2,0,L|195:102,1,57.7500017623902,8|0,0:0|0:0,0:0:0:0:
336,97,49006,5,12,0:0:0:0:
356,84,49066,1,0,0:0:0:0:
365,64,49126,1,8,0:0:0:0:
363,41,49186,1,0,0:0:0:0:
348,23,49246,1,8,0:0:0:0:
326,17,49306,1,0,0:0:0:0:
304,23,49366,1,8,0:0:0:0:
290,40,49426,1,0,0:0:0:0:
260,83,49486,5,12,0:0:0:0:
283,89,49546,1,0,0:0:0:0:
303,82,49606,1,8,0:0:0:0:
317,64,49666,1,0,0:0:0:0:
320,41,49726,1,8,0:0:0:0:
310,21,49786,1,0,0:0:0:0:
289,10,49846,1,8,0:0:0:0:
267,12,49906,1,0,0:0:0:0:
246,26,49966,5,12,0:0:0:0:
232,60,50026,1,0,0:0:0:0:
200,80,50086,1,10,0:0:0:0:
164,77,50146,1,0,0:0:0:0:
137,50,50206,5,12,0:0:0:0:
90,30,50266,1,0,0:0:0:0:
44,49,50326,1,8,0:0:0:0:
33,98,50386,1,0,0:0:0:0:
65,136,50446,6,0,L|44:200,3,62.9999980773926,12|0|8|0,0:0|0:0|0:0|0:0,0:0:0:0:
24,329,50686,2,0,L|82:307,3,62.9999980773926,12|0|8|0,0:0|0:0|0:0|0:0,0:0:0:0:
206,271,50926,5,12,0:0:0:0:
206,290,50986,1,0,0:0:0:0:
203,309,51046,2,0,P|204:341|216:370,1,62.9999980773926,8|0,0:0|0:0,0:0:0:0:
262,137,51166,5,12,0:0:0:0:
262,118,51226,1,0,0:0:0:0:
265,99,51286,2,0,P|263:66|251:37,1,62.9999980773926,8|0,0:0|0:0,0:0:0:0:
351,268,51406,5,12,0:0:0:0:
350,282,51466,1,0,0:0:0:0:
351,295,51526,2,0,B|355:330|355:330|329:363,1,62.9999980773926,10|0,0:0|0:0,0:0:0:0:
440,95,51646,5,12,0:0:0:0:
441,81,51706,1,0,0:0:0:0:
440,68,51766,2,0,B|436:33|436:33|462:0,1,62.9999980773926,10|0,0:0|0:0,0:0:0:0:
450,208,51886,5,12,0:0:0:0:
217,363,52006,1,8,0:0:0:0:
270,68,52126,1,8,0:0:0:0:
387,363,52246,1,8,0:0:0:0:
115,156,52366,1,8,0:0:0:0:
473,164,52486,1,8,0:0:0:0:
184,380,52606,1,8,0:0:0:0:
259,9,52726,1,8,0:0:0:0:
283,217,52846,5,12,0:0:0:0:
297,227,52906,1,0,0:0:0:0:
307,240,52966,1,8,0:0:0:0:
312,256,53026,1,0,0:0:0:0:
313,272,53086,5,8,0:0:0:0:
266,259,53146,1,0,0:0:0:0:
247,214,53206,1,8,0:0:0:0:
273,171,53266,1,0,0:0:0:0:
321,158,53326,5,8,0:0:0:0:
321,157,53386,1,8,0:0:0:0:
320,156,53446,1,8,0:0:0:0:
320,155,53506,1,8,0:0:0:0:
328,123,53566,5,8,0:0:0:0:
327,122,53626,1,8,0:0:0:0:
327,121,53686,1,8,0:0:0:0:
326,121,53746,1,8,0:0:0:0:
310,91,53806,6,0,B|303:46|303:46|308:-1,1,78.7500030040742,12|0,0:0|0:0,0:0:0:0:
394,182,54046,5,10,0:0:0:0:
264,344,54166,1,10,0:0:0:0:
414,82,54286,5,10,0:0:0:0:
252,212,54406,1,10,0:0:0:0:
416,80,54526,5,10,0:0:0:0:
418,78,54646,1,10,0:0:0:0:
420,76,54766,5,14,0:0:0:0:
434,104,54826,1,0,0:0:0:0:
434,136,54886,1,0,0:0:0:0:
421,166,54946,1,0,0:0:0:0:
394,182,55006,5,12,0:0:0:0:
388,162,55066,1,0,0:0:0:0:
388,142,55126,1,0,0:0:0:0:
391,122,55186,1,0,0:0:0:0:
398,103,55246,5,12,0:0:0:0:
377,97,55306,1,0,0:0:0:0:
358,92,55366,1,2,0:0:0:0:
339,87,55426,1,0,0:0:0:0:
319,82,55486,6,0,P|315:52|324:22,3,52.5,12|0|0|0,0:0|0:0|0:0|0:0,0:0:0:0:
248,142,55726,2,0,P|241:172|243:206,3,52.5,12|0|0|0,0:0|0:0|0:0|0:0,0:0:0:0:
130,30,55966,5,12,0:0:0:0:
115,33,56026,1,0,0:0:0:0:
100,36,56086,1,8,0:0:0:0:
84,39,56146,1,0,0:0:0:0:
69,42,56206,5,12,0:0:0:0:
95,48,56266,1,0,0:0:0:0:
121,54,56326,1,8,0:0:0:0:
146,60,56386,1,0,0:0:0:0:
172,67,56446,5,12,0:0:0:0:
142,74,56506,1,0,0:0:0:0:
111,81,56566,1,8,0:0:0:0:
80,87,56626,1,0,0:0:0:0:
50,92,56686,5,12,0:0:0:0:
57,72,56746,1,0,0:0:0:0:
70,56,56806,1,8,0:0:0:0:
88,46,56866,1,0,0:0:0:0:
109,43,56926,1,8,0:0:0:0:
129,48,56986,1,0,0:0:0:0:
146,61,57046,2,0,P|161:90|161:112,1,52.5,8|0,0:0|0:0,0:0:0:0:
162,215,57166,5,12,0:0:0:0:
155,235,57226,1,0,0:0:0:0:
142,251,57286,1,8,0:0:0:0:
124,261,57346,1,0,0:0:0:0:
103,264,57406,1,8,0:0:0:0:
83,259,57466,1,0,0:0:0:0:
66,246,57526,2,0,P|51:217|51:195,1,52.5,8|0,0:0|0:0,0:0:0:0:
112,161,57646,5,12,0:0:0:0:
237,238,57766,1,10,0:0:0:0:
150,99,57886,5,10,0:0:0:0:
198,299,58006,1,10,0:0:0:0:
249,77,58126,5,10,0:0:0:0:
99,321,58246,1,10,0:0:0:0:
366,117,58366,5,10,0:0:0:0:
3,282,58486,1,10,0:0:0:0:
432,213,58606,5,12,0:0:0:0:
285,284,58726,1,10,0:0:0:0:
251,73,58846,5,10,0:0:0:0:
269,274,58966,1,10,0:0:0:0:
457,202,59086,5,10,0:0:0:0:
253,264,59206,1,10,0:0:0:0:
251,57,59326,5,10,0:0:0:0:
237,254,59446,1,10,0:0:0:0:
112,161,59566,6,2,P|145:101|186:77,1,105,10|2,0:0|0:0,0:0:0:0:
400,223,59806,2,2,P|366:282|326:307,1,105,10|2,0:0|0:0,0:0:0:0:
301,106,60046,6,0,B|367:81|367:81|445:106,1,141.750000540733,10|0,0:0|0:0,0:0:0:0:
137,350,60286,2,0,B|74:375|74:375|-4:350,1,131.25,10|0,0:0|0:0,0:0:0:0:
204,314,60526,5,12,0:0:0:0:
236,314,60586,1,0,0:0:0:0:
264,329,60646,1,8,0:0:0:0:
290,347,60706,1,0,0:0:0:0:
292,380,60766,5,8,0:0:0:0:
275,359,60826,1,0,0:0:0:0:
273,332,60886,1,8,0:0:0:0:
286,309,60946,1,0,0:0:0:0:
307,294,61006,5,8,0:0:0:0:
298,289,61066,1,0,0:0:0:0:
289,284,61126,1,8,0:0:0:0:
280,279,61186,1,0,0:0:0:0:
270,274,61246,5,12,0:0:0:0:
447,235,61366,1,4,0:0:0:0:
261,269,61486,6,0,L|261:383,1,105,12|0,0:0|0:0,0:0:0:0:
45,334,61726,2,0,P|23:286|32:230,1,105,8|0,0:0|0:0,0:0:0:0:
167,230,61966,2,0,P|189:278|180:334,1,105,8|0,0:0|0:0,0:0:0:0:
116,355,62206,5,8,0:0:0:0:
100,256,62326,1,0,0:0:0:0:
271,273,62446,5,8,0:0:0:0:
280,278,62506,1,0,0:0:0:0:
290,280,62566,1,0,0:0:0:0:
300,279,62626,1,0,0:0:0:0:
309,274,62686,2,0,L|340:374,1,105,8|0,0:0|0:0,0:0:0:0:
469,306,62926,5,8,0:0:0:0:
370,184,63046,1,0,0:0:0:0:
474,195,63166,5,8,0:0:0:0:
375,73,63286,1,0,0:0:0:0:
468,26,63406,5,8,0:0:0:0:
286,131,63526,1,8,0:0:0:0:
277,137,63646,1,8,0:0:0:0:
268,144,63766,1,8,0:0:0:0:
104,26,63886,5,8,0:0:0:0:
286,131,64006,1,8,0:0:0:0:
295,137,64126,1,8,0:0:0:0:
304,144,64246,1,8,0:0:0:0:
314,148,64366,6,0,P|320:206|295:269,1,105,8|0,0:0|0:0,0:0:0:0:
56,223,64606,2,0,P|49:164|74:101,1,105,8|0,0:0|0:0,0:0:0:0:
87,331,64846,5,8,0:0:0:0:
179,191,64966,1,8,0:0:0:0:
212,339,65086,1,8,0:0:0:0:
60,227,65206,1,8,0:0:0:0:
182,186,65326,5,12,0:0:0:0:
197,188,65386,1,0,0:0:0:0:
212,185,65446,1,0,0:0:0:0:
226,178,65506,1,0,0:0:0:0:
239,168,65566,5,12,0:0:0:0:
264,174,65626,1,0,0:0:0:0:
290,169,65686,1,0,0:0:0:0:
312,154,65746,1,0,0:0:0:0:
323,131,65806,6,0,L|348:191,3,52.5,12|0|0|0,0:0|0:0|0:0|0:0,0:0:0:0:
418,107,66046,2,0,L|438:59,3,52.5,12|0|0|0,0:0|0:0|0:0|0:0,0:0:0:0:
297,40,66286,5,12,0:0:0:0:
269,55,66346,1,0,0:0:0:0:
238,63,66406,1,0,0:0:0:0:
207,62,66466,1,0,0:0:0:0:
176,55,66526,6,0,L|192:0,1,52.5,12|0,0:0|0:0,0:0:0:0:
68,52,66646,2,0,L|56:111,1,52.5,12|0,0:0|0:0,0:0:0:0:
24,194,66766,5,0,0:0:0:0:
24,205,66826,1,0,0:0:0:0:
24,217,66886,2,0,L|24:276,1,52.5,12|0,0:0|0:0,0:0:0:0:
170,222,67006,5,0,0:0:0:0:
212,222,67066,1,0,0:0:0:0:
253,222,67126,2,0,L|226:178,1,52.5,4|0,0:0|0:0,0:0:0:0:
429,213,67246,5,12,0:0:0:0:
429,245,67306,1,0,0:0:0:0:
429,276,67366,1,0,0:0:0:0:
429,308,67426,1,0,0:0:0:0:
429,339,67486,6,0,P|462:344|489:341,1,52.5,12|0,0:0|0:0,0:0:0:0:
228,345,67606,2,0,P|254:347|279:342,1,52.5,12|0,0:0|0:0,0:0:0:0:
90,365,67726,5,12,0:0:0:0:
74,365,67786,1,0,0:0:0:0:
58,365,67846,1,0,0:0:0:0:
42,365,67906,1,0,0:0:0:0:
26,365,67966,6,0,L|26:308,3,52.5,12|0|0|0,0:0|0:0|0:0|0:0,0:0:0:0:
116,173,68206,5,12,0:0:0:0:
118,174,68266,1,0,0:0:0:0:
120,174,68326,1,0,0:0:0:0:
122,175,68386,1,0,0:0:0:0:
124,176,68446,6,0,L|124:124,1,52.5,12|0,0:0|0:0,0:0:0:0:
294,28,68566,2,0,L|294:81,1,52.5,12|0,0:0|0:0,0:0:0:0:
478,127,68686,5,8,0:0:0:0:
478,179,68746,1,8,0:0:0:0:
478,232,68806,1,12,0:0:0:0:
478,284,68866,1,8,0:0:0:0:
478,336,68926,5,8,0:0:0:0:
476,336,68986,1,8,0:0:0:0:
474,336,69046,1,8,0:0:0:0:
472,337,69106,1,8,0:0:0:0:
470,337,69166,6,0,L|366:337,1,105,12|0,0:0|0:0,0:0:0:0:
212,203,69406,2,0,P|263:158|314:158,1,105,8|0,0:0|0:0,0:0:0:0:
378,158,69646,5,8,0:0:0:0:
283,231,69766,1,0,0:0:0:0:
378,161,69886,2,0,P|401:217|396:278,1,105,8|0,0:0|0:0,0:0:0:0:
291,340,70126,5,8,0:0:0:0:
282,345,70186,1,0,0:0:0:0:
272,347,70246,1,0,0:0:0:0:
262,346,70306,1,0,0:0:0:0:
251,343,70366,2,0,P|230:330|212:299,1,52.5
105,193,70486,6,0,L|105:303,1,105,10|0,0:0|0:0,0:0:0:0:
30,128,70726,2,0,L|30:18,1,105,10|0,0:0|0:0,0:0:0:0:
212,100,70966,5,10,0:0:0:0:
212,104,71086,2,0,P|272:88|323:98,1,105,10|0,0:0|0:0,0:0:0:0:
434,338,71326,2,0,P|374:354|323:344,1,105,10|0,0:0|0:0,0:0:0:0:
192,238,71566,5,8,0:0:0:0:
190,236,71686,1,0,0:0:0:0:
366,219,71806,5,8,0:0:0:0:
368,217,71926,1,0,0:0:0:0:
185,233,72046,6,0,P|177:187|184:122,1,105,8|0,0:0|0:0,0:0:0:0:
429,33,72286,2,0,P|428:79|410:142,1,105,8|0,0:0|0:0,0:0:0:0:
374,212,72526,5,8,0:0:0:0:
213,55,72646,1,0,0:0:0:0:
181,235,72766,1,8,0:0:0:0:
356,74,72886,1,0,0:0:0:0:
151,254,73006,5,12,0:0:0:0:
142,266,73066,1,0,0:0:0:0:
129,275,73126,1,0,0:0:0:0:
114,280,73186,1,0,0:0:0:0:
98,282,73246,5,12,0:0:0:0:
84,304,73306,1,0,0:0:0:0:
62,319,73366,1,0,0:0:0:0:
36,324,73426,1,0,0:0:0:0:
12,315,73486,6,0,L|36:375,3,52.5,12|0|0|0,0:0|0:0|0:0|0:0,0:0:0:0:
37,220,73726,2,0,L|17:172,3,52.5,12|0|0|0,0:0|0:0|0:0|0:0,0:0:0:0:
95,138,73966,5,12,0:0:0:0:
127,138,74026,1,0,0:0:0:0:
158,138,74086,1,0,0:0:0:0:
190,138,74146,1,0,0:0:0:0:
221,138,74206,2,0,L|276:138,1,52.5,12|0,0:0|0:0,0:0:0:0:
348,25,74326,5,12,0:0:0:0:
394,35,74386,1,0,0:0:0:0:
420,73,74446,1,0,0:0:0:0:
421,120,74506,1,0,0:0:0:0:
393,158,74566,1,12,0:0:0:0:
370,199,74626,1,0,0:0:0:0:
375,245,74686,1,0,0:0:0:0:
404,282,74746,1,0,0:0:0:0:
451,292,74806,1,0,0:0:0:0:
491,266,74866,1,0,0:0:0:0:
493,218,74926,6,10,P|476:162|448:118,1,105,12|10,0:0|0:0,0:0:0:0:
339,101,75166,1,10,0:0:0:0:
282,245,75286,1,10,0:0:0:0:
477,166,75406,1,10,0:0:0:0:
302,96,75526,5,8,0:0:0:0:
303,100,75586,1,8,0:0:0:0:
304,104,75646,2,0,P|247:147|152:80,1,196.875
231,65,75886,2,0,B|283:141|283:141|283:247,1,196.875,10|0,0:0|0:0,0:0:0:0:
282,250,76126,2,0,B|259:189|259:189|193:124,1,157.5,10|0,0:0|0:0,0:0:0:0:
177,224,76366,5,8,0:0:0:0:
162,237,76426,1,8,0:0:0:0:
148,251,76486,1,8,0:0:0:0:
134,265,76546,1,8,0:0:0:0:
103,241,76606,5,8,0:0:0:0:
88,254,76666,1,8,0:0:0:0:
75,267,76726,1,8,0:0:0:0:
61,282,76786,1,8,0:0:0:0:
60,320,76846,6,0,L|10:201,1,120.750002303124,12|0,0:0|0:0,0:0:0:0:
86,29,77086,2,0,L|99:162,1,120.750002303124
235,377,77326,2,0,L|284:258,1,120.750002303124
379,123,77566,5,10,0:0:0:0:
177,135,77686,1,0,0:0:0:0:
381,123,77806,2,0,P|451:116|515:125,1,120.750002303124,8|0,0:0|0:0,0:0:0:0:
379,212,78046,5,0,0:0:0:0:
177,224,78166,1,0,0:0:0:0:
381,212,78286,2,0,P|451:205|515:214,1,120.750002303124,8|0,0:0|0:0,0:0:0:0:
447,348,78526,2,0,P|377:355|313:346,1,120.750002303124,8|0,0:0|0:0,0:0:0:0:
167,355,78766,5,10,0:0:0:0:
130,355,78826,1,0,0:0:0:0:
94,355,78886,1,0,0:0:0:0:
58,355,78946,1,0,0:0:0:0:
37,306,79006,6,0,L|12:244,3,65.625
104,189,79246,5,10,0:0:0:0:
104,159,79306,1,0,0:0:0:0:
104,129,79366,1,0,0:0:0:0:
104,99,79426,1,0,0:0:0:0:
66,82,79486,6,0,L|84:18,3,60.3750011515618
259,208,79726,5,10,0:0:0:0:
259,229,79786,1,0,0:0:0:0:
259,250,79846,1,0,0:0:0:0:
259,271,79906,1,0,0:0:0:0:
237,307,79966,6,0,L|236:367,3,52.5
395,148,80206,5,10,0:0:0:0:
395,135,80266,1,0,0:0:0:0:
395,122,80326,1,0,0:0:0:0:
395,108,80386,1,0,0:0:0:0:
369,78,80446,6,0,L|361:33,3,44.6250008511543
389,262,80686,5,4,0:0:0:0:
399,263,80746,1,0,0:0:0:0:
409,267,80806,1,0,0:0:0:0:
417,273,80866,1,0,0:0:0:0:
424,281,80926,1,0,0:0:0:0:
428,290,80986,1,0,0:0:0:0:
431,300,81046,1,0,0:0:0:0:
430,311,81106,1,0,0:0:0:0:
427,321,81166,1,0,0:0:0:0:
421,330,81226,1,0,0:0:0:0:
414,337,81286,1,0,0:0:0:0:
405,342,81346,1,0,0:0:0:0:
395,345,81406,1,0,0:0:0:0:
384,345,81466,1,0,0:0:0:0:
374,343,81526,1,0,0:0:0:0:
365,338,81586,1,0,0:0:0:0:
389,304,81646,5,8,0:0:0:0:
391,304,81706,1,0,0:0:0:0:
393,304,81766,1,0,0:0:0:0:
395,304,81826,1,0,0:0:0:0:
397,304,81886,1,0,0:0:0:0:
399,304,81946,1,0,0:0:0:0:
401,304,82006,1,0,0:0:0:0:
403,304,82066,1,0,0:0:0:0:
405,304,82126,1,0,0:0:0:0:
407,304,82186,1,0,0:0:0:0:
409,304,82246,1,0,0:0:0:0:
411,304,82306,1,0,0:0:0:0:
439,318,82366,6,0,B|474:282|474:282|493:214,1,105,10|0,0:0|0:0,0:0:0:0:
383,224,82606,5,0,0:0:0:0:
383,220,82726,2,0,B|383:169|383:169|418:108,1,105,10|0,0:0|0:0,0:0:0:0:
245,31,82966,5,8,0:0:0:0:
210,239,83086,1,8,0:0:0:0:
208,250,83206,2,8,L|195:333,1,78.7500030040742
118,171,83446,5,8,0:0:0:0:
352,310,83566,1,8,0:0:0:0:
352,308,83686,2,8,L|426:353,1,78.7500030040742
226,99,83926,5,8,0:0:0:0:
348,68,84046,1,8,0:0:0:0:
348,70,84166,2,8,L|440:40,2,78.7500030040742
224,101,84526,5,12,0:0:0:0:
203,106,84586,1,0,0:0:0:0:
182,106,84646,1,0,0:0:0:0:
162,102,84706,1,0,0:0:0:0:
143,93,84766,1,0,0:0:0:0:
126,80,84826,1,0,0:0:0:0:
110,67,84886,1,0,0:0:0:0:
99,48,84946,1,0,0:0:0:0:
92,28,85006,5,10,0:0:0:0:
62,182,85126,1,0,0:0:0:0:
179,16,85246,5,8,0:0:0:0:
67,185,85366,1,0,0:0:0:0:
192,16,85486,5,12,0:0:0:0:
207,16,85546,1,0,0:0:0:0:
223,16,85606,1,0,0:0:0:0:
239,16,85666,1,0,0:0:0:0:
255,16,85726,6,0,P|281:18|308:28,1,52.5
432,122,85846,1,10,0:0:0:0:
316,170,85966,5,0,0:0:0:0:
417,0,86086,1,8,0:0:0:0:
312,174,86206,5,0,0:0:0:0:
421,0,86326,1,8,0:0:0:0:
308,178,86446,5,12,0:0:0:0:
304,199,86506,1,0,0:0:0:0:
307,220,86566,1,0,0:0:0:0:
317,238,86626,1,0,0:0:0:0:
332,251,86686,6,0,P|380:216|438:216,1,105,8|0,0:0|0:0,0:0:0:0:
475,332,86926,2,0,P|427:367|369:367,1,105,8|0,0:0|0:0,0:0:0:0:
263,349,87166,5,8,0:0:0:0:
402,291,87286,1,0,0:0:0:0:
263,351,87406,6,0,P|201:361|150:353,1,105,8|0,0:0|0:0,0:0:0:0:
61,318,87646,1,0,0:0:0:0:
199,244,87766,5,8,0:0:0:0:
199,246,87886,1,0,0:0:0:0:
61,168,88006,5,8,0:0:0:0:
61,170,88126,2,0,L|61:61,1,105
189,55,88366,5,12,0:0:0:0:
204,53,88426,1,0,0:0:0:0:
219,56,88486,1,0,0:0:0:0:
233,63,88546,1,0,0:0:0:0:
246,73,88606,5,12,0:0:0:0:
271,67,88666,1,0,0:0:0:0:
297,72,88726,1,0,0:0:0:0:
319,87,88786,1,0,0:0:0:0:
330,110,88846,6,0,L|355:50,3,52.5,12|0|0|0,0:0|0:0|0:0|0:0,0:0:0:0:
458,172,89086,2,0,L|478:220,3,52.5,12|0|0|0,0:0|0:0|0:0|0:0,0:0:0:0:
428,333,89326,5,12,0:0:0:0:
400,318,89386,1,0,0:0:0:0:
369,310,89446,1,0,0:0:0:0:
338,311,89506,1,0,0:0:0:0:
307,318,89566,6,0,L|321:373,1,52.5,12|0,0:0|0:0,0:0:0:0:
212,272,89686,2,0,L|200:213,1,52.5,12|0,0:0|0:0,0:0:0:0:
129,358,89806,5,0,0:0:0:0:
118,358,89866,1,0,0:0:0:0:
108,357,89926,2,0,L|94:304,1,52.5,12|0,0:0|0:0,0:0:0:0:
77,206,90046,5,8,0:0:0:0:
77,164,90106,1,0,0:0:0:0:
77,123,90166,2,0,L|33:150,1,52.5
166,20,90286,5,12,0:0:0:0:
186,30,90346,1,0,0:0:0:0:
208,33,90406,1,0,0:0:0:0:
230,28,90466,1,0,0:0:0:0:
248,14,90526,1,8,0:0:0:0:
280,3,90586,1,0,0:0:0:0:
314,8,90646,1,0,0:0:0:0:
342,28,90706,1,0,0:0:0:0:
350,61,90766,6,0,B|372:74|372:74|406:86,3,57.7500017623902,12|0|0|0,0:0|0:0|0:0|0:0,0:0:0:0:
261,204,91006,2,0,P|265:236|286:264,3,57.7500017623902,12|0|0|0,0:0|0:0|0:0|0:0,0:0:0:0:
393,213,91246,5,12,0:0:0:0:
378,210,91306,1,0,0:0:0:0:
363,207,91366,1,8,0:0:0:0:
347,204,91426,1,0,0:0:0:0:
332,201,91486,5,12,0:0:0:0:
358,195,91546,1,0,0:0:0:0:
384,189,91606,1,8,0:0:0:0:
409,183,91666,1,0,0:0:0:0:
435,176,91726,5,12,0:0:0:0:
405,169,91786,1,0,0:0:0:0:
374,162,91846,1,8,0:0:0:0:
343,156,91906,1,0,0:0:0:0:
313,151,91966,5,12,0:0:0:0:
320,171,92026,1,0,0:0:0:0:
333,187,92086,1,8,0:0:0:0:
351,197,92146,1,0,0:0:0:0:
372,202,92206,6,8,P|386:262|382:308,1,105,12|8,0:0|0:0,0:0:0:0:
309,263,92446,5,8,0:0:0:0:
170,357,92566,1,8,0:0:0:0:
242,205,92686,5,8,0:0:0:0:
84,262,92806,1,8,0:0:0:0:
238,119,92926,6,0,P|199:58|199:2,1,118.125004506111,10|0,0:0|0:0,0:0:0:0:
318,29,93166,5,12,0:0:0:0:
339,29,93226,1,0,0:0:0:0:
360,29,93286,1,0,0:0:0:0:
381,29,93346,1,0,0:0:0:0:
400,53,93406,5,8,0:0:0:0:
421,53,93466,1,0,0:0:0:0:
442,53,93526,1,0,0:0:0:0:
463,53,93586,1,0,0:0:0:0:
485,30,93646,6,0,L|485:154,1,105,8|0,0:0|0:0,0:0:0:0:
382,304,93886,2,0,L|382:180,1,105,8|0,0:0|0:0,0:0:0:0:
238,119,94126,5,12,0:0:0:0:
229,124,94186,1,0,0:0:0:0:
219,126,94246,1,0,0:0:0:0:
209,125,94306,1,0,0:0:0:0:
200,120,94366,2,0,L|200:241,1,105,8|0,0:0|0:0,0:0:0:0:
124,341,94606,5,8,0:0:0:0:
21,179,94726,1,0,0:0:0:0:
8,377,94846,5,8,0:0:0:0:
112,152,94966,1,0,0:0:0:0:
125,354,95086,5,12,0:0:0:0:
116,349,95146,1,0,0:0:0:0:
106,347,95206,1,0,0:0:0:0:
96,348,95266,1,0,0:0:0:0:
87,353,95326,2,0,L|87:232,1,105,8|0,0:0|0:0,0:0:0:0:
210,225,95566,5,8,0:0:0:0:
347,339,95686,1,0,0:0:0:0:
310,159,95806,5,8,0:0:0:0:
476,319,95926,1,0,0:0:0:0:
417,194,96046,5,12,0:0:0:0:
429,180,96106,1,0,0:0:0:0:
436,163,96166,1,0,0:0:0:0:
437,145,96226,1,0,0:0:0:0:
434,127,96286,1,0,0:0:0:0:
424,111,96346,1,0,0:0:0:0:
409,100,96406,1,0,0:0:0:0:
390,96,96466,1,0,0:0:0:0:
369,99,96526,5,12,0:0:0:0:
355,111,96586,1,0,0:0:0:0:
338,118,96646,1,0,0:0:0:0:
320,119,96706,1,0,0:0:0:0:
302,116,96766,1,0,0:0:0:0:
286,106,96826,1,0,0:0:0:0:
275,91,96886,1,0,0:0:0:0:
271,72,96946,1,0,0:0:0:0:
272,52,97006,6,0,B|280:27|280:27|290:3,3,52.5,12|0|0|0,0:0|0:0|0:0|0:0,0:0:0:0:
137,84,97246,6,0,B|145:59|145:59|155:35,3,52.5,12|0|0|0,0:0|0:0|0:0|0:0,0:0:0:0:
31,128,97486,5,12,0:0:0:0:
31,145,97546,1,8,0:0:0:0:
31,161,97606,1,8,0:0:0:0:
31,178,97666,1,8,0:0:0:0:
59,191,97726,5,8,0:0:0:0:
59,208,97786,1,8,0:0:0:0:
59,224,97846,1,8,0:0:0:0:
59,241,97906,1,8,0:0:0:0:
42,276,97966,6,0,B|16:242|16:242|16:73,1,196.875,6|0,0:0|0:0,0:0:0:0:
38,55,98206,2,0,B|56:86|56:86|56:169|56:169|79:211|79:211|114:225,1,196.875,6|0,0:0|0:0,0:0:0:0:
130,152,98446,5,12,0:0:0:0:
146,160,98506,1,8,0:0:0:0:
161,168,98566,1,8,0:0:0:0:
175,175,98626,1,8,0:0:0:0:
204,160,98686,5,12,0:0:0:0:
211,174,98746,1,8,0:0:0:0:
219,189,98806,1,8,0:0:0:0:
225,202,98866,1,8,0:0:0:0:
210,234,98926,6,0,B|224:171|224:171|205:119,1,118.125004506111,12|0,0:0|0:0,0:0:0:0:
67,374,99166,2,0,B|67:309|67:309|96:262,1,118.125004506111,12|0,0:0|0:0,0:0:0:0:
163,333,99406,1,12,0:0:0:0:
163,344,99886,5,4,0:0:0:0:
16,203,102766,5,4,0:0:0:0:
461,53,103006,1,4,0:0:0:0:
466,178,103246,5,4,0:0:0:0:
19,53,103486,1,4,0:0:0:0:
255,124,103726,5,10,0:0:0:0:
131,281,103846,1,10,0:0:0:0:
129,285,103966,1,10,0:0:0:0:
127,289,104086,1,10,0:0:0:0:
257,122,104206,5,10,0:0:0:0:
437,233,104326,1,10,0:0:0:0:
441,235,104446,1,10,0:0:0:0:
445,237,104566,1,10,0:0:0:0:
259,120,104686,6,0,L|252:177,1,52.5,8|0,0:0|0:0,0:0:0:0:
279,305,104806,2,0,L|272:360,5,52.5,8|0|0|0|0|0,0:0|0:0|0:0|0:0|0:0|0:0,0:0:0:0:
417,302,105166,5,8,0:0:0:0:
417,287,105226,1,8,0:0:0:0:
417,272,105286,1,8,0:0:0:0:
417,257,105346,1,8,0:0:0:0:
437,233,105406,5,8,0:0:0:0:
437,222,105466,1,8,0:0:0:0:
437,211,105526,1,8,0:0:0:0:
437,200,105586,1,8,0:0:0:0:
417,175,105646,6,0,B|417:115|417:115|400:66,1,105,8|0,0:0|0:0,0:0:0:0:
288,210,105886,5,10,0:0:0:0:
280,232,105946,1,8,0:0:0:0:
276,255,106006,1,8,0:0:0:0:
276,278,106066,1,8,0:0:0:0:
279,301,106126,2,0,P|290:334|324:372,1,78.7500030040742,8|0,0:0|0:0,0:0:0:0:
153,176,106366,5,10,0:0:0:0:
161,154,106426,1,8,0:0:0:0:
165,131,106486,1,8,0:0:0:0:
165,108,106546,1,8,0:0:0:0:
162,85,106606,2,0,P|151:52|117:14,1,78.7500030040742,8|0,0:0|0:0,0:0:0:0:
265,90,106846,5,0,0:0:0:0:
59,90,106966,1,0,0:0:0:0:
265,86,107086,5,10,0:0:0:0:
238,47,107146,1,10,0:0:0:0:
192,36,107206,1,10,0:0:0:0:
151,57,107266,1,10,0:0:0:0:
130,98,107326,5,10,0:0:0:0:
121,85,107386,1,0,0:0:0:0:
112,71,107446,1,0,0:0:0:0:
105,59,107506,1,0,0:0:0:0:
94,45,107566,5,8,0:0:0:0:
82,90,107626,1,0,0:0:0:0:
106,128,107686,1,0,0:0:0:0:
151,138,107746,1,0,0:0:0:0:
188,111,107806,1,0,0:0:0:0:
194,66,107866,1,0,0:0:0:0:
180,20,107926,6,0,L|233:20,1,52.5,8|0,0:0|0:0,0:0:0:0:
87,32,108046,2,0,L|34:32,1,52.5,8|0,0:0|0:0,0:0:0:0:
38,147,108166,5,8,0:0:0:0:
23,173,108226,1,0,0:0:0:0:
25,204,108286,1,0,0:0:0:0:
44,229,108346,1,0,0:0:0:0:
75,235,108406,6,0,L|81:293,3,52.5,8|0|0|0,0:0|0:0|0:0|0:0,0:0:0:0:
215,298,108646,2,0,P|211:341|205:362,1,52.5,8|0,0:0|0:0,0:0:0:0:
321,218,108766,5,8,0:0:0:0:
321,213,108826,1,0,0:0:0:0:
321,208,108886,2,0,P|325:165|331:144,1,52.5,0|0,0:0|0:0,0:0:0:0:
480,123,109006,5,8,0:0:0:0:
465,138,109066,1,0,0:0:0:0:
446,147,109126,1,0,0:0:0:0:
426,148,109186,1,0,0:0:0:0:
407,141,109246,5,8,0:0:0:0:
407,183,109306,1,0,0:0:0:0:
407,225,109366,1,0,0:0:0:0:
407,267,109426,1,0,0:0:0:0:
407,305,109486,5,8,0:0:0:0:
382,291,109546,1,0,0:0:0:0:
355,299,109606,1,0,0:0:0:0:
339,322,109666,1,0,0:0:0:0:
342,350,109726,6,0,L|295:346,3,47.2499985580445,8|0|0|0,0:0|0:0|0:0|0:0,0:0:0:0:
499,210,109966,5,8,0:0:0:0:
501,234,110026,1,0,0:0:0:0:
503,258,110086,1,0,0:0:0:0:
505,281,110146,1,0,0:0:0:0:
485,313,110206,6,0,L|491:363,3,47.2499985580445,8|0|0|0,0:0|0:0|0:0|0:0,0:0:0:0:
336,158,110446,5,8,0:0:0:0:
337,140,110506,1,0,0:0:0:0:
338,122,110566,2,0,L|282:162,1,47.2499985580445
302,247,110686,5,8,0:0:0:0:
264,266,110746,1,0,0:0:0:0:
221,268,110806,1,0,0:0:0:0:
182,254,110866,1,0,0:0:0:0:
152,224,110926,5,8,0:0:0:0:
151,234,110986,1,0,0:0:0:0:
151,244,111046,1,0,0:0:0:0:
151,254,111106,1,0,0:0:0:0:
151,264,111166,5,8,0:0:0:0:
125,253,111226,1,0,0:0:0:0:
96,253,111286,1,0,0:0:0:0:
69,263,111346,1,0,0:0:0:0:
47,285,111406,6,0,L|17:182,1,105,8|0,0:0|0:0,0:0:0:0:
128,27,111646,2,0,L|139:141,1,105,8|0,0:0|0:0,0:0:0:0:
152,272,111886,5,0,0:0:0:0:
152,274,112006,1,0,0:0:0:0:
200,366,112126,5,8,0:0:0:0:
256,273,112246,1,8,0:0:0:0:
200,368,112366,6,0,P|133:349|90:361,1,105,8|0,0:0|0:0,0:0:0:0:
312,59,112606,2,0,P|379:78|422:66,1,105,8|0,0:0|0:0,0:0:0:0:
255,144,112846,5,0,0:0:0:0:
255,146,112966,1,0,0:0:0:0:
255,144,113086,5,8,0:0:0:0:
31,113,113206,1,8,0:0:0:0:
255,148,113326,6,0,B|276:95|276:95|320:57,1,105,8|0,0:0|0:0,0:0:0:0:
257,281,113566,2,0,B|236:334|236:334|192:372,1,105,8|0,0:0|0:0,0:0:0:0:
388,194,113806,5,0,0:0:0:0:
390,194,113926,1,0,0:0:0:0:
106,196,114046,5,8,0:0:0:0:
390,194,114166,1,8,0:0:0:0:
104,196,114286,6,0,B|51:217|51:217|13:261,1,105,8|0,0:0|0:0,0:0:0:0:
392,194,114526,2,0,B|445:173|445:173|483:129,1,105,8|0,0:0|0:0,0:0:0:0:
308,194,114766,5,0,0:0:0:0:
174,194,114886,1,0,0:0:0:0:
389,191,115006,5,8,0:0:0:0:
101,195,115126,1,8,0:0:0:0:
242,193,115246,5,12,0:0:0:0:
245,173,115306,1,0,0:0:0:0:
245,152,115366,1,0,0:0:0:0:
240,131,115426,1,0,0:0:0:0:
232,112,115486,1,0,0:0:0:0:
221,95,115546,1,0,0:0:0:0:
207,79,115606,2,0,P|174:63|144:63,1,52.5
401,79,115726,5,12,0:0:0:0:
416,76,115786,1,0,0:0:0:0:
431,73,115846,1,0,0:0:0:0:
447,70,115906,1,0,0:0:0:0:
462,67,115966,5,12,0:0:0:0:
436,61,116026,1,0,0:0:0:0:
410,55,116086,1,0,0:0:0:0:
385,49,116146,1,0,0:0:0:0:
359,42,116206,5,12,0:0:0:0:
389,35,116266,1,0,0:0:0:0:
420,28,116326,1,0,0:0:0:0:
451,22,116386,1,0,0:0:0:0:
481,17,116446,5,12,0:0:0:0:
474,37,116506,1,0,0:0:0:0:
461,53,116566,1,0,0:0:0:0:
443,63,116626,1,0,0:0:0:0:
422,66,116686,6,0,P|406:89|398:117,3,52.5,12|0|0|0,0:0|0:0|0:0|0:0,0:0:0:0:
454,221,116926,2,0,P|466:197|475:171,3,52.5,12|0|0|0,0:0|0:0|0:0|0:0,0:0:0:0:
353,333,117166,5,12,0:0:0:0:
349,312,117226,1,0,0:0:0:0:
338,294,117286,1,0,0:0:0:0:
324,281,117346,1,0,0:0:0:0:
304,274,117406,1,8,0:0:0:0:
282,274,117466,1,0,0:0:0:0:
263,280,117526,1,0,0:0:0:0:
246,293,117586,1,0,0:0:0:0:
233,309,117646,1,8,0:0:0:0:
225,329,117706,1,0,0:0:0:0:
209,343,117766,1,0,0:0:0:0:
191,352,117826,1,0,0:0:0:0:
171,354,117886,1,8,0:0:0:0:
150,348,117946,1,0,0:0:0:0:
134,337,118006,1,0,0:0:0:0:
122,319,118066,1,0,0:0:0:0:
120,298,118126,5,12,0:0:0:0:
125,277,118186,1,0,0:0:0:0:
138,261,118246,1,0,0:0:0:0:
156,251,118306,1,0,0:0:0:0:
176,247,118366,1,8,0:0:0:0:
196,251,118426,1,0,0:0:0:0:
214,260,118486,1,0,0:0:0:0:
228,274,118546,1,0,0:0:0:0:
247,281,118606,1,8,0:0:0:0:
267,285,118666,1,0,0:0:0:0:
287,283,118726,1,8,0:0:0:0:
303,269,118786,1,0,0:0:0:0:
306,248,118846,1,8,0:0:0:0:
298,228,118906,1,0,0:0:0:0:
277,222,118966,1,8,0:0:0:0:
259,233,119026,1,0,0:0:0:0:
251,252,119086,5,12,0:0:0:0:
349,146,119326,1,14,0:0:0:0:
251,254,119566,5,12,0:0:0:0:
249,223,119626,1,0,0:0:0:0:
236,194,119686,1,0,0:0:0:0:
214,172,119746,1,0,0:0:0:0:
189,153,119806,1,0,0:0:0:0:
169,129,119866,1,0,0:0:0:0:
158,100,119926,1,0,0:0:0:0:
161,69,119986,1,0,0:0:0:0:
180,45,120046,5,12,0:0:0:0:
208,32,120106,1,0,0:0:0:0:
239,33,120166,1,0,0:0:0:0:
263,53,120226,1,0,0:0:0:0:
270,84,120286,1,0,0:0:0:0:
262,115,120346,1,0,0:0:0:0:
236,134,120406,1,0,0:0:0:0:
205,142,120466,1,0,0:0:0:0:
173,142,120526,6,0,L|163:214,3,52.5,12|0|0|0,0:0|0:0|0:0|0:0,0:0:0:0:
50,96,120766,2,0,L|44:151,3,52.5,12|0|0|0,0:0|0:0|0:0|0:0,0:0:0:0:
19,233,121006,5,12,0:0:0:0:
19,264,121066,1,0,0:0:0:0:
19,296,121126,1,0,0:0:0:0:
19,327,121186,1,0,0:0:0:0:
19,359,121246,5,12,0:0:0:0:
24,359,121306,1,0,0:0:0:0:
29,359,121366,2,0,L|85:359,1,52.5
159,252,121486,5,12,0:0:0:0:
162,249,121546,1,0,0:0:0:0:
165,246,121606,2,0,L|165:190,1,52.5
299,298,121726,5,12,0:0:0:0:
296,302,121786,1,0,0:0:0:0:
293,306,121846,2,0,L|293:359,1,52.5
371,230,121966,5,12,0:0:0:0:
378,222,122026,1,8,0:0:0:0:
387,216,122086,1,8,0:0:0:0:
397,213,122146,1,8,0:0:0:0:
407,213,122206,1,8,0:0:0:0:
417,214,122266,1,8,0:0:0:0:
426,218,122326,2,0,P|447:198|442:162,1,52.5
440,84,122446,5,12,0:0:0:0:
254,64,122566,1,12,0:0:0:0:
452,84,122686,5,12,0:0:0:0:
250,142,122806,1,12,0:0:0:0:
464,84,122926,5,12,0:0:0:0:
432,86,122986,1,0,0:0:0:0:
400,86,123046,1,0,0:0:0:0:
376,86,123106,1,0,0:0:0:0:
351,53,123166,6,0,L|312:13,3,52.5
250,142,123406,5,10,0:0:0:0:
226,144,123466,1,0,0:0:0:0:
202,146,123526,1,0,0:0:0:0:
179,148,123586,1,0,0:0:0:0:
147,128,123646,6,0,L|94:133,3,52.5
10,27,123886,5,10,0:0:0:0:
10,48,123946,1,0,0:0:0:0:
10,69,124006,1,0,0:0:0:0:
10,90,124066,1,0,0:0:0:0:
27,117,124126,6,0,L|19:168,3,52.5
61,233,124366,5,10,0:0:0:0:
62,248,124426,1,0,0:0:0:0:
63,263,124486,1,0,0:0:0:0:
64,278,124546,1,0,0:0:0:0:
52,307,124606,6,0,L|57:360,3,52.5
165,339,124846,5,12,0:0:0:0:
184,352,124906,1,0,0:0:0:0:
206,358,124966,1,0,0:0:0:0:
229,357,125026,1,0,0:0:0:0:
251,350,125086,1,0,0:0:0:0:
273,336,125146,1,0,0:0:0:0:
298,329,125206,1,0,0:0:0:0:
324,332,125266,1,0,0:0:0:0:
344,343,125326,5,10,0:0:0:0:
321,349,125386,1,0,0:0:0:0:
298,343,125446,1,0,0:0:0:0:
284,324,125506,1,0,0:0:0:0:
281,300,125566,1,2,0:0:0:0:
288,278,125626,1,0,0:0:0:0:
305,263,125686,1,0,0:0:0:0:
327,257,125746,1,0,0:0:0:0:
349,260,125806,5,12,0:0:0:0:
350,256,125866,1,2,0:0:0:0:
350,252,125926,1,2,0:0:0:0:
350,248,125986,1,2,0:0:0:0:
351,244,126046,1,2,0:0:0:0:
352,240,126106,1,2,0:0:0:0:
353,236,126166,1,2,0:0:0:0:
353,232,126226,1,2,0:0:0:0:
354,228,126286,5,12,0:0:0:0:
381,204,126346,1,0,0:0:0:0:
417,196,126406,1,0,0:0:0:0:
453,205,126466,1,0,0:0:0:0:
483,227,126526,5,12,0:0:0:0:
432,245,126586,1,0,0:0:0:0:
389,214,126646,1,0,0:0:0:0:
391,161,126706,1,0,0:0:0:0:
436,132,126766,5,12,0:0:0:0:
300,293,126886,1,8,0:0:0:0:
316,147,127006,5,8,0:0:0:0:
180,309,127126,1,8,0:0:0:0:
196,156,127246,5,8,0:0:0:0:
60,318,127366,1,8,0:0:0:0:
76,165,127486,5,8,0:0:0:0:
188,309,127606,1,8,0:0:0:0:
76,160,127726,5,12,0:0:0:0:
76,155,127786,1,2,0:0:0:0:
76,150,127846,1,2,0:0:0:0:
76,145,127906,1,2,0:0:0:0:
76,140,127966,1,2,0:0:0:0:
76,135,128026,1,2,0:0:0:0:
76,130,128086,1,2,0:0:0:0:
76,125,128146,1,2,0:0:0:0:
76,120,128206,6,2,B|76:89|76:89|62:67,3,52.5,12|2|2|2,0:0|0:0|0:0|0:0,0:0:0:0:
225,135,128446,2,2,B|225:166|225:166|239:188,3,52.5,10|2|2|2,0:0|0:0|0:0|0:0,0:0:0:0:
311,279,128686,5,8,0:0:0:0:
469,285,128806,1,8,0:0:0:0:
305,155,128926,1,8,0:0:0:0:
379,352,129046,1,8,0:0:0:0:
425,147,129166,1,8,0:0:0:0:
284,294,129286,1,8,0:0:0:0:
501,292,129406,1,0,0:0:0:0:
296,129,129526,1,8,0:0:0:0:
378,367,129646,5,8,0:0:0:0:
337,337,129706,1,8,0:0:0:0:
336,287,129766,1,8,0:0:0:0:
376,255,129826,1,8,0:0:0:0:
423,294,129886,5,8,0:0:0:0:
396,281,129946,1,8,0:0:0:0:
385,252,130006,1,8,0:0:0:0:
395,223,130066,1,8,0:0:0:0:
425,229,130126,5,8,0:0:0:0:
425,214,130186,1,8,0:0:0:0:
425,198,130246,1,8,0:0:0:0:
425,182,130306,1,8,0:0:0:0:
402,160,130366,5,12,0:0:0:0:
132,160,130486,1,12,0:0:0:0:
267,160,130606,1,12,0:0:0:0:
199,52,130846,5,8,0:0:0:0:
199,52,130966,1,8,0:0:0:0:
64,160,131206,5,0,0:0:0:0:
199,160,131326,1,0,0:0:0:0:
199,268,131566,5,8,0:0:0:0:
199,268,131686,1,0,0:0:0:0:
64,268,131806,5,8,0:0:0:0:
64,268,131926,1,0,0:0:0:0:
65,158,132046,5,8,0:0:0:0:
159,158,132166,1,8,0:0:0:0:
254,158,132286,1,8,0:0:0:0:
348,158,132406,1,8,0:0:0:0:
443,158,132526,5,10,0:0:0:0:
461,184,132586,1,0,0:0:0:0:
469,214,132646,1,0,0:0:0:0:
467,245,132706,1,0,0:0:0:0:
454,274,132766,1,0,0:0:0:0:
433,297,132826,1,0,0:0:0:0:
404,310,132886,2,0,P|368:317|330:312,1,52.5
348,158,133006,5,10,0:0:0:0:
329,133,133066,1,0,0:0:0:0:
321,103,133126,1,0,0:0:0:0:
323,72,133186,1,0,0:0:0:0:
336,43,133246,1,0,0:0:0:0:
357,20,133306,1,0,0:0:0:0:
387,6,133366,2,0,P|423:-1|461:4,1,52.5
254,158,133486,5,10,0:0:0:0:
272,184,133546,1,0,0:0:0:0:
280,214,133606,1,0,0:0:0:0:
278,245,133666,1,0,0:0:0:0:
265,274,133726,1,0,0:0:0:0:
244,297,133786,1,0,0:0:0:0:
215,310,133846,2,0,P|179:317|141:312,1,52.5
159,158,133966,5,10,0:0:0:0:
140,133,134026,1,0,0:0:0:0:
132,103,134086,1,0,0:0:0:0:
134,72,134146,1,0,0:0:0:0:
147,43,134206,1,0,0:0:0:0:
168,20,134266,1,0,0:0:0:0:
198,6,134326,2,0,P|234:-1|272:4,1,52.5
63,156,134446,5,12,0:0:0:0:
63,266,134686,5,0,0:0:0:0:
63,266,134806,1,0,0:0:0:0:
164,266,135046,5,0,0:0:0:0:
164,266,135166,1,0,0:0:0:0:
195,149,135406,6,0,P|192:85|150:49,1,105,8|0,0:0|0:0,0:0:0:0:
322,235,135646,2,0,P|326:301|366:339,1,105,8|0,0:0|0:0,0:0:0:0:
388,266,135886,5,8,0:0:0:0:
156,268,136006,1,8,0:0:0:0:
247,266,136126,5,8,0:0:0:0:
63,266,136246,1,8,0:0:0:0:
63,266,136366,5,12,0:0:0:0:
92,229,136426,1,0,0:0:0:0:
128,198,136486,1,0,0:0:0:0:
170,176,136546,1,0,0:0:0:0:
215,163,136606,1,0,0:0:0:0:
262,159,136666,1,0,0:0:0:0:
309,165,136726,1,0,0:0:0:0:
353,181,136786,1,0,0:0:0:0:
393,207,136846,5,12,0:0:0:0:
354,223,136906,1,0,0:0:0:0:
312,226,136966,1,0,0:0:0:0:
271,217,137026,1,0,0:0:0:0:
235,197,137086,1,0,0:0:0:0:
207,166,137146,1,0,0:0:0:0:
189,128,137206,1,0,0:0:0:0:
183,87,137266,1,0,0:0:0:0:
202,48,137326,5,12,0:0:0:0:
202,90,137386,1,0,0:0:0:0:
202,132,137446,1,0,0:0:0:0:
202,174,137506,1,0,0:0:0:0:
202,216,137566,1,0,0:0:0:0:
202,258,137626,1,0,0:0:0:0:
202,300,137686,1,0,0:0:0:0:
202,342,137746,1,0,0:0:0:0:
202,384,137806,5,4,0:0:0:0:
168,358,137866,1,0,0:0:0:0:
148,322,137926,1,0,0:0:0:0:
144,280,137986,1,0,0:0:0:0:
157,241,138046,1,0,0:0:0:0:
184,209,138106,1,0,0:0:0:0:
222,192,138166,1,0,0:0:0:0:
264,191,138226,1,0,0:0:0:0:
304,203,138286,6,0,P|329:147|332:88,1,105,12|0,0:0|0:0,0:0:0:0:
172,17,138526,2,0,P|147:73|144:132,1,105
401,177,138766,6,0,B|423:123|423:123|410:78,1,105,8|0,0:0|0:0,0:0:0:0:
75,43,139006,2,0,B|53:97|53:97|66:142,1,105
499,94,139246,6,0,B|491:36|491:36|457:3,1,105,8|0,0:0|0:0,0:0:0:0:
0,183,139486,2,0,B|7:240|7:240|41:273,1,105
148,299,139726,6,0,L|201:299,2,52.5,6|0|0,0:0|0:0|0:0,0:0:0:0:
364,299,139966,2,0,L|311:299,2,52.5,6|0|0,0:0|0:0|0:0,0:0:0:0:
256,198,140206,5,10,0:0:0:0:
256,177,140266,1,0,0:0:0:0:
256,156,140326,1,0,0:0:0:0:
256,135,140386,1,0,0:0:0:0:
256,114,140446,1,0,0:0:0:0:
256,93,140506,1,0,0:0:0:0:
256,72,140566,2,0,L|256:15,1,52.5
184,172,140686,5,10,0:0:0:0:
182,140,140746,1,0,0:0:0:0:
173,111,140806,1,0,0:0:0:0:
156,83,140866,1,0,0:0:0:0:
133,63,140926,1,0,0:0:0:0:
106,48,140986,1,0,0:0:0:0:
75,41,141046,2,0,P|48:35|3:36,1,52.5
328,172,141166,5,10,0:0:0:0:
330,140,141226,1,0,0:0:0:0:
339,111,141286,1,0,0:0:0:0:
356,83,141346,1,0,0:0:0:0:
379,63,141406,1,0,0:0:0:0:
406,48,141466,1,0,0:0:0:0:
437,41,141526,2,0,P|463:35|508:36,1,52.5
256,198,141646,5,10,0:0:0:0:
256,213,141706,1,0,0:0:0:0:
256,228,141766,1,0,0:0:0:0:
256,243,141826,1,0,0:0:0:0:
256,258,141886,1,0,0:0:0:0:
256,273,141946,1,0,0:0:0:0:
256,288,142006,2,0,L|256:323,1,26.25
256,384,142126,5,12,0:0:0:0:
256,384,142366,5,4,0:0:0:0:
256,288,142486,1,4,0:0:0:0:
392,31,142726,5,4,0:0:0:0:
392,157,142846,1,4,0:0:0:0:
392,157,143086,6,0,P|426:104|480:93,1,105,8|0,0:0|0:0,0:0:0:0:
243,171,143326,2,0,P|206:227|152:240,1,105,8|0,0:0|0:0,0:0:0:0:
166,162,143566,5,8,0:0:0:0:
367,279,143686,1,8,0:0:0:0:
296,237,143806,5,8,0:0:0:0:
447,325,143926,1,8,0:0:0:0:
447,325,144046,5,6,0:0:0:0:
399,325,144106,1,0,0:0:0:0:
352,325,144166,1,0,0:0:0:0:
305,325,144226,1,0,0:0:0:0:
258,325,144286,1,0,0:0:0:0:
210,325,144346,1,0,0:0:0:0:
163,325,144406,1,0,0:0:0:0:
116,325,144466,1,0,0:0:0:0:
69,326,144526,5,6,0:0:0:0:
99,290,144586,1,0,0:0:0:0:
138,262,144646,1,0,0:0:0:0:
181,244,144706,1,0,0:0:0:0:
228,237,144766,1,0,0:0:0:0:
275,240,144826,1,0,0:0:0:0:
320,254,144886,1,0,0:0:0:0:
360,279,144946,1,0,0:0:0:0:
390,315,145006,5,12,0:0:0:0:
342,315,145066,1,0,0:0:0:0:
295,315,145126,1,0,0:0:0:0:
248,315,145186,1,0,0:0:0:0:
200,315,145246,1,0,0:0:0:0:
153,315,145306,1,0,0:0:0:0:
106,315,145366,1,0,0:0:0:0:
59,315,145426,1,0,0:0:0:0:
12,315,145486,5,6,0:0:0:0:
29,271,145546,1,0,0:0:0:0:
58,234,145606,1,0,0:0:0:0:
98,208,145666,1,0,0:0:0:0:
143,195,145726,1,0,0:0:0:0:
190,196,145786,1,0,0:0:0:0:
234,211,145846,1,0,0:0:0:0:
272,239,145906,1,0,0:0:0:0:
308,281,145966,6,0,B|263:230|263:230|307:230|349:174|332:122|290:97|290:97,1,231.524992934418,12|0,0:0|0:0,0:0:0:0:
155,89,146446,2,0,P|131:128|173:217,1,141.749995674133,6|0,0:0|0:0,0:0:0:0:
162,360,146926,5,12,0:0:0:0:
145,337,146986,1,0,0:0:0:0:
118,325,147046,1,0,0:0:0:0:
89,330,147106,1,0,0:0:0:0:
65,356,147166,5,10,0:0:0:0:
58,337,147226,1,0,0:0:0:0:
51,318,147286,1,0,0:0:0:0:
43,299,147346,1,0,0:0:0:0:
11,291,147406,6,8,L|24:253,3,40.4249991981125
53,164,147646,1,12,0:0:0:0:
164,143,147886,6,0,B|168:89|168:89|190:34,1,105,12|0,0:0|0:0,0:0:0:0:
242,106,148126,2,0,B|264:54|264:54|315:27,1,105
367,142,148366,5,0,0:0:0:0:
447,45,148486,1,10,0:0:0:0:
454,65,148546,1,10,0:0:0:0:
467,82,148606,2,0,L|467:198,1,105,10|0,0:0|0:0,0:0:0:0:
469,295,148846,1,10,0:0:0:0:
325,264,149086,5,8,0:0:0:0:
325,285,149146,1,8,0:0:0:0:
325,306,149206,1,8,0:0:0:0:
325,327,149266,1,8,0:0:0:0:
325,348,149326,1,10,0:0:0:0:
177,268,149566,5,8,0:0:0:0:
177,289,149626,1,8,0:0:0:0:
177,310,149686,1,8,0:0:0:0:
177,331,149746,1,8,0:0:0:0:
177,352,149806,1,10,0:0:0:0:
61,251,150046,5,6,0:0:0:0:
44,237,150166,1,6,0:0:0:0:
28,223,150286,1,14,0:0:0:0:
479,121,150526,1,12,0:0:0:0:
199,25,150766,6,2,B|185:89|185:89|251:108|225:226|138:193,1,236.250009012223,6|2,0:0|0:0,0:0:0:0:
153,197,151246,2,2,B|210:205|234:149|212:105|212:105|301:151,1,236.250009012223,12|2,0:0|0:0,0:0:0:0:
385,195,151726,5,12,0:0:0:0:
276,260,151846,1,0,0:0:0:0:
299,150,151966,5,0,0:0:0:0:
251,369,152086,1,0,0:0:0:0:
276,260,152206,6,0,B|237:243|237:243|200:243,1,78.7500030040742
256,367,152446,2,0,B|295:384|295:384|332:384,1,78.7500030040742
388,238,152686,5,10,0:0:0:0:
487,189,152806,1,0,0:0:0:0:
388,156,152926,5,0,0:0:0:0:
487,107,153046,1,0,0:0:0:0:
388,67,153166,5,0,0:0:0:0:
487,18,153286,1,0,0:0:0:0:
388,156,153406,5,0,0:0:0:0:
487,107,153526,1,0,0:0:0:0:
388,238,153646,5,10,0:0:0:0:
390,254,153706,1,10,0:0:0:0:
397,268,153766,1,10,0:0:0:0:
406,281,153826,1,10,0:0:0:0:
415,294,153886,5,10,0:0:0:0:
297,340,154006,1,10,0:0:0:0:
383,332,154126,5,10,0:0:0:0:
257,346,154246,1,10,0:0:0:0:
342,360,154366,5,10,0:0:0:0:
333,338,154426,1,10,0:0:0:0:
325,316,154486,1,10,0:0:0:0:
317,294,154546,1,10,0:0:0:0:
308,272,154606,6,0,L|228:272,1,78.7500030040742,10|0,0:0|0:0,0:0:0:0:
132,272,154846,5,10,0:0:0:0:
141,250,154906,1,10,0:0:0:0:
149,228,154966,1,10,0:0:0:0:
157,206,155026,1,10,0:0:0:0:
166,184,155086,6,0,L|246:184,1,78.7500030040742,10|0,0:0|0:0,0:0:0:0:
27,222,155326,5,10,0:0:0:0:
27,225,155386,1,10,0:0:0:0:
27,228,155446,1,10,0:0:0:0:
27,231,155506,1,10,0:0:0:0:
27,234,155566,6,8,B|51:188|51:188|51:127,1,105,10|8,0:0|0:0,0:0:0:0:
164,109,155806,2,8,B|140:63|140:63|140:2,1,105
312,48,156046,5,10,0:0:0:0:
461,86,156166,1,0,0:0:0:0:
263,105,156286,5,10,0:0:0:0:
461,95,156406,1,0,0:0:0:0:
259,111,156526,6,0,B|237:77|237:77|237:38|237:38|215:7,1,105,10|0,0:0|0:0,0:0:0:0:
376,158,156766,5,2,0:0:0:0:
367,177,156826,1,2,0:0:0:0:
367,198,156886,1,2,0:0:0:0:
372,219,156946,1,2,0:0:0:0:
386,235,157006,6,2,B|420:213|420:213|459:213|459:213|490:191,1,105
297,276,157246,5,2,0:0:0:0:
306,295,157306,1,2,0:0:0:0:
306,316,157366,1,2,0:0:0:0:
301,337,157426,1,2,0:0:0:0:
287,353,157486,6,2,B|253:331|253:331|214:331|214:331|183:309,1,105
29,169,157726,5,12,0:0:0:0:
136,225,157846,1,12,0:0:0:0:
30,180,157966,6,0,B|52:148|52:148|29:105|52:66|52:66|29:25,1,157.5,4|0,0:0|0:0,0:0:0:0:
116,104,158206,1,4,0:0:0:0:
227,202,158326,1,4,0:0:0:0:
116,104,158446,6,0,B|138:55|103:9|103:9|147:40|170:58|226:64|250:40|250:40|272:60|297:72|330:73,1,330.749989906311,12|0,0:0|0:0,0:0:0:0:
453,113,158926,2,0,B|428:148|457:212|457:212|427:174|397:161|376:182|347:169|347:169|328:155|306:149|278:155,1,283.499991348267,12|0,0:0|0:0,0:0:0:0:
222,171,159406,5,12,0:0:0:0:
155,294,159526,1,0,0:0:0:0:
315,259,159646,1,0,0:0:0:0:
131,204,159766,1,0,0:0:0:0:
265,365,159886,1,0,0:0:0:0:
239,128,160006,1,0,0:0:0:0:
92,326,160126,1,0,0:0:0:0:
384,242,160246,1,0,0:0:0:0:
96,207,160366,5,10,0:0:0:0:
401,156,160486,1,0,0:0:0:0:
141,297,160606,5,0,0:0:0:0:
363,116,160726,1,0,0:0:0:0:
221,349,160846,5,0,0:0:0:0:
314,101,160966,1,0,0:0:0:0:
310,353,161086,5,10,0:0:0:0:
271,114,161206,1,0,0:0:0:0:
385,316,161326,6,0,L|331:223,1,105,10|0,0:0|0:0,0:0:0:0:
269,121,161566,1,0,0:0:0:0:
437,254,161686,6,0,L|344:201,1,105,10|0,0:0|0:0,0:0:0:0:
239,144,161926,1,0,0:0:0:0:
463,179,162046,2,0,L|358:162,1,105,10|0,0:0|0:0,0:0:0:0:
478,95,162286,6,0,P|427:68|364:68,1,105,10|0,0:0|0:0,0:0:0:0:
171,250,162526,2,0,P|222:277|285:277,1,105,10|0,0:0|0:0,0:0:0:0:
238,142,162766,6,0,P|187:115|124:115,1,105,10|0,0:0|0:0,0:0:0:0:
40,358,163006,2,0,P|104:368|150:353,1,105,10|0,0:0|0:0,0:0:0:0:
240,142,163246,6,0,P|291:115|354:115,1,105,10|0,0:0|0:0,0:0:0:0:
448,115,163486,1,0,0:0:0:0:
242,146,163606,6,0,P|297:162|341:207,1,105,10|0,0:0|0:0,0:0:0:0:
423,323,163846,1,0,0:0:0:0:
423,327,163966,6,0,L|317:327,1,105,10|0,0:0|0:0,0:0:0:0:
17,323,164206,2,0,L|122:323,1,105,10|0,0:0|0:0,0:0:0:0:
220,309,164446,5,0,0:0:0:0:
227,290,164506,1,0,0:0:0:0:
228,269,164566,1,0,0:0:0:0:
222,249,164626,1,0,0:0:0:0:
211,231,164686,1,0,0:0:0:0:
198,215,164746,1,0,0:0:0:0:
184,199,164806,1,0,0:0:0:0:
172,181,164866,1,0,0:0:0:0:
163,163,164926,1,0,0:0:0:0:
159,142,164986,1,0,0:0:0:0:
161,121,165046,1,0,0:0:0:0:
170,103,165106,1,0,0:0:0:0:
190,93,165166,6,0,P|228:114|258:169,1,105,10|0,0:0|0:0,0:0:0:0:
292,309,165406,1,0,0:0:0:0:
292,313,165526,6,0,P|313:275|368:245,1,105,10|0,0:0|0:0,0:0:0:0:
462,231,165766,1,0,0:0:0:0:
462,235,165886,6,0,B|462:164|462:164|477:130,1,105,10|0,0:0|0:0,0:0:0:0:
366,26,166126,5,10,0:0:0:0:
366,28,166246,1,0,0:0:0:0:
407,112,166366,5,0,0:0:0:0:
407,112,166486,1,10,0:0:0:0:
366,30,166606,6,0,B|337:52|337:52|244:52,1,105
145,52,166846,1,10,0:0:0:0:
124,163,166966,5,10,0:0:0:0:
103,163,167026,1,10,0:0:0:0:
83,163,167086,2,0,P|25:220|83:261,1,157.5,10|0,0:0|0:0,0:0:0:0:
145,257,167326,1,10,0:0:0:0:
116,343,167446,6,0,B|168:343|168:343|216:316,1,105,10|0,0:0|0:0,0:0:0:0:
280,277,167686,5,0,0:0:0:0:
366,200,167806,1,0,0:0:0:0:
282,290,167926,5,0,0:0:0:0:
364,187,168046,2,0,B|388:158|388:158|462:138,1,105,10|0,0:0|0:0,0:0:0:0:
454,24,168286,2,0,B|429:52|429:52|355:72,1,105
259,98,168526,5,0,0:0:0:0:
259,100,168646,1,0,0:0:0:0:
132,49,168766,5,0,0:0:0:0:
132,51,168886,1,0,0:0:0:0:
65,150,169006,5,2,0:0:0:0:
66,155,169086,1,0,0:0:0:0:
68,160,169166,1,0,0:0:0:0:
69,165,169246,1,0,0:0:0:0:
70,170,169326,1,0,0:0:0:0:
71,174,169406,1,0,0:0:0:0:
73,179,169486,5,0,0:0:0:0:
105,140,169566,1,0,0:0:0:0:
155,131,169646,1,0,0:0:0:0:
197,161,169726,1,0,0:0:0:0:
207,212,169806,1,0,0:0:0:0:
179,254,169886,1,0,0:0:0:0:
131,276,169966,5,10,0:0:0:0:
147,249,170046,1,0,0:0:0:0:
174,233,170126,1,0,0:0:0:0:
205,229,170206,5,0,0:0:0:0:
222,203,170286,1,0,0:0:0:0:
249,187,170366,1,0,0:0:0:0:
279,184,170446,5,0,0:0:0:0:
235,47,170566,1,0,0:0:0:0:
281,170,170686,5,0,0:0:0:0:
159,108,170806,1,0,0:0:0:0:
273,157,170926,6,0,L|258:117,2,39.3750015020371
408,208,171166,2,0,L|405:167,2,39.3750015020371
354,83,171406,6,0,L|335:46,2,39.3750015020371
489,134,171646,2,0,L|486:93,2,39.3750015020371
500,265,171886,5,0,0:0:0:0:
409,25,172006,1,0,0:0:0:0:
491,260,172126,2,0,B|497:240|497:240|511:229,3,39.3750015020371
338,306,172366,5,0,0:0:0:0:
85,347,172486,1,0,0:0:0:0:
329,300,172606,2,0,B|315:315|315:315|313:333,3,39.3750015020371
193,277,172846,5,0,0:0:0:0:
278,36,173006,1,0,0:0:0:0:
72,183,173166,1,0,0:0:0:0:
359,106,173326,5,0,0:0:0:0:
303,326,173486,1,0,0:0:0:0:
222,21,173646,1,0,0:0:0:0:
356,107,173806,2,0,B|405:144|482:105|465:32|465:32|506:184|506:184|472:223,1,377.999988464356,10|0,0:0|0:0,0:0:0:0:
372,310,174406,5,0,0:0:0:0:
363,314,174526,1,0,0:0:0:0:
354,317,174646,1,0,0:0:0:0:
344,319,174766,6,0,B|322:257|289:246|289:246|300:205|300:205|331:211|331:211|337:174|337:174|337:107|337:107|337:107|282:128,1,330.749989906311,6|0,0:0|0:0,0:0:0:0:
117,86,175246,1,2,0:0:0:0:
176,306,175486,5,0,0:0:0:0:
117,82,175726,2,0,B|139:45|128:21|128:21|173:37|173:37|215:13|259:39|259:39|332:29,1,262.5,8|0,0:0|0:0,0:0:0:0:
449,37,176446,6,0,L|437:64,5,26.2500010013581
411,137,176686,5,0,0:0:0:0:
378,214,177166,1,0,0:0:0:0:
345,291,177646,5,0,0:0:0:0:
476,195,177766,1,0,0:0:0:0:
476,195,178006,6,0,L|490:286,2,78.7500030040742,0|10|0,0:0|0:0|0:0,0:0:0:0:
449,46,178366,1,0,0:0:0:0:
449,37,178606,5,0,0:0:0:0:
433,50,178686,1,0,0:0:0:0:
413,59,178766,1,0,0:0:0:0:
385,59,178846,5,0,0:0:0:0:
365,63,178926,1,0,0:0:0:0:
346,73,179006,1,0,0:0:0:0:
324,91,179086,5,0,0:0:0:0:
296,96,179166,1,0,0:0:0:0:
268,91,179246,1,0,0:0:0:0:
240,97,179326,5,0,0:0:0:0:
214,110,179406,1,0,0:0:0:0:
206,137,179486,1,0,0:0:0:0:
216,162,179566,6,0,P|237:175|269:181,5,52.5
378,174,179966,5,0,0:0:0:0:
392,190,180046,1,0,0:0:0:0:
400,209,180126,1,0,0:0:0:0:
400,238,180206,5,0,0:0:0:0:
404,258,180286,1,0,0:0:0:0:
414,277,180366,1,0,0:0:0:0:
432,299,180446,5,0,0:0:0:0:
437,327,180526,1,0,0:0:0:0:
432,355,180606,2,0,L|357:348,1,70
199,270,180766,5,0,0:0:0:0:
209,270,180846,1,0,0:0:0:0:
219,270,180926,5,0,0:0:0:0:
233,270,181006,1,0,0:0:0:0:
221,328,181086,1,0,0:0:0:0:
163,334,181166,1,0,0:0:0:0:
127,283,181246,5,0,0:0:0:0:
88,266,181326,1,0,0:0:0:0:
47,278,181406,1,0,0:0:0:0:
25,315,181486,5,0,0:0:0:0:
44,344,181566,1,0,0:0:0:0:
76,331,181646,1,0,0:0:0:0:
100,345,181726,1,0,0:0:0:0:
108,378,181806,2,0,P|152:362|186:365,1,70
243,270,181966,6,0,P|282:246|304:204,5,70
354,356,182446,5,0,0:0:0:0:
366,346,182506,1,0,0:0:0:0:
380,338,182566,1,0,0:0:0:0:
394,332,182626,1,0,0:0:0:0:
409,327,182686,1,0,0:0:0:0:
425,325,182746,1,0,0:0:0:0:
440,324,182806,1,0,0:0:0:0:
456,325,182866,1,0,0:0:0:0:
470,331,182926,5,0,0:0:0:0:
470,283,182986,1,0,0:0:0:0:
468,235,183046,1,0,0:0:0:0:
470,187,183106,1,0,0:0:0:0:
470,139,183166,5,0,0:0:0:0:
489,163,183226,1,0,0:0:0:0:
490,194,183286,1,0,0:0:0:0:
471,219,183346,1,0,0:0:0:0:
439,224,183406,5,0,0:0:0:0:
439,239,183466,1,0,0:0:0:0:
439,254,183526,1,0,0:0:0:0:
439,269,183586,1,0,0:0:0:0:
439,284,183646,5,0,0:0:0:0:
424,287,183706,1,0,0:0:0:0:
411,295,183766,1,0,0:0:0:0:
401,306,183826,1,0,0:0:0:0:
400,319,183886,6,0,B|357:319|357:319|335:333|335:333|295:333,1,105
169,222,184126,2,0,B|212:222|212:222|234:236|234:236|274:236,1,105
126,323,184366,5,0,0:0:0:0:
112,321,184426,1,0,0:0:0:0:
99,317,184486,1,0,0:0:0:0:
88,309,184546,1,0,0:0:0:0:
78,299,184606,1,0,0:0:0:0:
71,287,184666,1,0,0:0:0:0:
66,274,184726,1,0,0:0:0:0:
65,260,184786,1,0,0:0:0:0:
69,247,184846,5,0,0:0:0:0:
77,236,184906,1,0,0:0:0:0:
84,224,184966,1,0,0:0:0:0:
86,211,185026,1,0,0:0:0:0:
86,197,185086,1,0,0:0:0:0:
83,183,185146,1,0,0:0:0:0:
78,170,185206,1,0,0:0:0:0:
69,160,185266,1,0,0:0:0:0:
57,154,185326,5,0,0:0:0:0:
64,168,185386,1,0,0:0:0:0:
76,178,185446,1,0,0:0:0:0:
90,185,185506,1,0,0:0:0:0:
105,187,185566,1,0,0:0:0:0:
120,184,185626,1,0,0:0:0:0:
133,176,185686,1,0,0:0:0:0:
143,165,185746,1,0,0:0:0:0:
146,152,185806,5,0,0:0:0:0:
146,178,185866,1,0,0:0:0:0:
146,204,185926,1,0,0:0:0:0:
146,230,185986,1,0,0:0:0:0:
146,256,186046,5,0,0:0:0:0:
146,282,186106,1,0,0:0:0:0:
146,308,186166,1,0,0:0:0:0:
146,334,186226,1,0,0:0:0:0:
146,360,186286,6,0,B|180:330|180:330|180:330|180:241,1,115.50000352478
180,89,186526,1,0,0:0:0:0:
319,250,186646,5,0,0:0:0:0:
331,238,186706,1,0,0:0:0:0:
342,224,186766,1,0,0:0:0:0:
347,207,186826,1,0,0:0:0:0:
352,190,186886,1,0,0:0:0:0:
355,170,186946,1,0,0:0:0:0:
353,152,187006,5,0,0:0:0:0:
227,140,187126,1,0,0:0:0:0:
429,297,187246,5,0,0:0:0:0:
319,250,187366,5,0,0:0:0:0:
307,262,187426,1,0,0:0:0:0:
293,273,187486,1,0,0:0:0:0:
276,278,187546,1,0,0:0:0:0:
259,283,187606,1,0,0:0:0:0:
239,286,187666,1,0,0:0:0:0:
221,284,187726,5,0,0:0:0:0:
209,158,187846,1,0,0:0:0:0:
366,360,187966,5,0,0:0:0:0:
211,280,188086,2,0,P|202:323|206:343,4,57.7500017623902
215,17,188446,5,0,0:0:0:0:
213,34,188526,1,0,0:0:0:0:
215,51,188606,1,0,0:0:0:0:
223,66,188686,1,0,0:0:0:0:
234,80,188766,1,0,0:0:0:0:
248,90,188846,1,0,0:0:0:0:
264,97,188926,1,0,0:0:0:0:
282,99,189006,1,0,0:0:0:0:
300,95,189086,1,0,0:0:0:0:
316,87,189166,1,0,0:0:0:0:
330,75,189246,1,0,0:0:0:0:
339,59,189326,1,0,0:0:0:0:
346,42,189406,1,0,0:0:0:0:
356,27,189486,1,0,0:0:0:0:
372,18,189566,1,0,0:0:0:0:
390,20,189646,6,0,L|383:66,3,47.2499985580445
333,164,189886,2,0,B|334:211|334:211|354:236|354:236|363:262,1,105
405,355,190126,5,0,0:0:0:0:
390,363,190186,1,0,0:0:0:0:
373,370,190246,1,0,0:0:0:0:
356,370,190306,1,0,0:0:0:0:
338,371,190366,1,0,0:0:0:0:
318,369,190426,1,0,0:0:0:0:
301,362,190486,1,0,0:0:0:0:
286,356,190546,1,0,0:0:0:0:
275,344,190606,5,0,0:0:0:0:
290,352,190666,1,0,0:0:0:0:
307,359,190726,1,0,0:0:0:0:
324,361,190786,1,0,0:0:0:0:
342,360,190846,1,0,0:0:0:0:
362,358,190906,1,0,0:0:0:0:
379,351,190966,1,0,0:0:0:0:
394,345,191026,1,0,0:0:0:0:
406,335,191086,6,0,P|439:277|440:226,1,105
363,261,191266,2,0,P|330:203|329:152,1,105
405,174,191446,2,0,L|414:110,1,52.5
491,111,191566,2,0,P|429:46|333:111,1,210
275,265,191926,1,0,0:0:0:0:
270,269,192046,6,0,L|258:213,1,52.5
154,265,192166,2,0,L|142:209,1,52.5
260,226,192286,6,0,L|248:170,1,52.5
144,222,192406,2,0,L|132:166,1,52.5
251,183,192526,6,0,L|239:127,1,52.5
135,179,192646,2,0,L|123:123,1,52.5
241,140,192766,6,0,L|229:84,1,52.5
125,136,192886,2,0,L|113:80,1,52.5
290,42,193006,5,0,0:0:0:0:
299,38,193066,1,0,0:0:0:0:
309,37,193126,1,0,0:0:0:0:
318,41,193186,1,0,0:0:0:0:
326,46,193246,6,0,B|385:60|385:60|430:46,1,105
496,179,193486,2,0,B|437:193|437:193|392:179,1,105
267,249,193726,5,0,0:0:0:0:
271,270,193786,1,0,0:0:0:0:
282,287,193846,1,0,0:0:0:0:
300,299,193906,1,0,0:0:0:0:
320,303,193966,6,0,P|357:333|370:374,1,84
198,329,194206,2,0,P|161:299|148:258,1,84
149,110,194446,5,0,0:0:0:0:
149,108,194566,1,0,0:0:0:0:
270,172,194686,5,0,0:0:0:0:
270,170,194806,1,0,0:0:0:0:
105,297,194926,6,0,B|126:255|126:255|126:184,1,110.249996635437,10|0,0:0|0:0,0:0:0:0:
54,32,195166,2,0,B|33:74|33:74|33:145,1,110.249996635437
33,238,195406,5,0,0:0:0:0:
33,238,195526,1,0,0:0:0:0:
109,301,195646,5,0,0:0:0:0:
109,301,195766,1,0,0:0:0:0:
173,358,195886,6,0,P|191:302|172:241,1,110.249996635437
132,193,196126,5,0,0:0:0:0:
132,193,196246,2,0,P|158:140|215:110,2,110.249996635437
333,226,196606,2,0,P|307:279|250:309,1,110.249996635437
109,301,196846,5,10,0:0:0:0:
214,189,196966,1,0,0:0:0:0:
269,304,197086,1,0,0:0:0:0:
118,299,197206,5,0,0:0:0:0:
214,193,197326,1,0,0:0:0:0:
278,302,197446,1,0,0:0:0:0:
409,181,197566,5,0,0:0:0:0:
342,244,197686,1,0,0:0:0:0:
479,123,197806,5,2,0:0:0:0:
474,98,197886,1,0,0:0:0:0:
461,76,197966,1,0,0:0:0:0:
443,59,198046,1,0,0:0:0:0:
420,49,198126,1,0,0:0:0:0:
395,47,198206,1,0,0:0:0:0:
370,53,198286,1,0,0:0:0:0:
348,67,198366,1,0,0:0:0:0:
331,86,198446,1,0,0:0:0:0:
321,109,198526,1,0,0:0:0:0:
321,134,198606,1,0,0:0:0:0:
327,158,198686,1,0,0:0:0:0:
350,168,198766,5,10,0:0:0:0:
339,146,198846,1,0,0:0:0:0:
322,127,198926,1,0,0:0:0:0:
300,116,199006,1,0,0:0:0:0:
274,113,199086,1,0,0:0:0:0:
249,117,199166,1,0,0:0:0:0:
229,132,199246,1,0,0:0:0:0:
218,154,199326,1,0,0:0:0:0:
201,173,199406,1,0,0:0:0:0:
177,181,199486,1,0,0:0:0:0:
151,178,199566,1,0,0:0:0:0:
126,182,199646,1,0,0:0:0:0:
102,189,199726,2,0,P|74:220|59:246,2,62.9999980773926
144,294,199966,5,0,0:0:0:0:
155,316,200046,1,0,0:0:0:0:
172,335,200126,1,0,0:0:0:0:
196,343,200206,1,0,0:0:0:0:
222,340,200286,1,0,0:0:0:0:
247,344,200366,1,0,0:0:0:0:
270,352,200446,1,0,0:0:0:0:
294,355,200526,2,0,P|337:356|370:351,1,62.9999980773926
445,318,200686,5,10,0:0:0:0:
434,295,200766,1,0,0:0:0:0:
430,270,200846,1,0,0:0:0:0:
432,245,200926,1,0,0:0:0:0:
440,221,201006,1,0,0:0:0:0:
453,200,201086,1,0,0:0:0:0:
472,183,201166,6,0,L|472:135,3,47.2499985580445,6|0|0|0,0:0|0:0|0:0|0:0,0:0:0:0:
311,148,201406,5,4,0:0:0:0:
378,35,201526,1,4,0:0:0:0:
307,152,201646,5,6,0:0:0:0:
307,141,201706,1,0,0:0:0:0:
307,130,201766,5,0,0:0:0:0:
283,94,201826,1,0,0:0:0:0:
243,79,201886,1,0,0:0:0:0:
206,99,201946,1,0,0:0:0:0:
190,138,202006,5,0,0:0:0:0:
190,117,202066,1,0,0:0:0:0:
190,96,202126,1,0,0:0:0:0:
190,75,202186,1,0,0:0:0:0:
190,54,202246,5,0,0:0:0:0:
177,25,202306,1,0,0:0:0:0:
147,14,202366,1,0,0:0:0:0:
116,19,202426,1,0,0:0:0:0:
94,41,202486,1,0,0:0:0:0:
82,70,202546,1,0,0:0:0:0:
86,101,202606,1,0,0:0:0:0:
107,124,202666,1,0,0:0:0:0:
136,134,202726,5,0,0:0:0:0:
167,135,202786,1,0,0:0:0:0:
194,120,202846,1,0,0:0:0:0:
222,107,202906,1,0,0:0:0:0:
253,104,202966,1,0,0:0:0:0:
283,110,203026,1,0,0:0:0:0:
309,127,203086,1,0,0:0:0:0:
329,150,203146,1,0,0:0:0:0:
343,177,203206,5,0,0:0:0:0:
313,173,203266,1,0,0:0:0:0:
291,150,203326,1,0,0:0:0:0:
288,120,203386,1,0,0:0:0:0:
298,90,203446,1,0,0:0:0:0:
323,71,203506,1,0,0:0:0:0:
354,69,203566,5,0,0:0:0:0:
231,213,203686,1,0,0:0:0:0:
399,103,203806,5,0,0:0:0:0:
185,178,203926,1,0,0:0:0:0:
426,165,204046,6,0,P|407:111|365:76,1,105
147,139,204286,2,0,P|166:193|208:228,1,105
349,279,204526,5,0,0:0:0:0:
353,283,204646,1,0,0:0:0:0:
158,279,204766,5,0,0:0:0:0:
426,165,204886,1,0,0:0:0:0:
150,287,205006,6,0,L|89:221,3,89.2500017023087
239,183,205486,5,0,0:0:0:0:
245,181,205546,1,0,0:0:0:0:
254,180,205606,1,0,0:0:0:0:
264,180,205666,1,0,0:0:0:0:
277,187,205726,1,0,0:0:0:0:
292,201,205786,1,0,0:0:0:0:
302,219,205846,1,0,0:0:0:0:
304,239,205906,1,0,0:0:0:0:
294,257,205966,5,0,0:0:0:0:
277,270,206026,1,0,0:0:0:0:
256,273,206086,1,8,0:0:0:0:
235,268,206146,1,0,0:0:0:0:
217,257,206206,1,0,0:0:0:0:
205,233,206266,1,0,0:0:0:0:
199,213,206326,1,10,0:0:0:0:
199,192,206386,1,0,0:0:0:0:
205,173,206446,5,0,0:0:0:0:
218,157,206506,1,0,0:0:0:0:
234,144,206566,1,10,0:0:0:0:
253,136,206626,1,0,0:0:0:0:
270,124,206686,5,0,0:0:0:0:
270,108,206746,1,0,0:0:0:0:
270,92,206806,2,0,L|270:34,1,52.5,10|0,0:0|0:0,0:0:0:0:
431,144,206926,5,0,0:0:0:0:
431,128,206986,1,0,0:0:0:0:
431,112,207046,2,0,L|431:54,1,52.5,10|0,0:0|0:0,0:0:0:0:
81,54,207166,5,0,0:0:0:0:
81,70,207226,1,0,0:0:0:0:
81,86,207286,2,0,L|81:144,1,52.5,10|0,0:0|0:0,0:0:0:0:
251,124,207406,5,10,0:0:0:0:
251,144,207466,1,0,0:0:0:0:
251,165,207526,1,10,0:0:0:0:
251,186,207586,1,0,0:0:0:0:
251,207,207646,1,10,0:0:0:0:
251,228,207706,1,0,0:0:0:0:
250,249,207766,2,0,L|250:305,1,52.5,10|0,0:0|0:0,0:0:0:0:
349,346,207886,5,10,0:0:0:0:
374,327,207946,1,0,0:0:0:0:
405,324,208006,1,10,0:0:0:0:
433,337,208066,1,0,0:0:0:0:
450,364,208126,5,10,0:0:0:0:
453,348,208186,1,0,0:0:0:0:
456,332,208246,2,0,L|463:275,1,52.5,10|0,0:0|0:0,0:0:0:0:
479,150,208366,5,10,0:0:0:0:
481,139,208426,1,0,0:0:0:0:
487,130,208486,5,10,0:0:0:0:
466,130,208546,1,0,0:0:0:0:
445,130,208606,1,10,0:0:0:0:
424,130,208666,1,0,0:0:0:0:
403,130,208726,6,0,P|370:123|317:72,1,105,10|0,0:0|0:0,0:0:0:0:
222,26,208966,5,0,0:0:0:0:
222,36,209026,1,0,0:0:0:0:
222,46,209086,1,0,0:0:0:0:
222,56,209146,1,0,0:0:0:0:
222,66,209206,1,0,0:0:0:0:
222,76,209266,1,0,0:0:0:0:
222,86,209326,6,0,B|222:123|222:123|212:159,1,52.5
173,204,209836,2,0,B|140:168|140:168|140:92,1,118.125004506111
140,17,211368,5,0,0:0:0:0:
54,151,212134,1,0,0:0:0:0:
54,153,212900,2,0,P|54:188|54:225,1,52.5
99,283,213411,5,0,0:0:0:0:
292,228,213666,1,0,0:0:0:0:
192,257,213921,6,0,L|192:317,1,52.5
199,250,214687,2,0,L|199:310,1,52.5
293,315,215453,6,0,B|325:333|325:333|365:333|386:302|386:302|406:333|441:335|441:335|463:326|463:326|475:317,1,196.875
442,251,216474,5,0,0:0:0:0:
329,251,216730,1,0,0:0:0:0:
398,175,216985,5,0,0:0:0:0:
285,175,217241,1,0,0:0:0:0:
348,87,217496,6,0,L|287:87,1,52.5
285,167,218006,2,0,P|215:121|306:7,1,262.5
288,87,221070,1,0,0:0:0:0:
281,86,221581,6,0,B|327:119|318:204|208:203|202:133|202:133|160:215,1,295.312511265278
127,284,223623,5,0,0:0:0:0:
241,284,223879,1,0,0:0:0:0:
123,291,224134,2,0,L|97:338,1,39.3750015020371
248,284,225155,1,0,0:0:0:0:
34,169,225666,5,0,0:0:0:0:
256,192,225921,12,0,227708,0:0:0:0:
34,169,228730,5,0,0:0:0:0:
34,176,229751,5,0,0:0:0:0:
77,241,230006,1,0,0:0:0:0:
145,202,230262,1,0,0:0:0:0:
94,142,230772,6,0,L|94:64,1,78.7500030040742
164,36,231538,1,0,0:0:0:0:
163,55,231794,2,0,P|198:92|240:39,1,118.125004506111
246,37,232815,2,0,L|247:170,1,118.125004506111
251,174,233836,6,0,B|251:235|251:235|299:230|348:250|340:371|253:358|229:336,1,285.600001743164
197,319,236389,2,0,P|173:284|168:250,1,71.400000435791
163,152,237411,5,0,0:0:0:0:
163,138,237921,2,0,B|170:111|170:111|180:85,2,43.0500006568909
256,192,238687,12,0,240857,0:0:0:0:
234,235,240985,5,0,0:0:0:0:
233,213,241240,1,0,0:0:0:0:
232,191,241496,1,0,0:0:0:0:
231,169,241751,1,0,0:0:0:0:
230,142,242006,6,0,B|191:119|191:119|249:117|306:100|315:32|315:32|269:38|255:55,1,275.62501051426
257,66,243028,2,0,B|296:101|332:104|372:87|372:87|399:133|399:133|437:133|466:160|466:160|518:160,1,275.62501051426
509,156,244049,6,0,B|461:156|461:156|488:186|479:265|428:257|428:257|402:221|348:226|317:249,1,275.62501051426
329,240,245070,2,0,B|290:260|286:320|286:320|218:277,1,164.0625
202,271,245836,2,0,L|202:333,1,52.5
32,357,246857,5,0,0:0:0:0:
32,350,246985,1,0,0:0:0:0:
32,343,247113,1,0,0:0:0:0:
32,336,249155,5,0,0:0:0:0:
135,316,249283,1,0,0:0:0:0:
56,246,249411,1,0,0:0:0:0:
159,226,249539,1,0,0:0:0:0:
80,158,249666,2,0,P|52:107|63:70,1,78.7500030040742
83,12,250177,6,0,B|193:12|193:12|174:48|174:48|237:48|237:48|303:48,1,275.62501051426
312,48,251198,2,0,B|312:98|312:98|297:132|297:132|330:142|334:189|305:210|305:210|269:199|253:231|281:262|301:249,1,275.62501051426
312,244,252219,6,0,B|345:266|385:258|419:237|419:237|394:215|398:171|413:146|413:146|397:121|397:121|402:69,1,275.62501051426
401,60,253240,2,0,L|400:262,1,196.875007510186
400,354,254006,5,0,0:0:0:0:
302,354,254262,1,0,0:0:0:0:
350,305,256304,6,0,B|303:284|303:284|255:288|255:288|225:274|225:274|185:285,1,175
163,295,257325,2,0,P|121:288|76:229,1,78.7500030040742
88,246,257836,2,0,L|88:330,1,78.7500030040742
75,339,258347,6,0,L|75:149,1,183.75
12,112,259368,2,0,P|77:175|135:112,1,183.75
132,78,260389,6,0,B|132:223|132:223|172:169|233:204|252:226,1,275.62501051426
286,300,261411,2,0,B|246:316|246:316|308:333|350:307|357:260|357:260|393:345,1,275.62501051426
349,242,262432,5,0,0:0:0:0:
481,229,263198,6,0,L|428:229,1,35.4375001351833
371,242,263453,2,0,B|365:201|391:170|413:162|413:162|418:87|418:87|371:78|350:52|340:9,1,275.62501051426
246,48,264474,5,0,0:0:0:0:
144,77,264602,1,0,0:0:0:0:
226,142,264730,5,0,0:0:0:0:
124,171,264857,1,0,0:0:0:0:
219,146,264985,6,0,L|229:213,1,39.3750015020371
126,183,265240,2,0,L|138:235,1,39.3750015020371
187,342,265496,5,0,0:0:0:0:
301,265,265623,1,0,0:0:0:0:
202,266,265751,1,0,0:0:0:0:
276,343,265879,1,0,0:0:0:0:
326,177,266006,5,0,0:0:0:0:
329,165,266134,1,0,0:0:0:0:
332,153,266262,1,0,0:0:0:0:
335,141,266389,1,0,0:0:0:0:
338,130,266517,6,0,P|351:88|475:88,1,183.75
413,129,267538,2,0,B|456:171|512:143|512:143|473:191|473:191|452:214|465:263|477:304|478:304|445:358,1,321.562503066659
395,293,268560,6,0,B|355:310|355:310|148:310|148:310|169:283|169:283|206:283,1,321.562503066659
244,283,269581,2,0,B|227:336|157:282|63:335|63:335|85:293|94:248|54:206,1,321.562503066659
32,187,270602,6,0,B|4:137|10:91|54:58|85:51|85:51|106:69|106:69|153:93|212:69|218:35|211:14,1,321.562503066659
145,2,271623,2,0,B|152:137|152:137|154:188|154:188|219:158|269:202|269:242|260:281|246:289,1,367.500003504753
145,2,273666,6,0,L|152:111,1,105,12|0,0:0|0:0,0:0:0:0:
162,258,273921,1,10,0:0:0:0:
162,263,273984,1,10,0:0:0:0:
162,268,274048,1,10,0:0:0:0:
162,273,274112,1,10,0:0:0:0:
147,312,274176,5,14,0:0:0:0:
303,97,274431,1,14,0:0:0:0:
304,93,274687,5,6,0:0:0:0:
356,184,274942,1,6,0:0:0:0:
408,93,275197,5,6,0:0:0:0:
356,186,275325,1,6,0:0:0:0:
430,110,275452,5,6,0:0:0:0:
356,188,275580,1,6,0:0:0:0:
447,132,275708,2,4,L|447:248,1,105,6|6,0:0|0:0,0:0:0:0:
360,309,276218,5,6,0:0:0:0:
267,257,276346,1,6,0:0:0:0:
343,331,276473,5,6,0:0:0:0:
265,257,276601,1,6,0:0:0:0:
321,348,276729,6,4,B|164:348|164:348|207:304|183:232|91:222|67:293,1,367.5,6|4,0:0|0:0,0:0:0:0:
66,314,277750,2,4,P|146:297|30:222,1,315,14|4,0:0|0:0,0:0:0:0:
33,235,278772,5,6,0:0:0:0:
221,22,279027,1,6,0:0:0:0:
85,180,279282,5,6,0:0:0:0:
137,87,279410,1,6,0:0:0:0:
63,163,279537,5,6,0:0:0:0:
137,85,279665,1,6,0:0:0:0:
46,141,279793,2,6,L|46:25,1,105
201,12,280304,5,6,0:0:0:0:
293,124,280431,1,6,0:0:0:0:
376,21,280559,5,6,0:0:0:0:
284,133,280686,1,6,0:0:0:0:
375,28,280814,5,6,0:0:0:0:
370,56,280877,1,0,0:0:0:0:
378,84,280941,1,0,0:0:0:0:
395,106,281005,1,0,0:0:0:0:
419,123,281069,1,0,0:0:0:0:
437,145,281132,1,0,0:0:0:0:
445,172,281196,1,0,0:0:0:0:
441,200,281260,1,0,0:0:0:0:
430,227,281325,6,0,L|397:279,3,45.9375004380941,10|0|0|0,0:0|0:0|0:0|0:0,0:0:0:0:
310,284,281579,5,0,0:0:0:0:
314,293,281643,1,0,0:0:0:0:
318,301,281707,1,0,0:0:0:0:
322,309,281771,1,0,0:0:0:0:
326,317,281835,6,0,P|337:339|337:359,3,45.9375004380941,12|0|0|0,0:0|0:0|0:0|0:0,0:0:0:0:
207,293,282091,6,0,P|196:271|196:251,1,45.9375004380941,8|0,0:0|0:0,0:0:0:0:
203,289,282219,2,0,P|192:267|192:247,1,45.9375004380941,8|0,0:0|0:0,0:0:0:0:
78,182,282346,6,0,P|94:163|99:144,1,45.9375004380941,8|0,0:0|0:0,0:0:0:0:
82,179,282474,2,0,P|98:160|103:141,1,45.9375004380941,8|0,0:0|0:0,0:0:0:0:
146,17,282601,5,6,0:0:0:0:
154,15,282857,5,6,0:0:0:0:
225,11,282985,1,0,0:0:0:0:
272,63,283112,1,2,0:0:0:0:
301,126,283240,1,0,0:0:0:0:
284,197,283368,5,2,0:0:0:0:
254,128,283495,1,2,0:0:0:0:
280,56,283623,1,2,0:0:0:0:
353,30,283751,1,2,0:0:0:0:
432,33,283878,5,10,0:0:0:0:
433,35,283942,1,0,0:0:0:0:
433,37,284006,1,0,0:0:0:0:
433,39,284070,1,0,0:0:0:0:
433,41,284134,2,0,B|462:70|462:70|469:94,1,52.5,2|0,0:0|0:0,0:0:0:0:
474,173,284389,5,2,0:0:0:0:
431,317,284516,1,2,0:0:0:0:
478,169,284644,1,2,0:0:0:0:
427,321,284772,5,2,0:0:0:0:
425,323,284836,1,0,0:0:0:0:
423,324,284899,2,0,B|396:347|396:347|363:347,1,52.5,6|0,0:0|0:0,0:0:0:0:
327,296,285155,2,0,B|354:273|354:273|387:273,1,52.5,2|0,0:0|0:0,0:0:0:0:
309,368,285410,5,2,0:0:0:0:
247,318,285538,1,2,0:0:0:0:
171,295,285665,1,2,0:0:0:0:
106,248,285793,1,2,0:0:0:0:
98,169,285921,1,2,0:0:0:0:
143,105,286048,1,2,0:0:0:0:
220,88,286176,5,10,0:0:0:0:
257,98,286240,1,0,0:0:0:0:
282,128,286304,1,0,0:0:0:0:
285,167,286368,1,0,0:0:0:0:
269,203,286432,5,10,0:0:0:0:
239,228,286495,1,0,0:0:0:0:
217,260,286559,1,0,0:0:0:0:
211,299,286623,1,0,0:0:0:0:
228,334,286687,5,10,0:0:0:0:
261,354,286751,1,0,0:0:0:0:
300,352,286815,1,0,0:0:0:0:
332,330,286878,1,0,0:0:0:0:
347,293,286942,6,4,B|363:239|352:183|352:183|375:131|375:131|339:79|339:79|338:77,1,210,14|4,0:0|0:0,0:0:0:0:
276,26,287708,5,6,0:0:0:0:
476,120,287835,1,6,0:0:0:0:
290,140,287963,6,4,B|203:148|155:110|155:110|117:148|39:140,1,262.5,14|4,0:0|0:0,0:0:0:0:
157,204,288729,1,12,0:0:0:0:
154,206,288984,5,12,0:0:0:0:
157,221,289047,1,0,0:0:0:0:
158,237,289111,1,0,0:0:0:0:
155,252,289175,1,0,0:0:0:0:
150,267,289239,1,0,0:0:0:0:
142,281,289303,1,0,0:0:0:0:
132,293,289366,1,0,0:0:0:0:
120,303,289430,1,0,0:0:0:0:
106,311,289495,6,0,P|79:318|59:317,1,39.3750015020371,10|0,0:0|0:0,0:0:0:0:
27,247,289623,2,0,P|54:240|74:241,1,39.3750015020371,10|0,0:0|0:0,0:0:0:0:
154,206,289750,6,0,P|160:228|160:254,3,39.3750015020371,10|0|0|0,0:0|0:0|0:0|0:0,0:0:0:0:
67,318,290006,5,12,0:0:0:0:
82,318,290070,1,0,0:0:0:0:
98,318,290134,1,0,0:0:0:0:
113,313,290198,1,0,0:0:0:0:
123,308,290261,6,0,L|139:346,1,39.3750015020371,8|0,0:0|0:0,0:0:0:0:
261,360,290389,2,0,L|255:321,1,39.3750015020371,8|0,0:0|0:0,0:0:0:0:
235,222,290516,6,0,L|227:182,3,39.3750015020371,8|0|0|0,0:0|0:0|0:0|0:0,0:0:0:0:
78,122,290772,2,0,L|111:94,3,39.3750015020371,8|0|0|0,0:0|0:0|0:0|0:0,0:0:0:0:
213,19,291027,5,0,0:0:0:0:
248,56,291090,1,0,0:0:0:0:
299,66,291153,1,0,0:0:0:0:
348,49,291217,1,0,0:0:0:0:
387,13,291282,5,0,0:0:0:0:
437,1,291345,1,0,0:0:0:0:
480,31,291409,1,0,0:0:0:0:
494,81,291473,1,0,0:0:0:0:
473,129,291537,2,0,P|448:152|427:163,3,52.5
307,216,291792,5,8,0:0:0:0:
294,166,291855,1,0,0:0:0:0:
257,130,291919,1,8,0:0:0:0:
202,132,291983,1,0,0:0:0:0:
160,164,292047,1,8,0:0:0:0:
146,215,292111,1,0,0:0:0:0:
163,263,292174,1,8,0:0:0:0:
207,294,292238,1,0,0:0:0:0:
260,298,292303,1,10,0:0:0:0:
310,290,292367,1,0,0:0:0:0:
362,283,292431,1,8,0:0:0:0:
411,305,292495,1,0,0:0:0:0:
441,348,292558,6,0,L|462:295,3,52.5,8|0|8|0,0:0|0:0|0:0|0:0,0:0:0:0:
405,173,292814,2,0,L|395:235,3,52.5,8|0|8|0,0:0|0:0|0:0|0:0,0:0:0:0:
436,350,293069,5,8,0:0:0:0:
404,309,293132,1,0,0:0:0:0:
354,293,293196,1,8,0:0:0:0:
305,309,293260,1,0,0:0:0:0:
274,352,293324,1,8,0:0:0:0:
228,374,293387,1,0,0:0:0:0:
176,368,293451,1,8,0:0:0:0:
136,335,293515,1,0,0:0:0:0:
123,282,293580,6,0,P|122:251|140:226,1,52.5,10|0,0:0|0:0,0:0:0:0:
30,318,293707,2,0,P|30:348|12:373,1,52.5,10|0,0:0|0:0,0:0:0:0:
123,282,293835,6,0,P|125:251|145:228,1,52.5,10|0,0:0|0:0,0:0:0:0:
30,318,293963,2,0,P|27:348|7:371,1,52.5,10|0,0:0|0:0,0:0:0:0:
123,282,294090,6,0,P|127:252|149:230,1,52.5,10|0,0:0|0:0,0:0:0:0:
30,318,294218,2,0,P|25:347|3:369,1,52.5,10|0,0:0|0:0,0:0:0:0:
123,282,294346,6,0,P|130:252|154:232,1,52.5,10|0,0:0|0:0,0:0:0:0:
30,318,294473,2,0,P|22:347|-2:367,1,52.5,10|0,0:0|0:0,0:0:0:0:
123,282,294601,6,0,P|132:253|158:235,1,52.5,10|0,0:0|0:0,0:0:0:0:
30,318,294729,2,0,P|20:346|-6:364,1,52.5,10|0,0:0|0:0,0:0:0:0:
123,282,294856,6,0,P|135:253|162:239,1,52.5,10|0,0:0|0:0,0:0:0:0:
30,318,294984,2,0,P|17:346|-10:360,1,52.5,10|0,0:0|0:0,0:0:0:0:
40,227,295112,5,8,0:0:0:0:
27,197,295174,1,0,0:0:0:0:
28,165,295239,1,10,0:0:0:0:
45,140,295302,1,0,0:0:0:0:
66,116,295367,1,8,0:0:0:0:
88,93,295430,1,0,0:0:0:0:
95,63,295495,1,10,0:0:0:0:
90,32,295557,1,0,0:0:0:0:
62,17,295621,5,8,0:0:0:0:
61,20,295685,1,0,0:0:0:0:
60,24,295750,2,0,L|44:76,1,52.5,10|0,0:0|0:0,0:0:0:0:
195,121,295877,5,8,0:0:0:0:
191,122,295941,1,0,0:0:0:0:
187,123,296005,2,0,L|201:174,1,52.5,10|0,0:0|0:0,0:0:0:0:
304,50,296133,5,10,0:0:0:0:
332,41,296197,1,0,0:0:0:0:
364,46,296261,1,10,0:0:0:0:
391,63,296325,1,0,0:0:0:0:
405,92,296388,1,10,0:0:0:0:
405,124,296452,1,0,0:0:0:0:
390,150,296516,1,10,0:0:0:0:
366,169,296580,1,0,0:0:0:0:
339,186,296644,1,10,0:0:0:0:
321,212,296708,1,0,0:0:0:0:
310,239,296771,1,10,0:0:0:0:
316,271,296835,1,0,0:0:0:0:
342,292,296899,6,0,P|363:301|394:304,3,52.5,8|0|10|0,0:0|0:0|0:0|0:0,0:0:0:0:
254,382,297154,5,8,0:0:0:0:
230,340,297218,1,0,0:0:0:0:
188,317,297282,1,10,0:0:0:0:
141,327,297346,1,0,0:0:0:0:
102,353,297409,1,10,0:0:0:0:
54,358,297473,1,0,0:0:0:0:
12,334,297537,1,10,0:0:0:0:
2,287,297601,1,0,0:0:0:0:
21,244,297665,5,8,0:0:0:0:
2,201,297729,1,0,0:0:0:0:
4,154,297792,1,10,0:0:0:0:
40,123,297856,1,0,0:0:0:0:
87,122,297920,1,10,0:0:0:0:
124,151,297984,1,0,0:0:0:0:
169,165,298048,1,10,0:0:0:0:
214,153,298112,1,0,0:0:0:0:
243,117,298175,5,8,0:0:0:0:
245,69,298239,1,0,0:0:0:0:
214,33,298303,1,10,0:0:0:0:
166,28,298367,1,0,0:0:0:0:
127,56,298431,1,10,0:0:0:0:
119,102,298495,1,0,0:0:0:0:
137,144,298558,1,10,0:0:0:0:
159,185,298622,1,0,0:0:0:0:
168,231,298686,6,0,P|169:268|161:296,1,52.5,10|0,0:0|0:0,0:0:0:0:
31,336,298814,2,0,P|19:302|17:271,1,52.5,10|0,0:0|0:0,0:0:0:0:
166,240,298941,6,0,P|162:282|151:310,1,52.5,10|0,0:0|0:0,0:0:0:0:
19,332,299069,2,0,P|10:300|10:267,1,52.5,10|0,0:0|0:0,0:0:0:0:
168,231,299197,6,0,L|148:181,3,52.5,8|0|8|0,0:0|0:0|0:0|0:0,0:0:0:0:
308,285,299452,2,0,L|340:340,3,52.5,8|0|8|0,0:0|0:0|0:0|0:0,0:0:0:0:
460,152,299708,5,8,0:0:0:0:
414,148,299771,1,0,0:0:0:0:
377,119,299835,1,10,0:0:0:0:
353,78,299899,1,0,0:0:0:0:
353,31,299963,5,8,0:0:0:0:
373,55,300026,1,0,0:0:0:0:
380,86,300090,1,10,0:0:0:0:
370,116,300154,1,0,0:0:0:0:
356,143,300218,1,10,0:0:0:0:
341,171,300282,1,0,0:0:0:0:
342,202,300345,1,10,0:0:0:0:
357,230,300409,1,0,0:0:0:0:
382,249,300473,1,10,0:0:0:0:
414,258,300537,1,0,0:0:0:0:
442,247,300601,6,0,P|465:221|474:194,1,52.5,8|0,0:0|0:0,0:0:0:0:
380,86,300728,2,0,P|358:113|349:140,1,52.5,8|0,0:0|0:0,0:0:0:0:
284,334,300856,6,0,P|306:303|314:274,1,52.5,8|0,0:0|0:0,0:0:0:0:
227,155,300984,2,0,L|249:108,3,52.5,8|0|10|0,0:0|0:0|0:0|0:0,0:0:0:0:
116,238,301239,5,8,0:0:0:0:
112,253,301302,1,0,0:0:0:0:
108,268,301366,1,10,0:0:0:0:
104,283,301430,1,0,0:0:0:0:
100,298,301495,1,10,0:0:0:0:
96,313,301558,1,0,0:0:0:0:
92,328,301621,1,10,0:0:0:0:
88,343,301686,1,0,0:0:0:0:
84,358,301750,6,0,P|56:366|27:356,1,52.5,10|0,0:0|0:0,0:0:0:0:
204,257,301877,2,0,P|233:250|262:260,1,52.5,10|0,0:0|0:0,0:0:0:0:
84,358,302005,6,0,P|55:364|27:351,1,52.5,10|0,0:0|0:0,0:0:0:0:
204,257,302133,2,0,P|234:252|262:265,1,52.5,10|0,0:0|0:0,0:0:0:0:
84,358,302260,6,0,P|55:361|28:346,1,52.5,10|0,0:0|0:0,0:0:0:0:
204,257,302388,2,0,P|234:255|261:270,1,52.5,10|0,0:0|0:0,0:0:0:0:
84,358,302516,6,0,P|54:359|29:341,1,52.5,10|0,0:0|0:0,0:0:0:0:
204,257,302643,2,0,P|235:257|260:275,1,52.5,10|0,0:0|0:0,0:0:0:0:
84,358,302771,6,0,P|54:356|31:336,1,52.5,10|0,0:0|0:0,0:0:0:0:
204,257,302899,2,0,P|235:260|258:280,1,52.5,10|0,0:0|0:0,0:0:0:0:
84,358,303026,6,0,P|54:354|33:331,1,52.5,10|0,0:0|0:0,0:0:0:0:
204,257,303154,2,0,P|235:262|256:285,1,52.5,10|0,0:0|0:0,0:0:0:0:
216,363,303282,5,8,0:0:0:0:
245,375,303345,1,0,0:0:0:0:
277,374,303409,1,10,0:0:0:0:
302,357,303473,1,0,0:0:0:0:
325,336,303537,1,8,0:0:0:0:
349,314,303601,1,0,0:0:0:0:
379,307,303665,1,10,0:0:0:0:
410,312,303728,1,0,0:0:0:0:
426,340,303792,5,8,0:0:0:0:
422,341,303856,1,0,0:0:0:0:
418,342,303920,2,0,L|364:358,1,52.5,10|0,0:0|0:0,0:0:0:0:
349,151,304047,5,8,0:0:0:0:
345,151,304111,1,0,0:0:0:0:
341,151,304175,2,0,L|341:203,1,52.5,10|0,0:0|0:0,0:0:0:0:
490,28,304303,5,8,0:0:0:0:
475,54,304366,1,0,0:0:0:0:
451,75,304430,1,0,0:0:0:0:
421,85,304494,1,0,0:0:0:0:
390,83,304558,1,10,0:0:0:0:
362,70,304622,1,0,0:0:0:0:
338,48,304686,1,0,0:0:0:0:
314,28,304749,1,0,0:0:0:0:
283,22,304813,1,10,0:0:0:0:
253,30,304877,1,0,0:0:0:0:
229,50,304941,1,0,0:0:0:0:
217,79,305005,1,0,0:0:0:0:
223,109,305069,6,0,B|237:132|237:132|263:144,3,52.5,8|0|0|0,0:0|0:0|0:0|0:0,0:0:0:0:
247,268,305324,5,12,0:0:0:0:
225,245,305388,1,0,0:0:0:0:
196,234,305452,1,0,0:0:0:0:
165,237,305516,1,0,0:0:0:0:
138,252,305580,1,0,0:0:0:0:
121,278,305644,1,0,0:0:0:0:
117,308,305707,5,12,0:0:0:0:
147,278,305770,1,0,0:0:0:0:
139,236,305834,1,0,0:0:0:0:
101,219,305898,1,0,0:0:0:0:
60,228,305962,1,0,0:0:0:0:
34,260,306026,1,0,0:0:0:0:
30,301,306090,5,12,0:0:0:0:
53,336,306154,1,0,0:0:0:0:
93,349,306218,1,0,0:0:0:0:
134,338,306282,1,0,0:0:0:0:
161,305,306346,1,2,0:0:0:0:
156,258,306409,1,0,0:0:0:0:
122,225,306473,1,0,0:0:0:0:
76,216,306537,1,0,0:0:0:0:
37,190,306601,1,12,0:0:0:0:
13,143,306665,1,0,0:0:0:0:
25,92,306728,1,0,0:0:0:0:
67,59,306792,1,0,0:0:0:0:
120,59,306856,6,0,P|126:91|124:121,1,52.5,10|0,0:0|0:0,0:0:0:0:
24,271,306984,2,0,P|58:247|76:227,1,52.5,10|0,0:0|0:0,0:0:0:0:
125,48,307112,6,0,P|132:83|130:116,1,52.5,10|0,0:0|0:0,0:0:0:0:
20,281,307240,2,0,P|57:255|77:233,1,52.5,10|0,0:0|0:0,0:0:0:0:
191,176,307367,6,0,P|254:192|319:185,1,105,12|0,0:0|0:0,0:0:0:0:
382,164,307622,1,10,0:0:0:0:
248,60,307749,1,0,0:0:0:0:
168,290,307877,1,10,0:0:0:0:
244,190,308005,1,0,0:0:0:0:
131,99,308132,6,0,P|71:99|6:124,1,105,10|0,0:0|0:0,0:0:0:0:
21,269,308387,1,10,0:0:0:0:
156,191,308514,1,0,0:0:0:0:
178,348,308643,1,10,0:0:0:0:
145,194,308770,1,0,0:0:0:0:
188,345,308898,2,0,P|243:353|301:335,1,105,10|0,0:0|0:0,0:0:0:0:
415,242,309154,5,0,0:0:0:0:
476,42,309281,1,0,0:0:0:0:
269,80,309409,2,0,B|278:106|278:106|243:85|199:88,1,105,10|0,0:0|0:0,0:0:0:0:
33,188,309664,2,0,B|66:187|66:187|108:229|175:224,1,131.25,10|0,0:0|0:0,0:0:0:0:
313,223,309920,5,0,0:0:0:0:
475,354,310047,1,0,0:0:0:0:
264,354,310175,2,0,B|206:339|206:339|160:354,1,105,10|0,0:0|0:0,0:0:0:0:
402,219,310430,2,0,B|460:204|460:204|506:219,1,105,10|0,0:0|0:0,0:0:0:0:
301,267,310686,5,0,0:0:0:0:
96,311,310813,1,0,0:0:0:0:
213,117,310941,2,0,P|163:82|104:93,1,105,10|0,0:0|0:0,0:0:0:0:
84,327,311196,2,0,P|133:356|190:351,1,105,10|0,0:0|0:0,0:0:0:0:
325,275,311452,6,0,B|335:235|335:235|324:206|324:206|331:170,1,105,10|0,0:0|0:0,0:0:0:0:
483,147,311707,2,0,B|473:107|473:107|484:78|484:78|477:42,1,105,10|0,0:0|0:0,0:0:0:0:
373,45,311962,5,12,0:0:0:0:
346,62,312026,1,0,0:0:0:0:
315,63,312090,1,0,0:0:0:0:
287,50,312154,1,0,0:0:0:0:
259,36,312218,1,12,0:0:0:0:
228,33,312282,1,0,0:0:0:0:
198,38,312345,1,0,0:0:0:0:
174,59,312409,1,0,0:0:0:0:
170,91,312473,5,12,0:0:0:0:
170,87,312537,1,0,0:0:0:0:
170,83,312601,2,0,L|118:83,1,52.5
228,193,312728,5,12,0:0:0:0:
228,189,312792,1,0,0:0:0:0:
228,185,312856,2,0,L|280:185,1,52.5
152,269,312984,5,12,0:0:0:0:
124,230,313047,1,0,0:0:0:0:
97,191,313111,1,0,0:0:0:0:
70,153,313175,1,0,0:0:0:0:
42,113,313239,6,0,L|32:171,1,52.5,12|0,0:0|0:0,0:0:0:0:
116,271,313367,2,0,L|126:213,1,52.5,12|0,0:0|0:0,0:0:0:0:
8,305,313494,6,0,L|-4:360,3,47.2499985580445,12|0|0|0,0:0|0:0|0:0|0:0,0:0:0:0:
73,347,313749,5,12,0:0:0:0:
99,355,313812,1,0,0:0:0:0:
118,376,313876,5,12,0:0:0:0:
150,348,313940,1,0,0:0:0:0:
193,340,314005,1,2,0:0:0:0:
233,346,314069,1,0,0:0:0:0:
267,373,314132,6,0,L|296:327,3,47.2499985580445,12|0|0|0,0:0|0:0|0:0|0:0,0:0:0:0:
473,236,314388,5,12,0:0:0:0:
468,236,314452,1,0,0:0:0:0:
463,236,314515,5,12,0:0:0:0:
457,208,314579,1,0,0:0:0:0:
442,177,314643,1,0,0:0:0:0:
411,153,314707,1,0,0:0:0:0:
368,146,314771,1,0,0:0:0:0:
325,125,314835,1,0,0:0:0:0:
306,77,314898,1,0,0:0:0:0:
328,24,314962,1,0,0:0:0:0:
387,9,315026,5,12,0:0:0:0:
387,37,315090,1,0,0:0:0:0:
377,63,315154,1,0,0:0:0:0:
357,84,315218,1,0,0:0:0:0:
331,96,315281,1,0,0:0:0:0:
302,94,315345,1,0,0:0:0:0:
276,82,315409,1,0,0:0:0:0:
259,59,315473,1,0,0:0:0:0:
250,32,315537,2,0,L|183:32,3,47.2499985580445,12|0|0|0,0:0|0:0|0:0|0:0,0:0:0:0:
91,36,315792,5,12,0:0:0:0:
67,51,315855,1,0,0:0:0:0:
51,74,315919,1,0,0:0:0:0:
43,101,315983,1,0,0:0:0:0:
46,129,316047,1,0,0:0:0:0:
50,157,316111,1,0,0:0:0:0:
46,185,316175,1,0,0:0:0:0:
34,210,316239,1,0,0:0:0:0:
15,231,316303,2,0,L|54:266,3,47.2499985580445,12|0|0|0,0:0|0:0|0:0|0:0,0:0:0:0:
130,328,316558,5,12,0:0:0:0:
133,331,316621,1,0,0:0:0:0:
137,334,316685,1,0,0:0:0:0:
140,337,316749,1,0,0:0:0:0:
144,340,316813,1,0,0:0:0:0:
148,343,316877,1,0,0:0:0:0:
151,346,316940,1,0,0:0:0:0:
155,349,317004,1,0,0:0:0:0:
159,351,317069,2,0,L|154:303,3,47.2499985580445,12|0|0|0,0:0|0:0|0:0|0:0,0:0:0:0:
280,357,317324,5,12,0:0:0:0:
280,353,317388,1,0,0:0:0:0:
282,349,317452,1,0,0:0:0:0:
284,345,317515,1,0,0:0:0:0:
289,341,317579,5,12,0:0:0:0:
298,335,317643,1,0,0:0:0:0:
318,330,317707,1,0,0:0:0:0:
339,331,317771,1,0,0:0:0:0:
358,338,317835,5,12,0:0:0:0:
388,343,317898,1,0,0:0:0:0:
418,333,317962,1,0,0:0:0:0:
437,308,318026,1,0,0:0:0:0:
444,274,318090,5,12,0:0:0:0:
430,241,318154,1,0,0:0:0:0:
400,222,318218,1,0,0:0:0:0:
366,216,318281,1,0,0:0:0:0:
334,232,318345,1,0,0:0:0:0:
311,258,318409,1,0,0:0:0:0:
273,274,318473,5,12,0:0:0:0:
232,273,318537,1,0,0:0:0:0:
194,258,318601,1,0,0:0:0:0:
172,224,318664,1,0,0:0:0:0:
175,183,318728,1,0,0:0:0:0:
199,150,318792,1,0,0:0:0:0:
241,136,318856,5,12,0:0:0:0:
239,192,318920,1,0,0:0:0:0:
189,220,318984,1,0,0:0:0:0:
133,211,319047,1,0,0:0:0:0:
107,160,319111,1,0,0:0:0:0:
120,104,319175,1,0,0:0:0:0:
172,81,319239,1,0,0:0:0:0:
228,89,319303,1,0,0:0:0:0:
264,132,319367,1,0,0:0:0:0:
316,151,319430,1,0,0:0:0:0:
370,134,319494,1,0,0:0:0:0:
397,84,319558,1,0,0:0:0:0:
390,27,319622,6,8,B|357:57|357:57|357:169,1,157.500006008148,12|8,0:0|0:0,0:0:0:0:
381,275,319941,1,10,0:0:0:0:
382,282,320005,1,10,0:0:0:0:
382,289,320069,1,10,0:0:0:0:
383,296,320132,5,12,0:0:0:0:
390,25,320388,1,12,0:0:0:0:
357,171,320643,5,12,0:0:0:0:
297,330,320771,1,12,0:0:0:0:
357,173,321026,5,12,0:0:0:0:
297,332,321154,2,8,B|257:339|257:339|176:238,1,157.500006008148,12|8,0:0|0:0,0:0:0:0:
149,182,321473,1,10,0:0:0:0:
144,176,321537,1,10,0:0:0:0:
139,170,321601,1,10,0:0:0:0:
134,164,321664,5,12,0:0:0:0:
301,334,321920,1,12,0:0:0:0:
305,340,322175,5,12,0:0:0:0:
92,110,322303,1,12,0:0:0:0:
232,147,322430,6,8,P|234:88|183:51,1,118.125004506111,12|8,0:0|0:0,0:0:0:0:
167,52,322686,2,10,P|210:92|200:154,1,118.125004506111,12|10,0:0|0:0,0:0:0:0:
181,149,322941,1,10,0:0:0:0:
176,143,323005,1,10,0:0:0:0:
171,137,323069,1,10,0:0:0:0:
166,131,323132,1,10,0:0:0:0:
161,124,323196,5,12,0:0:0:0:
353,39,323452,1,12,0:0:0:0:
181,101,323707,5,12,0:0:0:0:
389,69,323835,1,12,0:0:0:0:
207,85,324090,5,12,0:0:0:0:
416,107,324218,1,12,0:0:0:0:
411,115,324281,1,2,0:0:0:0:
407,123,324345,1,2,0:0:0:0:
404,131,324409,1,2,0:0:0:0:
401,140,324473,1,2,0:0:0:0:
399,148,324537,1,2,0:0:0:0:
398,157,324600,1,2,0:0:0:0:
398,166,324664,1,2,0:0:0:0:
398,174,324728,1,10,0:0:0:0:
399,182,324792,1,0,0:0:0:0:
401,190,324856,1,0,0:0:0:0:
404,198,324920,1,0,0:0:0:0:
410,204,324984,2,0,B|392:220|392:220|372:228,3,44.6250008511543,6|0|0|0,0:0|0:0|0:0|0:0,0:0:0:0:
278,251,325239,5,6,0:0:0:0:
223,174,325494,1,6,0:0:0:0:
223,172,325749,6,0,L|178:133,3,52.5,12|0|0|0,0:0|0:0|0:0|0:0,0:0:0:0:
389,69,326005,2,0,L|423:28,3,52.5,12|0|0|0,0:0|0:0|0:0|0:0,0:0:0:0:
316,179,326260,2,0,L|306:126,3,52.5,12|0|0|0,0:0|0:0|0:0|0:0,0:0:0:0:
145,254,326515,5,12,0:0:0:0:
131,259,326579,1,0,0:0:0:0:
116,260,326643,1,0,0:0:0:0:
100,259,326707,1,0,0:0:0:0:
85,254,326771,1,0,0:0:0:0:
71,248,326835,1,0,0:0:0:0:
59,238,326898,1,0,0:0:0:0:
49,226,326962,1,0,0:0:0:0:
43,211,327026,1,0,0:0:0:0:
41,196,327090,1,0,0:0:0:0:
41,180,327154,1,0,0:0:0:0:
46,165,327218,1,0,0:0:0:0:
57,154,327281,6,0,L|86:105,3,52.5,12|0|0|0,0:0|0:0|0:0|0:0,0:0:0:0:
183,139,327537,2,0,L|214:91,3,52.5,12|0|0|0,0:0|0:0|0:0|0:0,0:0:0:0:
306,127,327792,2,0,L|344:68,3,52.5,12|0|0|0,0:0|0:0|0:0|0:0,0:0:0:0:
385,19,328047,5,12,0:0:0:0:
398,23,328111,1,0,0:0:0:0:
411,29,328175,1,0,0:0:0:0:
423,37,328239,1,0,0:0:0:0:
434,47,328303,1,0,0:0:0:0:
443,58,328367,1,0,0:0:0:0:
453,69,328430,1,0,0:0:0:0:
461,81,328494,1,0,0:0:0:0:
465,95,328558,1,0,0:0:0:0:
469,109,328622,1,0,0:0:0:0:
471,124,328686,1,0,0:0:0:0:
472,138,328749,1,0,0:0:0:0:
466,150,328813,5,12,0:0:0:0:
450,138,328876,1,0,0:0:0:0:
430,133,328940,1,0,0:0:0:0:
411,136,329004,1,0,0:0:0:0:
394,146,329068,1,0,0:0:0:0:
381,163,329132,1,0,0:0:0:0:
376,181,329195,1,0,0:0:0:0:
379,201,329259,1,0,0:0:0:0:
389,218,329323,1,0,0:0:0:0:
404,231,329387,1,0,0:0:0:0:
423,237,329451,1,0,0:0:0:0:
442,235,329515,1,0,0:0:0:0:
462,228,329579,5,12,0:0:0:0:
477,254,329642,1,0,0:0:0:0:
482,285,329706,1,0,0:0:0:0:
473,314,329770,1,0,0:0:0:0:
455,340,329834,1,0,0:0:0:0:
428,357,329898,1,0,0:0:0:0:
398,365,329961,1,0,0:0:0:0:
367,363,330025,1,0,0:0:0:0:
337,349,330089,1,0,0:0:0:0:
315,325,330153,1,0,0:0:0:0:
304,294,330217,1,0,0:0:0:0:
306,262,330281,1,0,0:0:0:0:
325,237,330345,5,12,0:0:0:0:
314,247,330409,1,0,0:0:0:0:
301,255,330473,1,0,0:0:0:0:
288,262,330537,1,0,0:0:0:0:
274,267,330601,1,0,0:0:0:0:
260,271,330664,1,0,0:0:0:0:
245,272,330728,1,0,0:0:0:0:
230,270,330792,1,0,0:0:0:0:
215,266,330856,1,0,0:0:0:0:
201,260,330920,1,0,0:0:0:0:
187,251,330984,1,0,0:0:0:0:
175,239,331047,1,0,0:0:0:0:
164,222,331111,5,12,0:0:0:0:
185,219,331175,1,0,0:0:0:0:
205,224,331239,1,0,0:0:0:0:
221,237,331303,1,0,0:0:0:0:
233,253,331367,1,0,0:0:0:0:
238,272,331430,1,0,0:0:0:0:
237,292,331494,1,0,0:0:0:0:
233,311,331558,1,0,0:0:0:0:
223,329,331622,5,12,0:0:0:0:
218,308,331686,1,0,0:0:0:0:
212,288,331749,1,0,0:0:0:0:
204,267,331813,1,0,0:0:0:0:
197,247,331877,6,0,P|181:224|150:200,3,52.5,12|0|0|0,0:0|0:0|0:0|0:0,0:0:0:0:
249,138,332132,2,0,P|237:113|231:76,3,52.5,12|0|0|0,0:0|0:0|0:0|0:0,0:0:0:0:
325,69,332388,2,0,P|343:48|358:14,3,52.5,12|0|0|0,0:0|0:0|0:0|0:0,0:0:0:0:
428,38,332643,5,12,0:0:0:0:
444,50,332706,1,0,0:0:0:0:
456,67,332770,1,0,0:0:0:0:
462,87,332834,1,0,0:0:0:0:
462,108,332898,1,0,0:0:0:0:
454,128,332962,1,0,0:0:0:0:
441,144,333025,1,0,0:0:0:0:
423,155,333089,1,0,0:0:0:0:
403,160,333153,1,0,0:0:0:0:
382,158,333217,1,0,0:0:0:0:
363,150,333281,1,0,0:0:0:0:
348,136,333345,1,0,0:0:0:0:
335,119,333409,6,0,P|324:89|325:67,3,52.5,12|0|0|0,0:0|0:0|0:0|0:0,0:0:0:0:
443,138,333664,2,0,P|454:168|453:190,3,52.5,12|0|0|0,0:0|0:0|0:0|0:0,0:0:0:0:
360,240,333920,5,12,0:0:0:0:
355,210,333983,1,0,0:0:0:0:
348,180,334047,1,0,0:0:0:0:
342,149,334111,1,0,0:0:0:0:
335,119,334175,5,12,0:0:0:0:
354,125,334238,1,0,0:0:0:0:
371,138,334302,1,0,0:0:0:0:
382,155,334366,1,0,0:0:0:0:
386,176,334430,1,0,0:0:0:0:
383,197,334494,1,0,0:0:0:0:
374,215,334557,1,0,0:0:0:0:
358,229,334621,1,0,0:0:0:0:
339,237,334685,1,0,0:0:0:0:
318,237,334749,1,0,0:0:0:0:
298,231,334813,1,0,0:0:0:0:
283,217,334877,1,0,0:0:0:0:
270,200,334941,5,12,0:0:0:0:
259,181,335004,1,0,0:0:0:0:
245,166,335068,1,0,0:0:0:0:
227,155,335132,1,0,0:0:0:0:
207,148,335196,1,0,0:0:0:0:
186,147,335260,1,0,0:0:0:0:
166,151,335323,1,0,0:0:0:0:
147,159,335387,1,0,0:0:0:0:
130,172,335451,1,0,0:0:0:0:
118,189,335515,1,0,0:0:0:0:
109,208,335579,1,0,0:0:0:0:
111,230,335643,1,0,0:0:0:0:
116,249,335707,5,12,0:0:0:0:
157,254,335771,1,0,0:0:0:0:
196,238,335835,1,0,0:0:0:0:
227,209,335898,1,0,0:0:0:0:
259,182,335962,1,0,0:0:0:0:
290,175,336026,1,0,0:0:0:0:
314,185,336090,1,0,0:0:0:0:
326,201,336154,1,0,0:0:0:0:
321,217,336218,5,12,0:0:0:0:
306,216,336281,1,0,0:0:0:0:
295,219,336345,1,0,0:0:0:0:
282,222,336409,1,0,0:0:0:0:
268,228,336473,5,12,0:0:0:0:
256,236,336537,1,0,0:0:0:0:
247,246,336601,1,0,0:0:0:0:
239,258,336664,1,0,0:0:0:0:
233,272,336728,5,12,0:0:0:0:
223,291,336792,1,0,0:0:0:0:
208,306,336856,1,0,0:0:0:0:
189,316,336920,1,0,0:0:0:0:
168,319,336984,5,12,0:0:0:0:
147,315,337047,1,0,0:0:0:0:
129,305,337111,1,0,0:0:0:0:
116,288,337175,1,0,0:0:0:0:
110,268,337239,5,12,0:0:0:0:
131,216,337302,1,0,0:0:0:0:
182,190,337366,1,0,0:0:0:0:
236,206,337430,1,0,0:0:0:0:
272,251,337494,1,0,0:0:0:0:
320,282,337557,1,0,0:0:0:0:
376,274,337621,1,0,0:0:0:0:
414,232,337685,1,0,0:0:0:0:
414,175,337749,1,0,0:0:0:0:
376,132,337813,1,0,0:0:0:0:
318,123,337877,1,0,0:0:0:0:
275,162,337941,1,0,0:0:0:0:
264,219,338005,6,0,P|300:276|360:280,1,105,12|0,0:0|0:0,0:0:0:0:
337,207,338260,1,2,0:0:0:0:
288,355,338388,1,0,0:0:0:0:
205,290,338515,1,2,0:0:0:0:
338,292,338643,1,0,0:0:0:0:
337,211,338771,5,10,0:0:0:0:
339,195,338834,1,0,0:0:0:0:
341,179,338898,1,0,0:0:0:0:
343,164,338962,1,0,0:0:0:0:
368,145,339026,5,10,0:0:0:0:
371,129,339089,1,0,0:0:0:0:
373,114,339153,1,0,0:0:0:0:
375,98,339217,1,0,0:0:0:0:
366,66,339281,6,0,B|343:97|343:97|343:165,1,105,10|0,0:0|0:0,0:0:0:0:
259,51,339537,5,12,0:0:0:0:
244,57,339600,1,0,0:0:0:0:
230,63,339664,1,0,0:0:0:0:
214,66,339728,1,0,0:0:0:0:
199,68,339792,1,0,0:0:0:0:
183,68,339856,1,0,0:0:0:0:
162,64,339920,5,12,0:0:0:0:
130,65,339983,1,0,0:0:0:0:
101,76,340047,1,0,0:0:0:0:
77,96,340111,1,0,0:0:0:0:
61,123,340175,1,0,0:0:0:0:
54,154,340239,1,0,0:0:0:0:
60,185,340303,6,0,P|90:230|138:246,1,105,12|0,0:0|0:0,0:0:0:0:
251,262,340558,1,0,0:0:0:0:
136,245,340686,5,12,0:0:0:0:
105,241,340749,1,0,0:0:0:0:
79,223,340813,1,0,0:0:0:0:
62,197,340877,1,0,0:0:0:0:
58,165,340941,1,2,0:0:0:0:
69,136,341004,1,0,0:0:0:0:
93,116,341069,5,12,0:0:0:0:
93,100,341132,1,0,0:0:0:0:
93,84,341197,2,0,L|93:3,1,78.7500030040742,2|0,0:0|0:0,0:0:0:0:
33,166,341452,5,0,0:0:0:0:
243,33,341579,1,0,0:0:0:0:
143,171,341707,1,0,0:0:0:0:
210,53,341835,5,10,0:0:0:0:
220,53,341898,1,0,0:0:0:0:
232,54,341962,1,0,0:0:0:0:
244,55,342026,1,0,0:0:0:0:
264,41,342090,5,10,0:0:0:0:
275,42,342153,1,0,0:0:0:0:
287,43,342217,1,0,0:0:0:0:
299,44,342281,1,0,0:0:0:0:
321,37,342345,6,0,L|397:72,1,78.7500030040742,10|4,0:0|0:0,0:0:0:0:
481,24,342601,5,12,0:0:0:0:
481,37,342664,1,0,0:0:0:0:
481,51,342728,1,2,0:0:0:0:
481,65,342792,1,0,0:0:0:0:
461,84,342857,5,12,0:0:0:0:
461,97,342920,1,0,0:0:0:0:
461,111,342984,1,0,0:0:0:0:
462,125,343048,1,0,0:0:0:0:
477,147,343112,6,2,L|477:193,3,45.6750003833199,6|2|2|2,0:0|0:0|0:0|0:0,0:0:0:0:
475,282,343367,5,12,0:0:0:0:
324,343,343494,1,0,0:0:0:0:
475,286,343622,2,0,L|413:348,1,78.7500030040742
324,347,343877,5,0,0:0:0:0:
356,223,344005,1,0,0:0:0:0:
322,352,344132,5,12,0:0:0:0:
288,332,344195,1,0,0:0:0:0:
249,325,344259,1,0,0:0:0:0:
211,332,344323,1,0,0:0:0:0:
176,351,344388,2,0,L|155:385,1,39.3750015020371
200,246,344515,5,12,0:0:0:0:
166,265,344578,1,0,0:0:0:0:
127,272,344642,1,0,0:0:0:0:
89,265,344706,1,0,0:0:0:0:
54,247,344771,2,0,L|33:213,1,39.3750015020371
28,94,344898,5,12,0:0:0:0:
142,36,345026,1,0,0:0:0:0:
144,151,345154,1,0,0:0:0:0:
28,87,345281,5,0,0:0:0:0:
146,39,345409,1,0,0:0:0:0:
138,154,345537,1,0,0:0:0:0:
29,80,345664,5,12,0:0:0:0:
44,80,345727,1,0,0:0:0:0:
60,77,345791,1,0,0:0:0:0:
74,71,345855,1,0,0:0:0:0:
87,63,345919,1,0,0:0:0:0:
99,52,345983,1,0,0:0:0:0:
103,36,346047,5,12,0:0:0:0:
106,51,346110,1,0,0:0:0:0:
110,66,346174,1,0,0:0:0:0:
113,81,346238,1,0,0:0:0:0:
117,97,346302,1,0,0:0:0:0:
121,112,346366,1,0,0:0:0:0:
124,128,346430,5,12,0:0:0:0:
138,189,346686,1,6,0:0:0:0:
156,249,346941,5,6,0:0:0:0:
156,251,347069,1,6,0:0:0:0:
156,253,347196,2,2,L|182:363,1,105,6|2,0:0|0:0,0:0:0:0:
274,344,347579,5,12,0:0:0:0:
282,337,347642,1,0,0:0:0:0:
290,330,347706,1,0,0:0:0:0:
298,324,347770,1,0,0:0:0:0:
306,317,347834,1,0,0:0:0:0:
315,311,347898,1,0,0:0:0:0:
323,305,347962,5,12,0:0:0:0:
297,287,348025,1,0,0:0:0:0:
266,279,348089,1,0,0:0:0:0:
235,282,348153,1,0,0:0:0:0:
207,295,348217,1,0,0:0:0:0:
185,318,348281,1,0,0:0:0:0:
171,346,348345,5,12,0:0:0:0:
202,327,348408,1,0,0:0:0:0:
227,300,348472,1,0,0:0:0:0:
242,267,348536,1,0,0:0:0:0:
247,230,348600,1,0,0:0:0:0:
241,194,348664,1,0,0:0:0:0:
222,162,348728,6,0,L|265:124,5,52.5,12|0|0|0|0|0,0:0|0:0|0:0|0:0|0:0|0:0,0:0:0:0:
164,86,349111,2,0,L|167:28,5,52.5,12|0|0|0|0|0,0:0|0:0|0:0|0:0|0:0|0:0,0:0:0:0:
20,24,349494,5,12,0:0:0:0:
60,55,349557,1,0,0:0:0:0:
81,103,349621,1,0,0:0:0:0:
79,155,349685,1,0,0:0:0:0:
53,200,349749,1,0,0:0:0:0:
17,238,349813,1,0,0:0:0:0:
4,289,349877,5,12,0:0:0:0:
14,286,349940,1,0,0:0:0:0:
24,283,350004,1,0,0:0:0:0:
34,281,350068,1,0,0:0:0:0:
44,278,350132,1,0,0:0:0:0:
55,276,350196,1,0,0:0:0:0:
65,273,350260,6,2,L|38:378,1,105,12|2,0:0|0:0,0:0:0:0:
88,157,350515,1,6,0:0:0:0:
65,271,350643,6,0,P|114:302|211:286,1,157.500006008148,6|0,0:0|0:0,0:0:0:0:
142,231,351026,5,12,0:0:0:0:
142,254,351089,1,0,0:0:0:0:
130,274,351153,1,0,0:0:0:0:
109,284,351217,1,0,0:0:0:0:
86,283,351281,1,0,0:0:0:0:
67,270,351345,1,0,0:0:0:0:
53,250,351409,5,12,0:0:0:0:
76,280,351472,1,0,0:0:0:0:
110,301,351536,1,0,0:0:0:0:
148,309,351600,1,0,0:0:0:0:
187,301,351664,1,0,0:0:0:0:
220,281,351728,1,0,0:0:0:0:
246,250,351792,6,10,P|266:201|259:147,1,78.7500030040742,12|10,0:0|0:0,0:0:0:0:
227,57,352047,1,12,0:0:0:0:
264,174,352175,6,0,P|254:222|233:259,1,84,12|0,0:0|0:0,0:0:0:0:
234,254,352558,5,12,0:0:0:0:
215,239,352621,1,0,0:0:0:0:
198,224,352685,1,0,0:0:0:0:
180,209,352749,1,0,0:0:0:0:
162,193,352813,2,0,L|152:246,1,39.3750015020371,10|0,0:0|0:0,0:0:0:0:
271,23,352941,5,12,0:0:0:0:
252,36,353004,1,0,0:0:0:0:
232,50,353068,1,0,0:0:0:0:
213,64,353132,1,0,0:0:0:0:
191,80,353196,2,0,P|181:55|181:26,1,39.3750015020371
130,120,353324,6,10,P|110:68|110:19,1,105,12|10,0:0|0:0,0:0:0:0:
193,71,353579,1,12,0:0:0:0:
18,94,353707,6,0,L|5:204,1,105,12|0,0:0|0:0,0:0:0:0:
61,271,354090,5,12,0:0:0:0:
75,252,354153,1,0,0:0:0:0:
79,229,354217,1,0,0:0:0:0:
70,207,354281,1,0,0:0:0:0:
51,193,354345,1,0,0:0:0:0:
28,191,354409,1,0,0:0:0:0:
5,198,354473,5,12,0:0:0:0:
42,190,354536,1,0,0:0:0:0:
81,194,354600,1,0,0:0:0:0:
116,213,354664,1,0,0:0:0:0:
140,244,354728,1,0,0:0:0:0:
153,281,354792,1,0,0:0:0:0:
151,322,354856,5,12,0:0:0:0:
170,296,354919,1,0,0:0:0:0:
196,279,354983,1,0,0:0:0:0:
226,271,355047,1,0,0:0:0:0:
258,275,355111,1,0,0:0:0:0:
286,288,355175,1,0,0:0:0:0:
308,311,355239,5,12,0:0:0:0:
317,285,355302,1,0,0:0:0:0:
327,260,355366,1,0,0:0:0:0:
338,234,355430,1,0,0:0:0:0:
348,208,355494,1,0,0:0:0:0:
358,182,355558,1,0,0:0:0:0:
368,157,355622,6,0,L|383:106,3,39.3750015020371,12|0|0|0,0:0|0:0|0:0|0:0,0:0:0:0:
430,217,355877,2,0,L|451:176,3,39.3750015020371,12|0|0|0,0:0|0:0|0:0|0:0,0:0:0:0:
283,174,356132,2,0,L|284:119,3,39.3750015020371,12|0|0|0,0:0|0:0|0:0|0:0,0:0:0:0:
384,95,356388,5,12,0:0:0:0:
367,71,356451,1,0,0:0:0:0:
346,54,356515,1,0,0:0:0:0:
321,44,356579,1,0,0:0:0:0:
294,42,356643,1,0,0:0:0:0:
265,44,356707,1,0,0:0:0:0:
242,59,356771,5,12,0:0:0:0:
223,43,356834,1,0,0:0:0:0:
202,35,356898,1,0,0:0:0:0:
178,35,356962,1,0,0:0:0:0:
156,43,357026,1,0,0:0:0:0:
138,58,357090,1,0,0:0:0:0:
124,77,357154,5,12,0:0:0:0:
133,99,357217,1,0,0:0:0:0:
136,122,357281,1,0,0:0:0:0:
134,145,357345,1,0,0:0:0:0:
125,167,357409,1,0,0:0:0:0:
111,186,357473,1,0,0:0:0:0:
95,203,357537,5,12,0:0:0:0:
104,184,357600,1,0,0:0:0:0:
118,172,357664,1,0,0:0:0:0:
136,166,357728,1,0,0:0:0:0:
156,169,357792,1,0,0:0:0:0:
173,179,357856,1,0,0:0:0:0:
185,195,357920,5,12,0:0:0:0:
174,206,357983,1,0,0:0:0:0:
163,217,358047,1,0,0:0:0:0:
153,229,358111,1,0,0:0:0:0:
142,240,358175,1,0,0:0:0:0:
131,252,358239,1,0,0:0:0:0:
121,263,358303,5,12,0:0:0:0:
126,274,358366,1,0,0:0:0:0:
133,283,358430,1,0,0:0:0:0:
141,291,358494,1,0,0:0:0:0:
152,298,358558,1,0,0:0:0:0:
163,302,358622,1,0,0:0:0:0:
174,304,358686,6,0,B|222:303|251:280|264:229|264:229|237:254,1,157.500006008148,12|10,0:0|0:0,0:0:0:0:
183,300,359196,5,6,0:0:0:0:
190,299,359324,1,6,0:0:0:0:
196,296,359452,6,0,P|249:269|271:211,1,105,6|0,0:0|0:0,0:0:0:0:
305,94,359835,5,12,0:0:0:0:
326,103,359898,1,0,0:0:0:0:
349,100,359962,1,0,0:0:0:0:
367,85,360026,1,0,0:0:0:0:
374,63,360090,1,0,0:0:0:0:
369,40,360154,1,0,0:0:0:0:
352,23,360218,5,12,0:0:0:0:
350,42,360281,1,0,0:0:0:0:
356,60,360345,1,0,0:0:0:0:
370,75,360409,1,0,0:0:0:0:
388,82,360473,1,0,0:0:0:0:
407,82,360537,1,0,0:0:0:0:
425,74,360601,5,12,0:0:0:0:
424,89,360664,1,0,0:0:0:0:
423,105,360728,1,0,0:0:0:0:
422,121,360792,1,0,0:0:0:0:
421,136,360856,1,0,0:0:0:0:
420,152,360920,1,0,0:0:0:0:
419,168,360984,6,0,L|418:220,3,39.3750015020371,12|0|0|0,0:0|0:0|0:0|0:0,0:0:0:0:
481,251,361239,2,0,L|480:303,3,39.3750015020371,12|0|0|0,0:0|0:0|0:0|0:0,0:0:0:0:
339,299,361494,2,0,L|338:351,3,39.3750015020371,12|0|0|0,0:0|0:0|0:0|0:0,0:0:0:0:
343,228,361749,6,0,L|343:185,1,39.3750015020371,12|0,0:0|0:0,0:0:0:0:
267,266,361877,1,12,0:0:0:0:
265,263,361940,1,10,0:0:0:0:
262,260,362004,1,10,0:0:0:0:
259,257,362068,1,10,0:0:0:0:
257,254,362132,1,10,0:0:0:0:
255,251,362196,1,10,0:0:0:0:
252,248,362259,1,10,0:0:0:0:
250,245,362323,1,10,0:0:0:0:
248,242,362387,1,10,0:0:0:0:
245,239,362451,1,10,0:0:0:0:
243,236,362515,5,12,0:0:0:0:
135,60,362771,1,12,0:0:0:0:
77,147,363026,5,12,0:0:0:0:
92,197,363154,1,12,0:0:0:0:
104,247,363281,1,12,0:0:0:0:
132,348,363537,1,4,0:0:0:0:
368,140,363792,5,12,0:0:0:0:
353,190,363920,1,12,0:0:0:0:
341,240,364047,1,12,0:0:0:0:
313,341,364303,1,4,0:0:0:0:
366,138,364558,5,4,0:0:0:0:
351,188,364686,1,4,0:0:0:0:
339,238,364813,5,12,0:0:0:0:
343,235,364876,1,10,0:0:0:0:
348,233,364940,1,10,0:0:0:0:
353,231,365004,1,10,0:0:0:0:
357,228,365068,1,10,0:0:0:0:
362,226,365132,1,10,0:0:0:0:
367,224,365195,1,10,0:0:0:0:
372,222,365259,1,10,0:0:0:0:
376,219,365323,1,10,0:0:0:0:
381,217,365387,1,10,0:0:0:0:
386,215,365451,1,10,0:0:0:0:
391,213,365515,1,10,0:0:0:0:
395,210,365579,5,12,0:0:0:0:
234,30,365835,1,12,0:0:0:0:
234,30,366090,5,4,0:0:0:0:
219,80,366218,1,4,0:0:0:0:
207,130,366345,1,4,0:0:0:0:
183,232,366601,1,12,0:0:0:0:
236,46,366856,5,4,0:0:0:0:
222,96,366984,1,6,0:0:0:0:
212,147,367111,5,12,0:0:0:0:
213,142,367175,1,10,0:0:0:0:
216,138,367239,1,10,0:0:0:0:
221,135,367303,1,10,0:0:0:0:
226,132,367366,1,10,0:0:0:0:
237,128,367430,1,10,0:0:0:0:
244,128,367494,1,10,0:0:0:0:
257,129,367558,1,10,0:0:0:0:
280,137,367622,5,12,0:0:0:0:
297,152,367686,1,10,0:0:0:0:
311,179,367749,1,10,0:0:0:0:
313,207,367813,1,10,0:0:0:0:
308,243,367877,5,12,0:0:0:0:
293,276,367941,1,10,0:0:0:0:
263,298,368005,1,10,0:0:0:0:
227,308,368069,1,10,0:0:0:0:
185,308,368132,1,10,0:0:0:0:
141,289,368196,1,10,0:0:0:0:
110,252,368260,1,10,0:0:0:0:
97,200,368324,1,10,0:0:0:0:
111,149,368388,1,10,0:0:0:0:
153,109,368452,1,10,0:0:0:0:
209,100,368515,1,10,0:0:0:0:
264,115,368579,1,10,0:0:0:0:
300,160,368643,5,12,0:0:0:0:
270,160,368706,1,0,0:0:0:0:
240,160,368770,1,0,0:0:0:0:
210,160,368834,1,0,0:0:0:0:
184,160,368898,5,12,0:0:0:0:
212,169,368961,1,0,0:0:0:0:
240,178,369025,1,0,0:0:0:0:
269,188,369089,1,0,0:0:0:0:
292,200,369154,6,0,L|292:261,1,52.5,12|0,0:0|0:0,0:0:0:0:
286,33,369281,2,0,L|286:89,1,52.5,12|0,0:0|0:0,0:0:0:0:
88,64,369409,5,12,0:0:0:0:
120,92,369472,1,0,0:0:0:0:
160,104,369536,1,0,0:0:0:0:
196,92,369600,1,0,0:0:0:0:
216,68,369664,5,12,0:0:0:0:
192,72,369727,1,0,0:0:0:0:
162,77,369791,1,0,0:0:0:0:
133,81,369855,1,0,0:0:0:0:
110,84,369920,6,0,L|100:140,1,52.5,12|0,0:0|0:0,0:0:0:0:
60,276,370047,2,0,L|46:353,1,52.5,12|0,0:0|0:0,0:0:0:0:
176,316,370175,5,12,0:0:0:0:
206,276,370238,1,0,0:0:0:0:
250,253,370302,1,0,0:0:0:0:
299,251,370366,1,0,0:0:0:0:
344,272,370430,5,12,0:0:0:0:
346,222,370493,1,0,0:0:0:0:
349,172,370557,1,0,0:0:0:0:
351,122,370621,1,0,0:0:0:0:
352,72,370686,6,0,L|297:79,1,52.5,12|0,0:0|0:0,0:0:0:0:
204,96,370813,2,0,L|134:106,1,52.5,12|0,0:0|0:0,0:0:0:0:
168,236,370941,5,12,0:0:0:0:
192,256,371005,1,0,0:0:0:0:
220,268,371069,1,0,0:0:0:0:
248,272,371132,1,0,0:0:0:0:
252,300,371196,5,12,0:0:0:0:
224,328,371260,1,0,0:0:0:0:
184,336,371324,1,0,0:0:0:0:
144,328,371388,1,0,0:0:0:0:
116,300,371452,1,10,0:0:0:0:
104,264,371515,1,0,0:0:0:0:
108,224,371579,1,0,0:0:0:0:
132,192,371643,1,0,0:0:0:0:
172,188,371707,5,12,0:0:0:0:
148,224,371771,1,0,0:0:0:0:
104,240,371835,1,0,0:0:0:0:
60,228,371898,1,0,0:0:0:0:
32,192,371962,1,10,0:0:0:0:
28,148,372026,1,0,0:0:0:0:
48,108,372090,1,0,0:0:0:0:
88,88,372154,1,0,0:0:0:0:
132,92,372218,1,10,0:0:0:0:
168,120,372281,1,0,0:0:0:0:
182,165,372345,1,0,0:0:0:0:
179,212,372409,1,0,0:0:0:0:
148,248,372473,5,12,0:0:0:0:
143,195,372537,1,0,0:0:0:0:
173,152,372601,1,0,0:0:0:0:
224,145,372664,1,0,0:0:0:0:
273,163,372728,1,10,0:0:0:0:
298,208,372792,1,0,0:0:0:0:
341,237,372856,1,2,0:0:0:0:
393,237,372920,1,0,0:0:0:0:
437,208,372984,1,2,0:0:0:0:
452,158,373047,1,0,0:0:0:0:
432,109,373111,1,0,0:0:0:0:
382,90,373175,1,0,0:0:0:0:
331,104,373239,5,12,0:0:0:0:
335,78,373303,1,0,0:0:0:0:
339,52,373366,2,0,L|349:0,1,52.5
222,226,373494,5,12,0:0:0:0:
218,200,373558,1,0,0:0:0:0:
214,174,373622,2,0,L|204:122,1,52.5
331,345,373749,5,12,0:0:0:0:
335,319,373813,1,0,0:0:0:0:
339,293,373877,2,0,L|349:241,1,52.5
222,370,374005,5,12,0:0:0:0:
162,375,374069,1,10,0:0:0:0:
114,341,374133,1,10,0:0:0:0:
106,284,374196,1,10,0:0:0:0:
126,229,374260,1,10,0:0:0:0:
177,201,374324,1,10,0:0:0:0:
209,153,374388,1,10,0:0:0:0:
209,95,374452,1,10,0:0:0:0:
177,45,374516,1,10,0:0:0:0:
121,28,374579,1,10,0:0:0:0:
66,51,374643,1,10,0:0:0:0:
44,107,374707,1,10,0:0:0:0:
66,163,374771,1,14,0:0:0:0:
256,192,374898,12,0,381664,0:0:0:0:
