osu file format v14

[General]
AudioFilename: audio.mp3
AudioLeadIn: 0
PreviewTime: 131020
Countdown: 0
SampleSet: None
StackLeniency: 0.2
Mode: 0
LetterboxInBreaks: 0
WidescreenStoryboard: 0

[Editor]
Bookmarks: 46540,148300,179020,202060,291442,337654,375185,384377
DistanceSpacing: 2.2
BeatDivisor: 8
GridSize: 4
TimelineZoom: 2.4

[Metadata]
Title:Destroyer
TitleUnicode:Destroyer
Artist:Inferi
ArtistUnicode:Inferi
Creator:OlmyBootycheeks
Version:Ego Sum Vastatoris
Source:
Tags:
BeatmapID:1602895
BeatmapSetID:762364

[Difficulty]
HPDrainRate:0
CircleSize:3.8
OverallDifficulty:10
ApproachRate:10
SliderMultiplier:2
SliderTickRate:1

[Events]
//Background and Video events
0,0,"id.jpg",0,0
//Break Periods
2,15780,217460
2,337789,374799
//Storyboard Layer 0 (Background)
//Storyboard Layer 1 (Fail)
//Storyboard Layer 2 (Pass)
//Storyboard Layer 3 (Foreground)
//Storyboard Sound Samples

[TimingPoints]
220,240,4,3,1,30,1,0
460,240,4,3,1,30,1,0
460,-100,4,3,1,30,0,0
2620,-66.6666666666667,4,3,1,30,0,0
2860,-80,4,3,1,30,0,0
3100,-100,4,3,1,30,0,0
3340,-500,4,3,1,30,0,0
3820,-250,4,3,1,30,0,0
6220,-100,4,3,1,30,0,0
10300,-66.6666666666667,4,3,1,30,0,0
10540,-80,4,3,1,30,0,0
10780,-100,4,3,1,30,0,0
11020,-500,4,3,1,30,0,0
11500,-250,4,3,1,30,0,0
11980,-166.666666666667,4,3,1,30,0,0
12940,-125,4,3,1,30,0,0
13900,-100,4,3,1,30,0,0
31180,-125,4,3,1,30,0,0
33100,-100,4,3,1,30,0,0
35020,-125,4,3,1,30,0,0
36940,-100,4,3,1,30,0,0
38860,-125,4,3,1,30,0,0
40780,-100,4,3,1,30,0,0
42700,-125,4,3,1,30,0,0
44620,-100,4,3,1,30,0,0
46540,-83.3333333333333,4,3,1,30,0,1
61900,-125,4,3,1,30,0,0
77260,-100,4,3,1,30,0,0
84940,-83.3333333333333,4,3,1,30,0,0
86860,-100,4,3,1,30,0,0
100300,-166.666666666667,4,3,1,30,0,0
103180,-125,4,3,1,30,0,0
104140,-100,4,3,1,30,0,0
131020,-83.3333333333333,4,3,1,30,0,0
148300,-83.3333333333333,4,3,1,30,0,1
163660,-125,4,3,1,30,0,0
179020,-83.3333333333333,4,3,1,30,0,1
194380,-100,4,3,1,30,0,0
202060,-83.3333333333333,4,3,1,30,0,1
209740,255.31914893617,4,3,1,30,1,0
209740,-333.333333333334,4,1,1,20,0,0
241271,-125,4,3,1,30,0,0
274080,-100,4,3,1,30,0,0
291442,-83.3333333333333,4,3,1,30,0,1
307782,-71.4285714285714,4,3,1,30,0,0
313910,-62.5,4,3,1,30,0,0
320037,255.31914893617,3,3,1,30,1,0
332292,-83.3333333333333,3,3,1,30,0,0
335611,-71.4285714285714,3,3,1,30,0,0
336122,-83.3333333333333,3,3,1,30,0,0
336888,-71.4285714285714,3,3,1,30,0,0
337271,-62.5,3,3,1,30,0,0
337654,-83.3333333333333,3,3,1,30,0,1
375185,-100,3,3,1,45,0,0
384377,-100,3,2,3,5,0,0

[Colours]
Combo1 : 66,80,96
Combo2 : 128,64,64
Combo3 : 96,67,6
Combo4 : 128,64,0

[HitObjects]
117,125,220,5,0,0:0:0:0:
134,115,280,1,0,0:0:0:0:
152,123,340,1,0,0:0:0:0:
171,124,400,1,0,0:0:0:0:
190,117,460,6,0,L|295:80,1,100
148,219,700,2,0,L|253:182,1,100
458,289,940,6,0,L|353:252,1,100
416,187,1210,2,0,L|311:150,1,100
235,293,1420,5,0,0:0:0:0:
106,98,1660,6,0,P|145:80|160:79,2,50
285,214,2140,6,0,P|244:199|233:189,2,50
100,279,2620,6,0,P|139:221|111:132,1,150.000005722046
204,124,2860,2,0,P|243:62|314:46,1,125
45,109,3100,2,0,P|37:154|65:211,1,100
209,256,3340,6,0,B|231:240|231:240|244:220|244:220|261:210,1,70
334,253,3820,6,0,B|289:285|289:285|262:326|262:326|231:344,1,140
128,344,4300,5,0,0:0:0:0:
111,315,4540,1,0,0:0:0:0:
95,286,4780,1,0,0:0:0:0:
78,258,5020,1,0,0:0:0:0:
140,111,5260,5,0,0:0:0:0:
164,153,5500,1,0,0:0:0:0:
188,196,5740,1,0,0:0:0:0:
213,238,5980,1,0,0:0:0:0:
408,299,6220,5,0,0:0:0:0:
384,280,6280,1,0,0:0:0:0:
369,254,6340,1,0,0:0:0:0:
364,225,6400,1,0,0:0:0:0:
368,195,6460,1,0,0:0:0:0:
360,167,6520,1,0,0:0:0:0:
340,144,6580,1,0,0:0:0:0:
313,132,6640,1,0,0:0:0:0:
265,147,6700,5,0,0:0:0:0:
225,149,6760,1,0,0:0:0:0:
185,151,6820,1,0,0:0:0:0:
145,153,6880,1,0,0:0:0:0:
105,159,6940,1,0,0:0:0:0:
66,153,7000,1,0,0:0:0:0:
44,121,7060,1,0,0:0:0:0:
52,83,7120,1,0,0:0:0:0:
77,52,7180,6,0,P|98:41|130:39,1,50
232,56,7300,2,0,P|208:52|177:60,1,50
94,125,7420,2,0,P|117:128|144:145,1,50
249,141,7540,2,0,P|227:151|207:176,1,50
98,324,7660,6,0,L|120:261,1,50
157,125,7780,2,0,L|179:187,1,50
239,324,7900,2,0,L|261:261,1,50
298,125,8020,2,0,L|320:187,1,50
380,324,8140,6,0,L|416:223,1,100
349,78,8380,2,0,L|314:171,1,100
274,261,8620,6,0,L|180:226,1,100
28,292,8860,2,0,L|121:326,1,100
205,65,9100,5,0,0:0:0:0:
28,71,9340,5,0,0:0:0:0:
49,116,9400,1,0,0:0:0:0:
70,161,9460,1,0,0:0:0:0:
91,207,9520,1,0,0:0:0:0:
112,252,9580,1,0,0:0:0:0:
205,65,9820,5,0,0:0:0:0:
226,110,9880,1,0,0:0:0:0:
247,155,9940,1,0,0:0:0:0:
268,201,10000,1,0,0:0:0:0:
289,246,10060,1,0,0:0:0:0:
412,105,10300,6,0,P|373:163|401:252,1,150.000005722046
308,260,10540,2,0,P|268:321|197:337,1,125
467,275,10780,2,0,P|475:230|447:173,1,100
218,80,11020,6,0,P|197:113|166:126,1,70
189,198,11500,6,0,P|253:165|289:103,1,140
484,313,11980,5,0,0:0:0:0:
463,268,12220,1,0,0:0:0:0:
442,223,12460,1,0,0:0:0:0:
421,177,12700,1,0,0:0:0:0:
322,312,12940,5,0,0:0:0:0:
291,245,13180,1,0,0:0:0:0:
259,177,13420,1,0,0:0:0:0:
228,108,13660,1,0,0:0:0:0:
73,190,13900,5,0,0:0:0:0:
92,184,13960,1,0,0:0:0:0:
111,179,14020,1,0,0:0:0:0:
130,174,14080,1,0,0:0:0:0:
150,169,14140,1,0,0:0:0:0:
169,164,14200,1,0,0:0:0:0:
188,159,14260,1,0,0:0:0:0:
208,153,14320,1,0,0:0:0:0:
271,104,14380,5,0,0:0:0:0:
258,141,14440,1,0,0:0:0:0:
262,180,14500,1,0,0:0:0:0:
283,214,14560,1,0,0:0:0:0:
316,236,14620,1,0,0:0:0:0:
355,241,14680,1,0,0:0:0:0:
393,229,14740,1,0,0:0:0:0:
422,202,14800,1,0,0:0:0:0:
451,174,14860,6,0,L|493:134,1,50
447,134,14980,2,0,L|499:108,1,50
455,94,15100,2,0,L|512:86,1,50
360,156,15220,6,0,P|333:140|318:116,1,50
183,155,15340,6,0,L|141:195,1,50
187,195,15460,2,0,L|134:220,1,50
71,303,15580,5,0,0:0:0:0:
159,137,217910,5,0,0:0:0:0:
159,137,218420,1,0,0:0:0:0:
256,192,218484,12,0,220463,0:0:0:0:
343,277,220974,5,0,0:0:0:0:
343,277,221484,1,0,0:0:0:0:
343,277,221995,1,0,0:0:0:0:
256,192,222250,12,0,224293,0:0:0:0:
168,273,224548,6,0,P|215:276|273:233,2,119.999996337891
342,116,226080,5,0,0:0:0:0:
256,192,226144,12,0,229654,0:0:0:0:
381,105,230165,5,0,0:0:0:0:
364,149,230420,1,0,0:0:0:0:
347,193,230676,1,0,0:0:0:0:
131,279,231186,5,0,0:0:0:0:
381,279,231697,5,0,0:0:0:0:
364,235,231952,1,0,0:0:0:0:
347,191,232208,1,0,0:0:0:0:
131,105,232974,5,0,0:0:0:0:
255,191,233229,5,0,0:0:0:0:
255,191,233739,1,0,0:0:0:0:
255,191,234250,1,0,0:0:0:0:
256,192,234314,12,0,235271,0:0:0:0:
172,112,236803,6,0,L|294:92,2,119.999996337891
209,264,238335,5,0,0:0:0:0:
209,264,238591,1,0,0:0:0:0:
209,264,238846,1,0,0:0:0:0:
256,192,238910,12,0,240378,0:0:0:0:
131,155,241271,5,0,0:0:0:0:
267,71,241527,1,0,0:0:0:0:
425,319,241846,5,0,0:0:0:0:
290,236,242102,1,0,0:0:0:0:
389,78,242420,5,8,0:0:0:0:
126,82,246250,5,0,0:0:0:0:
323,340,246505,1,0,0:0:0:0:
108,263,249569,5,0,0:0:0:0:
184,276,249696,1,0,0:0:0:0:
246,229,249824,1,0,0:0:0:0:
254,151,249951,1,0,0:0:0:0:
203,93,250079,1,0,0:0:0:0:
203,93,250335,5,0,0:0:0:0:
108,263,250591,5,0,0:0:0:0:
364,65,254420,5,0,0:0:0:0:
322,301,254676,1,0,0:0:0:0:
78,162,257611,5,0,0:0:0:0:
78,162,257867,1,0,0:0:0:0:
322,294,258186,5,0,0:0:0:0:
322,294,258442,1,0,0:0:0:0:
346,90,258761,5,0,0:0:0:0:
190,91,262846,5,12,0:0:0:0:
282,200,263867,5,2,0:0:0:0:
282,200,265910,1,2,0:0:0:0:
438,98,266931,5,12,0:0:0:0:
282,200,267952,5,2,0:0:0:0:
282,200,269995,1,2,0:0:0:0:
98,295,271016,5,12,0:0:0:0:
282,200,272037,5,2,0:0:0:0:
149,171,274080,6,0,P|175:227|218:263,1,100
103,152,274335,2,0,B|110:213|110:213|140:260,1,100
359,107,274591,6,0,B|297:114|297:114|250:144,1,100
374,67,274846,2,0,B|313:55|313:55|259:68,1,100
305,223,275101,5,0,0:0:0:0:
305,223,275357,1,0,0:0:0:0:
155,113,275612,5,0,0:0:0:0:
194,278,275739,1,0,0:0:0:0:
155,113,275867,1,0,0:0:0:0:
194,278,275994,1,0,0:0:0:0:
155,113,276122,5,0,0:0:0:0:
345,63,276378,5,0,0:0:0:0:
396,181,276633,5,0,0:0:0:0:
333,338,276760,1,0,0:0:0:0:
396,181,276888,1,0,0:0:0:0:
333,338,277015,1,0,0:0:0:0:
345,63,277143,5,0,0:0:0:0:
164,329,277399,5,0,0:0:0:0:
164,329,277654,1,0,0:0:0:0:
150,233,277781,1,0,0:0:0:0:
216,161,277909,1,0,0:0:0:0:
313,167,278036,1,0,0:0:0:0:
370,245,278164,5,0,0:0:0:0:
107,97,278420,5,0,0:0:0:0:
107,97,278676,1,0,0:0:0:0:
189,144,278803,1,0,0:0:0:0:
186,240,278931,1,0,0:0:0:0:
101,282,279058,1,0,0:0:0:0:
23,228,279186,5,0,0:0:0:0:
187,53,279442,5,0,0:0:0:0:
342,83,279697,5,0,0:0:0:0:
179,200,279825,1,0,0:0:0:0:
342,83,279952,1,0,0:0:0:0:
179,200,280080,1,0,0:0:0:0:
342,83,280208,5,0,0:0:0:0:
287,312,280463,5,0,0:0:0:0:
382,246,280718,5,0,0:0:0:0:
292,67,280846,1,0,0:0:0:0:
382,246,280974,1,0,0:0:0:0:
292,67,281102,1,0,0:0:0:0:
287,312,281229,5,0,0:0:0:0:
272,343,281292,1,0,0:0:0:0:
247,367,281356,1,0,0:0:0:0:
215,379,281420,1,0,0:0:0:0:
180,378,281484,1,0,0:0:0:0:
148,363,281548,1,0,0:0:0:0:
125,337,281611,1,0,0:0:0:0:
114,304,281675,1,0,0:0:0:0:
90,260,281739,5,0,0:0:0:0:
123,268,281802,1,0,0:0:0:0:
158,269,281866,1,0,0:0:0:0:
192,261,281930,1,0,0:0:0:0:
224,246,281994,1,0,0:0:0:0:
251,225,282058,1,0,0:0:0:0:
273,197,282121,1,0,0:0:0:0:
288,166,282185,1,0,0:0:0:0:
315,89,282250,6,0,P|346:51|366:43,3,50,8|0|2|0,0:0|0:0|0:0|0:0,0:0:0:0:
218,96,282505,2,0,P|233:49|249:34,3,50,8|0|2|0,0:0|0:0|0:0|0:0,0:0:0:0:
127,132,282761,2,0,P|127:82|137:64,3,50,8|0|2|0,0:0|0:0|0:0|0:0,0:0:0:0:
52,194,283016,1,12,0:0:0:0:
209,299,283271,5,12,0:0:0:0:
209,299,283527,1,8,0:0:0:0:
375,311,283782,5,0,0:0:0:0:
228,121,283910,1,0,0:0:0:0:
375,311,284037,1,0,0:0:0:0:
228,121,284165,1,0,0:0:0:0:
375,311,284293,5,12,0:0:0:0:
171,296,284548,6,0,L|101:214,1,100,4|8,0:0|0:0,0:0:0:0:
14,141,284803,5,8,0:0:0:0:
213,46,284931,1,0,0:0:0:0:
14,141,285059,1,0,0:0:0:0:
213,46,285187,1,0,0:0:0:0:
14,141,285314,5,12,0:0:0:0:
257,207,285569,5,4,0:0:0:0:
383,75,285825,5,8,0:0:0:0:
348,291,285952,1,0,0:0:0:0:
383,75,286080,1,0,0:0:0:0:
348,291,286207,1,0,0:0:0:0:
383,75,286335,5,12,0:0:0:0:
163,127,286591,6,0,B|171:180|171:180|196:226,1,100,10|0,0:0|0:0,0:0:0:0:
273,60,286846,2,0,B|265:113|265:113|240:159,1,100,10|0,0:0|0:0,0:0:0:0:
148,43,287101,2,0,B|106:76|106:76|78:121,1,100,10|0,0:0|0:0,0:0:0:0:
52,232,287357,6,0,B|117:268|159:273|159:273|199:297|266:315|266:315|332:316|375:322|375:322|343:295|364:233|364:233|337:262|284:265,1,500,14|0,0:0|0:0,0:0:0:0:
193,201,288122,6,0,P|190:176|197:152,1,50,2|0,0:0|0:0,0:0:0:0:
289,126,288250,2,0,P|302:104|321:89,1,50
411,122,288378,6,0,B|466:102|466:102|434:196|464:253|464:253|369:249|322:186|322:186|251:283|153:225,1,550,6|0,0:0|0:0,0:0:0:0:
79,209,289144,5,14,0:0:0:0:
79,209,289399,5,8,0:0:0:0:
77,213,289462,1,0,0:0:0:0:
76,218,289526,1,0,0:0:0:0:
76,223,289590,1,0,0:0:0:0:
75,228,289654,1,0,0:0:0:0:
75,233,289718,1,0,0:0:0:0:
75,238,289781,1,0,0:0:0:0:
75,243,289845,1,0,0:0:0:0:
76,248,289909,1,0,0:0:0:0:
77,253,289973,1,0,0:0:0:0:
78,258,290037,1,0,0:0:0:0:
79,263,290101,1,0,0:0:0:0:
80,268,290165,5,2,0:0:0:0:
83,274,290228,1,0,0:0:0:0:
86,281,290292,1,0,0:0:0:0:
88,288,290356,1,0,0:0:0:0:
86,328,290420,5,0,0:0:0:0:
121,345,290483,1,0,0:0:0:0:
160,342,290547,1,0,0:0:0:0:
193,320,290611,1,0,0:0:0:0:
209,284,290675,1,0,0:0:0:0:
205,245,290739,1,0,0:0:0:0:
181,213,290802,1,0,0:0:0:0:
156,181,290867,1,0,0:0:0:0:
138,147,290930,1,0,0:0:0:0:
143,107,290994,1,0,0:0:0:0:
168,78,291058,1,0,0:0:0:0:
206,68,291122,1,0,0:0:0:0:
244,80,291186,1,0,0:0:0:0:
267,111,291249,1,0,0:0:0:0:
270,150,291313,1,0,0:0:0:0:
249,184,291377,1,0,0:0:0:0:
214,248,291442,6,0,P|205:284|215:312,1,59.9999981689454,8|0,0:0|0:0,0:0:0:0:
184,225,291569,2,0,P|164:256|165:286,1,59.9999981689454,2|0,0:0|0:0,0:0:0:0:
351,153,291697,6,0,P|360:117|349:88,1,59.9999981689454,8|0,0:0|0:0,0:0:0:0:
381,176,291824,2,0,P|400:144|399:114,1,59.9999981689454,2|0,0:0|0:0,0:0:0:0:
258,39,291952,5,10,0:0:0:0:
246,36,292015,1,0,0:0:0:0:
234,36,292079,1,0,0:0:0:0:
222,38,292143,1,0,0:0:0:0:
210,42,292208,5,10,0:0:0:0:
171,69,292271,1,0,0:0:0:0:
151,112,292335,1,0,0:0:0:0:
156,159,292399,1,0,0:0:0:0:
184,197,292463,1,0,0:0:0:0:
227,216,292527,1,0,0:0:0:0:
274,210,292590,1,0,0:0:0:0:
312,181,292654,1,0,0:0:0:0:
370,129,292718,6,0,P|395:102|401:72,1,59.9999981689454,8|0,0:0|0:0,0:0:0:0:
384,164,292845,2,0,P|416:146|431:119,1,59.9999981689454,2|0,0:0|0:0,0:0:0:0:
356,293,292974,6,0,P|323:275|308:248,1,59.9999981689454,8|0,0:0|0:0,0:0:0:0:
354,330,293101,2,0,P|317:323|295:302,1,59.9999981689454,2|0,0:0|0:0,0:0:0:0:
169,341,293229,5,10,0:0:0:0:
157,340,293292,1,0,0:0:0:0:
145,338,293356,1,0,0:0:0:0:
133,334,293420,1,0,0:0:0:0:
121,329,293484,5,10,0:0:0:0:
77,290,293547,1,0,0:0:0:0:
83,233,293611,1,0,0:0:0:0:
134,204,293675,1,0,0:0:0:0:
186,229,293739,1,0,0:0:0:0:
239,258,293803,1,0,0:0:0:0:
294,277,293866,1,0,0:0:0:0:
352,264,293930,1,0,0:0:0:0:
392,220,293994,1,0,0:0:0:0:
402,162,294058,1,0,0:0:0:0:
392,78,294122,6,0,P|379:48|334:27,1,59.9999981689454
325,84,294250,2,0,P|303:59|254:53,1,59.9999981689454
263,110,294378,2,0,P|234:93|186:102,1,59.9999981689454
118,145,294505,6,0,P|105:175|122:222,1,59.9999981689454
169,188,294633,2,0,P|166:220|197:259,1,59.9999981689454
231,213,294761,2,0,P|239:244|280:272,1,59.9999981689454
341,194,294888,5,10,0:0:0:0:
390,173,294951,1,0,0:0:0:0:
443,178,295015,1,0,0:0:0:0:
487,208,295079,1,0,0:0:0:0:
511,255,295143,1,0,0:0:0:0:
510,309,295207,1,0,0:0:0:0:
483,355,295270,1,0,0:0:0:0:
438,383,295334,1,0,0:0:0:0:
384,385,295398,1,0,0:0:0:0:
336,362,295462,1,0,0:0:0:0:
272,306,295527,6,0,P|248:275|244:233,1,59.9999981689454
219,104,295654,2,0,P|243:135|247:177,1,59.9999981689454
187,288,295782,6,0,P|192:249|219:216,1,59.9999981689454
293,107,295909,2,0,P|288:146|261:179,1,59.9999981689454
119,324,296037,5,10,0:0:0:0:
109,330,296100,1,0,0:0:0:0:
98,336,296164,1,0,0:0:0:0:
87,340,296228,1,0,0:0:0:0:
44,339,296293,5,10,0:0:0:0:
42,279,296356,1,0,0:0:0:0:
64,224,296420,1,0,0:0:0:0:
107,182,296484,1,0,0:0:0:0:
147,138,296548,1,0,0:0:0:0:
173,87,296611,1,0,0:0:0:0:
147,35,296675,1,0,0:0:0:0:
90,25,296739,1,0,0:0:0:0:
11,23,296802,5,8,0:0:0:0:
31,64,296866,1,0,0:0:0:0:
84,78,296930,1,2,0:0:0:0:
90,124,296994,1,0,0:0:0:0:
136,152,297058,1,2,0:0:0:0:
127,198,297122,1,0,0:0:0:0:
162,238,297186,1,2,0:0:0:0:
139,279,297250,1,0,0:0:0:0:
143,332,297314,5,10,0:0:0:0:
153,337,297377,1,0,0:0:0:0:
165,340,297441,1,0,0:0:0:0:
177,342,297505,1,0,0:0:0:0:
189,340,297569,5,10,0:0:0:0:
245,324,297632,1,0,0:0:0:0:
278,275,297696,1,0,0:0:0:0:
270,217,297760,1,0,0:0:0:0:
239,164,297825,1,0,0:0:0:0:
221,108,297888,1,0,0:0:0:0:
255,62,297952,1,0,0:0:0:0:
313,62,298016,1,0,0:0:0:0:
391,66,298080,6,0,P|426:65|456:38,1,59.9999981689454
424,95,298208,2,0,P|456:83|477:48,1,59.9999981689454
347,204,298335,6,0,P|382:203|412:176,1,59.9999981689454
380,233,298463,2,0,P|412:221|433:186,1,59.9999981689454
232,176,298591,6,0,P|197:175|167:148,1,59.9999981689454
199,205,298719,2,0,P|166:193|145:158,1,59.9999981689454
221,324,298846,6,0,P|186:323|156:296,1,59.9999981689454
188,353,298974,2,0,P|155:341|134:306,1,59.9999981689454
36,288,299101,6,0,L|53:228,1,59.9999981689454
101,79,299229,2,0,L|118:139,1,59.9999981689454
165,288,299357,2,0,L|182:228,1,59.9999981689454
230,79,299485,2,0,L|247:139,1,59.9999981689454
329,269,299612,6,0,P|358:227|391:217,1,59.9999981689454
381,268,299739,2,0,P|421:237|456:237,1,59.9999981689454
418,75,299867,6,0,P|369:59|337:72,1,59.9999981689454
376,106,299994,2,0,P|324:106|298:128,1,59.9999981689454
236,37,300122,5,0,0:0:0:0:
224,36,300185,1,0,0:0:0:0:
212,38,300249,1,0,0:0:0:0:
200,41,300313,1,0,0:0:0:0:
189,47,300378,5,0,0:0:0:0:
147,88,300441,1,0,0:0:0:0:
143,146,300505,1,0,0:0:0:0:
180,192,300569,1,0,0:0:0:0:
238,202,300633,1,0,0:0:0:0:
287,170,300697,1,0,0:0:0:0:
336,135,300761,1,0,0:0:0:0:
390,114,300824,1,0,0:0:0:0:
442,140,300888,1,0,0:0:0:0:
457,196,300952,1,0,0:0:0:0:
462,274,301016,6,0,P|465:309|486:341,1,59.9999981689454
338,193,301144,6,0,P|330:164|335:134,1,59.9999981689454
358,177,301271,2,0,P|360:147|373:120,1,59.9999981689454
349,53,301399,5,0,0:0:0:0:
337,47,301462,1,0,0:0:0:0:
327,45,301526,1,0,0:0:0:0:
315,43,301590,1,0,0:0:0:0:
303,41,301654,5,0,0:0:0:0:
243,43,301717,1,0,0:0:0:0:
195,78,301781,1,0,0:0:0:0:
173,133,301845,1,0,0:0:0:0:
185,191,301909,1,0,0:0:0:0:
225,234,301973,1,0,0:0:0:0:
283,248,302036,1,0,0:0:0:0:
339,228,302100,1,0,0:0:0:0:
405,178,302165,6,0,P|429:144|460:134,1,59.9999981689454
396,134,302293,2,0,P|429:110|462:109,1,59.9999981689454
401,89,302420,2,0,P|440:76|471:85,1,59.9999981689454
294,32,302548,6,0,B|299:68|299:68|293:112,1,59.9999981689454
281,197,302676,6,0,P|274:225|254:248,1,59.9999981689454
252,197,302803,2,0,P|236:222|210:237,1,59.9999981689454
223,190,302931,2,0,P|200:209|171:216,1,59.9999981689454
80,127,303059,6,0,B|54:153|54:153|33:192,1,59.9999981689454
16,283,303186,6,0,P|63:285|92:266,1,59.9999981689454
53,324,303314,2,0,P|92:297|104:265,1,59.9999981689454
263,335,303442,6,0,P|217:347|195:374,1,59.9999981689454
215,307,303570,2,0,P|185:343|184:378,1,59.9999981689454
80,199,303697,5,0,0:0:0:0:
72,189,303760,1,0,0:0:0:0:
66,179,303824,1,0,0:0:0:0:
63,167,303888,1,0,0:0:0:0:
12,110,303952,5,0,0:0:0:0:
20,101,304015,1,0,0:0:0:0:
29,93,304079,1,0,0:0:0:0:
39,87,304143,1,0,0:0:0:0:
87,27,304208,5,0,0:0:0:0:
97,33,304271,1,0,0:0:0:0:
107,41,304335,1,0,0:0:0:0:
114,51,304399,1,0,0:0:0:0:
121,60,304463,5,0,0:0:0:0:
149,112,304526,1,0,0:0:0:0:
155,171,304590,1,0,0:0:0:0:
140,229,304654,1,0,0:0:0:0:
122,286,304718,1,0,0:0:0:0:
127,343,304781,1,0,0:0:0:0:
177,371,304845,1,0,0:0:0:0:
228,345,304909,1,0,0:0:0:0:
288,293,304974,6,0,P|328:273|350:273,1,59.9999981689454
299,239,305101,2,0,P|343:232|364:239,1,59.9999981689454
354,118,305229,6,0,P|309:124|291:137,1,59.9999981689454
314,80,305356,2,0,P|273:99|260:117,1,59.9999981689454
182,51,305484,5,0,0:0:0:0:
170,48,305547,1,0,0:0:0:0:
158,48,305611,1,0,0:0:0:0:
146,51,305675,1,0,0:0:0:0:
135,56,305739,5,0,0:0:0:0:
88,93,305802,1,0,0:0:0:0:
65,148,305866,1,0,0:0:0:0:
71,207,305930,1,0,0:0:0:0:
105,256,305994,1,0,0:0:0:0:
158,282,306058,1,0,0:0:0:0:
217,280,306121,1,0,0:0:0:0:
269,248,306185,1,0,0:0:0:0:
304,183,306250,5,0,0:0:0:0:
313,167,306314,1,0,0:0:0:0:
377,133,306378,5,0,0:0:0:0:
374,114,306442,1,0,0:0:0:0:
447,170,306505,5,0,0:0:0:0:
438,186,306569,1,0,0:0:0:0:
374,220,306633,5,0,0:0:0:0:
377,239,306697,1,0,0:0:0:0:
302,262,306761,5,0,0:0:0:0:
285,268,306824,1,0,0:0:0:0:
267,270,306888,1,0,0:0:0:0:
249,269,306952,1,0,0:0:0:0:
232,264,307016,1,0,0:0:0:0:
216,255,307080,1,0,0:0:0:0:
203,242,307143,1,0,0:0:0:0:
193,227,307207,1,0,0:0:0:0:
182,213,307271,6,0,L|143:149,1,59.9999981689454
149,112,307399,2,0,L|188:176,1,59.9999981689454
265,145,307527,6,0,L|226:81,1,59.9999981689454
232,44,307655,2,0,L|271:108,1,59.9999981689454
366,132,307782,6,0,L|314:289,1,139.999995727539
213,352,308037,1,0,0:0:0:0:
106,75,308165,6,0,L|259:125,1,139.999995727539
360,49,308420,1,0,0:0:0:0:
108,342,308548,6,0,L|56:184,1,139.999995727539
97,72,308803,1,0,0:0:0:0:
296,60,308931,6,0,P|343:134|318:197,1,139.999995727539
370,314,309186,1,0,0:0:0:0:
247,171,309314,5,0,0:0:0:0:
21,32,309442,1,0,0:0:0:0:
66,200,309569,2,0,L|214:290,1,139.999995727539
197,280,309825,1,0,0:0:0:0:
384,143,309952,5,0,0:0:0:0:
158,4,310081,1,0,0:0:0:0:
203,172,310208,2,0,L|351:262,1,139.999995727539
334,252,310463,1,0,0:0:0:0:
111,332,310591,6,0,L|90:184,1,139.999995727539
222,33,310846,2,0,L|202:171,1,139.999995727539
257,291,311101,1,0,0:0:0:0:
262,303,311229,1,0,0:0:0:0:
198,131,311357,5,0,0:0:0:0:
190,133,311484,2,0,B|138:149|138:149|123:142|123:142|100:168|49:162,1,139.999995727539
306,200,311739,1,0,0:0:0:0:
314,202,311866,2,0,B|366:218|366:218|381:211|381:211|404:237|455:231,1,139.999995727539
141,217,312122,2,0,B|125:165|125:165|132:150|132:150|106:127|112:76,1,139.999995727539
203,30,312378,6,0,P|240:37|291:48,3,69.9999978637696
205,119,312633,1,0,0:0:0:0:
227,154,312696,1,0,0:0:0:0:
263,174,312760,1,0,0:0:0:0:
305,176,312824,1,0,0:0:0:0:
349,170,312888,6,0,B|325:144|325:144|309:98,3,69.9999978637696
335,22,313144,1,0,0:0:0:0:
372,41,313207,1,0,0:0:0:0:
399,73,313271,1,0,0:0:0:0:
412,112,313335,1,0,0:0:0:0:
411,147,313399,5,0,0:0:0:0:
360,123,313462,1,0,0:0:0:0:
305,129,313526,1,0,0:0:0:0:
262,163,313590,1,0,0:0:0:0:
242,214,313654,1,0,0:0:0:0:
251,269,313718,1,0,0:0:0:0:
288,310,313781,1,0,0:0:0:0:
341,327,313845,1,0,0:0:0:0:
398,324,313910,6,0,P|381:269|388:217,2,80
475,174,314165,1,0,0:0:0:0:
309,184,314293,2,0,L|144:195,1,160
178,35,314548,1,0,0:0:0:0:
241,126,314676,2,0,B|276:198|276:198|252:291,1,160
150,348,314931,5,0,0:0:0:0:
136,339,315059,1,0,0:0:0:0:
104,221,315186,1,0,0:0:0:0:
90,230,315314,1,0,0:0:0:0:
39,147,315442,6,0,P|115:106|204:94,1,160
315,92,315697,1,0,0:0:0:0:
238,195,315825,1,0,0:0:0:0:
367,194,315952,6,0,P|328:271|262:332,1,160
181,313,316208,2,0,P|204:266|243:230,1,80
162,260,316335,2,0,P|198:223|247:200,1,80
160,203,316463,2,0,P|231:165|315:156,1,160
370,48,316718,2,0,B|295:66|295:66|201:76,1,160
64,73,316974,5,0,0:0:0:0:
29,260,317101,1,0,0:0:0:0:
189,153,317229,1,0,0:0:0:0:
154,340,317356,1,0,0:0:0:0:
274,240,317484,6,0,P|346:202|445:240,1,160
360,323,317739,6,0,B|308:313|263:325|263:325|220:326|194:315|194:315|105:332|20:305,1,320
16,218,318122,2,0,B|107:190|131:246|217:185|217:185|240:181|266:162|266:162|329:146,1,320
408,51,318505,2,0,B|345:57|260:44|260:44|187:72|121:61|121:61|84:56,1,320
86,347,318888,6,0,B|96:313|120:288|120:288|128:224|166:178|166:178|171:111|199:40,1,320
53,108,319271,2,0,P|61:197|184:46,1,480
344,283,320037,5,0,0:0:0:0:
367,149,320292,1,0,0:0:0:0:
370,124,320355,1,0,0:0:0:0:
373,99,320419,1,0,0:0:0:0:
376,74,320483,1,0,0:0:0:0:
379,49,320547,1,0,0:0:0:0:
379,49,320802,5,0,0:0:0:0:
159,260,321058,5,0,0:0:0:0:
135,81,321185,1,0,0:0:0:0:
269,285,321441,5,0,0:0:0:0:
276,278,321568,1,0,0:0:0:0:
276,278,321824,5,0,0:0:0:0:
282,270,321887,1,0,0:0:0:0:
288,262,321951,1,0,0:0:0:0:
294,253,322015,1,0,0:0:0:0:
298,244,322079,1,0,0:0:0:0:
126,277,322334,5,0,0:0:0:0:
82,152,322590,5,0,0:0:0:0:
197,184,322717,1,0,0:0:0:0:
143,44,322845,1,0,0:0:0:0:
306,295,323100,5,0,0:0:0:0:
403,222,323356,1,0,0:0:0:0:
406,187,323419,1,0,0:0:0:0:
393,155,323483,1,0,0:0:0:0:
367,132,323547,1,0,0:0:0:0:
333,123,323611,1,0,0:0:0:0:
206,84,323866,5,0,0:0:0:0:
250,209,324122,5,0,0:0:0:0:
135,177,324249,1,0,0:0:0:0:
351,73,324505,5,0,0:0:0:0:
351,73,324632,1,0,0:0:0:0:
346,82,324695,1,0,0:0:0:0:
344,91,324759,1,0,0:0:0:0:
342,101,324823,1,0,0:0:0:0:
347,110,324888,1,0,0:0:0:0:
351,120,324951,1,0,0:0:0:0:
353,129,325015,1,0,0:0:0:0:
354,139,325079,1,0,0:0:0:0:
354,149,325143,1,0,0:0:0:0:
352,159,325207,1,0,0:0:0:0:
349,169,325270,1,0,0:0:0:0:
345,178,325334,1,0,0:0:0:0:
341,187,325398,1,0,0:0:0:0:
333,205,325461,1,0,0:0:0:0:
329,224,325525,1,0,0:0:0:0:
330,244,325589,1,0,0:0:0:0:
338,263,325654,6,0,L|274:264,3,50
205,249,325909,2,0,P|212:213|235:191,3,50
274,128,326164,5,0,0:0:0:0:
243,112,326227,1,0,0:0:0:0:
208,109,326291,1,0,0:0:0:0:
175,121,326355,1,0,0:0:0:0:
133,104,326419,5,0,0:0:0:0:
151,127,326482,1,0,0:0:0:0:
156,156,326546,1,0,0:0:0:0:
146,184,326610,1,0,0:0:0:0:
128,214,326675,5,0,0:0:0:0:
127,253,326738,1,0,0:0:0:0:
149,285,326802,1,0,0:0:0:0:
186,298,326866,1,0,0:0:0:0:
247,299,326930,5,0,0:0:0:0:
243,289,326993,1,0,0:0:0:0:
240,279,327057,1,0,0:0:0:0:
238,270,327121,1,0,0:0:0:0:
237,260,327185,1,0,0:0:0:0:
237,250,327249,1,0,0:0:0:0:
240,240,327314,1,0,0:0:0:0:
244,230,327377,1,0,0:0:0:0:
247,220,327441,1,0,0:0:0:0:
249,211,327505,1,0,0:0:0:0:
250,201,327569,1,0,0:0:0:0:
250,191,327633,1,0,0:0:0:0:
232,166,327696,5,0,0:0:0:0:
228,136,327759,1,0,0:0:0:0:
234,107,327823,1,0,0:0:0:0:
250,82,327887,1,0,0:0:0:0:
273,63,327951,1,0,0:0:0:0:
302,54,328015,1,0,0:0:0:0:
332,56,328078,1,0,0:0:0:0:
359,67,328142,1,0,0:0:0:0:
381,87,328206,1,0,0:0:0:0:
395,114,328270,1,0,0:0:0:0:
398,144,328334,1,0,0:0:0:0:
392,173,328398,1,0,0:0:0:0:
370,191,328462,5,0,0:0:0:0:
359,181,328525,1,0,0:0:0:0:
346,173,328589,1,0,0:0:0:0:
332,167,328653,1,0,0:0:0:0:
317,165,328717,1,0,0:0:0:0:
302,165,328781,1,0,0:0:0:0:
287,168,328845,1,0,0:0:0:0:
273,174,328908,1,0,0:0:0:0:
258,178,328972,1,0,0:0:0:0:
243,179,329036,1,0,0:0:0:0:
228,177,329100,1,0,0:0:0:0:
214,172,329164,1,0,0:0:0:0:
170,158,329228,6,0,P|176:178|168:224,3,50
157,323,329483,2,0,L|220:315,1,50
173,340,329611,2,0,L|235:351,1,50
296,286,329739,5,0,0:0:0:0:
293,271,329802,1,0,0:0:0:0:
294,256,329866,1,0,0:0:0:0:
299,241,329930,1,0,0:0:0:0:
332,191,329994,5,0,0:0:0:0:
303,163,330057,1,0,0:0:0:0:
290,126,330121,1,0,0:0:0:0:
295,86,330185,1,0,0:0:0:0:
305,24,330249,6,0,L|368:32,1,50
321,7,330377,2,0,L|383:-4,1,50
331,115,330505,5,0,0:0:0:0:
316,119,330568,1,0,0:0:0:0:
302,122,330632,1,0,0:0:0:0:
286,122,330696,1,0,0:0:0:0:
252,132,330760,5,0,0:0:0:0:
213,140,330823,1,0,0:0:0:0:
175,129,330887,1,0,0:0:0:0:
146,102,330951,1,0,0:0:0:0:
134,65,331015,1,0,0:0:0:0:
140,26,331079,1,0,0:0:0:0:
214,54,331143,5,0,0:0:0:0:
189,85,331206,1,0,0:0:0:0:
175,122,331270,1,0,0:0:0:0:
171,162,331334,1,0,0:0:0:0:
179,201,331398,1,0,0:0:0:0:
197,237,331462,1,0,0:0:0:0:
208,270,331526,5,0,0:0:0:0:
216,298,331589,1,0,0:0:0:0:
214,328,331653,1,0,0:0:0:0:
200,354,331717,1,0,0:0:0:0:
178,374,331781,1,0,0:0:0:0:
150,384,331845,1,0,0:0:0:0:
120,384,331908,1,0,0:0:0:0:
93,372,331972,1,0,0:0:0:0:
66,357,332037,6,0,L|113:324,3,50
189,258,332292,6,0,L|296:169,1,119.999996337891
330,45,332547,1,0,0:0:0:0:
426,152,332675,1,0,0:0:0:0:
359,278,332802,1,0,0:0:0:0:
344,296,332865,1,0,0:0:0:0:
324,310,332929,1,0,0:0:0:0:
302,318,332993,1,0,0:0:0:0:
278,323,333058,1,0,0:0:0:0:
276,299,333121,1,0,0:0:0:0:
266,277,333185,1,0,0:0:0:0:
250,259,333249,1,0,0:0:0:0:
232,243,333313,2,0,P|201:231|151:229,1,59.9999981689454
185,316,333441,5,0,0:0:0:0:
220,320,333504,1,0,0:0:0:0:
255,312,333568,1,0,0:0:0:0:
285,293,333632,1,0,0:0:0:0:
306,264,333696,1,0,0:0:0:0:
316,230,333760,1,0,0:0:0:0:
319,194,333824,6,0,L|318:62,1,119.999996337891
214,13,334079,1,0,0:0:0:0:
193,68,334142,1,0,0:0:0:0:
142,95,334206,1,0,0:0:0:0:
84,82,334270,1,0,0:0:0:0:
9,100,334334,2,0,L|43:172,3,59.9999981689454
39,259,334590,5,0,0:0:0:0:
74,259,334653,1,0,0:0:0:0:
107,246,334717,1,0,0:0:0:0:
133,220,334781,1,0,0:0:0:0:
146,187,334845,1,0,0:0:0:0:
145,151,334909,1,0,0:0:0:0:
132,118,334973,1,0,0:0:0:0:
119,85,335036,1,0,0:0:0:0:
127,50,335100,1,0,0:0:0:0:
152,26,335164,1,0,0:0:0:0:
187,20,335228,1,0,0:0:0:0:
220,35,335292,1,0,0:0:0:0:
264,30,335356,5,0,0:0:0:0:
242,85,335419,1,0,0:0:0:0:
249,144,335483,1,0,0:0:0:0:
284,192,335547,1,0,0:0:0:0:
345,256,335611,6,0,P|366:221|366:169,1,69.9999978637696
238,96,335739,2,0,P|222:127|220:161,1,69.9999978637696
156,295,335866,5,0,0:0:0:0:
137,303,335930,1,0,0:0:0:0:
118,312,335994,1,0,0:0:0:0:
100,320,336057,1,0,0:0:0:0:
22,337,336122,6,0,L|40:262,3,59.9999981689454
114,203,336377,2,0,L|154:137,3,59.9999981689454
242,103,336632,2,0,L|300:52,3,59.9999981689454
119,35,336888,6,0,L|103:110,1,69.9999978637696
158,248,337015,2,0,L|209:305,1,69.9999978637696
359,323,337143,2,0,L|435:315,1,69.9999978637696
399,19,337271,6,0,L|415:97,1,80
358,242,337398,2,0,L|304:301,1,80
147,321,337526,2,0,L|67:312,1,80
256,192,375249,12,0,384377,0:0:0:0:
