osu file format v14

[General]
AudioFilename: audio.mp3
AudioLeadIn: 0
PreviewTime: 46411
Countdown: 0
SampleSet: Normal
StackLeniency: 0.7
Mode: 1
LetterboxInBreaks: 0
WidescreenStoryboard: 0

[Editor]
Bookmarks: 15811,31171,46531,61891,77251,85411,100291,104131,107971,111811,115651,131011,148291,163651,179011,186691,209731,242411,275092,307773,350667,375176
DistanceSpacing: 0.6
BeatDivisor: 4
GridSize: 32
TimelineZoom: 4.199996

[Metadata]
Title:Destroyer
TitleUnicode:Destroyer
Artist:Inferi
ArtistUnicode:Inferi
Creator:Nishizumi
Version:Annihilation
Source:
Tags:the path of apotheosis melodic death metal marathon
BeatmapID:1201269
BeatmapSetID:567140

[Difficulty]
HPDrainRate:4
CircleSize:2
OverallDifficulty:7
ApproachRate:5
SliderMultiplier:1.4
SliderTickRate:1

[Events]
//Background and Video events
0,0,"bg.jpg",0,120
//Break Periods
//Storyboard Layer 0 (Background)
//Storyboard Layer 1 (Fail)
//Storyboard Layer 2 (Pass)
//Storyboard Layer 3 (Foreground)
//Storyboard Sound Samples

[TimingPoints]
460,240,4,1,0,80,1,0
15820,-100,4,1,0,80,0,1
31180,-100,4,1,0,80,0,0
46540,-100,4,1,0,80,0,1
61900,-100,4,1,0,80,0,0
148240,-117.647058823529,4,1,0,80,0,0
178960,-100,4,1,0,80,0,0
209740,255.31914893617,4,1,0,30,1,0
209740,-94.0026320736981,4,1,0,30,0,0
209803,-133.333333333333,4,1,0,30,0,0
213761,-153.846153846154,4,1,0,30,0,0
217335,-161.290322580645,4,1,0,30,0,0
217591,-169.491525423729,4,1,0,30,0,0
217846,-178.571428571429,4,1,0,40,0,0
217974,-200,4,1,0,40,0,0
238271,-181.818181818182,4,1,0,45,0,0
240314,-166.666666666667,4,1,0,50,0,0
241335,-153.846153846154,4,1,0,60,0,0
241846,-142.857142857143,4,1,0,70,0,0
242357,-133.333333333333,4,1,0,80,0,0
275037,-100,4,1,0,80,0,0
291442,-100,4,1,0,80,0,1
307782,-100,4,1,0,80,0,0
320037,255.31914893617,3,1,0,80,1,0
320100,-106.382978723404,3,1,0,80,0,0
325909,-103.092783505155,3,1,0,80,0,0
326164,-100,3,1,0,80,0,1
338419,-100,3,1,0,80,0,0
362675,-99.009900990099,3,1,0,80,0,0
362739,-98.0392156862745,3,1,0,80,0,0
362802,-97.0873786407767,3,1,0,80,0,0
362866,-96.1538461538461,3,1,0,80,0,0
362930,-95.2380952380952,3,1,0,80,0,1
365739,-94.3396226415094,3,1,0,80,0,1
365802,-93.4579439252336,3,1,0,80,0,1
365866,-92.5925925925926,3,1,0,80,0,1
365930,-91.743119266055,3,1,0,80,0,1
365994,-90.9090909090909,3,1,0,80,0,1
368802,-90.0900900900901,3,1,0,80,0,1
368866,-89.2857142857143,3,1,0,80,0,1
368930,-88.4955752212389,3,1,0,80,0,1
368994,-87.719298245614,3,1,0,80,0,1
369058,-86.9565217391304,3,1,0,80,0,1
372058,-83.3333333333333,3,1,0,80,0,1
375185,-83.3333333333333,3,1,0,80,0,0
375951,-83.3333333333333,3,1,0,75,0,0
376717,-83.3333333333333,3,1,0,70,0,0
377483,-83.3333333333333,3,1,0,65,0,0
378249,-83.3333333333333,3,1,0,60,0,0
379015,-83.3333333333333,3,1,0,55,0,0
379781,-83.3333333333333,3,1,0,50,0,0
380547,-83.3333333333333,3,1,0,45,0,0
381313,-83.3333333333333,3,1,0,40,0,0
382079,-83.3333333333333,3,1,0,35,0,0
382845,-83.3333333333333,3,1,0,30,0,0
383611,-83.3333333333333,3,1,0,25,0,0
384377,-83.3333333333333,3,1,0,20,0,0

[HitObjects]
256,192,220,5,0,0:0:0:0:
256,192,280,1,0,0:0:0:0:
256,192,340,1,0,0:0:0:0:
256,192,400,1,0,0:0:0:0:
256,192,460,1,8,0:0:0:0:
256,192,700,1,0,0:0:0:0:
256,192,940,1,0,0:0:0:0:
256,192,1180,1,8,0:0:0:0:
256,192,1420,1,0,0:0:0:0:
256,192,1660,1,8,0:0:0:0:
256,192,1720,1,8,0:0:0:0:
256,192,1780,1,8,0:0:0:0:
256,192,1840,1,8,0:0:0:0:
256,192,1900,1,0,0:0:0:0:
256,192,2140,1,8,0:0:0:0:
256,192,2200,1,8,0:0:0:0:
256,192,2260,1,8,0:0:0:0:
256,192,2320,1,8,0:0:0:0:
256,192,2380,1,0,0:0:0:0:
256,192,2620,1,8,0:0:0:0:
256,192,2860,1,8,0:0:0:0:
256,192,3100,1,0,0:0:0:0:
256,192,3340,1,8,0:0:0:0:
256,192,3820,1,8,0:0:0:0:
256,192,4300,1,0,0:0:0:0:
256,192,5260,1,8,0:0:0:0:
256,192,6220,1,8,0:0:0:0:
256,192,6280,1,8,0:0:0:0:
256,192,6340,1,8,0:0:0:0:
256,192,6400,1,8,0:0:0:0:
256,192,6460,1,0,0:0:0:0:
256,192,6580,1,8,0:0:0:0:
256,192,6700,1,0,0:0:0:0:
256,192,6760,1,0,0:0:0:0:
256,192,6820,1,0,0:0:0:0:
256,192,6880,1,0,0:0:0:0:
256,192,6940,1,8,0:0:0:0:
256,192,7060,1,8,0:0:0:0:
256,192,7180,1,0,0:0:0:0:
256,192,7240,1,8,0:0:0:0:
256,192,7300,1,8,0:0:0:0:
256,192,7360,1,8,0:0:0:0:
256,192,7420,1,0,0:0:0:0:
256,192,7480,1,0,0:0:0:0:
256,192,7540,1,8,0:0:0:0:
256,192,7600,1,0,0:0:0:0:
256,192,7660,1,8,0:0:0:0:
256,192,7780,1,8,0:0:0:0:
256,192,7900,1,0,0:0:0:0:
256,192,8020,1,0,0:0:0:0:
256,192,8140,1,12,0:0:0:0:
256,192,8380,1,0,0:0:0:0:
256,192,8620,1,0,0:0:0:0:
256,192,8860,1,8,0:0:0:0:
256,192,9100,1,0,0:0:0:0:
256,192,9340,1,0,0:0:0:0:
256,192,9400,1,0,0:0:0:0:
256,192,9460,1,0,0:0:0:0:
256,192,9520,1,0,0:0:0:0:
256,192,9580,1,8,0:0:0:0:
256,192,9820,1,8,0:0:0:0:
256,192,9880,1,8,0:0:0:0:
256,192,9940,1,8,0:0:0:0:
256,192,10000,1,8,0:0:0:0:
256,192,10060,1,0,0:0:0:0:
256,192,10300,1,8,0:0:0:0:
256,192,10540,1,8,0:0:0:0:
256,192,10780,1,0,0:0:0:0:
256,192,11020,1,8,0:0:0:0:
256,192,11500,1,8,0:0:0:0:
256,192,11980,1,0,0:0:0:0:
256,192,12940,1,8,0:0:0:0:
256,192,13900,1,8,0:0:0:0:
256,192,13960,1,8,0:0:0:0:
256,192,14020,1,8,0:0:0:0:
256,192,14080,1,8,0:0:0:0:
256,192,14140,1,0,0:0:0:0:
256,192,14200,1,0,0:0:0:0:
256,192,14260,1,0,0:0:0:0:
256,192,14320,1,0,0:0:0:0:
256,192,14380,1,8,0:0:0:0:
256,192,14440,1,8,0:0:0:0:
256,192,14500,1,8,0:0:0:0:
256,192,14560,1,8,0:0:0:0:
256,192,14620,1,0,0:0:0:0:
256,192,14680,1,0,0:0:0:0:
256,192,14740,1,0,0:0:0:0:
256,192,14800,1,0,0:0:0:0:
256,192,14860,1,8,0:0:0:0:
256,192,14920,1,8,0:0:0:0:
256,192,14980,1,0,0:0:0:0:
256,192,15040,1,0,0:0:0:0:
256,192,15100,1,8,0:0:0:0:
256,192,15160,1,0,0:0:0:0:
256,192,15220,1,8,0:0:0:0:
256,192,15280,1,8,0:0:0:0:
256,192,15340,1,0,0:0:0:0:
256,192,15400,1,0,0:0:0:0:
256,192,15460,1,0,0:0:0:0:
256,192,15520,1,0,0:0:0:0:
256,192,15580,1,8,0:0:0:0:
256,192,15820,1,8,0:0:0:0:
256,192,15880,1,8,0:0:0:0:
256,192,15940,1,8,0:0:0:0:
256,192,16000,1,8,0:0:0:0:
256,192,16060,1,0,0:0:0:0:
256,192,16120,1,0,0:0:0:0:
256,192,16180,1,0,0:0:0:0:
256,192,16240,1,0,0:0:0:0:
256,192,16300,1,8,0:0:0:0:
256,192,16360,1,8,0:0:0:0:
256,192,16420,1,0,0:0:0:0:
256,192,16480,1,0,0:0:0:0:
256,192,16540,1,8,0:0:0:0:
256,192,16600,1,0,0:0:0:0:
256,192,16660,1,8,0:0:0:0:
256,192,16720,1,0,0:0:0:0:
256,192,16780,1,8,0:0:0:0:
256,192,16840,1,0,0:0:0:0:
256,192,16900,1,0,0:0:0:0:
256,192,16960,1,0,0:0:0:0:
256,192,17020,1,8,0:0:0:0:
256,192,17080,1,8,0:0:0:0:
256,192,17140,1,8,0:0:0:0:
256,192,17200,1,8,0:0:0:0:
256,192,17260,1,0,0:0:0:0:
256,192,17320,1,0,0:0:0:0:
256,192,17380,1,0,0:0:0:0:
256,192,17440,1,0,0:0:0:0:
256,192,17500,1,8,0:0:0:0:
256,192,17560,1,0,0:0:0:0:
256,192,17620,1,8,0:0:0:0:
256,192,17680,1,0,0:0:0:0:
256,192,17740,1,8,0:0:0:0:
256,192,17800,1,0,0:0:0:0:
256,192,17860,1,0,0:0:0:0:
256,192,17920,1,0,0:0:0:0:
256,192,17980,1,8,0:0:0:0:
256,192,18040,1,8,0:0:0:0:
256,192,18100,1,0,0:0:0:0:
256,192,18160,1,0,0:0:0:0:
256,192,18220,1,8,0:0:0:0:
256,192,18280,1,0,0:0:0:0:
256,192,18340,1,0,0:0:0:0:
256,192,18400,1,0,0:0:0:0:
256,192,18460,1,8,0:0:0:0:
256,192,18520,1,8,0:0:0:0:
256,192,18580,1,0,0:0:0:0:
256,192,18640,1,0,0:0:0:0:
256,192,18700,1,8,0:0:0:0:
256,192,18760,1,8,0:0:0:0:
256,192,18820,1,8,0:0:0:0:
256,192,18880,1,8,0:0:0:0:
256,192,18940,1,0,0:0:0:0:
256,192,19000,1,0,0:0:0:0:
256,192,19060,1,0,0:0:0:0:
256,192,19120,1,0,0:0:0:0:
256,192,19180,1,8,0:0:0:0:
256,192,19240,1,0,0:0:0:0:
256,192,19300,1,8,0:0:0:0:
256,192,19360,1,8,0:0:0:0:
256,192,19420,1,0,0:0:0:0:
256,192,19480,1,0,0:0:0:0:
256,192,19540,1,8,0:0:0:0:
256,192,19660,1,8,0:0:0:0:
256,192,19720,1,8,0:0:0:0:
256,192,19780,1,8,0:0:0:0:
256,192,19840,1,8,0:0:0:0:
256,192,19900,1,0,0:0:0:0:
256,192,19960,1,0,0:0:0:0:
256,192,20020,1,8,0:0:0:0:
256,192,20080,1,8,0:0:0:0:
256,192,20140,1,0,0:0:0:0:
256,192,20200,1,0,0:0:0:0:
256,192,20260,1,8,0:0:0:0:
256,192,20320,1,0,0:0:0:0:
256,192,20380,1,8,0:0:0:0:
256,192,20440,1,8,0:0:0:0:
256,192,20500,1,0,0:0:0:0:
256,192,20560,1,0,0:0:0:0:
256,192,20620,1,8,0:0:0:0:
256,192,20680,1,8,0:0:0:0:
256,192,20740,1,8,0:0:0:0:
256,192,20800,1,8,0:0:0:0:
256,192,20860,1,0,0:0:0:0:
256,192,20920,1,0,0:0:0:0:
256,192,20980,1,8,0:0:0:0:
256,192,21040,1,8,0:0:0:0:
256,192,21100,1,0,0:0:0:0:
256,192,21160,1,0,0:0:0:0:
256,192,21220,1,8,0:0:0:0:
256,192,21280,1,0,0:0:0:0:
256,192,21340,1,8,0:0:0:0:
256,192,21400,1,8,0:0:0:0:
256,192,21460,1,0,0:0:0:0:
256,192,21520,1,0,0:0:0:0:
256,192,21580,1,8,0:0:0:0:
256,192,21640,1,8,0:0:0:0:
256,192,21700,1,8,0:0:0:0:
256,192,21760,1,8,0:0:0:0:
256,192,21820,1,0,0:0:0:0:
256,192,21880,1,0,0:0:0:0:
256,192,21940,1,8,0:0:0:0:
256,192,22000,1,8,0:0:0:0:
256,192,22060,1,0,0:0:0:0:
256,192,22120,1,0,0:0:0:0:
256,192,22180,1,8,0:0:0:0:
256,192,22240,1,0,0:0:0:0:
256,192,22300,1,8,0:0:0:0:
256,192,22360,1,8,0:0:0:0:
256,192,22420,1,0,0:0:0:0:
256,192,22480,1,0,0:0:0:0:
256,192,22540,1,8,0:0:0:0:
256,192,22600,1,8,0:0:0:0:
256,192,22660,1,8,0:0:0:0:
256,192,22720,1,8,0:0:0:0:
256,192,22780,1,0,0:0:0:0:
256,192,22840,1,0,0:0:0:0:
256,192,22900,1,8,0:0:0:0:
256,192,22960,1,0,0:0:0:0:
256,192,23020,1,8,0:0:0:0:
256,192,23080,1,8,0:0:0:0:
256,192,23140,1,8,0:0:0:0:
256,192,23200,1,8,0:0:0:0:
256,192,23260,1,8,0:0:0:0:
256,192,23320,1,8,0:0:0:0:
256,192,23380,1,0,0:0:0:0:
256,192,23500,1,8,0:0:0:0:
256,192,23560,1,8,0:0:0:0:
256,192,23620,1,8,0:0:0:0:
256,192,23680,1,8,0:0:0:0:
256,192,23740,1,0,0:0:0:0:
256,192,23800,1,0,0:0:0:0:
256,192,23860,1,8,0:0:0:0:
256,192,23920,1,8,0:0:0:0:
256,192,23980,1,0,0:0:0:0:
256,192,24040,1,0,0:0:0:0:
256,192,24100,1,8,0:0:0:0:
256,192,24160,1,0,0:0:0:0:
256,192,24220,1,8,0:0:0:0:
256,192,24280,1,0,0:0:0:0:
256,192,24340,1,0,0:0:0:0:
256,192,24400,1,0,0:0:0:0:
256,192,24460,1,8,0:0:0:0:
256,192,24520,1,8,0:0:0:0:
256,192,24580,1,0,0:0:0:0:
256,192,24640,1,0,0:0:0:0:
256,192,24700,1,8,0:0:0:0:
256,192,24760,1,8,0:0:0:0:
256,192,24820,1,8,0:0:0:0:
256,192,24880,1,0,0:0:0:0:
256,192,24940,1,8,0:0:0:0:
256,192,25000,1,0,0:0:0:0:
256,192,25060,1,0,0:0:0:0:
256,192,25120,1,0,0:0:0:0:
256,192,25180,1,8,0:0:0:0:
256,192,25240,1,8,0:0:0:0:
256,192,25300,1,8,0:0:0:0:
256,192,25360,1,8,0:0:0:0:
256,192,25420,1,0,0:0:0:0:
256,192,25480,1,0,0:0:0:0:
256,192,25540,1,0,0:0:0:0:
256,192,25600,1,0,0:0:0:0:
256,192,25660,1,8,0:0:0:0:
256,192,25720,1,0,0:0:0:0:
256,192,25780,1,8,0:0:0:0:
256,192,25840,1,8,0:0:0:0:
256,192,25900,1,0,0:0:0:0:
256,192,25960,1,0,0:0:0:0:
256,192,26020,1,0,0:0:0:0:
256,192,26080,1,0,0:0:0:0:
256,192,26140,1,8,0:0:0:0:
256,192,26200,1,8,0:0:0:0:
256,192,26260,1,8,0:0:0:0:
256,192,26320,1,0,0:0:0:0:
256,192,26380,1,8,0:0:0:0:
256,192,26440,1,0,0:0:0:0:
256,192,26500,1,0,0:0:0:0:
256,192,26560,1,0,0:0:0:0:
256,192,26620,1,8,0:0:0:0:
256,192,26680,1,8,0:0:0:0:
256,192,26740,1,0,0:0:0:0:
256,192,26800,1,0,0:0:0:0:
256,192,26860,1,8,0:0:0:0:
256,192,26920,1,8,0:0:0:0:
256,192,26980,1,8,0:0:0:0:
256,192,27040,1,8,0:0:0:0:
256,192,27100,1,0,0:0:0:0:
256,192,27160,1,0,0:0:0:0:
256,192,27220,1,8,0:0:0:0:
256,192,27340,1,8,0:0:0:0:
256,192,27400,1,8,0:0:0:0:
256,192,27460,1,8,0:0:0:0:
256,192,27520,1,8,0:0:0:0:
256,192,27580,1,0,0:0:0:0:
256,192,27640,1,0,0:0:0:0:
256,192,27700,1,8,0:0:0:0:
256,192,27760,1,0,0:0:0:0:
256,192,27820,1,8,0:0:0:0:
256,192,27880,1,0,0:0:0:0:
256,192,27940,1,8,0:0:0:0:
256,192,28000,1,0,0:0:0:0:
256,192,28060,1,8,0:0:0:0:
256,192,28120,1,8,0:0:0:0:
256,192,28180,1,0,0:0:0:0:
256,192,28240,1,0,0:0:0:0:
256,192,28300,1,8,0:0:0:0:
256,192,28360,1,8,0:0:0:0:
256,192,28420,1,8,0:0:0:0:
256,192,28480,1,8,0:0:0:0:
256,192,28540,1,0,0:0:0:0:
256,192,28600,1,0,0:0:0:0:
256,192,28660,1,8,0:0:0:0:
256,192,28720,1,0,0:0:0:0:
256,192,28780,1,8,0:0:0:0:
256,192,28840,1,0,0:0:0:0:
256,192,28900,1,8,0:0:0:0:
256,192,28960,1,0,0:0:0:0:
256,192,29020,1,8,0:0:0:0:
256,192,29080,1,8,0:0:0:0:
256,192,29140,1,0,0:0:0:0:
256,192,29200,1,0,0:0:0:0:
256,192,29260,1,8,0:0:0:0:
256,192,29320,1,0,0:0:0:0:
256,192,29380,1,8,0:0:0:0:
256,192,29440,1,8,0:0:0:0:
256,192,29500,1,8,0:0:0:0:
256,192,29560,1,0,0:0:0:0:
256,192,29620,1,8,0:0:0:0:
256,192,29680,1,8,0:0:0:0:
256,192,29740,1,0,0:0:0:0:
256,192,29800,1,0,0:0:0:0:
256,192,29860,1,8,0:0:0:0:
256,192,29920,1,8,0:0:0:0:
256,192,29980,1,0,0:0:0:0:
256,192,30040,1,0,0:0:0:0:
256,192,30100,1,0,0:0:0:0:
256,192,30160,1,0,0:0:0:0:
256,192,30220,1,8,0:0:0:0:
256,192,30280,1,8,0:0:0:0:
256,192,30340,1,8,0:0:0:0:
256,192,30400,1,8,0:0:0:0:
256,192,30460,1,0,0:0:0:0:
256,192,30520,1,0,0:0:0:0:
256,192,30580,1,0,0:0:0:0:
256,192,30640,1,0,0:0:0:0:
256,192,30700,1,8,0:0:0:0:
256,192,30760,1,8,0:0:0:0:
256,192,30820,1,0,0:0:0:0:
256,192,30880,1,0,0:0:0:0:
256,192,30940,1,8,0:0:0:0:
256,192,31000,1,8,0:0:0:0:
256,192,31060,1,8,0:0:0:0:
256,192,31120,1,8,0:0:0:0:
256,192,31180,1,0,0:0:0:0:
256,192,31420,1,0,0:0:0:0:
256,192,31540,1,8,0:0:0:0:
256,192,31660,1,0,0:0:0:0:
256,192,31780,1,0,0:0:0:0:
256,192,31840,1,0,0:0:0:0:
256,192,31900,1,0,0:0:0:0:
256,192,32020,1,8,0:0:0:0:
256,192,32140,1,0,0:0:0:0:
256,192,32260,1,8,0:0:0:0:
256,192,32320,1,8,0:0:0:0:
256,192,32380,1,0,0:0:0:0:
256,192,32500,1,8,0:0:0:0:
256,192,32620,1,8,0:0:0:0:
256,192,32680,1,0,0:0:0:0:
256,192,32740,1,8,0:0:0:0:
256,192,32860,1,0,0:0:0:0:
256,192,32920,1,0,0:0:0:0:
256,192,32980,1,8,0:0:0:0:
256,192,33100,1,0,0:0:0:0:
256,192,33160,1,0,0:0:0:0:
256,192,33220,1,0,0:0:0:0:
256,192,33280,1,0,0:0:0:0:
256,192,33340,1,8,0:0:0:0:
256,192,33400,1,0,0:0:0:0:
256,192,33460,1,8,0:0:0:0:
256,192,33520,1,8,0:0:0:0:
256,192,33580,1,0,0:0:0:0:
256,192,33640,1,0,0:0:0:0:
256,192,33700,1,8,0:0:0:0:
256,192,33760,1,8,0:0:0:0:
256,192,33820,1,0,0:0:0:0:
256,192,33880,1,0,0:0:0:0:
256,192,33940,1,8,0:0:0:0:
256,192,34060,1,8,0:0:0:0:
256,192,34120,1,8,0:0:0:0:
256,192,34180,1,0,0:0:0:0:
256,192,34240,1,0,0:0:0:0:
256,192,34300,1,8,0:0:0:0:
256,192,34360,1,8,0:0:0:0:
256,192,34420,1,0,0:0:0:0:
256,192,34480,1,0,0:0:0:0:
256,192,34540,1,8,0:0:0:0:
256,192,34600,1,0,0:0:0:0:
256,192,34660,1,0,0:0:0:0:
256,192,34720,1,0,0:0:0:0:
256,192,34780,1,8,0:0:0:0:
256,192,34840,1,8,0:0:0:0:
256,192,34900,1,8,0:0:0:0:
256,192,34960,1,8,0:0:0:0:
256,192,35020,1,0,0:0:0:0:
256,192,35260,1,0,0:0:0:0:
256,192,35380,1,8,0:0:0:0:
256,192,35500,1,0,0:0:0:0:
256,192,35620,1,8,0:0:0:0:
256,192,35680,1,8,0:0:0:0:
256,192,35740,1,0,0:0:0:0:
256,192,35860,1,8,0:0:0:0:
256,192,35980,1,0,0:0:0:0:
256,192,36100,1,0,0:0:0:0:
256,192,36160,1,0,0:0:0:0:
256,192,36220,1,8,0:0:0:0:
256,192,36340,1,8,0:0:0:0:
256,192,36460,1,0,0:0:0:0:
256,192,36520,1,0,0:0:0:0:
256,192,36580,1,8,0:0:0:0:
256,192,36700,1,0,0:0:0:0:
256,192,36760,1,0,0:0:0:0:
256,192,36820,1,8,0:0:0:0:
256,192,36940,1,0,0:0:0:0:
256,192,37000,1,0,0:0:0:0:
256,192,37060,1,0,0:0:0:0:
256,192,37120,1,0,0:0:0:0:
256,192,37180,1,8,0:0:0:0:
256,192,37240,1,0,0:0:0:0:
256,192,37300,1,8,0:0:0:0:
256,192,37360,1,8,0:0:0:0:
256,192,37420,1,0,0:0:0:0:
256,192,37480,1,0,0:0:0:0:
256,192,37540,1,8,0:0:0:0:
256,192,37600,1,8,0:0:0:0:
256,192,37660,1,0,0:0:0:0:
256,192,37720,1,0,0:0:0:0:
256,192,37780,1,8,0:0:0:0:
256,192,37900,1,0,0:0:0:0:
256,192,37960,1,0,0:0:0:0:
256,192,38020,1,8,0:0:0:0:
256,192,38080,1,0,0:0:0:0:
256,192,38140,1,0,0:0:0:0:
256,192,38200,1,0,0:0:0:0:
256,192,38260,1,8,0:0:0:0:
256,192,38320,1,8,0:0:0:0:
256,192,38380,1,0,0:0:0:0:
256,192,38440,1,0,0:0:0:0:
256,192,38500,1,8,0:0:0:0:
256,192,38560,1,0,0:0:0:0:
256,192,38620,1,8,0:0:0:0:
256,192,38680,1,8,0:0:0:0:
256,192,38740,1,8,0:0:0:0:
256,192,38800,1,8,0:0:0:0:
256,192,38860,1,0,0:0:0:0:
256,192,39100,1,0,0:0:0:0:
256,192,39220,1,8,0:0:0:0:
256,192,39340,1,0,0:0:0:0:
256,192,39460,1,8,0:0:0:0:
256,192,39520,1,8,0:0:0:0:
256,192,39580,1,0,0:0:0:0:
256,192,39700,1,8,0:0:0:0:
256,192,39820,1,0,0:0:0:0:
256,192,39940,1,0,0:0:0:0:
256,192,40000,1,0,0:0:0:0:
256,192,40060,1,0,0:0:0:0:
256,192,40180,1,8,0:0:0:0:
256,192,40300,1,0,0:0:0:0:
256,192,40360,1,0,0:0:0:0:
256,192,40420,1,8,0:0:0:0:
256,192,40480,1,8,0:0:0:0:
256,192,40540,1,8,0:0:0:0:
256,192,40660,1,0,0:0:0:0:
256,192,40780,1,8,0:0:0:0:
256,192,40840,1,8,0:0:0:0:
256,192,40900,1,0,0:0:0:0:
256,192,40960,1,0,0:0:0:0:
256,192,41020,1,8,0:0:0:0:
256,192,41080,1,0,0:0:0:0:
256,192,41140,1,8,0:0:0:0:
256,192,41200,1,0,0:0:0:0:
256,192,41260,1,8,0:0:0:0:
256,192,41320,1,8,0:0:0:0:
256,192,41380,1,0,0:0:0:0:
256,192,41440,1,0,0:0:0:0:
256,192,41500,1,8,0:0:0:0:
256,192,41560,1,0,0:0:0:0:
256,192,41620,1,8,0:0:0:0:
256,192,41740,1,0,0:0:0:0:
256,192,41800,1,0,0:0:0:0:
256,192,41860,1,8,0:0:0:0:
256,192,41920,1,8,0:0:0:0:
256,192,41980,1,0,0:0:0:0:
256,192,42040,1,0,0:0:0:0:
256,192,42100,1,8,0:0:0:0:
256,192,42160,1,0,0:0:0:0:
256,192,42220,1,8,0:0:0:0:
256,192,42280,1,8,0:0:0:0:
256,192,42340,1,0,0:0:0:0:
256,192,42400,1,0,0:0:0:0:
256,192,42460,1,8,0:0:0:0:
256,192,42520,1,8,0:0:0:0:
256,192,42580,1,8,0:0:0:0:
256,192,42640,1,8,0:0:0:0:
256,192,42700,1,0,0:0:0:0:
256,192,42940,1,0,0:0:0:0:
256,192,43060,1,8,0:0:0:0:
256,192,43180,1,0,0:0:0:0:
256,192,43300,1,8,0:0:0:0:
256,192,43360,1,8,0:0:0:0:
256,192,43420,1,0,0:0:0:0:
256,192,43540,1,8,0:0:0:0:
256,192,43660,1,0,0:0:0:0:
256,192,43780,1,0,0:0:0:0:
256,192,43840,1,0,0:0:0:0:
256,192,43900,1,0,0:0:0:0:
256,192,44020,1,8,0:0:0:0:
256,192,44140,1,0,0:0:0:0:
256,192,44200,1,0,0:0:0:0:
256,192,44260,1,8,0:0:0:0:
256,192,44320,1,8,0:0:0:0:
256,192,44380,1,0,0:0:0:0:
256,192,44440,1,0,0:0:0:0:
256,192,44500,1,8,0:0:0:0:
256,192,44620,1,12,0:0:0:0:
256,192,44860,1,4,0:0:0:0:
256,192,45100,1,8,0:0:0:0:
256,192,45160,1,8,0:0:0:0:
256,192,45220,1,0,0:0:0:0:
256,192,45280,1,0,0:0:0:0:
256,192,45340,1,8,0:0:0:0:
256,192,45400,1,8,0:0:0:0:
256,192,45460,1,0,0:0:0:0:
256,192,45580,1,12,0:0:0:0:
256,192,45820,1,4,0:0:0:0:
256,192,46060,1,4,0:0:0:0:
256,192,46540,1,8,0:0:0:0:
256,192,46600,1,0,0:0:0:0:
256,192,46660,1,8,0:0:0:0:
256,192,46720,1,0,0:0:0:0:
256,192,46780,1,8,0:0:0:0:
256,192,46840,1,0,0:0:0:0:
256,192,46900,1,8,0:0:0:0:
256,192,46960,1,0,0:0:0:0:
256,192,47020,1,8,0:0:0:0:
256,192,47080,1,8,0:0:0:0:
256,192,47140,1,0,0:0:0:0:
256,192,47200,1,0,0:0:0:0:
256,192,47260,1,8,0:0:0:0:
256,192,47320,1,8,0:0:0:0:
256,192,47380,1,8,0:0:0:0:
256,192,47440,1,8,0:0:0:0:
256,192,47500,1,0,0:0:0:0:
256,192,47560,1,0,0:0:0:0:
256,192,47620,1,0,0:0:0:0:
256,192,47680,1,0,0:0:0:0:
256,192,47740,1,8,0:0:0:0:
256,192,47800,1,0,0:0:0:0:
256,192,47860,1,8,0:0:0:0:
256,192,47920,1,0,0:0:0:0:
256,192,47980,1,8,0:0:0:0:
256,192,48040,1,8,0:0:0:0:
256,192,48100,1,0,0:0:0:0:
256,192,48160,1,0,0:0:0:0:
256,192,48220,1,8,0:0:0:0:
256,192,48280,1,8,0:0:0:0:
256,192,48340,1,8,0:0:0:0:
256,192,48400,1,8,0:0:0:0:
256,192,48460,1,0,0:0:0:0:
256,192,48520,1,0,0:0:0:0:
256,192,48580,1,0,0:0:0:0:
256,192,48640,1,0,0:0:0:0:
256,192,48700,1,8,0:0:0:0:
256,192,48760,1,8,0:0:0:0:
256,192,48820,1,0,0:0:0:0:
256,192,48880,1,0,0:0:0:0:
256,192,48940,1,8,0:0:0:0:
256,192,49000,1,8,0:0:0:0:
256,192,49060,1,8,0:0:0:0:
256,192,49120,1,8,0:0:0:0:
256,192,49180,1,0,0:0:0:0:
256,192,49240,1,0,0:0:0:0:
256,192,49300,1,0,0:0:0:0:
256,192,49360,1,0,0:0:0:0:
256,192,49420,1,8,0:0:0:0:
256,192,49480,1,8,0:0:0:0:
256,192,49540,1,8,0:0:0:0:
256,192,49600,1,8,0:0:0:0:
256,192,49660,1,8,0:0:0:0:
256,192,49720,1,8,0:0:0:0:
256,192,49780,1,8,0:0:0:0:
256,192,49840,1,8,0:0:0:0:
256,192,49900,1,0,0:0:0:0:
256,192,49960,1,0,0:0:0:0:
256,192,50020,1,0,0:0:0:0:
256,192,50080,1,0,0:0:0:0:
256,192,50140,1,8,0:0:0:0:
256,192,50200,1,8,0:0:0:0:
256,192,50260,1,0,0:0:0:0:
256,192,50380,1,0,0:0:0:0:
256,192,50440,1,0,0:0:0:0:
256,192,50500,1,0,0:0:0:0:
256,192,50560,1,0,0:0:0:0:
256,192,50620,1,8,0:0:0:0:
256,192,50680,1,0,0:0:0:0:
256,192,50740,1,8,0:0:0:0:
256,192,50800,1,0,0:0:0:0:
256,192,50860,1,8,0:0:0:0:
256,192,50920,1,8,0:0:0:0:
256,192,50980,1,0,0:0:0:0:
256,192,51040,1,0,0:0:0:0:
256,192,51100,1,8,0:0:0:0:
256,192,51160,1,8,0:0:0:0:
256,192,51220,1,0,0:0:0:0:
256,192,51280,1,0,0:0:0:0:
256,192,51340,1,8,0:0:0:0:
256,192,51400,1,8,0:0:0:0:
256,192,51460,1,8,0:0:0:0:
256,192,51520,1,8,0:0:0:0:
256,192,51580,1,0,0:0:0:0:
256,192,51640,1,0,0:0:0:0:
256,192,51700,1,0,0:0:0:0:
256,192,51760,1,0,0:0:0:0:
256,192,51820,1,8,0:0:0:0:
256,192,51880,1,8,0:0:0:0:
256,192,51940,1,0,0:0:0:0:
256,192,52000,1,0,0:0:0:0:
256,192,52060,1,8,0:0:0:0:
256,192,52120,1,8,0:0:0:0:
256,192,52180,1,0,0:0:0:0:
256,192,52240,1,0,0:0:0:0:
256,192,52300,1,8,0:0:0:0:
256,192,52360,1,0,0:0:0:0:
256,192,52420,1,8,0:0:0:0:
256,192,52480,1,0,0:0:0:0:
256,192,52540,1,8,0:0:0:0:
256,192,52600,1,8,0:0:0:0:
256,192,52660,1,0,0:0:0:0:
256,192,52720,1,0,0:0:0:0:
256,192,52780,1,8,0:0:0:0:
256,192,52840,1,0,0:0:0:0:
256,192,52900,1,8,0:0:0:0:
256,192,52960,1,0,0:0:0:0:
256,192,53020,1,8,0:0:0:0:
256,192,53080,1,8,0:0:0:0:
256,192,53140,1,0,0:0:0:0:
256,192,53200,1,0,0:0:0:0:
256,192,53260,1,8,0:0:0:0:
256,192,53320,1,0,0:0:0:0:
256,192,53380,1,8,0:0:0:0:
256,192,53440,1,0,0:0:0:0:
256,192,53500,1,8,0:0:0:0:
256,192,53560,1,8,0:0:0:0:
256,192,53620,1,8,0:0:0:0:
256,192,53680,1,8,0:0:0:0:
256,192,53740,1,0,0:0:0:0:
256,192,53800,1,0,0:0:0:0:
256,192,53860,1,0,0:0:0:0:
256,192,53920,1,0,0:0:0:0:
256,192,53980,1,8,0:0:0:0:
256,192,54040,1,8,0:0:0:0:
256,192,54100,1,8,0:0:0:0:
256,192,54160,1,8,0:0:0:0:
256,192,54220,1,0,0:0:0:0:
256,192,54340,1,8,0:0:0:0:
256,192,54460,1,8,0:0:0:0:
256,192,54580,1,8,0:0:0:0:
256,192,54700,1,4,0:0:0:0:
256,192,54940,1,8,0:0:0:0:
256,192,55180,1,8,0:0:0:0:
256,192,55240,1,0,0:0:0:0:
256,192,55300,1,8,0:0:0:0:
256,192,55360,1,0,0:0:0:0:
256,192,55420,1,8,0:0:0:0:
256,192,55480,1,0,0:0:0:0:
256,192,55540,1,8,0:0:0:0:
256,192,55600,1,0,0:0:0:0:
256,192,55660,1,8,0:0:0:0:
256,192,55720,1,8,0:0:0:0:
256,192,55780,1,0,0:0:0:0:
256,192,55840,1,0,0:0:0:0:
256,192,55900,1,8,0:0:0:0:
256,192,55960,1,8,0:0:0:0:
256,192,56020,1,0,0:0:0:0:
256,192,56080,1,0,0:0:0:0:
256,192,56140,1,8,0:0:0:0:
256,192,56200,1,0,0:0:0:0:
256,192,56260,1,0,0:0:0:0:
256,192,56320,1,0,0:0:0:0:
256,192,56380,1,8,0:0:0:0:
256,192,56440,1,8,0:0:0:0:
256,192,56500,1,0,0:0:0:0:
256,192,56560,1,0,0:0:0:0:
256,192,56620,1,8,0:0:0:0:
256,192,56680,1,8,0:0:0:0:
256,192,56740,1,8,0:0:0:0:
256,192,56800,1,8,0:0:0:0:
256,192,56860,1,0,0:0:0:0:
256,192,56920,1,0,0:0:0:0:
256,192,56980,1,0,0:0:0:0:
256,192,57040,1,0,0:0:0:0:
256,192,57100,1,8,0:0:0:0:
256,192,57160,1,8,0:0:0:0:
256,192,57220,1,8,0:0:0:0:
256,192,57280,1,8,0:0:0:0:
256,192,57340,1,8,0:0:0:0:
256,192,57400,1,8,0:0:0:0:
256,192,57460,1,8,0:0:0:0:
256,192,57520,1,8,0:0:0:0:
256,192,57580,1,0,0:0:0:0:
256,192,57640,1,0,0:0:0:0:
256,192,57700,1,0,0:0:0:0:
256,192,57760,1,0,0:0:0:0:
256,192,57820,1,8,0:0:0:0:
256,192,57880,1,8,0:0:0:0:
256,192,57940,1,0,0:0:0:0:
256,192,58060,1,8,0:0:0:0:
256,192,58120,1,0,0:0:0:0:
256,192,58180,1,8,0:0:0:0:
256,192,58240,1,0,0:0:0:0:
256,192,58300,1,8,0:0:0:0:
256,192,58360,1,8,0:0:0:0:
256,192,58420,1,0,0:0:0:0:
256,192,58480,1,0,0:0:0:0:
256,192,58540,1,8,0:0:0:0:
256,192,58600,1,8,0:0:0:0:
256,192,58660,1,8,0:0:0:0:
256,192,58720,1,8,0:0:0:0:
256,192,58780,1,0,0:0:0:0:
256,192,58840,1,0,0:0:0:0:
256,192,58900,1,0,0:0:0:0:
256,192,58960,1,0,0:0:0:0:
256,192,59020,1,8,0:0:0:0:
256,192,59080,1,0,0:0:0:0:
256,192,59140,1,8,0:0:0:0:
256,192,59200,1,0,0:0:0:0:
256,192,59260,1,8,0:0:0:0:
256,192,59320,1,8,0:0:0:0:
256,192,59380,1,0,0:0:0:0:
256,192,59440,1,0,0:0:0:0:
256,192,59500,1,8,0:0:0:0:
256,192,59560,1,8,0:0:0:0:
256,192,59620,1,8,0:0:0:0:
256,192,59680,1,8,0:0:0:0:
256,192,59740,1,0,0:0:0:0:
256,192,59800,1,0,0:0:0:0:
256,192,59860,1,0,0:0:0:0:
256,192,59920,1,0,0:0:0:0:
256,192,59980,1,8,0:0:0:0:
256,192,60040,1,8,0:0:0:0:
256,192,60100,1,0,0:0:0:0:
256,192,60160,1,0,0:0:0:0:
256,192,60220,1,8,0:0:0:0:
256,192,60280,1,0,0:0:0:0:
256,192,60340,1,0,0:0:0:0:
256,192,60400,1,0,0:0:0:0:
256,192,60460,1,8,0:0:0:0:
256,192,60520,1,8,0:0:0:0:
256,192,60580,1,8,0:0:0:0:
256,192,60640,1,8,0:0:0:0:
256,192,60700,1,0,0:0:0:0:
256,192,60760,1,0,0:0:0:0:
256,192,60820,1,0,0:0:0:0:
256,192,60880,1,0,0:0:0:0:
256,192,60940,1,8,0:0:0:0:
256,192,61000,1,8,0:0:0:0:
256,192,61060,1,0,0:0:0:0:
256,192,61120,1,0,0:0:0:0:
256,192,61180,1,8,0:0:0:0:
256,192,61240,1,8,0:0:0:0:
256,192,61300,1,0,0:0:0:0:
256,192,61360,1,0,0:0:0:0:
256,192,61420,1,8,0:0:0:0:
256,192,61660,1,8,0:0:0:0:
256,192,61780,1,8,0:0:0:0:
256,192,61900,1,4,0:0:0:0:
256,192,62020,1,0,0:0:0:0:
256,192,62140,1,8,0:0:0:0:
256,192,62200,1,8,0:0:0:0:
256,192,62260,1,8,0:0:0:0:
256,192,62380,1,0,0:0:0:0:
256,192,62500,1,0,0:0:0:0:
256,192,62620,1,8,0:0:0:0:
256,192,62680,1,8,0:0:0:0:
256,192,62740,1,8,0:0:0:0:
256,192,62860,1,0,0:0:0:0:
256,192,62920,1,0,0:0:0:0:
256,192,62980,1,0,0:0:0:0:
256,192,63040,1,0,0:0:0:0:
256,192,63100,1,0,0:0:0:0:
256,192,63220,1,8,0:0:0:0:
256,192,63340,1,0,0:0:0:0:
256,192,63460,1,8,0:0:0:0:
256,192,63580,1,8,0:0:0:0:
256,192,63700,1,0,0:0:0:0:
256,192,63820,1,0,0:0:0:0:
256,192,63940,1,0,0:0:0:0:
256,192,64060,1,8,0:0:0:0:
256,192,64120,1,8,0:0:0:0:
256,192,64180,1,8,0:0:0:0:
256,192,64300,1,0,0:0:0:0:
256,192,64420,1,0,0:0:0:0:
256,192,64540,1,8,0:0:0:0:
256,192,64600,1,8,0:0:0:0:
256,192,64660,1,8,0:0:0:0:
256,192,64780,1,0,0:0:0:0:
256,192,64900,1,0,0:0:0:0:
256,192,64960,1,0,0:0:0:0:
256,192,65020,1,8,0:0:0:0:
256,192,65140,1,8,0:0:0:0:
256,192,65260,1,0,0:0:0:0:
256,192,65380,1,8,0:0:0:0:
256,192,65500,1,8,0:0:0:0:
256,192,65620,1,8,0:0:0:0:
256,192,65740,1,0,0:0:0:0:
256,192,65800,1,0,0:0:0:0:
256,192,65860,1,0,0:0:0:0:
256,192,65920,1,0,0:0:0:0:
256,192,65980,1,8,0:0:0:0:
256,192,66040,1,8,0:0:0:0:
256,192,66100,1,8,0:0:0:0:
256,192,66160,1,8,0:0:0:0:
256,192,66220,1,0,0:0:0:0:
256,192,66280,1,0,0:0:0:0:
256,192,66340,1,0,0:0:0:0:
256,192,66400,1,0,0:0:0:0:
256,192,66460,1,8,0:0:0:0:
256,192,66520,1,8,0:0:0:0:
256,192,66580,1,0,0:0:0:0:
256,192,66640,1,0,0:0:0:0:
256,192,66700,1,8,0:0:0:0:
256,192,66760,1,0,0:0:0:0:
256,192,66820,1,0,0:0:0:0:
256,192,66880,1,0,0:0:0:0:
256,192,66940,1,8,0:0:0:0:
256,192,67000,1,0,0:0:0:0:
256,192,67060,1,8,0:0:0:0:
256,192,67120,1,8,0:0:0:0:
256,192,67180,1,0,0:0:0:0:
256,192,67240,1,0,0:0:0:0:
256,192,67300,1,8,0:0:0:0:
256,192,67360,1,0,0:0:0:0:
256,192,67420,1,0,0:0:0:0:
256,192,67480,1,0,0:0:0:0:
256,192,67540,1,8,0:0:0:0:
256,192,67660,1,0,0:0:0:0:
256,192,67720,1,0,0:0:0:0:
256,192,67780,1,0,0:0:0:0:
256,192,67840,1,0,0:0:0:0:
256,192,67900,1,8,0:0:0:0:
256,192,67960,1,8,0:0:0:0:
256,192,68020,1,8,0:0:0:0:
256,192,68080,1,8,0:0:0:0:
256,192,68140,1,0,0:0:0:0:
256,192,68200,1,0,0:0:0:0:
256,192,68260,1,0,0:0:0:0:
256,192,68320,1,0,0:0:0:0:
256,192,68380,1,8,0:0:0:0:
256,192,68440,1,8,0:0:0:0:
256,192,68500,1,0,0:0:0:0:
256,192,68560,1,0,0:0:0:0:
256,192,68620,1,8,0:0:0:0:
256,192,68680,1,0,0:0:0:0:
256,192,68740,1,0,0:0:0:0:
256,192,68800,1,0,0:0:0:0:
256,192,68860,1,8,0:0:0:0:
256,192,68920,1,0,0:0:0:0:
256,192,68980,1,8,0:0:0:0:
256,192,69040,1,8,0:0:0:0:
256,192,69100,1,0,0:0:0:0:
256,192,69160,1,0,0:0:0:0:
256,192,69220,1,8,0:0:0:0:
256,192,69280,1,8,0:0:0:0:
256,192,69340,1,0,0:0:0:0:
256,192,69400,1,0,0:0:0:0:
256,192,69460,1,8,0:0:0:0:
256,192,69520,1,8,0:0:0:0:
256,192,69580,1,0,0:0:0:0:
256,192,69700,1,0,0:0:0:0:
256,192,69820,1,8,0:0:0:0:
256,192,69880,1,8,0:0:0:0:
256,192,69940,1,8,0:0:0:0:
256,192,70060,1,0,0:0:0:0:
256,192,70180,1,0,0:0:0:0:
256,192,70300,1,8,0:0:0:0:
256,192,70360,1,8,0:0:0:0:
256,192,70420,1,8,0:0:0:0:
256,192,70540,1,0,0:0:0:0:
256,192,70600,1,0,0:0:0:0:
256,192,70660,1,0,0:0:0:0:
256,192,70720,1,0,0:0:0:0:
256,192,70780,1,0,0:0:0:0:
256,192,70900,1,8,0:0:0:0:
256,192,71020,1,0,0:0:0:0:
256,192,71140,1,8,0:0:0:0:
256,192,71260,1,8,0:0:0:0:
256,192,71380,1,0,0:0:0:0:
256,192,71500,1,0,0:0:0:0:
256,192,71620,1,0,0:0:0:0:
256,192,71740,1,8,0:0:0:0:
256,192,71800,1,8,0:0:0:0:
256,192,71860,1,8,0:0:0:0:
256,192,71980,1,0,0:0:0:0:
256,192,72100,1,0,0:0:0:0:
256,192,72220,1,8,0:0:0:0:
256,192,72280,1,8,0:0:0:0:
256,192,72340,1,8,0:0:0:0:
256,192,72460,1,0,0:0:0:0:
256,192,72580,1,0,0:0:0:0:
256,192,72640,1,0,0:0:0:0:
256,192,72700,1,8,0:0:0:0:
256,192,72820,1,8,0:0:0:0:
256,192,72940,1,0,0:0:0:0:
256,192,73060,1,8,0:0:0:0:
256,192,73180,1,8,0:0:0:0:
256,192,73300,1,8,0:0:0:0:
256,192,73420,1,0,0:0:0:0:
256,192,73480,1,0,0:0:0:0:
256,192,73540,1,0,0:0:0:0:
256,192,73600,1,0,0:0:0:0:
256,192,73660,1,8,0:0:0:0:
256,192,73720,1,8,0:0:0:0:
256,192,73780,1,8,0:0:0:0:
256,192,73840,1,8,0:0:0:0:
256,192,73900,1,0,0:0:0:0:
256,192,73960,1,0,0:0:0:0:
256,192,74020,1,0,0:0:0:0:
256,192,74080,1,0,0:0:0:0:
256,192,74140,1,8,0:0:0:0:
256,192,74200,1,8,0:0:0:0:
256,192,74260,1,0,0:0:0:0:
256,192,74320,1,0,0:0:0:0:
256,192,74380,1,8,0:0:0:0:
256,192,74440,1,0,0:0:0:0:
256,192,74500,1,0,0:0:0:0:
256,192,74560,1,0,0:0:0:0:
256,192,74620,1,8,0:0:0:0:
256,192,74680,1,0,0:0:0:0:
256,192,74740,1,8,0:0:0:0:
256,192,74800,1,8,0:0:0:0:
256,192,74860,1,0,0:0:0:0:
256,192,74920,1,0,0:0:0:0:
256,192,74980,1,8,0:0:0:0:
256,192,75040,1,0,0:0:0:0:
256,192,75100,1,0,0:0:0:0:
256,192,75160,1,0,0:0:0:0:
256,192,75220,1,8,0:0:0:0:
256,192,75340,1,0,0:0:0:0:
256,192,75400,1,0,0:0:0:0:
256,192,75460,1,0,0:0:0:0:
256,192,75520,1,0,0:0:0:0:
256,192,75580,1,8,0:0:0:0:
256,192,75640,1,0,0:0:0:0:
256,192,75700,1,8,0:0:0:0:
256,192,75760,1,8,0:0:0:0:
256,192,75820,1,0,0:0:0:0:
256,192,75880,1,0,0:0:0:0:
256,192,75940,1,0,0:0:0:0:
256,192,76000,1,0,0:0:0:0:
256,192,76060,1,8,0:0:0:0:
256,192,76120,1,8,0:0:0:0:
256,192,76180,1,0,0:0:0:0:
256,192,76240,1,0,0:0:0:0:
256,192,76300,1,8,0:0:0:0:
256,192,76360,1,0,0:0:0:0:
256,192,76420,1,0,0:0:0:0:
256,192,76480,1,0,0:0:0:0:
256,192,76540,1,8,0:0:0:0:
256,192,76600,1,0,0:0:0:0:
256,192,76660,1,8,0:0:0:0:
256,192,76720,1,8,0:0:0:0:
256,192,76780,1,0,0:0:0:0:
256,192,76840,1,0,0:0:0:0:
256,192,76900,1,8,0:0:0:0:
256,192,76960,1,8,0:0:0:0:
256,192,77020,1,0,0:0:0:0:
256,192,77080,1,0,0:0:0:0:
256,192,77140,1,8,0:0:0:0:
256,192,77200,1,8,0:0:0:0:
256,192,77260,1,0,0:0:0:0:
256,192,77380,1,0,0:0:0:0:
256,192,77500,1,8,0:0:0:0:
256,192,77560,1,8,0:0:0:0:
256,192,77620,1,0,0:0:0:0:
256,192,77740,1,8,0:0:0:0:
256,192,77860,1,0,0:0:0:0:
256,192,77980,1,8,0:0:0:0:
256,192,78040,1,8,0:0:0:0:
256,192,78100,1,0,0:0:0:0:
256,192,78220,1,8,0:0:0:0:
256,192,78340,1,0,0:0:0:0:
256,192,78460,1,0,0:0:0:0:
256,192,78580,1,8,0:0:0:0:
256,192,78640,1,8,0:0:0:0:
256,192,78700,1,0,0:0:0:0:
256,192,78760,1,0,0:0:0:0:
256,192,78820,1,8,0:0:0:0:
256,192,78880,1,0,0:0:0:0:
256,192,78940,1,0,0:0:0:0:
256,192,79000,1,0,0:0:0:0:
256,192,79060,1,8,0:0:0:0:
256,192,79120,1,8,0:0:0:0:
256,192,79180,1,0,0:0:0:0:
256,192,79300,1,0,0:0:0:0:
256,192,79420,1,8,0:0:0:0:
256,192,79480,1,8,0:0:0:0:
256,192,79540,1,0,0:0:0:0:
256,192,79660,1,8,0:0:0:0:
256,192,79780,1,0,0:0:0:0:
256,192,79900,1,0,0:0:0:0:
256,192,80020,1,8,0:0:0:0:
256,192,80140,1,8,0:0:0:0:
256,192,80200,1,8,0:0:0:0:
256,192,80260,1,0,0:0:0:0:
256,192,80320,1,0,0:0:0:0:
256,192,80380,1,8,0:0:0:0:
256,192,80440,1,0,0:0:0:0:
256,192,80500,1,8,0:0:0:0:
256,192,80560,1,0,0:0:0:0:
256,192,80620,1,8,0:0:0:0:
256,192,80680,1,8,0:0:0:0:
256,192,80740,1,0,0:0:0:0:
256,192,80800,1,0,0:0:0:0:
256,192,80860,1,8,0:0:0:0:
256,192,80920,1,0,0:0:0:0:
256,192,80980,1,8,0:0:0:0:
256,192,81040,1,8,0:0:0:0:
256,192,81100,1,0,0:0:0:0:
256,192,81220,1,0,0:0:0:0:
256,192,81340,1,8,0:0:0:0:
256,192,81400,1,8,0:0:0:0:
256,192,81460,1,0,0:0:0:0:
256,192,81580,1,8,0:0:0:0:
256,192,81700,1,0,0:0:0:0:
256,192,81820,1,8,0:0:0:0:
256,192,81880,1,8,0:0:0:0:
256,192,81940,1,0,0:0:0:0:
256,192,82060,1,8,0:0:0:0:
256,192,82180,1,0,0:0:0:0:
256,192,82300,1,0,0:0:0:0:
256,192,82420,1,8,0:0:0:0:
256,192,82480,1,8,0:0:0:0:
256,192,82540,1,0,0:0:0:0:
256,192,82600,1,0,0:0:0:0:
256,192,82660,1,8,0:0:0:0:
256,192,82720,1,0,0:0:0:0:
256,192,82780,1,0,0:0:0:0:
256,192,82840,1,0,0:0:0:0:
256,192,82900,1,8,0:0:0:0:
256,192,82960,1,8,0:0:0:0:
256,192,83020,1,0,0:0:0:0:
256,192,83140,1,0,0:0:0:0:
256,192,83260,1,8,0:0:0:0:
256,192,83320,1,8,0:0:0:0:
256,192,83380,1,0,0:0:0:0:
256,192,83500,1,0,0:0:0:0:
256,192,83620,1,8,0:0:0:0:
256,192,83740,1,8,0:0:0:0:
256,192,83860,1,0,0:0:0:0:
256,192,83920,1,0,0:0:0:0:
256,192,83980,1,0,0:0:0:0:
256,192,84100,1,8,0:0:0:0:
256,192,84220,1,0,0:0:0:0:
256,192,84280,1,0,0:0:0:0:
256,192,84340,1,0,0:0:0:0:
256,192,84460,1,0,0:0:0:0:
256,192,84580,1,8,0:0:0:0:
256,192,84700,1,8,0:0:0:0:
256,192,84760,1,0,0:0:0:0:
256,192,84820,1,8,0:0:0:0:
256,192,84940,1,0,0:0:0:0:
256,192,85180,1,8,0:0:0:0:
256,192,85300,1,8,0:0:0:0:
256,192,85420,1,0,0:0:0:0:
256,192,85540,1,0,0:0:0:0:
256,192,85600,1,0,0:0:0:0:
256,192,85660,1,8,0:0:0:0:
256,192,85780,1,8,0:0:0:0:
256,192,85900,1,0,0:0:0:0:
256,192,86020,1,0,0:0:0:0:
256,192,86080,1,0,0:0:0:0:
256,192,86140,1,0,0:0:0:0:
256,192,86260,1,8,0:0:0:0:
256,192,86380,1,0,0:0:0:0:
256,192,86440,1,0,0:0:0:0:
256,192,86500,1,8,0:0:0:0:
256,192,86620,1,0,0:0:0:0:
256,192,86740,1,0,0:0:0:0:
256,192,86860,1,8,0:0:0:0:
256,192,86920,1,8,0:0:0:0:
256,192,86980,1,0,0:0:0:0:
256,192,87040,1,0,0:0:0:0:
256,192,87100,1,8,0:0:0:0:
256,192,87220,1,0,0:0:0:0:
256,192,87340,1,8,0:0:0:0:
256,192,87460,1,0,0:0:0:0:
256,192,87520,1,0,0:0:0:0:
256,192,87580,1,0,0:0:0:0:
256,192,87700,1,8,0:0:0:0:
256,192,87820,1,0,0:0:0:0:
256,192,87940,1,0,0:0:0:0:
256,192,88000,1,0,0:0:0:0:
256,192,88060,1,8,0:0:0:0:
256,192,88180,1,0,0:0:0:0:
256,192,88300,1,8,0:0:0:0:
256,192,88360,1,8,0:0:0:0:
256,192,88420,1,8,0:0:0:0:
256,192,88540,1,0,0:0:0:0:
256,192,88660,1,8,0:0:0:0:
256,192,88780,1,0,0:0:0:0:
256,192,88840,1,0,0:0:0:0:
256,192,88900,1,0,0:0:0:0:
256,192,88960,1,0,0:0:0:0:
256,192,89020,1,8,0:0:0:0:
256,192,89080,1,8,0:0:0:0:
256,192,89140,1,8,0:0:0:0:
256,192,89200,1,8,0:0:0:0:
256,192,89260,1,0,0:0:0:0:
256,192,89320,1,0,0:0:0:0:
256,192,89380,1,0,0:0:0:0:
256,192,89440,1,0,0:0:0:0:
256,192,89500,1,8,0:0:0:0:
256,192,89560,1,8,0:0:0:0:
256,192,89620,1,0,0:0:0:0:
256,192,89680,1,0,0:0:0:0:
256,192,89740,1,8,0:0:0:0:
256,192,89800,1,0,0:0:0:0:
256,192,89860,1,0,0:0:0:0:
256,192,89920,1,0,0:0:0:0:
256,192,89980,1,8,0:0:0:0:
256,192,90040,1,0,0:0:0:0:
256,192,90100,1,8,0:0:0:0:
256,192,90160,1,8,0:0:0:0:
256,192,90220,1,0,0:0:0:0:
256,192,90280,1,0,0:0:0:0:
256,192,90340,1,8,0:0:0:0:
256,192,90400,1,0,0:0:0:0:
256,192,90460,1,0,0:0:0:0:
256,192,90520,1,0,0:0:0:0:
256,192,90580,1,8,0:0:0:0:
256,192,90700,1,0,0:0:0:0:
256,192,90760,1,0,0:0:0:0:
256,192,90820,1,0,0:0:0:0:
256,192,90880,1,0,0:0:0:0:
256,192,90940,1,8,0:0:0:0:
256,192,91000,1,0,0:0:0:0:
256,192,91060,1,8,0:0:0:0:
256,192,91120,1,8,0:0:0:0:
256,192,91180,1,0,0:0:0:0:
256,192,91240,1,0,0:0:0:0:
256,192,91300,1,0,0:0:0:0:
256,192,91360,1,0,0:0:0:0:
256,192,91420,1,8,0:0:0:0:
256,192,91480,1,8,0:0:0:0:
256,192,91540,1,0,0:0:0:0:
256,192,91600,1,0,0:0:0:0:
256,192,91660,1,8,0:0:0:0:
256,192,91720,1,0,0:0:0:0:
256,192,91780,1,0,0:0:0:0:
256,192,91840,1,0,0:0:0:0:
256,192,91900,1,8,0:0:0:0:
256,192,91960,1,0,0:0:0:0:
256,192,92020,1,8,0:0:0:0:
256,192,92080,1,8,0:0:0:0:
256,192,92140,1,0,0:0:0:0:
256,192,92200,1,0,0:0:0:0:
256,192,92260,1,8,0:0:0:0:
256,192,92320,1,8,0:0:0:0:
256,192,92380,1,0,0:0:0:0:
256,192,92440,1,0,0:0:0:0:
256,192,92500,1,8,0:0:0:0:
256,192,92560,1,8,0:0:0:0:
256,192,92620,1,0,0:0:0:0:
256,192,92860,1,8,0:0:0:0:
256,192,92980,1,8,0:0:0:0:
256,192,93100,1,0,0:0:0:0:
256,192,93220,1,0,0:0:0:0:
256,192,93280,1,0,0:0:0:0:
256,192,93340,1,8,0:0:0:0:
256,192,93460,1,8,0:0:0:0:
256,192,93580,1,0,0:0:0:0:
256,192,93640,1,0,0:0:0:0:
256,192,93700,1,0,0:0:0:0:
256,192,93820,1,0,0:0:0:0:
256,192,93940,1,8,0:0:0:0:
256,192,94060,1,0,0:0:0:0:
256,192,94120,1,0,0:0:0:0:
256,192,94180,1,8,0:0:0:0:
256,192,94300,1,0,0:0:0:0:
256,192,94420,1,0,0:0:0:0:
256,192,94540,1,8,0:0:0:0:
256,192,94600,1,8,0:0:0:0:
256,192,94660,1,0,0:0:0:0:
256,192,94780,1,8,0:0:0:0:
256,192,94900,1,0,0:0:0:0:
256,192,95020,1,0,0:0:0:0:
256,192,95080,1,0,0:0:0:0:
256,192,95140,1,8,0:0:0:0:
256,192,95260,1,8,0:0:0:0:
256,192,95380,1,0,0:0:0:0:
256,192,95500,1,0,0:0:0:0:
256,192,95560,1,0,0:0:0:0:
256,192,95620,1,8,0:0:0:0:
256,192,95680,1,8,0:0:0:0:
256,192,95740,1,0,0:0:0:0:
256,192,95860,1,8,0:0:0:0:
256,192,95980,1,0,0:0:0:0:
256,192,96100,1,8,0:0:0:0:
256,192,96160,1,8,0:0:0:0:
256,192,96220,1,0,0:0:0:0:
256,192,96340,1,8,0:0:0:0:
256,192,96460,1,0,0:0:0:0:
256,192,96700,1,8,0:0:0:0:
256,192,96820,1,8,0:0:0:0:
256,192,96940,1,0,0:0:0:0:
256,192,97060,1,0,0:0:0:0:
256,192,97120,1,0,0:0:0:0:
256,192,97180,1,8,0:0:0:0:
256,192,97300,1,8,0:0:0:0:
256,192,97420,1,0,0:0:0:0:
256,192,97480,1,0,0:0:0:0:
256,192,97540,1,0,0:0:0:0:
256,192,97660,1,0,0:0:0:0:
256,192,97780,1,8,0:0:0:0:
256,192,97840,1,8,0:0:0:0:
256,192,97900,1,0,0:0:0:0:
256,192,97960,1,0,0:0:0:0:
256,192,98020,1,8,0:0:0:0:
256,192,98080,1,0,0:0:0:0:
256,192,98140,1,8,0:0:0:0:
256,192,98260,1,0,0:0:0:0:
256,192,98380,1,12,0:0:0:0:
256,192,98620,1,4,0:0:0:0:
256,192,98860,1,8,0:0:0:0:
256,192,98920,1,8,0:0:0:0:
256,192,98980,1,0,0:0:0:0:
256,192,99040,1,0,0:0:0:0:
256,192,99100,1,8,0:0:0:0:
256,192,99160,1,8,0:0:0:0:
256,192,99220,1,0,0:0:0:0:
256,192,99340,1,12,0:0:0:0:
256,192,99580,1,4,0:0:0:0:
256,192,99820,1,4,0:0:0:0:
96,128,100300,2,0,B|416:128|224:256|224:256|224:32|224:32|76:159|232:271|232:271|256:32|256:32|416:192|448:128|352:0|320:32|320:32|320:192,1,1540
256,192,103180,1,8,0:0:0:0:
256,192,103420,1,0,0:0:0:0:
256,192,103660,1,0,0:0:0:0:
256,192,103900,1,0,0:0:0:0:
256,192,104140,1,12,0:0:0:0:
256,192,104260,1,12,0:0:0:0:
256,192,104620,1,4,0:0:0:0:
256,192,104740,1,4,0:0:0:0:
256,192,105100,1,8,0:0:0:0:
256,192,105160,1,8,0:0:0:0:
256,192,105220,1,8,0:0:0:0:
256,192,105280,1,8,0:0:0:0:
256,192,105340,1,0,0:0:0:0:
256,192,105460,1,0,0:0:0:0:
256,192,105580,1,8,0:0:0:0:
256,192,105640,1,8,0:0:0:0:
256,192,105700,1,8,0:0:0:0:
256,192,105760,1,8,0:0:0:0:
256,192,105820,1,0,0:0:0:0:
256,192,105880,1,0,0:0:0:0:
256,192,105940,1,8,0:0:0:0:
256,192,106000,1,8,0:0:0:0:
256,192,106060,1,0,0:0:0:0:
256,192,106180,1,0,0:0:0:0:
256,192,106300,1,8,0:0:0:0:
256,192,106360,1,8,0:0:0:0:
256,192,106420,1,8,0:0:0:0:
256,192,106480,1,8,0:0:0:0:
256,192,106540,1,0,0:0:0:0:
256,192,106660,1,8,0:0:0:0:
256,192,106780,1,0,0:0:0:0:
256,192,106840,1,0,0:0:0:0:
256,192,106900,1,0,0:0:0:0:
256,192,106960,1,0,0:0:0:0:
256,192,107020,1,8,0:0:0:0:
256,192,107140,1,8,0:0:0:0:
256,192,107260,1,0,0:0:0:0:
256,192,107320,1,0,0:0:0:0:
256,192,107380,1,0,0:0:0:0:
256,192,107440,1,0,0:0:0:0:
256,192,107500,1,8,0:0:0:0:
256,192,107560,1,0,0:0:0:0:
256,192,107620,1,8,0:0:0:0:
256,192,107680,1,0,0:0:0:0:
256,192,107740,1,8,0:0:0:0:
256,192,107800,1,8,0:0:0:0:
256,192,107860,1,8,0:0:0:0:
256,192,107920,1,8,0:0:0:0:
256,192,107980,1,0,0:0:0:0:
256,192,108100,1,0,0:0:0:0:
256,192,108220,1,8,0:0:0:0:
256,192,108280,1,8,0:0:0:0:
256,192,108340,1,8,0:0:0:0:
256,192,108460,1,0,0:0:0:0:
256,192,108580,1,8,0:0:0:0:
256,192,108700,1,0,0:0:0:0:
256,192,108760,1,0,0:0:0:0:
256,192,108820,1,8,0:0:0:0:
256,192,108940,1,0,0:0:0:0:
256,192,109060,1,0,0:0:0:0:
256,192,109180,1,8,0:0:0:0:
256,192,109240,1,8,0:0:0:0:
256,192,109300,1,8,0:0:0:0:
256,192,109420,1,0,0:0:0:0:
256,192,109540,1,8,0:0:0:0:
256,192,109660,1,0,0:0:0:0:
256,192,109720,1,0,0:0:0:0:
256,192,109780,1,8,0:0:0:0:
256,192,109900,1,0,0:0:0:0:
256,192,110020,1,0,0:0:0:0:
256,192,110140,1,8,0:0:0:0:
256,192,110200,1,8,0:0:0:0:
256,192,110260,1,8,0:0:0:0:
256,192,110380,1,0,0:0:0:0:
256,192,110500,1,0,0:0:0:0:
256,192,110620,1,8,0:0:0:0:
256,192,110680,1,8,0:0:0:0:
256,192,110740,1,8,0:0:0:0:
256,192,110860,1,0,0:0:0:0:
256,192,110980,1,0,0:0:0:0:
256,192,111100,1,8,0:0:0:0:
256,192,111160,1,8,0:0:0:0:
256,192,111220,1,8,0:0:0:0:
256,192,111280,1,8,0:0:0:0:
256,192,111340,1,0,0:0:0:0:
256,192,111400,1,0,0:0:0:0:
256,192,111460,1,0,0:0:0:0:
256,192,111520,1,0,0:0:0:0:
256,192,111580,1,8,0:0:0:0:
256,192,111640,1,8,0:0:0:0:
256,192,111700,1,8,0:0:0:0:
256,192,111760,1,8,0:0:0:0:
256,192,111820,1,0,0:0:0:0:
256,192,111940,1,8,0:0:0:0:
256,192,112060,1,8,0:0:0:0:
256,192,112180,1,0,0:0:0:0:
256,192,112240,1,0,0:0:0:0:
256,192,112300,1,0,0:0:0:0:
256,192,112360,1,0,0:0:0:0:
256,192,112420,1,0,0:0:0:0:
256,192,112540,1,8,0:0:0:0:
256,192,112660,1,0,0:0:0:0:
256,192,112720,1,0,0:0:0:0:
256,160,112780,1,8,0:0:0:0:
256,192,112900,1,0,0:0:0:0:
256,192,113020,1,8,0:0:0:0:
256,192,113140,1,0,0:0:0:0:
256,192,113200,1,0,0:0:0:0:
256,192,113260,1,0,0:0:0:0:
256,192,113320,1,0,0:0:0:0:
256,192,113380,1,0,0:0:0:0:
256,192,113500,1,8,0:0:0:0:
256,192,113620,1,0,0:0:0:0:
256,192,113680,1,0,0:0:0:0:
256,192,113740,1,8,0:0:0:0:
256,192,113860,1,0,0:0:0:0:
256,192,113980,1,8,0:0:0:0:
256,192,114100,1,0,0:0:0:0:
256,192,114160,1,0,0:0:0:0:
256,192,114220,1,0,0:0:0:0:
256,192,114280,1,0,0:0:0:0:
256,192,114340,1,0,0:0:0:0:
256,192,114460,1,8,0:0:0:0:
256,192,114580,1,0,0:0:0:0:
256,192,114640,1,0,0:0:0:0:
256,192,114700,1,8,0:0:0:0:
256,192,114820,1,0,0:0:0:0:
256,192,114940,1,8,0:0:0:0:
256,192,115060,1,0,0:0:0:0:
256,192,115120,1,0,0:0:0:0:
256,192,115180,1,0,0:0:0:0:
256,192,115240,1,0,0:0:0:0:
256,192,115300,1,0,0:0:0:0:
256,192,115420,1,8,0:0:0:0:
256,192,115540,1,0,0:0:0:0:
256,192,115660,1,8,0:0:0:0:
256,192,115780,1,0,0:0:0:0:
256,192,115840,1,0,0:0:0:0:
256,192,115900,1,8,0:0:0:0:
256,192,116020,1,0,0:0:0:0:
256,192,116140,1,0,0:0:0:0:
256,192,116200,1,0,0:0:0:0:
256,192,116260,1,0,0:0:0:0:
256,192,116320,1,0,0:0:0:0:
256,192,116380,1,8,0:0:0:0:
256,192,116440,1,8,0:0:0:0:
256,192,116500,1,8,0:0:0:0:
256,192,116560,1,8,0:0:0:0:
256,192,116620,1,0,0:0:0:0:
256,192,116740,1,0,0:0:0:0:
256,192,116800,1,0,0:0:0:0:
256,192,116860,1,8,0:0:0:0:
256,192,116980,1,0,0:0:0:0:
256,192,117100,1,8,0:0:0:0:
256,192,117160,1,8,0:0:0:0:
256,192,117220,1,8,0:0:0:0:
256,192,117280,1,8,0:0:0:0:
256,192,117340,1,0,0:0:0:0:
256,192,117400,1,0,0:0:0:0:
256,192,117460,1,0,0:0:0:0:
256,192,117520,1,0,0:0:0:0:
256,192,117580,1,8,0:0:0:0:
256,192,117700,1,0,0:0:0:0:
256,192,117760,1,0,0:0:0:0:
256,192,117820,1,8,0:0:0:0:
256,192,117940,1,8,0:0:0:0:
256,192,118060,1,0,0:0:0:0:
256,192,118120,1,0,0:0:0:0:
256,192,118180,1,8,0:0:0:0:
256,192,118240,1,8,0:0:0:0:
256,192,118300,1,0,0:0:0:0:
256,192,118360,1,0,0:0:0:0:
256,192,118420,1,8,0:0:0:0:
256,192,118480,1,8,0:0:0:0:
256,192,118540,1,0,0:0:0:0:
256,192,118600,1,0,0:0:0:0:
256,192,118660,1,8,0:0:0:0:
256,192,118720,1,0,0:0:0:0:
256,192,118780,1,8,0:0:0:0:
256,192,118840,1,8,0:0:0:0:
256,192,118900,1,0,0:0:0:0:
256,192,118960,1,0,0:0:0:0:
256,192,119020,1,8,0:0:0:0:
256,192,119080,1,8,0:0:0:0:
256,192,119140,1,8,0:0:0:0:
256,192,119200,1,8,0:0:0:0:
256,192,119260,1,0,0:0:0:0:
256,192,119320,1,0,0:0:0:0:
256,192,119380,1,0,0:0:0:0:
256,192,119440,1,0,0:0:0:0:
256,192,119500,1,8,0:0:0:0:
256,192,119740,1,8,0:0:0:0:
256,192,119980,1,0,0:0:0:0:
256,192,120040,1,0,0:0:0:0:
256,192,120100,1,8,0:0:0:0:
256,192,120160,1,0,0:0:0:0:
256,192,120220,1,8,0:0:0:0:
256,192,120280,1,0,0:0:0:0:
256,192,120340,1,8,0:0:0:0:
256,192,120400,1,8,0:0:0:0:
256,192,120460,1,0,0:0:0:0:
256,192,120520,1,0,0:0:0:0:
256,192,120580,1,8,0:0:0:0:
256,192,120640,1,0,0:0:0:0:
256,192,120700,1,8,0:0:0:0:
256,192,120760,1,0,0:0:0:0:
256,192,120820,1,8,0:0:0:0:
256,192,120880,1,8,0:0:0:0:
256,192,120940,1,0,0:0:0:0:
256,192,121000,1,0,0:0:0:0:
256,192,121060,1,8,0:0:0:0:
256,192,121120,1,0,0:0:0:0:
256,192,121180,1,8,0:0:0:0:
256,192,121240,1,8,0:0:0:0:
256,192,121300,1,0,0:0:0:0:
256,192,121360,1,0,0:0:0:0:
256,192,121420,1,8,0:0:0:0:
256,192,121540,1,0,0:0:0:0:
256,192,121660,1,8,0:0:0:0:
256,192,121780,1,0,0:0:0:0:
256,192,121900,1,8,0:0:0:0:
256,192,121960,1,0,0:0:0:0:
256,192,122020,1,0,0:0:0:0:
256,192,122080,1,0,0:0:0:0:
256,192,122140,1,8,0:0:0:0:
256,192,122200,1,0,0:0:0:0:
256,192,122260,1,0,0:0:0:0:
256,192,122320,1,0,0:0:0:0:
256,192,122380,1,8,0:0:0:0:
288,192,122440,1,0,0:0:0:0:
256,192,122500,1,8,0:0:0:0:
256,192,122560,1,8,0:0:0:0:
256,192,122620,1,0,0:0:0:0:
256,192,122680,1,0,0:0:0:0:
256,192,122740,1,8,0:0:0:0:
256,192,122800,1,0,0:0:0:0:
256,192,122860,1,8,0:0:0:0:
256,192,122920,1,8,0:0:0:0:
256,192,122980,1,0,0:0:0:0:
256,192,123040,1,0,0:0:0:0:
256,192,123100,1,8,0:0:0:0:
256,192,123160,1,8,0:0:0:0:
256,192,123220,1,8,0:0:0:0:
256,192,123280,1,8,0:0:0:0:
256,192,123340,1,0,0:0:0:0:
256,192,123460,1,0,0:0:0:0:
256,192,123580,1,8,0:0:0:0:
256,192,123640,1,8,0:0:0:0:
256,192,123700,1,8,0:0:0:0:
256,192,123820,1,0,0:0:0:0:
256,192,123880,1,0,0:0:0:0:
256,192,123940,1,8,0:0:0:0:
256,192,124000,1,0,0:0:0:0:
256,192,124060,1,8,0:0:0:0:
256,192,124180,1,8,0:0:0:0:
256,192,124300,1,0,0:0:0:0:
256,192,124420,1,8,0:0:0:0:
256,192,124480,1,8,0:0:0:0:
256,192,124540,1,0,0:0:0:0:
256,192,124600,1,0,0:0:0:0:
256,192,124660,1,8,0:0:0:0:
256,192,124780,1,0,0:0:0:0:
256,192,124900,1,8,0:0:0:0:
256,192,124960,1,0,0:0:0:0:
256,192,125020,1,8,0:0:0:0:
256,192,125140,1,8,0:0:0:0:
256,192,125260,1,0,0:0:0:0:
256,192,125380,1,0,0:0:0:0:
256,192,125500,1,8,0:0:0:0:
256,192,125560,1,8,0:0:0:0:
256,192,125620,1,8,0:0:0:0:
256,192,125740,1,0,0:0:0:0:
256,192,125860,1,0,0:0:0:0:
256,192,125980,1,8,0:0:0:0:
256,192,126040,1,8,0:0:0:0:
256,192,126100,1,8,0:0:0:0:
256,192,126220,1,0,0:0:0:0:
256,192,126340,1,0,0:0:0:0:
256,192,126460,1,8,0:0:0:0:
256,192,126520,1,8,0:0:0:0:
256,192,126580,1,0,0:0:0:0:
256,192,126640,1,0,0:0:0:0:
256,192,126700,1,8,0:0:0:0:
256,192,126820,1,0,0:0:0:0:
256,192,126940,1,8,0:0:0:0:
256,192,127000,1,8,0:0:0:0:
256,192,127060,1,8,0:0:0:0:
256,192,127120,1,8,0:0:0:0:
256,192,127180,1,0,0:0:0:0:
256,192,127300,1,0,0:0:0:0:
256,192,127420,1,8,0:0:0:0:
256,192,127540,1,0,0:0:0:0:
256,192,127660,1,8,0:0:0:0:
256,192,127720,1,8,0:0:0:0:
256,192,127780,1,0,0:0:0:0:
256,192,127840,1,0,0:0:0:0:
256,192,127900,1,8,0:0:0:0:
256,192,128020,1,8,0:0:0:0:
256,192,128140,1,0,0:0:0:0:
256,192,128260,1,0,0:0:0:0:
256,192,128380,1,8,0:0:0:0:
256,192,128440,1,8,0:0:0:0:
256,192,128500,1,8,0:0:0:0:
256,192,128620,1,0,0:0:0:0:
256,192,128680,1,0,0:0:0:0:
256,192,128740,1,0,0:0:0:0:
256,192,128800,1,0,0:0:0:0:
256,192,128860,1,8,0:0:0:0:
256,192,128920,1,0,0:0:0:0:
256,192,128980,1,0,0:0:0:0:
256,192,129040,1,0,0:0:0:0:
256,192,129100,1,8,0:0:0:0:
256,192,129160,1,8,0:0:0:0:
256,192,129220,1,0,0:0:0:0:
256,192,129280,1,0,0:0:0:0:
256,192,129340,1,8,0:0:0:0:
256,192,129400,1,0,0:0:0:0:
256,192,129460,1,8,0:0:0:0:
256,192,129520,1,0,0:0:0:0:
256,192,129580,1,8,0:0:0:0:
256,192,129640,1,0,0:0:0:0:
256,192,129700,1,8,0:0:0:0:
256,192,129760,1,0,0:0:0:0:
256,192,129820,1,8,0:0:0:0:
256,192,129880,1,8,0:0:0:0:
256,192,129940,1,0,0:0:0:0:
256,192,130000,1,0,0:0:0:0:
256,192,130060,1,8,0:0:0:0:
256,192,130120,1,8,0:0:0:0:
256,192,130180,1,8,0:0:0:0:
256,192,130240,1,8,0:0:0:0:
256,192,130300,1,0,0:0:0:0:
256,192,130360,1,0,0:0:0:0:
256,192,130420,1,0,0:0:0:0:
256,192,130480,1,0,0:0:0:0:
256,192,130540,1,8,0:0:0:0:
256,192,130600,1,8,0:0:0:0:
256,192,130660,1,8,0:0:0:0:
256,192,130720,1,8,0:0:0:0:
256,192,130780,1,0,0:0:0:0:
256,192,130840,1,0,0:0:0:0:
256,192,130900,1,0,0:0:0:0:
256,192,130960,1,0,0:0:0:0:
256,192,131020,1,8,0:0:0:0:
256,192,131260,1,0,0:0:0:0:
256,192,131380,1,0,0:0:0:0:
256,192,131620,1,0,0:0:0:0:
256,192,131740,1,0,0:0:0:0:
256,192,131860,1,0,0:0:0:0:
256,192,131980,1,8,0:0:0:0:
256,192,132100,1,0,0:0:0:0:
256,192,132220,1,8,0:0:0:0:
256,192,132340,1,0,0:0:0:0:
256,192,132460,1,8,0:0:0:0:
256,192,132580,1,8,0:0:0:0:
256,192,132700,1,0,0:0:0:0:
256,192,132820,1,0,0:0:0:0:
256,192,132940,1,8,0:0:0:0:
256,192,133000,1,8,0:0:0:0:
256,192,133060,1,8,0:0:0:0:
256,192,133120,1,8,0:0:0:0:
256,192,133180,1,8,0:0:0:0:
256,192,133240,1,8,0:0:0:0:
256,192,133300,1,8,0:0:0:0:
256,192,133360,1,8,0:0:0:0:
256,192,133420,1,0,0:0:0:0:
256,192,133480,1,0,0:0:0:0:
256,192,133540,1,0,0:0:0:0:
256,192,133600,1,0,0:0:0:0:
256,192,133660,1,0,0:0:0:0:
256,192,133720,1,0,0:0:0:0:
256,192,133780,1,0,0:0:0:0:
256,192,133840,1,0,0:0:0:0:
256,192,133900,1,8,0:0:0:0:
256,192,133960,1,8,0:0:0:0:
256,192,134020,1,8,0:0:0:0:
256,192,134080,1,8,0:0:0:0:
256,192,134140,1,8,0:0:0:0:
256,192,134200,1,8,0:0:0:0:
256,192,134260,1,8,0:0:0:0:
256,192,134320,1,8,0:0:0:0:
256,192,134380,1,0,0:0:0:0:
256,192,134440,1,0,0:0:0:0:
256,192,134500,1,0,0:0:0:0:
256,192,134560,1,0,0:0:0:0:
256,192,134620,1,0,0:0:0:0:
256,192,134680,1,0,0:0:0:0:
256,192,134740,1,0,0:0:0:0:
256,192,134800,1,0,0:0:0:0:
256,192,134860,1,8,0:0:0:0:
256,192,135100,1,0,0:0:0:0:
256,192,135220,1,0,0:0:0:0:
256,192,135460,1,0,0:0:0:0:
256,192,135580,1,0,0:0:0:0:
256,192,135820,1,8,0:0:0:0:
256,192,135940,1,0,0:0:0:0:
256,192,136060,1,8,0:0:0:0:
256,192,136180,1,0,0:0:0:0:
256,192,136300,1,8,0:0:0:0:
256,192,136420,1,8,0:0:0:0:
256,192,136540,1,0,0:0:0:0:
256,192,136660,1,0,0:0:0:0:
256,192,136780,1,8,0:0:0:0:
256,192,136840,1,8,0:0:0:0:
256,192,136900,1,8,0:0:0:0:
256,192,136960,1,8,0:0:0:0:
256,192,137020,1,8,0:0:0:0:
256,192,137080,1,8,0:0:0:0:
256,192,137140,1,8,0:0:0:0:
256,192,137200,1,8,0:0:0:0:
256,192,137260,1,0,0:0:0:0:
256,192,137320,1,0,0:0:0:0:
256,192,137380,1,0,0:0:0:0:
256,192,137440,1,0,0:0:0:0:
256,192,137500,1,0,0:0:0:0:
256,192,137560,1,0,0:0:0:0:
256,192,137620,1,0,0:0:0:0:
256,192,137680,1,0,0:0:0:0:
256,192,137740,1,8,0:0:0:0:
256,192,137800,1,8,0:0:0:0:
256,192,137860,1,8,0:0:0:0:
256,192,137920,1,8,0:0:0:0:
256,192,137980,1,8,0:0:0:0:
256,192,138040,1,8,0:0:0:0:
256,192,138100,1,8,0:0:0:0:
256,192,138160,1,8,0:0:0:0:
256,192,138220,1,0,0:0:0:0:
256,192,138280,1,0,0:0:0:0:
256,192,138340,1,0,0:0:0:0:
256,192,138400,1,0,0:0:0:0:
256,192,138460,1,0,0:0:0:0:
256,192,138520,1,0,0:0:0:0:
256,192,138580,1,0,0:0:0:0:
256,192,138640,1,0,0:0:0:0:
256,192,138700,1,8,0:0:0:0:
256,192,138940,1,0,0:0:0:0:
256,192,139060,1,0,0:0:0:0:
256,192,139180,1,8,0:0:0:0:
256,192,139300,1,0,0:0:0:0:
256,192,139420,1,0,0:0:0:0:
256,192,139540,1,0,0:0:0:0:
256,192,139660,1,8,0:0:0:0:
256,192,139780,1,0,0:0:0:0:
256,192,139900,1,8,0:0:0:0:
256,192,139960,1,8,0:0:0:0:
256,192,140020,1,0,0:0:0:0:
256,192,140140,1,8,0:0:0:0:
256,192,140260,1,8,0:0:0:0:
256,192,140380,1,0,0:0:0:0:
256,192,140500,1,0,0:0:0:0:
256,192,140620,1,8,0:0:0:0:
256,192,140680,1,8,0:0:0:0:
256,192,140740,1,8,0:0:0:0:
256,192,140800,1,8,0:0:0:0:
256,192,140860,1,8,0:0:0:0:
256,192,140920,1,8,0:0:0:0:
256,192,140980,1,8,0:0:0:0:
256,192,141040,1,8,0:0:0:0:
256,192,141100,1,0,0:0:0:0:
256,192,141160,1,0,0:0:0:0:
256,192,141220,1,0,0:0:0:0:
256,192,141280,1,0,0:0:0:0:
256,192,141340,1,0,0:0:0:0:
256,192,141400,1,0,0:0:0:0:
256,192,141460,1,0,0:0:0:0:
256,192,141520,1,0,0:0:0:0:
256,192,141580,1,8,0:0:0:0:
256,192,141640,1,8,0:0:0:0:
256,192,141700,1,8,0:0:0:0:
256,192,141760,1,8,0:0:0:0:
256,192,141820,1,8,0:0:0:0:
256,192,141880,1,8,0:0:0:0:
256,192,141940,1,8,0:0:0:0:
256,192,142000,1,8,0:0:0:0:
256,192,142060,1,0,0:0:0:0:
256,192,142120,1,0,0:0:0:0:
256,192,142180,1,0,0:0:0:0:
256,192,142240,1,0,0:0:0:0:
256,192,142300,1,0,0:0:0:0:
256,192,142360,1,0,0:0:0:0:
256,192,142420,1,0,0:0:0:0:
256,192,142480,1,0,0:0:0:0:
256,192,142540,1,8,0:0:0:0:
256,192,142780,1,0,0:0:0:0:
256,192,142900,1,0,0:0:0:0:
256,192,143140,1,0,0:0:0:0:
256,192,143260,1,0,0:0:0:0:
256,192,143500,1,8,0:0:0:0:
256,192,143620,1,0,0:0:0:0:
256,192,143740,1,8,0:0:0:0:
256,192,143860,1,0,0:0:0:0:
256,192,143980,1,8,0:0:0:0:
256,192,144100,1,8,0:0:0:0:
256,192,144220,1,0,0:0:0:0:
256,192,144340,1,0,0:0:0:0:
256,192,144460,1,8,0:0:0:0:
256,192,144520,1,8,0:0:0:0:
256,192,144580,1,8,0:0:0:0:
256,192,144640,1,8,0:0:0:0:
256,192,144700,1,8,0:0:0:0:
256,192,144760,1,8,0:0:0:0:
256,192,144820,1,8,0:0:0:0:
256,192,144880,1,8,0:0:0:0:
256,192,144940,1,0,0:0:0:0:
256,192,145000,1,0,0:0:0:0:
256,192,145060,1,0,0:0:0:0:
256,192,145120,1,0,0:0:0:0:
256,192,145180,1,0,0:0:0:0:
256,192,145240,1,0,0:0:0:0:
256,192,145300,1,0,0:0:0:0:
256,192,145360,1,0,0:0:0:0:
256,192,145420,1,8,0:0:0:0:
256,192,145480,1,8,0:0:0:0:
256,192,145540,1,8,0:0:0:0:
256,192,145600,1,8,0:0:0:0:
256,192,145660,1,8,0:0:0:0:
256,192,145720,1,8,0:0:0:0:
256,192,145780,1,8,0:0:0:0:
256,192,145840,1,8,0:0:0:0:
256,192,145900,1,0,0:0:0:0:
256,192,145960,1,0,0:0:0:0:
256,192,146020,1,0,0:0:0:0:
256,192,146080,1,0,0:0:0:0:
256,192,146140,1,0,0:0:0:0:
256,192,146200,1,0,0:0:0:0:
256,192,146260,1,0,0:0:0:0:
256,192,146320,1,0,0:0:0:0:
256,192,146380,1,8,0:0:0:0:
256,192,146860,1,0,0:0:0:0:
256,192,147340,5,8,0:0:0:0:
256,192,147400,1,8,0:0:0:0:
256,192,147460,1,8,0:0:0:0:
256,192,147520,1,8,0:0:0:0:
256,192,147580,1,0,0:0:0:0:
256,192,147640,1,0,0:0:0:0:
256,192,147700,1,0,0:0:0:0:
256,192,147760,1,0,0:0:0:0:
256,192,147820,1,8,0:0:0:0:
256,192,147880,1,8,0:0:0:0:
256,192,147940,1,0,0:0:0:0:
256,192,148000,1,0,0:0:0:0:
256,224,148060,1,8,0:0:0:0:
256,192,148300,1,8,0:0:0:0:
256,192,148420,1,8,0:0:0:0:
256,192,148540,1,0,0:0:0:0:
256,192,148780,1,0,0:0:0:0:
256,192,149020,1,8,0:0:0:0:
256,192,149260,1,0,0:0:0:0:
256,192,149500,1,8,0:0:0:0:
256,192,149560,1,8,0:0:0:0:
256,192,149620,1,8,0:0:0:0:
256,192,149680,1,8,0:0:0:0:
256,192,149740,1,0,0:0:0:0:
256,192,149980,1,8,0:0:0:0:
256,192,150040,1,8,0:0:0:0:
256,192,150100,1,8,0:0:0:0:
256,192,150160,1,8,0:0:0:0:
256,192,150220,1,0,0:0:0:0:
256,192,150460,1,8,0:0:0:0:
256,192,150580,1,0,0:0:0:0:
256,192,150700,1,8,0:0:0:0:
256,192,150820,1,0,0:0:0:0:
256,192,150940,1,0,0:0:0:0:
256,192,151060,1,0,0:0:0:0:
256,192,151180,1,12,0:0:0:0:
256,192,151660,1,12,0:0:0:0:
256,192,152140,1,4,0:0:0:0:
256,192,152380,1,0,0:0:0:0:
256,192,152500,1,0,0:0:0:0:
256,192,152620,1,8,0:0:0:0:
256,192,152740,1,0,0:0:0:0:
256,192,152860,1,0,0:0:0:0:
256,192,152980,1,0,0:0:0:0:
256,192,153100,1,8,0:0:0:0:
256,192,153340,1,8,0:0:0:0:
256,192,153460,1,8,0:0:0:0:
256,192,153580,1,0,0:0:0:0:
256,192,153700,1,0,0:0:0:0:
256,192,153820,1,8,0:0:0:0:
256,192,153940,1,0,0:0:0:0:
256,192,154060,1,8,0:0:0:0:
256,192,154120,1,8,0:0:0:0:
256,192,154180,1,8,0:0:0:0:
256,192,154240,1,8,0:0:0:0:
256,192,154300,1,0,0:0:0:0:
256,192,154420,1,0,0:0:0:0:
256,192,154540,1,8,0:0:0:0:
256,192,154660,1,0,0:0:0:0:
256,192,154780,1,0,0:0:0:0:
256,192,154840,1,0,0:0:0:0:
256,192,154900,1,0,0:0:0:0:
256,192,154960,1,0,0:0:0:0:
256,192,155020,1,8,0:0:0:0:
256,192,155140,1,0,0:0:0:0:
256,192,155260,1,8,0:0:0:0:
256,192,155320,1,8,0:0:0:0:
256,192,155380,1,8,0:0:0:0:
256,192,155440,1,8,0:0:0:0:
256,192,155500,1,0,0:0:0:0:
256,192,155620,1,0,0:0:0:0:
256,192,155740,1,8,0:0:0:0:
256,192,155860,1,8,0:0:0:0:
256,192,155980,1,4,0:0:0:0:
256,192,156220,1,0,0:0:0:0:
256,192,156340,1,0,0:0:0:0:
256,192,156460,1,8,0:0:0:0:
256,192,156580,1,0,0:0:0:0:
256,192,156700,1,8,0:0:0:0:
256,192,156820,1,8,0:0:0:0:
256,192,156940,1,0,0:0:0:0:
256,192,157060,1,8,0:0:0:0:
256,192,157180,1,0,0:0:0:0:
256,192,157240,1,0,0:0:0:0:
256,192,157300,1,0,0:0:0:0:
256,192,157360,1,0,0:0:0:0:
256,192,157420,1,8,0:0:0:0:
256,192,157540,1,0,0:0:0:0:
256,192,157660,1,8,0:0:0:0:
256,192,157720,1,8,0:0:0:0:
256,192,157780,1,8,0:0:0:0:
256,192,157840,1,8,0:0:0:0:
256,192,157900,1,0,0:0:0:0:
256,192,158140,1,0,0:0:0:0:
256,192,158260,1,0,0:0:0:0:
256,192,158380,1,8,0:0:0:0:
256,192,158500,1,0,0:0:0:0:
256,192,158620,1,0,0:0:0:0:
256,192,158740,1,0,0:0:0:0:
256,192,158860,1,8,0:0:0:0:
256,192,158980,1,0,0:0:0:0:
256,192,159100,1,0,0:0:0:0:
256,192,159220,1,0,0:0:0:0:
256,192,159340,1,8,0:0:0:0:
256,192,159460,1,0,0:0:0:0:
256,192,159580,1,8,0:0:0:0:
256,192,159700,1,8,0:0:0:0:
256,192,159820,1,0,0:0:0:0:
256,192,160060,1,8,0:0:0:0:
256,192,160180,1,8,0:0:0:0:
256,192,160300,1,0,0:0:0:0:
256,192,160420,1,8,0:0:0:0:
256,192,160540,1,0,0:0:0:0:
256,192,160660,1,0,0:0:0:0:
256,192,160780,1,8,0:0:0:0:
256,192,161020,1,0,0:0:0:0:
256,192,161140,1,8,0:0:0:0:
256,192,161260,1,8,0:0:0:0:
256,192,161380,1,0,0:0:0:0:
256,192,161500,1,0,0:0:0:0:
256,192,161620,1,0,0:0:0:0:
256,192,161740,1,8,0:0:0:0:
256,192,161860,1,8,0:0:0:0:
256,192,161980,1,0,0:0:0:0:
256,192,162100,1,0,0:0:0:0:
256,192,162220,1,8,0:0:0:0:
256,192,162340,1,0,0:0:0:0:
256,192,162460,1,0,0:0:0:0:
256,192,162580,1,0,0:0:0:0:
256,192,162700,1,8,0:0:0:0:
256,192,162820,1,0,0:0:0:0:
256,192,162940,1,8,0:0:0:0:
256,192,163060,1,8,0:0:0:0:
256,192,163180,1,8,0:0:0:0:
256,192,163420,1,8,0:0:0:0:
256,192,163660,1,4,0:0:0:0:
256,192,163900,1,8,0:0:0:0:
256,192,164020,1,8,0:0:0:0:
256,192,164140,1,0,0:0:0:0:
256,192,164260,1,0,0:0:0:0:
256,192,164380,1,8,0:0:0:0:
256,192,164500,1,0,0:0:0:0:
256,192,164620,1,8,0:0:0:0:
256,192,164740,1,0,0:0:0:0:
256,192,164860,1,8,0:0:0:0:
256,192,164920,1,8,0:0:0:0:
256,192,164980,1,8,0:0:0:0:
256,192,165040,1,8,0:0:0:0:
256,192,165100,1,0,0:0:0:0:
256,192,165220,1,0,0:0:0:0:
256,192,165340,1,8,0:0:0:0:
256,192,165400,1,8,0:0:0:0:
256,192,165460,1,8,0:0:0:0:
256,192,165520,1,8,0:0:0:0:
256,192,165580,1,0,0:0:0:0:
256,192,165820,1,8,0:0:0:0:
256,192,165940,1,8,0:0:0:0:
256,192,166060,1,0,0:0:0:0:
256,192,166180,1,0,0:0:0:0:
256,192,166300,1,8,0:0:0:0:
256,192,166420,1,0,0:0:0:0:
256,192,166540,1,8,0:0:0:0:
256,192,166660,1,0,0:0:0:0:
256,192,166780,1,0,0:0:0:0:
256,192,166900,1,8,0:0:0:0:
256,192,167020,1,0,0:0:0:0:
256,192,167140,1,0,0:0:0:0:
256,192,167260,1,8,0:0:0:0:
256,192,167380,1,0,0:0:0:0:
256,192,167500,1,8,0:0:0:0:
256,192,167740,1,0,0:0:0:0:
256,192,167860,1,0,0:0:0:0:
256,192,167980,1,8,0:0:0:0:
256,192,168100,1,0,0:0:0:0:
256,192,168220,1,8,0:0:0:0:
256,192,168340,1,8,0:0:0:0:
256,192,168460,1,0,0:0:0:0:
256,192,168580,1,8,0:0:0:0:
256,192,168700,1,0,0:0:0:0:
256,192,168820,1,0,0:0:0:0:
256,192,168940,1,8,0:0:0:0:
256,192,169060,1,0,0:0:0:0:
256,192,169180,1,8,0:0:0:0:
256,192,169240,1,8,0:0:0:0:
256,192,169300,1,8,0:0:0:0:
256,192,169360,1,8,0:0:0:0:
256,192,169420,1,0,0:0:0:0:
256,192,169660,1,8,0:0:0:0:
256,192,169780,1,8,0:0:0:0:
256,192,170020,1,8,0:0:0:0:
256,192,170140,1,0,0:0:0:0:
256,192,170380,1,8,0:0:0:0:
256,192,170620,1,0,0:0:0:0:
256,192,170860,1,8,0:0:0:0:
256,192,170980,1,0,0:0:0:0:
256,192,171100,1,8,0:0:0:0:
256,192,171220,1,8,0:0:0:0:
256,192,171340,1,4,0:0:0:0:
256,192,171580,1,8,0:0:0:0:
256,192,171700,1,0,0:0:0:0:
256,192,171820,1,8,0:0:0:0:
256,192,171940,1,8,0:0:0:0:
256,192,172060,1,0,0:0:0:0:
256,192,172180,1,0,0:0:0:0:
256,192,172300,1,8,0:0:0:0:
256,192,172420,1,0,0:0:0:0:
256,192,172540,1,8,0:0:0:0:
256,192,172600,1,8,0:0:0:0:
256,192,172660,1,8,0:0:0:0:
256,192,172720,1,8,0:0:0:0:
256,192,172780,1,0,0:0:0:0:
256,192,172900,1,0,0:0:0:0:
256,192,173020,1,8,0:0:0:0:
256,192,173080,1,8,0:0:0:0:
256,192,173140,1,8,0:0:0:0:
256,192,173200,1,8,0:0:0:0:
256,192,173260,1,0,0:0:0:0:
256,192,173500,1,8,0:0:0:0:
256,192,173620,1,8,0:0:0:0:
256,192,173740,1,0,0:0:0:0:
256,192,173860,1,8,0:0:0:0:
256,192,173980,1,0,0:0:0:0:
256,192,174100,1,0,0:0:0:0:
256,192,174220,1,8,0:0:0:0:
256,192,174340,1,0,0:0:0:0:
256,192,174460,1,0,0:0:0:0:
256,192,174580,1,0,0:0:0:0:
256,192,174700,1,8,0:0:0:0:
256,192,174820,1,0,0:0:0:0:
256,192,174940,1,8,0:0:0:0:
256,192,175060,1,8,0:0:0:0:
256,192,175180,1,0,0:0:0:0:
256,192,175420,1,8,0:0:0:0:
256,192,175540,1,8,0:0:0:0:
256,192,175660,1,0,0:0:0:0:
256,192,175780,1,8,0:0:0:0:
256,192,175900,1,0,0:0:0:0:
256,192,176020,1,0,0:0:0:0:
256,192,176140,1,8,0:0:0:0:
256,192,176260,1,0,0:0:0:0:
256,192,176380,1,8,0:0:0:0:
256,192,176500,1,8,0:0:0:0:
256,192,176620,1,0,0:0:0:0:
256,192,176740,1,0,0:0:0:0:
256,192,176860,1,8,0:0:0:0:
256,192,176980,1,8,0:0:0:0:
256,192,177100,1,0,0:0:0:0:
256,192,177580,1,0,0:0:0:0:
256,192,178060,1,0,0:0:0:0:
256,192,178180,1,8,0:0:0:0:
256,192,178420,1,0,0:0:0:0:
256,192,178540,1,8,0:0:0:0:
256,192,178660,1,8,0:0:0:0:
256,192,178780,1,0,0:0:0:0:
256,192,179020,1,4,0:0:0:0:
256,192,179140,1,8,0:0:0:0:
256,192,179200,1,8,0:0:0:0:
256,192,179260,1,0,0:0:0:0:
256,192,179380,1,8,0:0:0:0:
256,192,179500,1,0,0:0:0:0:
256,192,179620,1,0,0:0:0:0:
256,192,179680,1,0,0:0:0:0:
256,192,179740,1,0,0:0:0:0:
256,192,179860,1,8,0:0:0:0:
256,192,179980,1,0,0:0:0:0:
256,192,180040,1,0,0:0:0:0:
256,192,180100,1,0,0:0:0:0:
256,192,180160,1,0,0:0:0:0:
256,192,180220,1,0,0:0:0:0:
256,192,180280,1,0,0:0:0:0:
256,192,180340,1,8,0:0:0:0:
256,192,180460,1,0,0:0:0:0:
256,192,180580,1,8,0:0:0:0:
256,192,180640,1,8,0:0:0:0:
256,192,180700,1,0,0:0:0:0:
256,192,180820,1,8,0:0:0:0:
256,192,180940,1,0,0:0:0:0:
256,192,181060,1,0,0:0:0:0:
256,192,181180,1,8,0:0:0:0:
256,192,181300,1,8,0:0:0:0:
256,192,181420,1,0,0:0:0:0:
256,192,181540,1,8,0:0:0:0:
256,192,181600,1,8,0:0:0:0:
256,192,181660,1,0,0:0:0:0:
256,192,181780,1,8,0:0:0:0:
256,192,181900,1,0,0:0:0:0:
256,192,182020,1,0,0:0:0:0:
256,192,182080,1,0,0:0:0:0:
256,192,182140,1,8,0:0:0:0:
256,192,182260,1,0,0:0:0:0:
256,192,182380,1,8,0:0:0:0:
256,192,182620,1,8,0:0:0:0:
256,192,182740,1,8,0:0:0:0:
256,192,182860,1,0,0:0:0:0:
256,192,182920,1,0,0:0:0:0:
256,192,182980,1,8,0:0:0:0:
256,192,183040,1,0,0:0:0:0:
256,192,183100,1,8,0:0:0:0:
256,192,183160,1,0,0:0:0:0:
256,192,183220,1,8,0:0:0:0:
256,192,183280,1,8,0:0:0:0:
256,192,183340,1,0,0:0:0:0:
256,192,183400,1,0,0:0:0:0:
256,192,183460,1,8,0:0:0:0:
256,192,183520,1,8,0:0:0:0:
256,192,183580,1,0,0:0:0:0:
256,192,183640,1,0,0:0:0:0:
256,192,183700,1,8,0:0:0:0:
256,192,183760,1,0,0:0:0:0:
256,192,183820,1,8,0:0:0:0:
256,192,183940,1,0,0:0:0:0:
256,192,184000,1,8,0:0:0:0:
256,192,184120,1,8,0:0:0:0:
256,192,184180,1,0,0:0:0:0:
256,192,184300,1,8,0:0:0:0:
256,192,184360,1,8,0:0:0:0:
256,192,184420,1,8,0:0:0:0:
256,192,184480,1,8,0:0:0:0:
256,192,184540,1,0,0:0:0:0:
256,192,184660,1,8,0:0:0:0:
256,192,184780,1,0,0:0:0:0:
256,192,184900,1,8,0:0:0:0:
256,192,184960,1,8,0:0:0:0:
256,192,185020,1,0,0:0:0:0:
256,192,185140,1,8,0:0:0:0:
256,192,185260,1,0,0:0:0:0:
256,192,185380,1,0,0:0:0:0:
256,192,185440,1,0,0:0:0:0:
256,192,185500,1,0,0:0:0:0:
256,192,185620,1,8,0:0:0:0:
256,192,185740,1,0,0:0:0:0:
256,192,185800,1,0,0:0:0:0:
256,192,185860,1,8,0:0:0:0:
256,192,185920,1,0,0:0:0:0:
256,192,185980,1,0,0:0:0:0:
256,192,186040,1,0,0:0:0:0:
256,192,186100,1,8,0:0:0:0:
256,192,186160,1,8,0:0:0:0:
256,192,186220,1,0,0:0:0:0:
256,192,186280,1,0,0:0:0:0:
256,192,186340,1,8,0:0:0:0:
256,192,186400,1,0,0:0:0:0:
256,192,186460,1,8,0:0:0:0:
256,192,186520,1,0,0:0:0:0:
256,192,186580,1,8,0:0:0:0:
256,192,186640,1,8,0:0:0:0:
256,192,186700,1,0,0:0:0:0:
256,192,186940,1,0,0:0:0:0:
256,192,187060,1,8,0:0:0:0:
256,192,187120,1,8,0:0:0:0:
256,192,187180,1,0,0:0:0:0:
256,192,187300,1,0,0:0:0:0:
256,192,187420,1,8,0:0:0:0:
256,192,187540,1,8,0:0:0:0:
256,192,187600,1,8,0:0:0:0:
256,192,187660,1,0,0:0:0:0:
256,192,187900,1,0,0:0:0:0:
256,192,188020,1,8,0:0:0:0:
256,192,188080,1,8,0:0:0:0:
256,192,188140,1,0,0:0:0:0:
256,192,188260,1,0,0:0:0:0:
256,192,188380,1,8,0:0:0:0:
256,192,188500,1,8,0:0:0:0:
256,192,188560,1,8,0:0:0:0:
256,192,188620,1,0,0:0:0:0:
256,192,188860,1,8,0:0:0:0:
256,192,188980,1,8,0:0:0:0:
256,192,189040,1,8,0:0:0:0:
256,192,189100,1,0,0:0:0:0:
256,192,189220,1,0,0:0:0:0:
256,192,189340,1,8,0:0:0:0:
256,192,189460,1,0,0:0:0:0:
256,192,189520,1,0,0:0:0:0:
256,192,189580,1,0,0:0:0:0:
256,192,189700,1,8,0:0:0:0:
256,192,189820,1,0,0:0:0:0:
256,192,189940,1,8,0:0:0:0:
256,192,190060,1,0,0:0:0:0:
256,192,190120,1,0,0:0:0:0:
256,192,190180,1,0,0:0:0:0:
256,192,190240,1,0,0:0:0:0:
256,192,190300,1,8,0:0:0:0:
256,192,190420,1,8,0:0:0:0:
256,192,190540,1,0,0:0:0:0:
256,192,190600,1,0,0:0:0:0:
256,192,190660,1,8,0:0:0:0:
256,192,190720,1,0,0:0:0:0:
256,192,190780,1,0,0:0:0:0:
256,192,190840,1,0,0:0:0:0:
256,192,190900,1,8,0:0:0:0:
256,192,190960,1,0,0:0:0:0:
256,192,191020,1,8,0:0:0:0:
256,192,191080,1,0,0:0:0:0:
256,192,191140,1,8,0:0:0:0:
256,192,191200,1,8,0:0:0:0:
256,192,191260,1,0,0:0:0:0:
256,192,191320,1,0,0:0:0:0:
256,192,191380,1,0,0:0:0:0:
256,192,191440,1,0,0:0:0:0:
256,192,191500,1,8,0:0:0:0:
256,192,191620,1,0,0:0:0:0:
256,192,191680,1,8,0:0:0:0:
256,192,191800,1,8,0:0:0:0:
256,192,191860,1,0,0:0:0:0:
256,192,191980,1,8,0:0:0:0:
256,192,192040,1,8,0:0:0:0:
256,192,192100,1,0,0:0:0:0:
256,192,192160,1,0,0:0:0:0:
256,192,192220,1,8,0:0:0:0:
256,192,192460,1,8,0:0:0:0:
256,192,192520,1,0,0:0:0:0:
256,192,192580,1,8,0:0:0:0:
256,192,192640,1,0,0:0:0:0:
256,192,192700,1,8,0:0:0:0:
256,192,192760,1,0,0:0:0:0:
256,192,192820,1,8,0:0:0:0:
256,192,192880,1,8,0:0:0:0:
256,192,192940,1,0,0:0:0:0:
256,192,193000,1,0,0:0:0:0:
256,192,193060,1,8,0:0:0:0:
256,192,193120,1,0,0:0:0:0:
256,192,193180,1,8,0:0:0:0:
256,192,193240,1,8,0:0:0:0:
256,192,193300,1,0,0:0:0:0:
256,192,193360,1,0,0:0:0:0:
256,192,193420,1,8,0:0:0:0:
256,192,193480,1,8,0:0:0:0:
256,192,193540,1,0,0:0:0:0:
256,192,193600,1,0,0:0:0:0:
256,192,193660,1,8,0:0:0:0:
256,192,193720,1,0,0:0:0:0:
256,192,193780,1,0,0:0:0:0:
256,192,193840,1,0,0:0:0:0:
256,192,193900,1,8,0:0:0:0:
256,192,193960,1,0,0:0:0:0:
256,192,194020,1,8,0:0:0:0:
256,192,194080,1,8,0:0:0:0:
256,192,194140,1,8,0:0:0:0:
256,192,194200,1,0,0:0:0:0:
256,192,194260,1,8,0:0:0:0:
256,192,194320,1,8,0:0:0:0:
256,192,194380,1,0,0:0:0:0:
256,192,194620,1,8,0:0:0:0:
256,192,194740,1,0,0:0:0:0:
256,192,194860,1,0,0:0:0:0:
256,192,194980,1,8,0:0:0:0:
256,192,195100,1,0,0:0:0:0:
256,192,195220,1,0,0:0:0:0:
256,192,195340,1,8,0:0:0:0:
256,192,195460,1,0,0:0:0:0:
256,192,195580,1,8,0:0:0:0:
256,192,195700,1,8,0:0:0:0:
256,192,195820,1,0,0:0:0:0:
256,192,195940,1,8,0:0:0:0:
256,192,196060,1,0,0:0:0:0:
256,192,196180,1,0,0:0:0:0:
256,192,196300,1,0,0:0:0:0:
256,192,196420,1,8,0:0:0:0:
256,192,196660,1,8,0:0:0:0:
256,192,196780,1,0,0:0:0:0:
256,192,196900,1,8,0:0:0:0:
256,192,197020,1,0,0:0:0:0:
256,192,197140,1,0,0:0:0:0:
256,192,197260,1,8,0:0:0:0:
256,192,197380,1,8,0:0:0:0:
256,192,197500,1,0,0:0:0:0:
256,192,197620,1,8,0:0:0:0:
256,192,197740,1,0,0:0:0:0:
256,192,197860,1,0,0:0:0:0:
256,192,197980,1,8,0:0:0:0:
256,192,198100,1,0,0:0:0:0:
256,192,198220,1,8,0:0:0:0:
256,192,198340,1,0,0:0:0:0:
256,192,198460,1,8,0:0:0:0:
256,192,198700,1,0,0:0:0:0:
256,192,198820,1,8,0:0:0:0:
256,192,198940,1,0,0:0:0:0:
256,192,199060,1,0,0:0:0:0:
256,192,199180,1,8,0:0:0:0:
256,192,199300,1,0,0:0:0:0:
256,192,199420,1,8,0:0:0:0:
256,192,199540,1,8,0:0:0:0:
256,192,199660,1,0,0:0:0:0:
256,192,199780,1,0,0:0:0:0:
256,192,199900,1,0,0:0:0:0:
256,192,200020,1,8,0:0:0:0:
256,192,200140,1,0,0:0:0:0:
256,192,200260,1,8,0:0:0:0:
256,192,200380,1,0,0:0:0:0:
256,192,200500,1,8,0:0:0:0:
256,192,200620,1,0,0:0:0:0:
256,192,200740,1,0,0:0:0:0:
256,192,200860,1,8,0:0:0:0:
256,192,200980,1,8,0:0:0:0:
256,192,201100,1,0,0:0:0:0:
256,192,201220,1,0,0:0:0:0:
256,192,201340,1,8,0:0:0:0:
256,192,201460,1,0,0:0:0:0:
256,192,201580,1,0,0:0:0:0:
256,192,201640,1,0,0:0:0:0:
256,192,201700,1,0,0:0:0:0:
256,192,201760,1,0,0:0:0:0:
256,192,201820,1,8,0:0:0:0:
256,192,201940,1,8,0:0:0:0:
256,192,202060,1,0,0:0:0:0:
256,192,202120,1,0,0:0:0:0:
256,192,202180,1,8,0:0:0:0:
256,192,202300,1,0,0:0:0:0:
256,192,202420,1,8,0:0:0:0:
256,192,202480,1,8,0:0:0:0:
256,192,202540,1,0,0:0:0:0:
256,192,202660,1,8,0:0:0:0:
256,192,202780,1,0,0:0:0:0:
256,192,202900,1,8,0:0:0:0:
256,192,202960,1,8,0:0:0:0:
256,192,203020,1,0,0:0:0:0:
256,192,203140,1,0,0:0:0:0:
256,192,203260,1,8,0:0:0:0:
256,192,203320,1,0,0:0:0:0:
256,192,203380,1,8,0:0:0:0:
256,192,203440,1,8,0:0:0:0:
256,192,203500,1,0,0:0:0:0:
256,192,203620,1,8,0:0:0:0:
256,192,203740,1,0,0:0:0:0:
256,192,203800,1,0,0:0:0:0:
256,192,203860,1,8,0:0:0:0:
256,192,203920,1,8,0:0:0:0:
256,192,203980,1,0,0:0:0:0:
256,192,204100,1,8,0:0:0:0:
256,192,204220,1,0,0:0:0:0:
256,192,204340,1,8,0:0:0:0:
256,192,204460,1,0,0:0:0:0:
256,192,204520,1,0,0:0:0:0:
256,192,204580,1,0,0:0:0:0:
256,192,204700,1,8,0:0:0:0:
256,192,204820,1,0,0:0:0:0:
256,192,204940,1,8,0:0:0:0:
256,192,205060,1,0,0:0:0:0:
256,192,205180,1,0,0:0:0:0:
256,192,205300,1,8,0:0:0:0:
256,192,205420,1,8,0:0:0:0:
256,192,205660,1,0,0:0:0:0:
256,192,205780,1,8,0:0:0:0:
256,192,205900,1,0,0:0:0:0:
256,192,205960,1,0,0:0:0:0:
256,192,206020,1,8,0:0:0:0:
256,192,206080,1,8,0:0:0:0:
256,192,206140,1,0,0:0:0:0:
256,192,206200,1,0,0:0:0:0:
256,192,206260,1,8,0:0:0:0:
256,192,206320,1,0,0:0:0:0:
256,192,206380,1,8,0:0:0:0:
256,192,206440,1,8,0:0:0:0:
256,192,206500,1,0,0:0:0:0:
256,192,206560,1,0,0:0:0:0:
256,192,206620,1,8,0:0:0:0:
256,192,206680,1,0,0:0:0:0:
256,192,206740,1,8,0:0:0:0:
256,192,206800,1,8,0:0:0:0:
256,192,206860,1,0,0:0:0:0:
256,192,206920,1,0,0:0:0:0:
256,192,206980,1,8,0:0:0:0:
256,192,207040,1,0,0:0:0:0:
256,192,207100,1,8,0:0:0:0:
256,192,207160,1,0,0:0:0:0:
256,192,207220,1,8,0:0:0:0:
256,192,207280,1,8,0:0:0:0:
256,192,207340,1,0,0:0:0:0:
256,192,207460,1,8,0:0:0:0:
256,192,207520,1,8,0:0:0:0:
256,192,207580,1,0,0:0:0:0:
256,192,207700,1,8,0:0:0:0:
256,192,207820,1,0,0:0:0:0:
256,192,207880,1,0,0:0:0:0:
256,192,207940,1,0,0:0:0:0:
256,192,208000,1,0,0:0:0:0:
256,192,208060,1,8,0:0:0:0:
256,192,208120,1,0,0:0:0:0:
256,192,208180,1,8,0:0:0:0:
256,192,208240,1,0,0:0:0:0:
256,192,208300,1,0,0:0:0:0:
256,192,208360,1,0,0:0:0:0:
256,192,208420,1,8,0:0:0:0:
256,192,208480,1,0,0:0:0:0:
256,192,208540,1,0,0:0:0:0:
256,192,208600,1,0,0:0:0:0:
256,192,208660,1,8,0:0:0:0:
256,192,208720,1,8,0:0:0:0:
256,192,208780,1,0,0:0:0:0:
256,192,208840,1,0,0:0:0:0:
256,192,208900,1,8,0:0:0:0:
256,192,208960,1,0,0:0:0:0:
256,192,209020,1,0,0:0:0:0:
256,192,209080,1,0,0:0:0:0:
256,192,209140,1,8,0:0:0:0:
256,192,209200,1,0,0:0:0:0:
256,192,209260,1,8,0:0:0:0:
256,192,209320,1,0,0:0:0:0:
256,192,209380,1,0,0:0:0:0:
256,192,209440,1,0,0:0:0:0:
256,192,209500,1,8,0:0:0:0:
256,192,209560,1,0,0:0:0:0:
256,192,209620,1,8,0:0:0:0:
256,192,209680,1,8,0:0:0:0:
256,192,209740,1,0,0:0:0:0:
256,192,210250,1,8,0:0:0:0:
256,192,210761,1,0,0:0:0:0:
256,192,211016,1,8,0:0:0:0:
256,192,211782,1,8,0:0:0:0:
256,192,212293,1,0,0:0:0:0:
256,192,212548,1,8,0:0:0:0:
256,192,213059,1,0,0:0:0:0:
256,192,213314,1,8,0:0:0:0:
256,192,213825,1,0,0:0:0:0:
256,192,214335,1,8,0:0:0:0:
256,192,214846,1,0,0:0:0:0:
256,192,215101,1,8,0:0:0:0:
256,192,215867,1,8,0:0:0:0:
256,192,216378,1,0,0:0:0:0:
256,192,216633,1,8,0:0:0:0:
256,192,217144,1,0,0:0:0:0:
256,192,217399,1,8,0:0:0:0:
256,192,217654,1,8,0:0:0:0:
256,192,217910,1,4,0:0:0:0:
256,192,221995,1,8,0:0:0:0:
256,192,226080,1,0,0:0:0:0:
256,192,228122,1,0,0:0:0:0:
256,192,229144,1,0,0:0:0:0:
256,192,230165,1,0,0:0:0:0:
256,192,230420,1,0,0:0:0:0:
256,192,230676,1,0,0:0:0:0:
256,192,231186,1,8,0:0:0:0:
256,192,231697,1,0,0:0:0:0:
256,192,231952,1,0,0:0:0:0:
256,192,232208,1,0,0:0:0:0:
256,192,232974,1,0,0:0:0:0:
256,192,233229,1,0,0:0:0:0:
256,192,234250,1,8,0:0:0:0:
256,192,238335,1,0,0:0:0:0:
256,192,240378,1,0,0:0:0:0:
256,192,241399,1,0,0:0:0:0:
256,192,241910,1,8,0:0:0:0:
256,192,242420,1,4,0:0:0:0:
256,192,246250,1,0,0:0:0:0:
256,192,246505,1,0,0:0:0:0:
256,192,249569,1,8,0:0:0:0:
256,192,249697,1,0,0:0:0:0:
256,192,249825,1,0,0:0:0:0:
256,192,249952,1,0,0:0:0:0:
256,192,250080,1,8,0:0:0:0:
256,192,250335,1,0,0:0:0:0:
256,192,250591,1,4,0:0:0:0:
256,192,254420,1,0,0:0:0:0:
256,192,254676,1,0,0:0:0:0:
256,192,256718,1,8,0:0:0:0:
256,192,258761,1,4,0:0:0:0:
256,192,259782,1,8,0:0:0:0:
256,192,261825,1,8,0:0:0:0:
256,192,262846,1,4,0:0:0:0:
256,192,263867,1,8,0:0:0:0:
256,192,265910,1,8,0:0:0:0:
256,192,266931,1,4,0:0:0:0:
256,192,267952,1,8,0:0:0:0:
256,192,269995,1,8,0:0:0:0:
256,192,271016,1,4,0:0:0:0:
256,192,272037,1,8,0:0:0:0:
256,192,274080,1,8,0:0:0:0:
256,192,274335,1,0,0:0:0:0:
256,192,274399,1,0,0:0:0:0:
256,192,274463,1,0,0:0:0:0:
256,192,274591,1,8,0:0:0:0:
256,192,274846,1,0,0:0:0:0:
256,192,275101,1,12,0:0:0:0:
256,192,275357,1,0,0:0:0:0:
256,192,275612,1,0,0:0:0:0:
256,192,275739,1,0,0:0:0:0:
256,192,275867,1,0,0:0:0:0:
256,192,275995,1,0,0:0:0:0:
256,192,276122,1,8,0:0:0:0:
256,192,276378,1,0,0:0:0:0:
256,192,276633,1,0,0:0:0:0:
256,192,276761,1,0,0:0:0:0:
256,192,276888,1,0,0:0:0:0:
256,192,277016,1,8,0:0:0:0:
256,192,277144,1,0,0:0:0:0:
256,192,277399,1,0,0:0:0:0:
256,192,277654,1,0,0:0:0:0:
256,192,277782,1,0,0:0:0:0:
256,192,277910,1,0,0:0:0:0:
256,192,278037,1,8,0:0:0:0:
256,192,278165,1,8,0:0:0:0:
256,192,278420,1,0,0:0:0:0:
256,192,278676,1,0,0:0:0:0:
256,192,278803,1,0,0:0:0:0:
256,192,278931,1,8,0:0:0:0:
256,192,279059,1,8,0:0:0:0:
256,192,279186,1,0,0:0:0:0:
256,192,279442,1,0,0:0:0:0:
256,192,279697,1,0,0:0:0:0:
256,192,279825,1,0,0:0:0:0:
256,192,279952,1,0,0:0:0:0:
256,192,280080,1,0,0:0:0:0:
256,192,280208,1,8,0:0:0:0:
256,192,280463,1,0,0:0:0:0:
256,192,280718,1,0,0:0:0:0:
256,192,280846,1,0,0:0:0:0:
256,192,280974,1,0,0:0:0:0:
256,192,281101,1,8,0:0:0:0:
256,192,281229,1,0,0:0:0:0:
256,192,281357,1,8,0:0:0:0:
256,192,281420,1,8,0:0:0:0:
256,192,281484,1,0,0:0:0:0:
256,192,281612,1,0,0:0:0:0:
256,192,281739,1,8,0:0:0:0:
256,192,281867,1,0,0:0:0:0:
256,192,281931,1,0,0:0:0:0:
256,192,281995,1,0,0:0:0:0:
256,192,282122,1,0,0:0:0:0:
256,192,282250,1,8,0:0:0:0:
256,192,282378,1,0,0:0:0:0:
256,192,282442,1,0,0:0:0:0:
256,192,282505,1,8,0:0:0:0:
256,192,282569,1,8,0:0:0:0:
256,192,282633,1,0,0:0:0:0:
256,192,282697,1,0,0:0:0:0:
256,192,282761,1,8,0:0:0:0:
256,192,282825,1,0,0:0:0:0:
256,192,282888,1,0,0:0:0:0:
256,192,282952,1,0,0:0:0:0:
256,192,283016,1,8,0:0:0:0:
256,192,283271,1,12,0:0:0:0:
256,192,283527,1,0,0:0:0:0:
256,192,283782,1,0,0:0:0:0:
256,192,283910,1,0,0:0:0:0:
256,192,284037,1,0,0:0:0:0:
256,192,284165,1,0,0:0:0:0:
256,192,284293,1,8,0:0:0:0:
256,192,284548,1,0,0:0:0:0:
256,192,284803,1,0,0:0:0:0:
256,192,284931,1,0,0:0:0:0:
256,192,285059,1,0,0:0:0:0:
256,192,285186,1,8,0:0:0:0:
256,192,285314,1,0,0:0:0:0:
256,192,285569,1,0,0:0:0:0:
256,192,285825,1,0,0:0:0:0:
256,192,285952,1,0,0:0:0:0:
256,192,286080,1,0,0:0:0:0:
256,192,286208,1,8,0:0:0:0:
256,192,286335,1,8,0:0:0:0:
256,192,286591,1,0,0:0:0:0:
256,192,286846,1,0,0:0:0:0:
256,192,286974,1,0,0:0:0:0:
256,192,287101,1,8,0:0:0:0:
256,192,287229,1,8,0:0:0:0:
256,192,287357,1,0,0:0:0:0:
256,192,287612,1,0,0:0:0:0:
256,192,287867,1,0,0:0:0:0:
256,192,287995,1,0,0:0:0:0:
256,192,288122,1,0,0:0:0:0:
256,192,288250,1,0,0:0:0:0:
256,192,288378,1,8,0:0:0:0:
256,192,288633,1,0,0:0:0:0:
256,192,288888,1,0,0:0:0:0:
256,192,289016,1,0,0:0:0:0:
256,192,289144,1,0,0:0:0:0:
256,192,289271,1,8,0:0:0:0:
256,192,289399,1,8,0:0:0:0:
256,192,289463,1,8,0:0:0:0:
256,192,289527,1,8,0:0:0:0:
256,192,289591,1,8,0:0:0:0:
256,192,289654,1,0,0:0:0:0:
256,192,289718,1,0,0:0:0:0:
256,192,289782,1,0,0:0:0:0:
256,192,289846,1,0,0:0:0:0:
256,192,289910,1,8,0:0:0:0:
256,192,289974,1,0,0:0:0:0:
256,192,290037,1,8,0:0:0:0:
256,192,290101,1,0,0:0:0:0:
256,192,290165,1,8,0:0:0:0:
256,192,290229,1,8,0:0:0:0:
256,192,290293,1,0,0:0:0:0:
256,192,290357,1,0,0:0:0:0:
256,192,290420,1,8,0:0:0:0:
256,192,290548,1,0,0:0:0:0:
256,192,290676,5,8,0:0:0:0:
256,192,290739,1,8,0:0:0:0:
256,192,290803,1,0,0:0:0:0:
256,192,290867,1,0,0:0:0:0:
256,192,290931,1,8,0:0:0:0:
256,192,290995,1,8,0:0:0:0:
256,192,291059,1,0,0:0:0:0:
256,192,291122,1,0,0:0:0:0:
256,192,291186,1,0,0:0:0:0:
256,192,291250,1,0,0:0:0:0:
256,192,291314,1,0,0:0:0:0:
256,192,291378,1,0,0:0:0:0:
256,192,291442,1,8,0:0:0:0:
256,192,291697,1,8,0:0:0:0:
256,192,291761,1,0,0:0:0:0:
256,192,291825,1,8,0:0:0:0:
256,192,291888,1,0,0:0:0:0:
256,192,291952,1,8,0:0:0:0:
256,192,292016,1,8,0:0:0:0:
256,192,292080,1,0,0:0:0:0:
256,192,292144,1,0,0:0:0:0:
256,192,292208,1,8,0:0:0:0:
256,192,292271,1,8,0:0:0:0:
256,192,292335,1,8,0:0:0:0:
256,192,292399,1,8,0:0:0:0:
256,192,292463,1,0,0:0:0:0:
256,192,292527,1,0,0:0:0:0:
256,192,292591,1,0,0:0:0:0:
256,192,292654,1,0,0:0:0:0:
256,192,292718,1,8,0:0:0:0:
256,192,292782,1,0,0:0:0:0:
256,192,292846,1,8,0:0:0:0:
256,192,292910,1,0,0:0:0:0:
256,192,292974,1,8,0:0:0:0:
256,192,293037,1,8,0:0:0:0:
256,192,293101,1,0,0:0:0:0:
256,192,293165,1,0,0:0:0:0:
256,192,293229,1,8,0:0:0:0:
256,192,293293,1,0,0:0:0:0:
256,192,293357,1,0,0:0:0:0:
256,192,293420,1,0,0:0:0:0:
256,192,293484,1,8,0:0:0:0:
256,192,293548,1,8,0:0:0:0:
256,192,293612,1,8,0:0:0:0:
256,192,293676,1,8,0:0:0:0:
256,192,293739,1,0,0:0:0:0:
256,192,293803,1,0,0:0:0:0:
256,192,293867,1,0,0:0:0:0:
256,192,293931,1,0,0:0:0:0:
256,192,293995,1,8,0:0:0:0:
256,192,294059,1,0,0:0:0:0:
256,192,294122,1,8,0:0:0:0:
256,160,294186,1,0,0:0:0:0:
256,192,294250,1,8,0:0:0:0:
256,192,294314,1,8,0:0:0:0:
256,192,294378,1,0,0:0:0:0:
256,192,294442,1,0,0:0:0:0:
256,192,294505,1,8,0:0:0:0:
256,160,294569,1,0,0:0:0:0:
256,192,294633,1,0,0:0:0:0:
256,192,294697,1,0,0:0:0:0:
256,192,294761,1,8,0:0:0:0:
256,192,294825,1,8,0:0:0:0:
256,192,294888,1,0,0:0:0:0:
256,192,294952,1,0,0:0:0:0:
256,192,295016,1,8,0:0:0:0:
256,192,295080,1,0,0:0:0:0:
256,192,295144,1,8,0:0:0:0:
256,192,295208,1,8,0:0:0:0:
256,192,295271,1,0,0:0:0:0:
256,192,295335,1,0,0:0:0:0:
256,192,295399,1,8,0:0:0:0:
256,192,295527,1,8,0:0:0:0:
256,192,295591,1,0,0:0:0:0:
256,192,295654,1,8,0:0:0:0:
256,192,295718,1,0,0:0:0:0:
256,192,295782,1,8,0:0:0:0:
256,192,295846,1,0,0:0:0:0:
256,192,295910,1,8,0:0:0:0:
256,192,295974,1,0,0:0:0:0:
256,192,296037,1,8,0:0:0:0:
256,192,296101,1,8,0:0:0:0:
256,192,296165,1,0,0:0:0:0:
256,192,296229,1,0,0:0:0:0:
256,192,296293,1,8,0:0:0:0:
256,192,296357,1,8,0:0:0:0:
256,192,296420,1,8,0:0:0:0:
256,192,296484,1,8,0:0:0:0:
256,192,296548,1,0,0:0:0:0:
256,192,296612,1,0,0:0:0:0:
256,192,296676,1,0,0:0:0:0:
256,192,296739,1,0,0:0:0:0:
256,192,296803,1,8,0:0:0:0:
256,192,296867,1,0,0:0:0:0:
256,192,296931,1,8,0:0:0:0:
256,192,296995,1,0,0:0:0:0:
256,192,297059,1,8,0:0:0:0:
256,192,297122,1,0,0:0:0:0:
256,192,297186,1,8,0:0:0:0:
256,192,297250,1,0,0:0:0:0:
256,192,297314,1,8,0:0:0:0:
256,192,297378,1,8,0:0:0:0:
256,192,297442,1,0,0:0:0:0:
256,192,297505,1,0,0:0:0:0:
256,192,297569,1,8,0:0:0:0:
256,192,297633,1,8,0:0:0:0:
256,192,297697,1,8,0:0:0:0:
256,192,297761,1,8,0:0:0:0:
256,192,297825,1,0,0:0:0:0:
256,192,297888,1,0,0:0:0:0:
256,192,297952,1,0,0:0:0:0:
256,192,298016,1,0,0:0:0:0:
256,192,298080,1,8,0:0:0:0:
256,192,298144,1,8,0:0:0:0:
256,192,298208,1,0,0:0:0:0:
256,192,298271,1,0,0:0:0:0:
256,192,298335,1,8,0:0:0:0:
256,192,298399,1,0,0:0:0:0:
256,192,298463,1,8,0:0:0:0:
256,192,298527,1,8,0:0:0:0:
256,192,298591,1,0,0:0:0:0:
256,192,298654,1,0,0:0:0:0:
256,192,298718,1,8,0:0:0:0:
256,192,298782,1,0,0:0:0:0:
256,192,298846,1,8,0:0:0:0:
256,192,298910,1,8,0:0:0:0:
256,192,298974,1,0,0:0:0:0:
256,192,299037,1,0,0:0:0:0:
256,192,299101,1,8,0:0:0:0:
256,192,299165,1,8,0:0:0:0:
256,192,299229,1,0,0:0:0:0:
256,192,299357,1,8,0:0:0:0:
256,192,299484,1,0,0:0:0:0:
256,192,299612,1,8,0:0:0:0:
256,192,299676,1,0,0:0:0:0:
256,192,299739,1,8,0:0:0:0:
256,192,299803,1,0,0:0:0:0:
256,192,299867,1,8,0:0:0:0:
256,192,299931,1,8,0:0:0:0:
256,192,299995,1,0,0:0:0:0:
256,192,300059,1,0,0:0:0:0:
256,192,300122,1,8,0:0:0:0:
256,192,300186,1,8,0:0:0:0:
256,192,300250,1,0,0:0:0:0:
256,192,300314,1,0,0:0:0:0:
256,192,300378,1,8,0:0:0:0:
256,192,300442,1,8,0:0:0:0:
256,192,300505,1,8,0:0:0:0:
256,192,300569,1,8,0:0:0:0:
256,192,300633,1,0,0:0:0:0:
256,192,300697,1,0,0:0:0:0:
256,192,300761,1,0,0:0:0:0:
256,192,300825,1,0,0:0:0:0:
256,192,300888,1,8,0:0:0:0:
256,192,300952,1,0,0:0:0:0:
256,192,301016,1,8,0:0:0:0:
256,192,301080,1,0,0:0:0:0:
256,192,301144,1,8,0:0:0:0:
256,192,301208,1,8,0:0:0:0:
256,192,301271,1,0,0:0:0:0:
256,192,301335,1,0,0:0:0:0:
256,192,301399,1,8,0:0:0:0:
256,192,301463,1,8,0:0:0:0:
256,192,301527,1,0,0:0:0:0:
256,192,301591,1,0,0:0:0:0:
256,192,301654,1,8,0:0:0:0:
256,192,301718,1,8,0:0:0:0:
256,192,301782,1,8,0:0:0:0:
256,192,301846,1,8,0:0:0:0:
256,192,301910,1,0,0:0:0:0:
256,192,301974,1,0,0:0:0:0:
256,192,302037,1,0,0:0:0:0:
256,160,302101,1,0,0:0:0:0:
256,192,302165,1,8,0:0:0:0:
256,192,302229,1,0,0:0:0:0:
256,192,302293,1,8,0:0:0:0:
256,192,302357,1,0,0:0:0:0:
256,192,302420,1,8,0:0:0:0:
256,160,302484,1,8,0:0:0:0:
256,192,302548,1,0,0:0:0:0:
256,192,302612,1,0,0:0:0:0:
256,192,302676,1,8,0:0:0:0:
256,192,302739,1,0,0:0:0:0:
256,192,302803,1,8,0:0:0:0:
256,192,302867,1,0,0:0:0:0:
256,192,302931,1,8,0:0:0:0:
256,192,302995,1,8,0:0:0:0:
256,192,303059,1,8,0:0:0:0:
256,192,303122,1,0,0:0:0:0:
256,192,303186,1,8,0:0:0:0:
256,192,303250,1,0,0:0:0:0:
256,192,303314,1,0,0:0:0:0:
256,192,303378,1,0,0:0:0:0:
256,192,303442,1,8,0:0:0:0:
256,192,303505,1,0,0:0:0:0:
256,192,303569,1,8,0:0:0:0:
256,192,303697,1,8,0:0:0:0:
256,192,303761,1,0,0:0:0:0:
256,192,303825,1,8,0:0:0:0:
256,192,303888,1,0,0:0:0:0:
256,192,303952,1,8,0:0:0:0:
256,192,304016,1,0,0:0:0:0:
256,192,304080,1,8,0:0:0:0:
256,192,304144,1,0,0:0:0:0:
256,192,304208,1,8,0:0:0:0:
256,192,304271,1,8,0:0:0:0:
256,192,304335,1,0,0:0:0:0:
256,192,304399,1,0,0:0:0:0:
256,192,304463,1,8,0:0:0:0:
256,192,304527,1,8,0:0:0:0:
256,192,304591,1,8,0:0:0:0:
256,192,304654,1,8,0:0:0:0:
256,192,304718,1,0,0:0:0:0:
256,192,304782,1,0,0:0:0:0:
256,192,304846,1,0,0:0:0:0:
256,192,304910,1,0,0:0:0:0:
256,192,304974,1,8,0:0:0:0:
256,192,305037,1,0,0:0:0:0:
256,192,305101,1,8,0:0:0:0:
256,192,305165,1,0,0:0:0:0:
256,192,305229,1,8,0:0:0:0:
256,192,305293,1,0,0:0:0:0:
256,192,305357,1,8,0:0:0:0:
256,192,305420,1,0,0:0:0:0:
256,192,305484,1,8,0:0:0:0:
256,192,305548,1,8,0:0:0:0:
256,192,305612,1,0,0:0:0:0:
256,192,305676,1,0,0:0:0:0:
256,192,305739,1,8,0:0:0:0:
256,192,305803,1,8,0:0:0:0:
256,192,305867,1,8,0:0:0:0:
256,192,305931,1,8,0:0:0:0:
256,192,305995,1,0,0:0:0:0:
256,192,306059,1,0,0:0:0:0:
256,192,306122,1,0,0:0:0:0:
256,192,306186,1,0,0:0:0:0:
256,192,306250,1,8,0:0:0:0:
256,192,306314,1,8,0:0:0:0:
256,192,306378,1,0,0:0:0:0:
256,192,306442,1,0,0:0:0:0:
256,192,306505,1,8,0:0:0:0:
256,192,306569,1,0,0:0:0:0:
256,192,306633,1,8,0:0:0:0:
256,192,306697,1,8,0:0:0:0:
256,192,306761,1,8,0:0:0:0:
256,192,306825,1,0,0:0:0:0:
256,192,306888,1,8,0:0:0:0:
256,192,306952,1,8,0:0:0:0:
256,192,307016,1,0,0:0:0:0:
256,192,307080,1,0,0:0:0:0:
256,192,307144,1,0,0:0:0:0:
256,192,307208,1,0,0:0:0:0:
256,192,307271,1,8,0:0:0:0:
256,192,307335,1,8,0:0:0:0:
256,192,307399,1,8,0:0:0:0:
256,192,307463,1,8,0:0:0:0:
256,192,307527,1,0,0:0:0:0:
256,192,307591,1,0,0:0:0:0:
256,192,307654,1,8,0:0:0:0:
256,192,307718,1,8,0:0:0:0:
256,192,307782,1,0,0:0:0:0:
256,192,308037,1,8,0:0:0:0:
256,192,308101,1,8,0:0:0:0:
256,192,308165,1,0,0:0:0:0:
256,192,308293,1,8,0:0:0:0:
256,192,308420,1,0,0:0:0:0:
256,192,308548,1,0,0:0:0:0:
256,192,308612,1,0,0:0:0:0:
256,192,308676,1,8,0:0:0:0:
256,192,308739,1,8,0:0:0:0:
256,192,308803,1,0,0:0:0:0:
256,192,308931,1,0,0:0:0:0:
256,192,309059,1,8,0:0:0:0:
256,192,309122,1,0,0:0:0:0:
256,192,309186,1,0,0:0:0:0:
256,192,309250,1,0,0:0:0:0:
256,192,309314,1,8,0:0:0:0:
256,192,309442,1,0,0:0:0:0:
256,192,309505,1,0,0:0:0:0:
256,192,309569,1,0,0:0:0:0:
256,192,309697,1,0,0:0:0:0:
256,192,309825,1,8,0:0:0:0:
256,192,309888,1,8,0:0:0:0:
256,192,309952,1,0,0:0:0:0:
256,192,310080,1,8,0:0:0:0:
256,192,310208,1,0,0:0:0:0:
256,192,310335,1,0,0:0:0:0:
256,192,310463,1,0,0:0:0:0:
256,192,310591,1,8,0:0:0:0:
256,192,310654,1,8,0:0:0:0:
256,192,310718,1,0,0:0:0:0:
256,192,310846,1,8,0:0:0:0:
256,192,310974,1,0,0:0:0:0:
256,192,311037,1,0,0:0:0:0:
256,192,311101,1,0,0:0:0:0:
256,192,311229,1,0,0:0:0:0:
256,192,311357,1,8,0:0:0:0:
256,192,311484,1,0,0:0:0:0:
256,192,311548,1,0,0:0:0:0:
256,192,311612,1,8,0:0:0:0:
256,192,311867,1,0,0:0:0:0:
256,192,311995,1,8,0:0:0:0:
256,192,312059,1,8,0:0:0:0:
256,192,312122,1,0,0:0:0:0:
256,192,312250,1,8,0:0:0:0:
256,192,312378,1,0,0:0:0:0:
256,192,312442,1,0,0:0:0:0:
256,192,312505,1,0,0:0:0:0:
256,192,312633,1,0,0:0:0:0:
256,192,312697,1,0,0:0:0:0:
256,192,312761,1,8,0:0:0:0:
256,192,312888,1,0,0:0:0:0:
256,192,313016,1,8,0:0:0:0:
256,192,313080,1,8,0:0:0:0:
256,192,313144,1,0,0:0:0:0:
256,192,313271,1,8,0:0:0:0:
256,192,313399,1,0,0:0:0:0:
256,192,313527,1,0,0:0:0:0:
256,192,313591,1,0,0:0:0:0:
256,192,313654,1,8,0:0:0:0:
256,192,313782,1,0,0:0:0:0:
256,192,313910,1,8,0:0:0:0:
256,192,313974,1,8,0:0:0:0:
256,192,314037,1,0,0:0:0:0:
256,192,314165,1,8,0:0:0:0:
256,192,314293,1,0,0:0:0:0:
256,192,314420,1,8,0:0:0:0:
256,192,314484,1,8,0:0:0:0:
256,192,314548,1,0,0:0:0:0:
256,192,314612,1,0,0:0:0:0:
256,192,314676,1,8,0:0:0:0:
256,192,314803,1,0,0:0:0:0:
256,192,314931,1,8,0:0:0:0:
256,192,314995,1,8,0:0:0:0:
256,192,315059,1,0,0:0:0:0:
256,192,315122,1,0,0:0:0:0:
256,192,315186,1,8,0:0:0:0:
256,192,315250,1,0,0:0:0:0:
256,192,315314,1,8,0:0:0:0:
256,192,315378,1,0,0:0:0:0:
256,192,315442,1,8,0:0:0:0:
256,192,315505,1,8,0:0:0:0:
256,192,315569,1,0,0:0:0:0:
256,192,315697,1,0,0:0:0:0:
256,192,315825,1,0,0:0:0:0:
256,192,315952,1,8,0:0:0:0:
256,192,316016,1,8,0:0:0:0:
256,192,316080,1,0,0:0:0:0:
256,192,316208,1,8,0:0:0:0:
256,192,316271,1,8,0:0:0:0:
256,192,316335,1,0,0:0:0:0:
256,192,316463,1,8,0:0:0:0:
256,192,316591,1,0,0:0:0:0:
256,192,316654,1,0,0:0:0:0:
256,192,316718,1,8,0:0:0:0:
256,192,316846,1,0,0:0:0:0:
256,192,316910,1,0,0:0:0:0:
256,192,316974,1,8,0:0:0:0:
256,192,317101,1,0,0:0:0:0:
256,192,317165,1,0,0:0:0:0:
256,192,317229,1,0,0:0:0:0:
256,192,317293,1,0,0:0:0:0:
256,192,317357,1,0,0:0:0:0:
256,192,317484,1,8,0:0:0:0:
256,192,317612,1,0,0:0:0:0:
256,192,317739,1,8,0:0:0:0:
256,192,317867,1,8,0:0:0:0:
256,192,317995,1,0,0:0:0:0:
256,192,318059,1,0,0:0:0:0:
256,192,318122,1,8,0:0:0:0:
256,192,318186,1,0,0:0:0:0:
256,192,318250,1,0,0:0:0:0:
256,192,318378,1,8,0:0:0:0:
256,192,318442,1,8,0:0:0:0:
256,192,318505,1,0,0:0:0:0:
256,192,318633,1,8,0:0:0:0:
256,192,318697,1,0,0:0:0:0:
256,192,318761,1,8,0:0:0:0:
256,192,318888,1,0,0:0:0:0:
256,192,319016,1,8,0:0:0:0:
256,192,319080,1,8,0:0:0:0:
256,192,319144,1,0,0:0:0:0:
256,192,319208,1,0,0:0:0:0:
256,192,319271,1,8,0:0:0:0:
256,192,319335,1,8,0:0:0:0:
256,192,319399,1,8,0:0:0:0:
256,192,319463,1,8,0:0:0:0:
256,192,319527,1,0,0:0:0:0:
256,192,319591,1,0,0:0:0:0:
256,192,319654,1,0,0:0:0:0:
256,192,319718,1,0,0:0:0:0:
256,192,319782,1,8,0:0:0:0:
256,192,319846,1,0,0:0:0:0:
256,192,319910,1,8,0:0:0:0:
256,192,319974,1,8,0:0:0:0:
256,192,320037,1,0,0:0:0:0:
256,192,320292,1,8,0:0:0:0:
256,192,320377,1,8,0:0:0:0:
256,192,320462,1,8,0:0:0:0:
256,192,320547,1,8,0:0:0:0:
256,192,320802,1,4,0:0:0:0:
256,192,321058,1,8,0:0:0:0:
256,192,321185,1,4,0:0:0:0:
256,192,321441,1,8,0:0:0:0:
256,192,321568,1,4,0:0:0:0:
256,192,321824,1,8,0:0:0:0:
256,192,321888,1,8,0:0:0:0:
256,192,321951,1,8,0:0:0:0:
256,192,322015,1,8,0:0:0:0:
256,192,322079,1,8,0:0:0:0:
256,192,322334,1,4,0:0:0:0:
256,192,322590,1,8,0:0:0:0:
256,192,322717,1,8,0:0:0:0:
256,192,322845,1,4,0:0:0:0:
256,192,323100,1,4,0:0:0:0:
256,192,323356,1,8,0:0:0:0:
256,192,323441,1,8,0:0:0:0:
256,192,323526,1,8,0:0:0:0:
256,192,323611,1,8,0:0:0:0:
256,192,323866,1,4,0:0:0:0:
256,192,324122,1,8,0:0:0:0:
256,192,324249,1,4,0:0:0:0:
256,192,324505,1,8,0:0:0:0:
256,192,324632,1,4,0:0:0:0:
256,192,324760,1,8,0:0:0:0:
256,192,324824,1,8,0:0:0:0:
256,192,324888,1,0,0:0:0:0:
256,192,324951,1,0,0:0:0:0:
256,192,325015,1,8,0:0:0:0:
256,192,325079,1,0,0:0:0:0:
256,192,325143,1,8,0:0:0:0:
256,192,325207,1,8,0:0:0:0:
256,192,325271,1,0,0:0:0:0:
256,192,325334,1,0,0:0:0:0:
256,192,325398,1,8,0:0:0:0:
256,192,325526,1,8,0:0:0:0:
256,192,325654,1,4,0:0:0:0:
256,192,325909,1,4,0:0:0:0:
256,192,326164,1,4,0:0:0:0:
256,192,326292,1,0,0:0:0:0:
256,192,326356,1,0,0:0:0:0:
256,192,326419,1,8,0:0:0:0:
256,192,326483,1,0,0:0:0:0:
256,192,326547,1,8,0:0:0:0:
256,192,326611,1,0,0:0:0:0:
256,192,326675,1,8,0:0:0:0:
256,192,326739,1,8,0:0:0:0:
256,192,326802,1,0,0:0:0:0:
256,192,326866,1,0,0:0:0:0:
256,192,326930,1,8,0:0:0:0:
256,192,326994,1,0,0:0:0:0:
256,192,327058,1,0,0:0:0:0:
256,192,327122,1,0,0:0:0:0:
256,192,327185,1,8,0:0:0:0:
256,192,327249,1,8,0:0:0:0:
256,192,327313,1,0,0:0:0:0:
256,192,327377,1,0,0:0:0:0:
256,192,327441,1,8,0:0:0:0:
256,192,327505,1,8,0:0:0:0:
256,192,327568,1,8,0:0:0:0:
256,192,327632,1,8,0:0:0:0:
256,192,327696,1,0,0:0:0:0:
256,192,327760,1,0,0:0:0:0:
256,192,327824,1,0,0:0:0:0:
256,192,327888,1,0,0:0:0:0:
256,192,327951,1,8,0:0:0:0:
256,192,328015,1,0,0:0:0:0:
256,192,328079,1,8,0:0:0:0:
256,192,328143,1,0,0:0:0:0:
256,192,328207,1,8,0:0:0:0:
256,192,328271,1,8,0:0:0:0:
256,192,328334,1,0,0:0:0:0:
256,192,328398,1,0,0:0:0:0:
256,192,328462,1,8,0:0:0:0:
256,192,328526,1,8,0:0:0:0:
256,192,328590,1,8,0:0:0:0:
256,192,328654,1,8,0:0:0:0:
256,192,328717,1,0,0:0:0:0:
256,192,328781,1,0,0:0:0:0:
256,192,328845,1,0,0:0:0:0:
256,192,328909,1,0,0:0:0:0:
256,192,328973,1,8,0:0:0:0:
256,192,329037,1,8,0:0:0:0:
256,192,329100,1,0,0:0:0:0:
256,192,329164,1,0,0:0:0:0:
256,192,329228,1,8,0:0:0:0:
256,192,329292,1,0,0:0:0:0:
256,192,329356,1,0,0:0:0:0:
256,192,329419,1,0,0:0:0:0:
256,192,329483,1,8,0:0:0:0:
256,192,329547,1,0,0:0:0:0:
256,192,329611,1,8,0:0:0:0:
256,192,329675,1,0,0:0:0:0:
256,192,329739,1,8,0:0:0:0:
256,192,329802,1,8,0:0:0:0:
256,192,329866,1,0,0:0:0:0:
256,192,329930,1,0,0:0:0:0:
256,192,329994,1,8,0:0:0:0:
256,192,330058,1,0,0:0:0:0:
256,192,330122,1,0,0:0:0:0:
256,192,330185,1,0,0:0:0:0:
256,192,330249,1,8,0:0:0:0:
256,192,330313,1,8,0:0:0:0:
256,192,330377,1,0,0:0:0:0:
256,192,330441,1,0,0:0:0:0:
256,192,330505,1,8,0:0:0:0:
256,192,330568,1,0,0:0:0:0:
256,192,330632,1,0,0:0:0:0:
256,192,330696,1,0,0:0:0:0:
256,192,330760,1,8,0:0:0:0:
256,192,330824,1,0,0:0:0:0:
256,192,330888,1,8,0:0:0:0:
256,192,330951,1,0,0:0:0:0:
256,192,331015,1,8,0:0:0:0:
256,192,331079,1,8,0:0:0:0:
256,192,331143,1,0,0:0:0:0:
256,192,331207,1,0,0:0:0:0:
256,192,331271,1,8,0:0:0:0:
256,192,331334,1,8,0:0:0:0:
256,192,331398,1,0,0:0:0:0:
256,192,331462,1,0,0:0:0:0:
256,192,331526,1,8,0:0:0:0:
256,192,331590,1,8,0:0:0:0:
256,192,331654,1,8,0:0:0:0:
256,192,331717,1,8,0:0:0:0:
256,192,331781,1,0,0:0:0:0:
256,192,331845,1,0,0:0:0:0:
256,192,331909,1,0,0:0:0:0:
256,192,331973,1,0,0:0:0:0:
256,192,332037,1,8,0:0:0:0:
256,192,332100,1,8,0:0:0:0:
256,192,332164,1,0,0:0:0:0:
256,192,332292,1,0,0:0:0:0:
256,192,332356,1,0,0:0:0:0:
256,192,332419,1,0,0:0:0:0:
256,192,332483,1,0,0:0:0:0:
256,192,332547,1,8,0:0:0:0:
256,192,332611,1,0,0:0:0:0:
256,192,332675,1,8,0:0:0:0:
256,192,332739,1,0,0:0:0:0:
256,192,332802,1,8,0:0:0:0:
256,192,332866,1,8,0:0:0:0:
256,192,332930,1,8,0:0:0:0:
256,192,332994,1,0,0:0:0:0:
256,192,333058,1,8,0:0:0:0:
256,192,333122,1,0,0:0:0:0:
256,192,333185,1,0,0:0:0:0:
256,192,333249,1,0,0:0:0:0:
256,192,333313,1,8,0:0:0:0:
256,192,333377,1,8,0:0:0:0:
256,192,333441,1,0,0:0:0:0:
256,192,333505,1,0,0:0:0:0:
256,192,333568,1,8,0:0:0:0:
256,192,333632,1,8,0:0:0:0:
256,192,333696,1,8,0:0:0:0:
256,192,333760,1,8,0:0:0:0:
256,192,333824,1,0,0:0:0:0:
256,192,333888,1,0,0:0:0:0:
256,192,333951,1,0,0:0:0:0:
256,192,334015,1,0,0:0:0:0:
256,192,334079,1,8,0:0:0:0:
256,192,334143,1,0,0:0:0:0:
256,192,334207,1,8,0:0:0:0:
256,192,334271,1,0,0:0:0:0:
256,192,334334,1,8,0:0:0:0:
256,192,334398,1,8,0:0:0:0:
256,192,334462,1,0,0:0:0:0:
256,192,334526,1,0,0:0:0:0:
256,192,334590,1,8,0:0:0:0:
256,192,334654,1,8,0:0:0:0:
256,192,334717,1,8,0:0:0:0:
256,192,334781,1,8,0:0:0:0:
256,192,334845,1,0,0:0:0:0:
256,192,334909,1,0,0:0:0:0:
256,192,334973,1,0,0:0:0:0:
256,192,335037,1,0,0:0:0:0:
256,192,335100,1,8,0:0:0:0:
256,192,335164,1,8,0:0:0:0:
256,192,335228,1,0,0:0:0:0:
256,192,335292,1,0,0:0:0:0:
256,192,335356,1,8,0:0:0:0:
256,192,335419,1,0,0:0:0:0:
256,192,335483,1,0,0:0:0:0:
256,192,335547,1,0,0:0:0:0:
256,192,335611,1,8,0:0:0:0:
256,192,335675,1,8,0:0:0:0:
256,192,335739,1,8,0:0:0:0:
256,192,335802,1,0,0:0:0:0:
256,192,335866,1,8,0:0:0:0:
256,192,335930,1,8,0:0:0:0:
256,192,335994,1,0,0:0:0:0:
256,192,336058,1,0,0:0:0:0:
256,192,336122,1,8,0:0:0:0:
256,192,336185,1,0,0:0:0:0:
256,192,336249,1,0,0:0:0:0:
256,192,336313,1,0,0:0:0:0:
256,192,336377,1,8,0:0:0:0:
256,192,336441,1,8,0:0:0:0:
256,192,336505,1,8,0:0:0:0:
256,192,336568,1,0,0:0:0:0:
256,192,336632,1,8,0:0:0:0:
256,192,336696,1,8,0:0:0:0:
256,192,336760,1,0,0:0:0:0:
256,192,336824,1,0,0:0:0:0:
256,192,336888,1,8,0:0:0:0:
256,192,336951,1,0,0:0:0:0:
256,192,337015,1,0,0:0:0:0:
256,192,337079,1,0,0:0:0:0:
256,192,337143,1,8,0:0:0:0:
256,192,337207,1,8,0:0:0:0:
256,192,337271,1,0,0:0:0:0:
256,192,337334,1,0,0:0:0:0:
256,192,337398,1,8,0:0:0:0:
256,192,337462,1,0,0:0:0:0:
256,192,337526,1,0,0:0:0:0:
256,192,337590,1,0,0:0:0:0:
256,192,337654,1,8,0:0:0:0:
256,192,337717,1,8,0:0:0:0:
256,192,337781,1,8,0:0:0:0:
256,192,337845,1,8,0:0:0:0:
256,192,337909,1,0,0:0:0:0:
256,192,337973,1,0,0:0:0:0:
256,192,338037,1,0,0:0:0:0:
256,192,338100,1,0,0:0:0:0:
256,192,338164,1,8,0:0:0:0:
256,192,338228,1,8,0:0:0:0:
256,192,338292,1,8,0:0:0:0:
256,192,338356,1,8,0:0:0:0:
256,192,338419,1,0,0:0:0:0:
256,192,338547,1,0,0:0:0:0:
256,192,338675,1,0,0:0:0:0:
256,192,338802,1,8,0:0:0:0:
256,192,338866,1,8,0:0:0:0:
256,192,338930,1,8,0:0:0:0:
256,192,338994,1,8,0:0:0:0:
256,192,339058,1,0,0:0:0:0:
256,192,339122,1,0,0:0:0:0:
256,192,339185,1,0,0:0:0:0:
256,192,339249,1,0,0:0:0:0:
256,192,339313,1,8,0:0:0:0:
256,192,339441,1,0,0:0:0:0:
256,192,339505,1,0,0:0:0:0:
256,192,339568,1,8,0:0:0:0:
256,192,339696,1,0,0:0:0:0:
256,192,339760,1,0,0:0:0:0:
256,192,339824,1,8,0:0:0:0:
256,192,339951,1,8,0:0:0:0:
256,192,340079,1,0,0:0:0:0:
256,192,340207,1,0,0:0:0:0:
256,192,340334,1,8,0:0:0:0:
256,192,340398,1,8,0:0:0:0:
256,192,340462,1,8,0:0:0:0:
256,192,340526,1,8,0:0:0:0:
256,192,340590,1,8,0:0:0:0:
256,192,340654,1,8,0:0:0:0:
256,192,340717,1,0,0:0:0:0:
256,192,340845,1,8,0:0:0:0:
256,192,340909,1,8,0:0:0:0:
256,192,340973,1,0,0:0:0:0:
256,192,341100,1,8,0:0:0:0:
256,224,341228,1,0,0:0:0:0:
256,192,341292,1,0,0:0:0:0:
256,192,341356,1,0,0:0:0:0:
256,192,341483,1,8,0:0:0:0:
256,192,341611,1,0,0:0:0:0:
256,192,341739,1,0,0:0:0:0:
256,192,341866,1,8,0:0:0:0:
256,192,341930,1,8,0:0:0:0:
256,192,341994,1,8,0:0:0:0:
256,192,342058,1,8,0:0:0:0:
256,192,342122,1,0,0:0:0:0:
256,192,342185,1,0,0:0:0:0:
256,192,342249,1,0,0:0:0:0:
256,192,342313,1,0,0:0:0:0:
256,192,342377,1,8,0:0:0:0:
256,192,342505,1,0,0:0:0:0:
256,192,342568,1,0,0:0:0:0:
256,192,342632,1,8,0:0:0:0:
256,192,342760,1,0,0:0:0:0:
256,192,342824,1,0,0:0:0:0:
256,192,342888,1,8,0:0:0:0:
256,192,343015,1,8,0:0:0:0:
256,192,343143,1,0,0:0:0:0:
256,192,343207,1,0,0:0:0:0:
256,192,343271,1,0,0:0:0:0:
256,192,343398,1,0,0:0:0:0:
256,192,343526,1,8,0:0:0:0:
256,192,343590,1,8,0:0:0:0:
256,192,343654,1,8,0:0:0:0:
256,192,343717,1,8,0:0:0:0:
256,192,343781,1,8,0:0:0:0:
256,192,343845,1,8,0:0:0:0:
256,192,343909,1,0,0:0:0:0:
256,192,344037,1,8,0:0:0:0:
256,192,344164,1,0,0:0:0:0:
256,192,344292,1,0,0:0:0:0:
256,192,344356,1,0,0:0:0:0:
256,192,344419,1,0,0:0:0:0:
256,192,344547,1,8,0:0:0:0:
256,192,344611,1,8,0:0:0:0:
256,192,344675,1,8,0:0:0:0:
256,192,344739,1,8,0:0:0:0:
256,192,344802,1,0,0:0:0:0:
256,192,344866,1,0,0:0:0:0:
256,192,344930,1,0,0:0:0:0:
256,192,344994,1,0,0:0:0:0:
256,192,345058,1,8,0:0:0:0:
256,192,345185,1,0,0:0:0:0:
256,192,345249,1,0,0:0:0:0:
256,192,345313,1,8,0:0:0:0:
256,192,345441,1,0,0:0:0:0:
256,192,345568,1,0,0:0:0:0:
256,192,345632,1,0,0:0:0:0:
256,192,345696,1,0,0:0:0:0:
256,192,345824,1,8,0:0:0:0:
256,192,345951,1,0,0:0:0:0:
256,192,346015,1,0,0:0:0:0:
256,192,346079,1,0,0:0:0:0:
256,192,346207,1,8,0:0:0:0:
256,192,346334,1,0,0:0:0:0:
256,192,346462,1,8,0:0:0:0:
256,192,346526,1,8,0:0:0:0:
256,192,346590,1,8,0:0:0:0:
256,192,346654,1,8,0:0:0:0:
256,192,346717,1,8,0:0:0:0:
256,192,346845,1,4,0:0:0:0:
256,224,347100,1,4,0:0:0:0:
256,224,347356,1,4,0:0:0:0:
256,224,347483,1,4,0:0:0:0:
256,224,347611,1,4,0:0:0:0:
256,192,347866,1,0,0:0:0:0:
256,192,347994,1,8,0:0:0:0:
256,192,348058,1,8,0:0:0:0:
256,192,348122,1,8,0:0:0:0:
256,192,348185,1,8,0:0:0:0:
256,192,348249,1,0,0:0:0:0:
256,192,348313,1,0,0:0:0:0:
256,192,348377,1,8,0:0:0:0:
256,192,348441,1,0,0:0:0:0:
256,192,348505,1,0,0:0:0:0:
256,192,348568,1,0,0:0:0:0:
256,192,348632,1,0,0:0:0:0:
256,192,348696,1,0,0:0:0:0:
256,192,348760,1,8,0:0:0:0:
256,192,348824,1,0,0:0:0:0:
256,192,348888,1,0,0:0:0:0:
256,192,348951,1,0,0:0:0:0:
256,192,349015,1,0,0:0:0:0:
256,192,349079,1,0,0:0:0:0:
256,192,349143,1,8,0:0:0:0:
256,192,349207,1,0,0:0:0:0:
256,192,349271,1,0,0:0:0:0:
256,192,349334,1,0,0:0:0:0:
256,192,349398,1,0,0:0:0:0:
256,192,349462,1,0,0:0:0:0:
256,192,349526,1,8,0:0:0:0:
256,192,349590,1,8,0:0:0:0:
256,192,349654,1,8,0:0:0:0:
256,192,349717,1,8,0:0:0:0:
256,192,349781,1,8,0:0:0:0:
256,192,349845,1,8,0:0:0:0:
256,192,349909,1,0,0:0:0:0:
256,224,349973,1,0,0:0:0:0:
256,224,350037,1,0,0:0:0:0:
256,224,350100,1,0,0:0:0:0:
256,224,350164,1,0,0:0:0:0:
256,224,350228,1,0,0:0:0:0:
256,224,350292,1,8,0:0:0:0:
256,224,350356,1,8,0:0:0:0:
256,224,350419,1,8,0:0:0:0:
256,224,350483,1,8,0:0:0:0:
256,224,350547,1,8,0:0:0:0:
256,224,350611,1,8,0:0:0:0:
256,224,350675,1,0,0:0:0:0:
256,224,350930,1,0,0:0:0:0:
256,224,351058,1,8,0:0:0:0:
256,224,351441,1,0,0:0:0:0:
256,224,351505,1,0,0:0:0:0:
256,224,351568,1,0,0:0:0:0:
256,224,351632,1,0,0:0:0:0:
256,224,351696,1,0,0:0:0:0:
256,224,351760,1,0,0:0:0:0:
256,224,351824,1,8,0:0:0:0:
256,224,351888,1,8,0:0:0:0:
256,224,351951,1,8,0:0:0:0:
256,224,352015,1,8,0:0:0:0:
256,224,352079,1,8,0:0:0:0:
256,224,352143,1,8,0:0:0:0:
256,224,352207,1,0,0:0:0:0:
256,224,352334,1,0,0:0:0:0:
256,224,352462,1,0,0:0:0:0:
256,224,352590,1,8,0:0:0:0:
256,224,352973,1,0,0:0:0:0:
256,224,353037,1,0,0:0:0:0:
256,224,353100,1,8,0:0:0:0:
256,224,353164,1,0,0:0:0:0:
256,224,353228,1,0,0:0:0:0:
256,224,353292,1,0,0:0:0:0:
256,224,353356,1,8,0:0:0:0:
256,224,353419,1,0,0:0:0:0:
256,224,353483,1,0,0:0:0:0:
256,224,353547,1,0,0:0:0:0:
256,224,353611,1,8,0:0:0:0:
256,224,353675,1,8,0:0:0:0:
256,224,353739,1,0,0:0:0:0:
256,224,353994,1,0,0:0:0:0:
256,224,354122,1,8,0:0:0:0:
256,224,354505,1,0,0:0:0:0:
256,224,354568,1,0,0:0:0:0:
256,224,354632,1,0,0:0:0:0:
256,224,354696,1,0,0:0:0:0:
256,256,354760,1,0,0:0:0:0:
256,224,354824,1,0,0:0:0:0:
256,224,354888,1,8,0:0:0:0:
256,224,354951,1,8,0:0:0:0:
256,224,355015,1,8,0:0:0:0:
256,224,355079,1,8,0:0:0:0:
256,224,355143,1,0,0:0:0:0:
256,224,355207,1,0,0:0:0:0:
256,224,355271,1,8,0:0:0:0:
256,224,355398,1,0,0:0:0:0:
256,224,355462,1,0,0:0:0:0:
256,224,355526,1,0,0:0:0:0:
256,224,355654,1,8,0:0:0:0:
256,224,355781,1,0,0:0:0:0:
256,224,355845,1,0,0:0:0:0:
256,224,355909,1,0,0:0:0:0:
256,224,356037,1,8,0:0:0:0:
256,224,356164,1,0,0:0:0:0:
256,224,356228,1,0,0:0:0:0:
256,224,356292,1,8,0:0:0:0:
256,224,356419,1,0,0:0:0:0:
256,224,356483,1,0,0:0:0:0:
256,224,356547,1,8,0:0:0:0:
256,224,356611,1,0,0:0:0:0:
256,224,356675,1,8,0:0:0:0:
256,224,356739,1,8,0:0:0:0:
256,224,356802,1,0,0:0:0:0:
256,224,357058,1,0,0:0:0:0:
256,224,357185,1,8,0:0:0:0:
256,224,357313,1,0,0:0:0:0:
256,224,357441,1,0,0:0:0:0:
256,224,357568,1,8,0:0:0:0:
256,224,357632,1,8,0:0:0:0:
256,224,357696,1,0,0:0:0:0:
256,224,357760,1,0,0:0:0:0:
256,224,357824,1,8,0:0:0:0:
256,224,357888,1,0,0:0:0:0:
256,224,357951,1,0,0:0:0:0:
256,224,358015,1,0,0:0:0:0:
256,224,358079,1,8,0:0:0:0:
256,224,358143,1,0,0:0:0:0:
256,224,358207,1,8,0:0:0:0:
256,224,358271,1,0,0:0:0:0:
256,224,358334,1,8,0:0:0:0:
256,224,358462,1,0,0:0:0:0:
256,224,358590,1,0,0:0:0:0:
256,224,358717,1,8,0:0:0:0:
256,224,358781,1,8,0:0:0:0:
256,224,358845,1,8,0:0:0:0:
256,224,358909,1,8,0:0:0:0:
256,224,358973,1,8,0:0:0:0:
256,224,359100,1,4,0:0:0:0:
256,224,359356,1,4,0:0:0:0:
256,224,359611,1,4,0:0:0:0:
256,224,359739,1,4,0:0:0:0:
256,224,359866,1,4,0:0:0:0:
256,192,360249,1,12,0:0:0:0:
256,192,360377,1,0,0:0:0:0:
256,192,360441,1,0,0:0:0:0:
256,192,360505,1,0,0:0:0:0:
256,192,360568,1,0,0:0:0:0:
256,192,360632,1,8,0:0:0:0:
256,192,360696,1,0,0:0:0:0:
256,192,360760,1,0,0:0:0:0:
256,192,360824,1,0,0:0:0:0:
256,192,360888,1,8,0:0:0:0:
256,192,360951,1,0,0:0:0:0:
256,192,361015,1,8,0:0:0:0:
256,192,361079,1,8,0:0:0:0:
256,192,361143,1,0,0:0:0:0:
256,192,361271,1,0,0:0:0:0:
256,192,361398,1,8,0:0:0:0:
256,192,361462,1,0,0:0:0:0:
256,192,361526,1,0,0:0:0:0:
256,192,361590,1,0,0:0:0:0:
256,192,361654,1,8,0:0:0:0:
256,192,361717,1,0,0:0:0:0:
256,192,361781,1,0,0:0:0:0:
256,192,361845,1,0,0:0:0:0:
256,192,361909,1,8,0:0:0:0:
256,192,361973,1,0,0:0:0:0:
256,192,362036,1,0,0:0:0:0:
256,192,362100,1,0,0:0:0:0:
256,192,362164,1,8,0:0:0:0:
256,192,362228,1,0,0:0:0:0:
256,192,362292,1,8,0:0:0:0:
256,192,362356,1,8,0:0:0:0:
256,192,362419,1,0,0:0:0:0:
256,192,362483,1,0,0:0:0:0:
256,192,362547,1,8,0:0:0:0:
256,192,362611,1,0,0:0:0:0:
256,192,362675,1,8,0:0:0:0:
256,192,362739,1,8,0:0:0:0:
256,192,362802,1,8,0:0:0:0:
256,192,362866,1,8,0:0:0:0:
256,192,362930,1,0,0:0:0:0:
256,192,363185,1,0,0:0:0:0:
256,192,363441,1,8,0:0:0:0:
256,192,363568,1,8,0:0:0:0:
256,192,363696,1,0,0:0:0:0:
256,192,363951,1,0,0:0:0:0:
256,192,364207,1,8,0:0:0:0:
256,192,364334,1,8,0:0:0:0:
256,192,364462,1,0,0:0:0:0:
256,192,364717,1,0,0:0:0:0:
256,192,364973,1,8,0:0:0:0:
256,192,365100,1,8,0:0:0:0:
256,192,365228,1,0,0:0:0:0:
256,192,365292,1,0,0:0:0:0:
256,192,365356,1,0,0:0:0:0:
256,192,365419,1,0,0:0:0:0:
256,192,365483,1,0,0:0:0:0:
256,192,365547,1,0,0:0:0:0:
256,192,365611,1,8,0:0:0:0:
256,192,365675,1,8,0:0:0:0:
256,192,365739,1,8,0:0:0:0:
256,192,365802,1,8,0:0:0:0:
256,192,365866,1,8,0:0:0:0:
256,192,365930,1,8,0:0:0:0:
256,192,365994,1,0,0:0:0:0:
256,192,366249,1,0,0:0:0:0:
256,192,366505,1,8,0:0:0:0:
256,192,366632,1,8,0:0:0:0:
256,192,366760,1,0,0:0:0:0:
256,192,367015,1,0,0:0:0:0:
256,192,367271,1,8,0:0:0:0:
256,192,367398,1,8,0:0:0:0:
256,192,367526,1,0,0:0:0:0:
256,192,367590,1,0,0:0:0:0:
256,192,367654,1,0,0:0:0:0:
256,192,367717,1,0,0:0:0:0:
256,192,367781,1,8,0:0:0:0:
256,192,367845,1,0,0:0:0:0:
256,192,367909,1,0,0:0:0:0:
256,192,367973,1,0,0:0:0:0:
256,192,368036,1,8,0:0:0:0:
256,192,368100,1,8,0:0:0:0:
256,192,368164,1,8,0:0:0:0:
256,192,368228,1,8,0:0:0:0:
256,192,368292,1,0,0:0:0:0:
256,192,368356,1,0,0:0:0:0:
256,192,368419,1,0,0:0:0:0:
256,192,368483,1,0,0:0:0:0:
256,192,368547,1,8,0:0:0:0:
256,192,368611,1,8,0:0:0:0:
256,192,368675,1,8,0:0:0:0:
256,192,368739,1,8,0:0:0:0:
256,192,368802,1,0,0:0:0:0:
256,192,368866,1,0,0:0:0:0:
256,192,368930,1,8,0:0:0:0:
256,192,368994,1,8,0:0:0:0:
256,192,369058,1,0,0:0:0:0:
256,192,369185,1,8,0:0:0:0:
256,192,369249,1,8,0:0:0:0:
256,192,369313,1,0,0:0:0:0:
256,192,369441,1,0,0:0:0:0:
256,192,369568,1,8,0:0:0:0:
256,192,369632,1,0,0:0:0:0:
256,192,369696,1,8,0:0:0:0:
256,192,369760,1,8,0:0:0:0:
256,192,369824,1,0,0:0:0:0:
256,192,369951,1,8,0:0:0:0:
256,192,370015,1,8,0:0:0:0:
256,192,370079,1,0,0:0:0:0:
256,192,370207,1,0,0:0:0:0:
256,192,370334,1,8,0:0:0:0:
256,192,370398,1,0,0:0:0:0:
256,192,370462,1,8,0:0:0:0:
256,192,370526,1,8,0:0:0:0:
256,192,370590,1,0,0:0:0:0:
256,192,370717,1,8,0:0:0:0:
256,192,370781,1,8,0:0:0:0:
256,192,370845,1,0,0:0:0:0:
256,192,370973,1,0,0:0:0:0:
256,192,371100,1,8,0:0:0:0:
256,192,371164,1,0,0:0:0:0:
256,192,371228,1,8,0:0:0:0:
256,192,371292,1,8,0:0:0:0:
256,192,371356,1,0,0:0:0:0:
256,192,371419,1,0,0:0:0:0:
256,192,371483,1,0,0:0:0:0:
256,192,371547,1,0,0:0:0:0:
256,192,371611,1,8,0:0:0:0:
256,192,371675,1,8,0:0:0:0:
256,192,371739,1,8,0:0:0:0:
256,192,371802,1,8,0:0:0:0:
256,192,371866,1,0,0:0:0:0:
256,192,371994,1,0,0:0:0:0:
256,192,372122,1,8,0:0:0:0:
256,192,372185,1,8,0:0:0:0:
256,192,372249,1,0,0:0:0:0:
256,192,372313,1,0,0:0:0:0:
256,192,372377,1,8,0:0:0:0:
256,192,372441,1,0,0:0:0:0:
256,192,372505,1,8,0:0:0:0:
256,192,372568,1,8,0:0:0:0:
256,192,372632,1,0,0:0:0:0:
256,192,372696,1,0,0:0:0:0:
256,192,372760,1,8,0:0:0:0:
256,192,372824,1,0,0:0:0:0:
256,192,372888,1,8,0:0:0:0:
256,192,372951,1,8,0:0:0:0:
256,192,373015,1,0,0:0:0:0:
256,192,373079,1,0,0:0:0:0:
256,192,373143,1,8,0:0:0:0:
256,192,373207,1,8,0:0:0:0:
256,192,373271,1,8,0:0:0:0:
256,192,373334,1,8,0:0:0:0:
256,192,373398,1,0,0:0:0:0:
256,192,373462,1,0,0:0:0:0:
256,192,373526,1,0,0:0:0:0:
256,192,373590,1,0,0:0:0:0:
256,192,373654,1,8,0:0:0:0:
256,192,373717,1,8,0:0:0:0:
256,192,373781,1,0,0:0:0:0:
256,192,373845,1,0,0:0:0:0:
256,192,373909,1,8,0:0:0:0:
256,192,373973,1,0,0:0:0:0:
256,192,374036,1,8,0:0:0:0:
256,192,374100,1,8,0:0:0:0:
256,192,374164,1,0,0:0:0:0:
256,192,374228,1,0,0:0:0:0:
256,192,374292,1,8,0:0:0:0:
256,192,374356,1,0,0:0:0:0:
256,192,374419,1,8,0:0:0:0:
256,192,374483,1,8,0:0:0:0:
256,192,374547,1,8,0:0:0:0:
256,192,374611,1,8,0:0:0:0:
256,192,374675,1,0,0:0:0:0:
256,192,374739,1,0,0:0:0:0:
256,192,374802,1,0,0:0:0:0:
256,192,374866,1,0,0:0:0:0:
256,192,374930,1,8,0:0:0:0:
256,192,374994,1,8,0:0:0:0:
256,192,375058,1,8,0:0:0:0:
256,192,375122,1,8,0:0:0:0:
256,192,375185,1,0,0:0:0:0:
256,192,375313,12,0,384377,0:0:0:0:
