osu file format v14

[General]
AudioFilename: 07. Destroyer.mp3
AudioLeadIn: 0
PreviewTime: 44084
Countdown: 0
SampleSet: Normal
StackLeniency: 0.2
Mode: 0
LetterboxInBreaks: 1
WidescreenStoryboard: 0

[Editor]
Bookmarks: 44,15404,30764,46124,61484,76844,81164,84524,88364,92204,97484,99884,103724,111404,115244,122924,130604,147884,163244,178604,193964,201644,209324,242004,274685,291026,307366,319621,325749,338004,350260,362515,374770
DistanceSpacing: 0.7
BeatDivisor: 4
GridSize: 4
TimelineZoom: 2.1

[Metadata]
Title:Destroyer
TitleUnicode:Destroyer
Artist:Inferi
ArtistUnicode:Inferi
Creator:Mazzerin
Version:The Vengeful
Source:
Tags:the path of apotheosis melodic technical death metal marathon deathstream rsi featured artist english latin
BeatmapID:1925029
BeatmapSetID:921839

[Difficulty]
HPDrainRate:6
CircleSize:3.5
OverallDifficulty:10
ApproachRate:10
SliderMultiplier:2.2
SliderTickRate:1

[Events]
//Background and Video events
0,0,"Untitled-1.jpg",0,0
//Break Periods
//Storyboard Layer 0 (Background)
//Storyboard Layer 1 (Fail)
//Storyboard Layer 2 (Pass)
//Storyboard Layer 3 (Foreground)
//Storyboard Layer 4 (Overlay)
//Storyboard Sound Samples

[TimingPoints]
44,240,4,1,5,50,1,0
224,-100,4,2,5,5,0,0
284,-100,4,1,5,50,0,0
1184,-100,4,2,5,5,0,0
1244,-100,4,1,11,50,0,0
2204,-100,4,1,5,50,0,0
2984,-100,4,1,5,5,0,0
3404,-100,4,1,5,50,0,0
3464,-100,4,1,5,5,0,0
3884,-100,4,1,5,50,0,0
4124,-100,4,2,5,50,0,0
4844,-100,4,1,5,50,0,0
5084,-100,4,2,5,50,0,0
5804,-100,4,1,5,50,0,0
6284,-100,4,1,8,50,0,0
6524,-100,4,1,5,50,0,0
6764,-100,4,1,8,50,0,0
6884,-100,4,1,5,50,0,0
7004,-100,4,1,8,50,0,0
7124,-100,4,1,5,50,0,0
8864,-100,4,2,5,5,0,0
8924,-100,4,1,8,50,0,0
9884,-100,4,1,5,50,0,0
10664,-100,4,2,5,5,0,0
11084,-100,4,1,5,50,0,0
11144,-100,4,2,5,5,0,0
11564,-100,4,1,5,50,0,0
11804,-100,4,2,5,50,0,0
12524,-100,4,1,5,50,0,0
12764,-100,4,2,5,50,0,0
13484,-100,4,1,5,50,0,0
13724,-100,4,1,8,50,0,0
13964,-100,4,1,5,50,0,0
14204,-100,4,1,8,50,0,0
14444,-100,4,1,5,50,0,0
14564,-100,4,1,8,50,0,0
14684,-100,4,1,5,50,0,0
14804,-100,4,1,8,50,0,0
15284,-100,4,2,8,50,0,0
15404,-100,4,1,5,60,0,1
16364,-200,4,1,5,60,0,1
16604,-133.333333333333,4,1,5,60,0,1
16844,-100,4,1,5,60,0,1
17804,-133.333333333333,4,1,5,60,0,1
18044,-200,4,1,5,60,0,1
18284,-133.333333333333,4,1,5,60,0,1
18764,-100,4,1,5,60,0,1
19244,-133.333333333333,4,1,5,60,0,1
19724,-200,4,1,5,60,0,1
20204,-100,4,1,5,60,0,1
20684,-133.333333333333,4,1,5,60,0,1
21164,-80,4,1,5,60,0,1
21524,-100,4,1,5,60,0,1
22124,-80,4,1,5,60,0,1
22364,-100,4,1,5,60,0,1
23084,-200,4,1,5,60,0,1
24044,-400,4,1,5,60,0,1
24524,-200,4,1,5,60,0,1
25004,-100,4,1,5,60,0,1
25244,-133.333333333333,4,1,5,60,0,1
25964,-133.333333333333,4,1,5,60,0,1
26924,-400,4,1,5,60,0,1
28364,-200,4,1,5,60,0,1
28604,-133.333333333333,4,1,5,60,0,1
28844,-100,4,1,5,60,0,1
30044,-100,4,1,5,60,0,1
30104,-100,4,1,20,60,0,1
30284,-100,4,1,5,60,0,1
30764,-100,4,1,5,50,0,0
32204,-200,4,1,5,50,0,0
32684,-133.333333333333,4,1,5,50,0,0
33644,-100,4,1,5,50,0,0
34364,-100,4,1,5,50,0,0
35804,-200,4,1,5,50,0,0
36524,-133.333333333333,4,1,5,50,0,0
37484,-100,4,1,5,50,0,0
38444,-100,4,1,5,50,0,0
39884,-200,4,1,5,50,0,0
40364,-133.333333333333,4,1,5,50,0,0
41324,-100,4,1,5,50,0,0
42044,-100,4,1,5,50,0,0
43724,-200,4,1,5,50,0,0
44204,-66.6666666666667,4,1,5,50,0,0
44384,-66.6666666666667,4,2,5,5,0,0
44444,-66.6666666666667,4,1,5,50,0,0
44624,-66.6666666666667,4,2,5,5,0,0
44684,-100,4,1,7,50,0,0
44804,-100,4,1,20,50,0,0
44924,-100,4,1,7,50,0,0
45044,-100,4,1,20,50,0,0
45164,-66.6666666666667,4,1,5,50,0,0
45344,-66.6666666666667,4,2,5,5,0,0
45404,-66.6666666666667,4,1,5,50,0,0
45584,-66.6666666666667,4,2,5,5,0,0
45644,-66.6666666666667,4,1,5,50,0,0
46124,-100,4,1,5,60,0,1
49964,-200,4,1,5,60,0,1
50924,-100,4,1,5,60,0,1
51884,-133.333333333333,4,1,5,60,0,1
52124,-200,4,1,5,60,0,1
52364,-133.333333333333,4,1,5,60,0,1
52604,-104.166666666667,4,1,5,60,0,1
52844,-100,4,1,5,60,0,1
53444,-100,4,1,20,60,0,1
53804,-100,4,1,5,60,0,1
54764,-200,4,1,5,60,0,1
56204,-133.333333333333,4,1,5,60,0,1
56444,-100,4,1,5,60,0,1
57644,-133.333333333333,4,1,5,60,0,1
58604,-100,4,1,5,60,0,1
59564,-133.333333333333,4,1,5,60,0,1
60044,-400,4,1,5,60,0,1
60524,-200,4,1,5,60,0,1
61004,-100,4,1,5,60,0,1
61484,-100,4,1,5,50,0,0
62444,-200,4,1,5,50,0,0
62564,-133.333333333333,4,1,5,50,0,0
62684,-100,4,1,5,50,0,0
65564,-200,4,1,5,50,0,0
68684,-100,4,1,5,65,0,0
68744,-100,4,1,5,50,0,0
68924,-100,4,1,5,65,0,0
68984,-100,4,1,5,50,0,0
70124,-200,4,1,5,50,0,0
70244,-133.333333333333,4,1,5,50,0,0
70364,-100,4,1,5,50,0,0
73004,-200,4,1,5,50,0,0
75164,-100,4,1,5,50,0,0
77204,-200,4,1,5,50,0,0
77804,-133.333333333333,4,1,5,50,0,0
79724,-100,4,1,5,50,0,0
80684,-200,4,1,5,50,0,0
81644,-153.846153846153,4,1,5,50,0,0
88364,-200,4,1,5,50,0,0
90284,-100,4,1,5,50,0,0
92204,-200,4,1,5,50,0,0
93164,-133.333333333333,4,1,5,50,0,0
96044,-200,4,1,5,50,0,0
97004,-133.333333333333,4,1,5,50,0,0
97964,-66.6666666666667,4,1,5,50,0,0
98144,-66.6666666666667,4,2,5,5,0,0
98204,-66.6666666666667,4,1,5,50,0,0
98384,-66.6666666666667,4,2,5,5,0,0
98444,-100,4,1,5,50,0,0
98564,-100,4,1,20,50,0,0
98924,-66.6666666666667,4,1,5,50,0,0
99104,-66.6666666666667,4,2,5,5,0,0
99164,-66.6666666666667,4,1,5,50,0,0
99344,-66.6666666666667,4,2,5,5,0,0
99404,-66.6666666666667,4,1,5,50,0,0
100124,-200,4,2,5,50,0,0
100604,-200,4,2,5,5,0,0
100664,-200,4,2,5,50,0,0
100784,-200,4,2,5,5,0,0
100844,-200,4,1,13,50,0,0
101084,-200,4,2,5,50,0,0
102764,-200,4,1,5,50,0,0
103964,-200,4,2,5,50,0,0
104204,-200,4,1,5,50,0,0
104444,-200,4,2,5,50,0,0
104684,-66.6666666666667,4,1,5,50,0,0
104804,-50,4,1,5,50,0,0
104924,-100,4,1,5,50,0,0
105164,-66.6666666666667,4,1,5,50,0,0
105284,-50,4,1,5,50,0,0
105404,-100,4,1,5,50,0,0
105884,-100,4,1,20,50,0,0
106124,-100,4,1,5,50,0,0
106364,-100,4,1,20,50,0,0
106604,-100,4,1,5,50,0,0
107204,-100,4,1,20,50,0,0
107564,-100,4,1,5,50,0,0
110684,-100,4,1,20,50,0,0
110924,-100,4,1,5,50,0,0
111404,-100,4,1,5,50,0,0
119084,-66.6666666666667,4,1,5,50,0,0
119324,-66.6666666666667,4,1,5,50,0,0
119444,-66.6666666666667,4,2,5,50,0,0
119564,-100,4,1,5,50,0,0
119804,-111.111111111111,4,1,5,50,0,0
120044,-125,4,1,5,50,0,0
120284,-142.857142857143,4,1,5,50,0,0
120524,-166.666666666667,4,1,5,50,0,0
120764,-200,4,1,5,50,0,0
121004,-100,4,1,5,50,0,0
122444,-400,4,1,5,50,0,0
122684,-133.333333333333,4,1,5,50,0,0
122804,-200,4,1,5,50,0,0
122924,-400,4,1,5,50,0,0
125084,-133.333333333333,4,1,5,50,0,0
125324,-400,4,1,5,50,0,0
126044,-133.333333333333,4,1,5,50,0,0
126404,-100,4,1,20,50,0,0
126524,-100,4,1,5,50,0,0
126764,-400,4,1,5,50,0,0
127724,-200,4,1,5,50,0,0
128204,-100,4,1,5,50,0,0
129884,-100,4,1,20,50,0,0
130124,-100,4,1,8,50,0,0
130364,-100,4,1,5,50,0,0
130964,-200,4,1,5,50,0,0
131084,-200,4,1,11,50,0,0
131204,-200,4,1,5,50,0,0
131444,-200,4,2,5,50,0,0
131564,-100,4,1,5,50,0,0
138284,-133.333333333333,4,1,5,50,0,0
139244,-100,4,1,5,50,0,0
142364,-100,4,2,5,50,0,0
142484,-100,4,1,5,50,0,0
146924,-200,4,1,5,50,0,0
147044,-200,4,1,20,50,0,0
147164,-200,4,1,5,50,0,0
147284,-200,4,1,20,50,0,0
147644,-200,4,1,5,50,0,0
149084,-200,4,1,11,50,0,0
150044,-100,4,1,5,50,0,0
150284,-80,4,1,5,50,0,0
150524,-66.6666666666667,4,1,5,50,0,0
150824,-66.6666666666667,4,2,5,5,0,0
151244,-66.6666666666667,4,1,5,50,0,0
151304,-66.6666666666667,4,2,5,5,0,0
151724,-100,4,1,5,50,0,0
152684,-66.6666666666667,4,1,5,50,0,0
152924,-66.6666666666667,4,1,8,50,0,0
153644,-100,4,1,8,50,0,0
154364,-200,4,1,8,50,0,0
158204,-200,4,1,5,50,0,0
163244,-200,4,1,11,50,0,0
164204,-200,4,1,12,50,0,0
164444,-200,4,1,8,50,0,0
165404,-200,4,1,11,50,0,0
165524,-200,4,1,5,50,0,0
166604,-200,4,1,12,50,0,0
166724,-200,4,1,5,50,0,0
167324,-200,4,1,8,50,0,0
168044,-200,4,1,5,50,0,0
168164,-200,4,1,11,50,0,0
169964,-200,4,1,5,50,0,0
170204,-200,4,1,11,50,0,0
171884,-200,4,1,12,50,0,0
172124,-200,4,1,8,50,0,0
173804,-200,4,1,5,50,0,0
175484,-133.333333333333,4,1,11,50,0,0
175724,-100,4,1,5,50,0,0
175964,-200,4,1,11,50,0,0
176684,-66.6666666666667,4,1,5,50,0,0
176744,-66.6666666666667,4,2,5,5,0,0
177164,-66.6666666666667,4,1,5,50,0,0
178604,-100,4,1,5,60,0,1
178844,-133.333333333333,4,1,5,60,0,1
179324,-200,4,1,5,60,0,1
179924,-100,4,1,5,60,0,1
183404,-50,4,1,5,60,0,1
183524,-66.6666666666667,4,1,5,60,0,1
183884,-100,4,1,5,60,0,1
184364,-133.333333333333,4,1,5,60,0,1
184604,-153.846153846153,4,1,5,60,0,1
184844,-200,4,1,5,60,0,1
185084,-263.157894736842,4,1,5,60,0,1
185324,-400,4,1,5,60,0,1
185804,-270.27027027027,4,1,5,60,0,1
186284,-66.6666666666667,4,1,5,60,0,1
187364,-60.6060606060606,4,1,5,60,0,1
188084,-55.5555555555556,4,1,5,60,0,1
188444,-100,4,1,5,60,0,1
189404,-250,4,1,5,60,0,1
189644,-100,4,1,5,60,0,1
190844,-76.9230769230769,4,1,5,60,0,1
191084,-57.1428571428571,4,1,5,60,0,1
191564,-100,4,1,5,60,0,1
192044,-50,4,1,5,60,0,1
192284,-57.1428571428571,4,1,5,60,0,1
192524,-66.6666666666667,4,1,5,60,0,1
192764,-80,4,1,5,60,0,1
193004,-100,4,1,5,60,0,1
193244,-133.333333333333,4,1,5,60,0,1
193484,-100,4,1,5,60,0,1
193724,-80,4,1,5,60,0,1
207404,-57.1428571428571,4,1,5,60,0,1
207644,-80,4,1,5,60,0,1
208964,-400,4,1,5,60,0,1
209324,510.63829787234,4,2,5,20,1,0
209962,-100,4,2,5,5,0,0
210600,-100,4,2,5,20,0,0
210728,-100,4,2,5,5,0,0
211366,-100,4,2,5,20,0,0
211621,-100,4,2,5,5,0,0
212132,-100,4,2,5,20,0,0
212387,-100,4,2,5,5,0,0
212898,-100,4,2,5,20,0,0
213153,-100,4,2,5,5,0,0
213409,-100,4,2,5,20,0,0
214175,-100,4,2,5,5,0,0
214685,-100,4,2,5,20,0,0
214941,-100,4,2,5,5,0,0
215451,-100,4,2,5,20,0,0
215706,-100,4,2,5,5,0,0
216217,-100,4,2,5,20,0,0
216472,-100,4,2,5,5,0,0
216983,-100,4,2,5,20,0,0
217494,-100,4,2,5,30,0,0
217621,-100,4,2,5,5,0,0
218004,-86.9565217391304,4,2,5,20,0,0
218132,-86.9565217391304,4,2,5,5,0,0
220558,-86.9565217391304,4,2,5,20,0,0
221579,-100,4,2,5,30,0,0
221706,-100,4,2,5,5,0,0
222089,-86.9565217391304,4,2,5,20,0,0
222217,-86.9565217391304,4,2,5,5,0,0
223621,-86.9565217391304,4,2,5,20,0,0
225664,-86.9565217391304,4,2,5,30,0,0
225792,-86.9565217391304,4,2,5,5,0,0
227706,-86.9565217391304,4,2,5,20,0,0
229749,-86.9565217391304,4,2,5,30,0,0
230004,-86.9565217391304,4,2,5,20,0,0
233834,-76.9230769230769,4,2,5,30,0,0
234217,-76.9230769230769,4,2,5,5,0,0
234345,-76.9230769230769,4,2,5,20,0,0
234472,-76.9230769230769,4,2,5,5,0,0
236387,-76.9230769230769,4,2,5,20,0,0
237919,-72.992700729927,4,2,5,30,0,0
238430,-68.9655172413793,4,2,5,20,0,0
238494,-68.9655172413793,4,2,5,5,0,0
239962,-62.5,4,2,5,20,0,0
240089,-62.5,4,2,5,5,0,0
240983,-100,4,2,5,26,0,0
242004,-100,4,1,5,50,0,0
242132,-100,4,2,5,5,0,0
243026,-100,4,2,5,26,0,0
243153,-100,4,2,5,5,0,0
244047,-100,4,2,5,26,0,0
244175,-100,4,2,5,5,0,0
245068,-100,4,2,5,26,0,0
245196,-100,4,2,5,5,0,0
245834,-100,4,1,5,50,0,0
246217,-100,4,2,5,5,0,0
246855,-100,4,2,5,26,0,0
247238,-100,4,2,5,5,0,0
249153,-100,4,1,5,50,0,0
249281,-100,4,1,8,50,0,0
250175,-100,4,1,5,50,0,0
250302,-100,4,2,5,5,0,0
251196,-90.9090909090909,4,2,5,26,0,0
251323,-90.9090909090909,4,2,5,5,0,0
252217,-83.3333333333333,4,2,5,26,0,0
252345,-83.3333333333333,4,2,5,5,0,0
253238,-76.9230769230769,4,2,5,26,0,0
253366,-76.9230769230769,4,2,5,5,0,0
254004,-66.6666666666667,4,1,5,50,0,0
254387,-66.6666666666667,4,2,5,5,0,0
256302,-100,4,2,5,26,0,0
256430,-100,4,2,5,5,0,0
257323,-100,4,2,5,26,0,0
258345,-66.6666666666667,4,1,5,50,0,0
258472,-66.6666666666667,4,2,5,5,0,0
259366,-66.6666666666667,4,1,12,50,0,0
259494,-66.6666666666667,4,2,12,5,0,0
260387,-66.6666666666667,4,2,12,26,0,0
260515,-66.6666666666667,4,2,12,5,0,0
261409,-66.6666666666667,4,1,12,50,0,0
261536,-66.6666666666667,4,2,12,5,0,0
262430,-66.6666666666667,4,1,5,50,0,0
262558,-66.6666666666667,4,2,12,5,0,0
263196,-66.6666666666667,4,2,12,26,0,0
263451,-66.6666666666667,4,1,12,50,0,0
263579,-66.6666666666667,4,2,12,5,0,0
264472,-66.6666666666667,4,2,12,26,0,0
266515,-66.6666666666667,4,1,5,50,0,0
266643,-66.6666666666667,4,2,12,5,0,0
267536,-62.5,4,1,12,50,0,0
267664,-62.5,4,2,12,5,0,0
268558,-58.8235294117647,4,2,12,20,0,0
268685,-58.8235294117647,4,2,12,5,0,0
269579,-55.5555555555556,4,1,12,50,0,0
269706,-55.5555555555556,4,2,12,5,0,0
270600,-50,4,1,5,50,0,0
270728,-50,4,2,12,5,0,0
271621,-50,4,1,12,50,0,0
271749,-50,4,2,12,5,0,0
273664,-25,4,1,12,50,0,0
273919,-100,4,1,8,50,0,0
274430,-100,4,1,12,50,0,0
276728,-100,4,1,5,50,0,0
277749,-100,4,1,12,50,0,0
278770,-100,4,1,5,50,0,0
280813,-100,4,1,8,50,0,0
281323,-200,4,1,5,50,0,0
281579,-200,4,1,8,50,0,0
281834,-33.3333333333333,4,1,8,50,0,0
281962,-45.4545454545455,4,1,8,50,0,0
282089,-71.4285714285714,4,1,8,50,0,0
282217,-142.857142857143,4,1,8,50,0,0
282345,-45.4545454545455,4,1,8,50,0,0
282472,-71.4285714285714,4,1,8,50,0,0
282855,-50,4,1,5,50,0,0
283877,-50,4,1,12,50,0,0
286941,-41.6666666666667,4,1,12,50,0,0
287196,-50,4,1,12,50,0,0
289238,-50,4,1,8,50,0,0
289494,-200,4,1,12,50,0,0
289558,-200,4,1,8,50,0,0
289621,-200,4,1,12,50,0,0
289685,-200,4,1,8,50,0,0
289749,-200,4,1,12,50,0,0
289813,-200,4,1,8,50,0,0
289877,-200,4,1,12,50,0,0
289941,-200,4,1,8,50,0,0
290004,-50,4,1,8,50,0,0
290260,-50,4,1,5,50,0,0
290387,-50,4,1,8,50,0,0
290515,-50,4,1,5,50,0,0
290643,-50,4,1,8,50,0,0
291026,255.31914893617,4,1,5,60,1,1
294089,-120.481927710843,4,1,5,60,0,1
294600,-151.515151515152,4,1,5,60,0,1
295111,-200,4,1,5,60,0,1
297664,-151.515151515152,4,1,5,60,0,1
298174,-120.481927710843,4,1,5,60,0,1
298685,-100,4,1,5,60,0,1
302260,-120.481927710843,4,1,5,60,0,1
302770,-151.515151515152,4,1,5,60,0,1
303281,-200,4,1,5,60,0,1
305834,-151.515151515152,4,1,5,60,0,1
306345,-120.481927710843,4,1,5,60,0,1
306855,-100,4,1,5,60,0,1
307366,255.31914893617,6,1,5,50,1,0
307366,-83.3333333333333,6,1,5,50,0,0
308898,-66.6666666666667,6,1,5,50,0,0
310174,-72.992700729927,6,1,5,50,0,0
310940,-80,6,1,5,50,0,0
312472,-133.333333333333,6,1,5,50,0,0
315026,-80,6,1,5,50,0,0
315089,-133.333333333333,6,1,5,50,0,0
324217,-133.333333333333,6,1,8,50,0,0
324727,-133.333333333333,6,1,5,50,0,0
324791,-133.333333333333,6,1,8,50,0,0
325238,-200,6,1,8,50,0,0
325748,-133.333333333333,6,1,5,60,0,1
338004,-133.333333333333,6,1,5,50,0,0
350259,-133.333333333333,6,1,5,60,0,1
362514,-133.333333333333,6,1,5,50,0,0
368131,-133.333333333333,6,1,8,50,0,0
368642,-133.333333333333,6,1,5,50,0,0
371706,-100,6,1,5,50,0,0
374387,-100,6,1,8,50,0,0
374770,-345.781466113416,6,1,5,50,0,0
374834,-345.781466113416,6,2,6,5,0,0

[Colours]
Combo1 : 125,0,0
Combo2 : 102,255,251
Combo3 : 255,102,102
Combo4 : 0,116,125

[HitObjects]
124,123,44,6,0,B|253:112|253:112|197:151,1,165,6|0,0:0|0:0,0:0:0:0:
344,45,284,5,0,0:0:0:0:
354,176,524,1,2,0:0:0:0:
364,308,764,1,2,0:0:0:0:
113,311,1004,6,0,B|217:343|215:283|193:271|193:271|152:259|161:312,1,165,6|0,0:0|0:0,0:0:0:0:
112,208,1244,5,4,0:0:0:0:
110,202,1304,1,4,0:0:0:0:
108,196,1364,1,4,0:0:0:0:
106,190,1424,1,4,0:0:0:0:
281,332,1724,1,4,0:0:0:0:
283,326,1784,1,4,0:0:0:0:
284,320,1844,1,4,0:0:0:0:
286,314,1904,1,4,0:0:0:0:
288,308,1964,1,4,0:0:0:0:
327,162,2204,5,6,0:0:0:0:
50,69,2444,1,6,0:0:0:0:
114,341,2684,1,6,0:0:0:0:
392,89,2924,6,0,B|435:145|411:201|411:201|429:245|429:245|417:273|417:273|427:302|427:302|351:314|367:355|380:397|430:379|433:336,1,385,6|0,0:0|0:0,0:0:0:0:
331,251,3404,6,0,B|294:249|294:249|259:279|259:279|214:232|214:232|134:229|134:229|139:250|139:250|2:245,1,385,6|0,0:0|0:0,0:0:0:0:
148,122,3884,5,6,0:0:0:0:
428,143,4124,1,0,0:0:0:0:
148,122,4364,5,0,0:0:0:0:
428,143,4604,1,0,0:0:0:0:
54,32,4844,5,12,0:0:0:0:
227,259,5084,1,0,0:0:0:0:
54,32,5324,5,0,0:0:0:0:
227,259,5564,1,0,0:0:0:0:
32,151,5804,5,8,0:0:0:0:
86,148,5864,1,8,0:0:0:0:
141,145,5924,1,8,0:0:0:0:
196,142,5984,1,8,0:0:0:0:
251,139,6044,5,2,0:0:0:0:
246,128,6164,1,2,0:0:0:0:
374,63,6284,5,4,0:0:0:0:
372,84,6344,1,4,0:0:0:0:
370,106,6404,1,4,0:0:0:0:
368,128,6464,1,4,0:0:0:0:
366,150,6524,5,2,0:0:0:0:
361,139,6644,1,2,0:0:0:0:
363,294,6764,6,0,L|443:277,1,55,12|4,0:0|0:0,0:0:0:0:
357,306,6884,2,0,L|437:289,1,55,2|2,0:0|0:0,0:0:0:0:
191,327,7004,6,0,L|271:344,1,55,4|4,0:0|0:0,0:0:0:0:
185,315,7124,2,0,L|265:332,1,55,2|2,0:0|0:0,0:0:0:0:
512,361,7244,5,8,0:0:0:0:
512,361,7364,1,2,0:0:0:0:
269,218,7484,5,2,0:0:0:0:
269,218,7604,1,2,0:0:0:0:
58,358,7724,5,6,0:0:0:0:
9,143,7964,1,6,0:0:0:0:
220,3,8204,1,6,0:0:0:0:
269,218,8444,1,6,0:0:0:0:
157,104,8684,6,0,B|141:129|142:160|142:160|129:167|129:167|136:194|136:194|102:226|120:287,1,165,6|0,0:0|0:0,0:0:0:0:
191,248,8924,5,6,0:0:0:0:
192,253,8984,1,4,0:0:0:0:
193,258,9044,1,4,0:0:0:0:
194,263,9104,1,4,0:0:0:0:
195,268,9164,1,6,0:0:0:0:
48,153,9404,1,6,0:0:0:0:
49,158,9464,1,6,0:0:0:0:
50,163,9524,1,6,0:0:0:0:
51,168,9584,1,6,0:0:0:0:
52,173,9644,1,6,0:0:0:0:
83,276,9884,5,6,0:0:0:0:
357,306,10124,1,6,0:0:0:0:
247,23,10364,1,6,0:0:0:0:
61,151,10604,6,0,B|45:213|115:221|151:161|115:111|115:111|188:154|148:214|148:214|187:257|163:317,1,385,6|0,0:0|0:0,0:0:0:0:
249,209,11084,6,0,B|285:218|285:218|319:208|319:208|361:217|361:217|389:188|500:209|446:295|398:254|398:254|345:241|345:241|311:260|311:260|280:251,1,385,6|0,0:0|0:0,0:0:0:0:
196,60,11564,5,6,0:0:0:0:
350,338,11804,1,0,0:0:0:0:
196,60,12044,5,0,0:0:0:0:
350,338,12284,1,0,0:0:0:0:
120,155,12524,5,12,0:0:0:0:
425,242,12764,1,0,0:0:0:0:
120,155,13004,5,0,0:0:0:0:
425,242,13244,1,0,0:0:0:0:
304,192,13484,6,0,L|220:205,1,55,12|8,0:0|0:0,0:0:0:0:
65,163,13604,2,0,L|119:154,1,55,8|8,0:0|0:0,0:0:0:0:
296,222,13724,6,0,L|211:213,1,55,4|4,0:0|0:0,0:0:0:0:
72,132,13844,2,0,L|127:138,1,55,4|4,0:0|0:0,0:0:0:0:
170,297,13964,6,0,L|157:213,1,55,8|8,0:0|0:0,0:0:0:0:
199,57,14084,2,0,L|207:112,1,55,8|8,0:0|0:0,0:0:0:0:
139,289,14204,6,0,L|148:204,1,55,4|4,0:0|0:0,0:0:0:0:
229,65,14324,2,0,L|223:120,1,55,4|4,0:0|0:0,0:0:0:0:
18,141,14444,6,0,L|80:131,1,55,12|8,0:0|0:0,0:0:0:0:
30,153,14564,2,0,L|92:143,1,55,4|4,0:0|0:0,0:0:0:0:
211,231,14684,6,0,L|149:221,1,55,8|8,0:0|0:0,0:0:0:0:
199,243,14804,2,0,L|137:233,1,55,4|4,0:0|0:0,0:0:0:0:
25,324,14924,6,0,L|87:314,1,55,4|4,0:0|0:0,0:0:0:0:
37,336,15044,2,0,L|99:326,1,55,4|4,0:0|0:0,0:0:0:0:
218,368,15164,5,2,0:0:0:0:
218,368,15284,1,0,0:0:0:0:
445,347,15404,5,6,0:0:0:0:
402,296,15464,1,8,0:0:0:0:
397,236,15524,1,2,0:0:0:0:
427,190,15584,1,8,0:0:0:0:
434,142,15644,1,2,0:0:0:0:
415,102,15704,1,8,0:0:0:0:
382,71,15764,1,2,0:0:0:0:
339,61,15824,1,8,0:0:0:0:
294,67,15884,1,2,0:0:0:0:
259,95,15944,1,8,0:0:0:0:
240,134,16004,6,0,L|231:66,1,55,2|8,0:0|0:0,0:0:0:0:
330,218,16124,2,0,L|339:150,1,55,2|8,0:0|0:0,0:0:0:0:
238,291,16244,2,0,L|229:223,1,55,2|8,0:0|0:0,0:0:0:0:
406,356,16364,5,2,0:0:0:0:
419,353,16424,1,8,0:0:0:0:
432,350,16484,1,2,0:0:0:0:
445,347,16544,1,8,0:0:0:0:
505,367,16604,5,2,0:0:0:0:
502,335,16664,1,8,0:0:0:0:
499,302,16724,1,2,0:0:0:0:
496,269,16784,1,8,0:0:0:0:
460,228,16844,5,2,0:0:0:0:
465,184,16904,1,8,0:0:0:0:
469,141,16964,1,2,0:0:0:0:
474,97,17024,1,8,0:0:0:0:
509,54,17084,6,0,L|502:-9,3,55,2|8|2|8,0:0|0:0|0:0|0:0,0:0:0:0:
356,73,17324,5,2,0:0:0:0:
305,54,17384,1,8,0:0:0:0:
254,72,17444,1,2,0:0:0:0:
228,119,17504,1,8,0:0:0:0:
238,172,17564,5,2,0:0:0:0:
228,219,17624,1,8,0:0:0:0:
192,253,17684,1,2,0:0:0:0:
144,261,17744,1,8,0:0:0:0:
100,241,17804,6,0,L|112:312,3,41.2500015735627,2|8|2|8,0:0|0:0|0:0|0:0,0:0:0:0:
292,297,18044,6,0,L|285:344,3,27.5,2|8|2|8,0:0|0:0|0:0|0:0,0:0:0:0:
367,190,18284,5,2,0:0:0:0:
367,177,18344,1,8,0:0:0:0:
368,165,18404,1,2,0:0:0:0:
369,152,18464,1,8,0:0:0:0:
386,121,18524,5,2,0:0:0:0:
385,108,18584,1,8,0:0:0:0:
384,96,18644,1,2,0:0:0:0:
383,83,18704,1,8,0:0:0:0:
365,53,18764,5,2,0:0:0:0:
316,79,18824,1,8,0:0:0:0:
262,85,18884,1,2,0:0:0:0:
209,70,18944,1,8,0:0:0:0:
166,37,19004,5,2,0:0:0:0:
112,40,19064,1,8,0:0:0:0:
72,76,19124,1,2,0:0:0:0:
65,129,19184,1,8,0:0:0:0:
93,175,19244,5,4,0:0:0:0:
109,162,19304,1,8,0:0:0:0:
125,149,19364,2,0,L|111:199,1,41.2500015735627,2|8,0:0|0:0,0:0:0:0:
114,320,19484,6,0,L|100:269,1,41.2500015735627,2|8,0:0|0:0,0:0:0:0:
210,174,19604,2,0,L|223:123,1,41.2500015735627,2|8,0:0|0:0,0:0:0:0:
217,265,19724,6,0,L|207:297,1,27.5,2|8,0:0|0:0,0:0:0:0:
224,276,19844,2,0,L|214:308,1,27.5,2|8,0:0|0:0,0:0:0:0:
314,220,19964,6,0,L|324:252,1,27.5,2|8,0:0|0:0,0:0:0:0:
307,231,20084,2,0,L|317:263,1,27.5,2|8,0:0|0:0,0:0:0:0:
65,156,20204,5,6,0:0:0:0:
86,139,20264,1,8,0:0:0:0:
107,122,20324,2,0,L|88:187,1,55,2|8,0:0|0:0,0:0:0:0:
91,347,20444,6,0,L|72:280,1,55,2|8,0:0|0:0,0:0:0:0:
215,157,20564,2,0,L|231:90,1,55,2|8,0:0|0:0,0:0:0:0:
224,276,20684,6,0,L|211:317,1,41.2500015735627,2|8,0:0|0:0,0:0:0:0:
234,290,20804,2,0,L|221:331,1,41.2500015735627,2|8,0:0|0:0,0:0:0:0:
351,217,20924,6,0,L|364:258,1,41.2500015735627,2|8,0:0|0:0,0:0:0:0:
341,231,21044,2,0,L|354:272,1,41.2500015735627,2|8,0:0|0:0,0:0:0:0:
389,48,21164,6,0,L|461:40,5,68.75,6|8|2|8|2|8,0:0|0:0|0:0|0:0|0:0|0:0,0:0:0:0:
432,188,21524,6,0,B|437:221|437:221|426:258,1,55,2|8,0:0|0:0,0:0:0:0:
311,72,21644,2,0,B|306:39|306:39|317:2,1,55,2|8,0:0|0:0,0:0:0:0:
442,205,21764,6,0,B|447:238|447:238|436:275,1,55,2|8,0:0|0:0,0:0:0:0:
311,72,21884,1,2,0:0:0:0:
296,61,21944,2,0,B|291:28|291:28|302:-9,1,55,8|2,0:0|0:0,0:0:0:0:
442,205,22064,1,8,0:0:0:0:
454,222,22124,6,0,B|456:247|456:247|438:296,3,68.75,6|8|2|8,0:0|0:0|0:0|0:0,0:0:0:0:
160,284,22364,6,0,L|225:274,1,55,2|8,0:0|0:0,0:0:0:0:
309,257,22484,2,0,L|374:247,1,55,2|8,0:0|0:0,0:0:0:0:
65,302,22604,5,2,0:0:0:0:
53,304,22664,1,8,0:0:0:0:
42,306,22724,1,2,0:0:0:0:
30,308,22784,1,8,0:0:0:0:
19,310,22844,2,0,B|38:293|38:293|74:286,3,55,2|8|2|8,0:0|0:0|0:0|0:0,0:0:0:0:
75,131,23084,6,0,L|83:173,1,27.5,2|8,0:0|0:0,0:0:0:0:
128,357,23204,2,0,L|136:399,1,27.5,2|8,0:0|0:0,0:0:0:0:
167,178,23324,6,0,L|156:229,1,27.5,2|8,0:0|0:0,0:0:0:0:
128,357,23444,2,0,L|117:408,1,27.5,2|8,0:0|0:0,0:0:0:0:
239,246,23564,6,0,L|216:274,1,27.5,2|8,0:0|0:0,0:0:0:0:
128,357,23684,2,0,L|105:385,1,27.5,2|8,0:0|0:0,0:0:0:0:
274,340,23804,6,0,L|242:348,1,27.5,2|8,0:0|0:0,0:0:0:0:
128,357,23924,2,0,L|96:365,1,27.5,2|8,0:0|0:0,0:0:0:0:
167,178,24044,6,0,L|164:203,1,13.75,2|8,0:0|0:0,0:0:0:0:
152,268,24164,2,0,L|147:292,1,13.75,2|8,0:0|0:0,0:0:0:0:
74,119,24284,6,0,L|78:144,1,13.75,2|8,0:0|0:0,0:0:0:0:
89,209,24404,2,0,L|92:232,1,13.75,2|8,0:0|0:0,0:0:0:0:
182,95,24524,6,0,L|175:134,1,27.5,2|8,0:0|0:0,0:0:0:0:
152,268,24644,2,0,L|145:307,1,27.5,2|8,0:0|0:0,0:0:0:0:
61,35,24764,6,0,L|67:73,1,27.5,2|8,0:0|0:0,0:0:0:0:
89,209,24884,2,0,L|97:256,1,27.5,2|8,0:0|0:0,0:0:0:0:
182,95,25004,5,6,0:0:0:0:
174,138,25064,1,8,0:0:0:0:
166,181,25124,1,2,0:0:0:0:
158,224,25184,1,8,0:0:0:0:
152,268,25244,6,0,L|195:260,3,41.2500015735627,2|8|2|8,0:0|0:0|0:0|0:0,0:0:0:0:
291,201,25484,6,0,L|334:209,3,41.2500015735627,2|8|2|8,0:0|0:0|0:0|0:0,0:0:0:0:
406,138,25724,6,0,L|449:130,3,41.2500015735627,2|8|2|8,0:0|0:0|0:0|0:0,0:0:0:0:
357,99,25964,5,6,0:0:0:0:
360,131,26024,1,8,0:0:0:0:
363,164,26084,1,2,0:0:0:0:
366,197,26144,1,8,0:0:0:0:
369,230,26204,6,0,P|398:232|419:241,1,41.2500015735627,2|8,0:0|0:0,0:0:0:0:
260,358,26324,2,0,P|260:340|264:316,1,41.2500015735627,2|8,0:0|0:0,0:0:0:0:
409,236,26444,5,2,0:0:0:0:
380,230,26504,1,8,0:0:0:0:
352,231,26564,1,2,0:0:0:0:
324,240,26624,1,8,0:0:0:0:
300,255,26684,1,2,0:0:0:0:
280,276,26744,1,8,0:0:0:0:
266,301,26804,1,2,0:0:0:0:
259,329,26864,1,8,0:0:0:0:
260,358,26924,6,0,L|260:334,1,13.75,2|8,0:0|0:0,0:0:0:0:
253,157,27044,2,0,L|266:178,1,13.75,2|8,0:0|0:0,0:0:0:0:
380,351,27164,2,0,P|367:348|359:350,1,13.75,2|8,0:0|0:0,0:0:0:0:
380,351,27284,2,0,P|367:348|359:350,1,13.75,2|8,0:0|0:0,0:0:0:0:
164,304,27404,6,0,L|185:294,1,13.75,2|8,0:0|0:0,0:0:0:0:
352,231,27524,2,0,L|333:220,1,13.75,2|8,0:0|0:0,0:0:0:0:
179,109,27644,2,0,L|186:130,1,13.75,2|8,0:0|0:0,0:0:0:0:
179,109,27764,2,0,L|186:130,1,13.75,2|8,0:0|0:0,0:0:0:0:
260,358,27884,6,0,L|268:335,1,13.75,2|8,0:0|0:0,0:0:0:0:
329,90,28004,2,0,L|307:104,1,13.75,2|8,0:0|0:0,0:0:0:0:
89,208,28124,2,0,P|101:213|106:216,1,13.75,2|8,0:0|0:0,0:0:0:0:
89,208,28244,2,0,P|101:213|106:216,1,13.75,2|8,0:0|0:0,0:0:0:0:
260,358,28364,6,0,L|210:368,3,27.5,2|8|2|8,0:0|0:0|0:0|0:0,0:0:0:0:
287,214,28604,6,0,L|342:203,3,41.2500015735627,2|8|2|8,0:0|0:0|0:0|0:0,0:0:0:0:
375,330,28844,5,12,0:0:0:0:
375,308,28904,1,2,0:0:0:0:
376,287,28964,1,8,0:0:0:0:
378,266,29024,1,2,0:0:0:0:
367,243,29084,5,12,0:0:0:0:
366,221,29144,1,2,0:0:0:0:
365,200,29204,1,8,0:0:0:0:
364,179,29264,1,2,0:0:0:0:
391,144,29324,5,12,0:0:0:0:
360,155,29384,1,2,0:0:0:0:
327,157,29444,1,8,0:0:0:0:
295,148,29504,1,2,0:0:0:0:
268,130,29564,5,12,0:0:0:0:
230,121,29624,1,2,0:0:0:0:
192,125,29684,1,8,0:0:0:0:
158,141,29744,1,2,0:0:0:0:
130,168,29804,5,12,0:0:0:0:
112,208,29864,1,8,0:0:0:0:
111,251,29924,1,8,0:0:0:0:
126,292,29984,1,8,0:0:0:0:
157,323,30044,5,6,0:0:0:0:
203,342,30104,1,8,0:0:0:0:
252,337,30164,1,8,0:0:0:0:
297,316,30224,1,4,0:0:0:0:
324,274,30284,5,6,0:0:0:0:
379,250,30344,1,2,0:0:0:0:
438,259,30404,1,2,0:0:0:0:
483,299,30464,1,2,0:0:0:0:
490,359,30524,5,12,0:0:0:0:
0,266,30644,1,12,0:0:0:0:
142,44,30764,5,2,0:0:0:0:
142,44,30884,1,8,0:0:0:0:
402,3,31004,1,2,0:0:0:0:
308,249,31124,1,8,0:0:0:0:
142,44,31244,5,2,0:0:0:0:
142,44,31364,1,8,0:0:0:0:
89,303,31484,1,2,0:0:0:0:
142,44,31604,1,8,0:0:0:0:
308,249,31724,5,2,0:0:0:0:
308,249,31844,1,8,0:0:0:0:
48,198,31964,1,2,0:0:0:0:
308,249,32084,1,8,0:0:0:0:
219,296,32204,6,0,L|212:248,1,27.5,2|2,0:0|0:0,0:0:0:0:
186,105,32324,1,8,0:0:0:0:
438,346,32444,6,0,L|445:298,1,27.5,2|2,0:0|0:0,0:0:0:0:
472,154,32564,1,8,0:0:0:0:
292,277,32684,6,0,L|284:217,1,41.2500015735627,2|8,0:0|0:0,0:0:0:0:
367,321,32804,2,0,L|375:261,1,41.2500015735627,2|8,0:0|0:0,0:0:0:0:
286,236,32924,6,0,L|278:176,1,41.2500015735627,2|8,0:0|0:0,0:0:0:0:
372,280,33044,2,0,L|380:220,1,41.2500015735627,2|8,0:0|0:0,0:0:0:0:
280,195,33164,6,0,L|272:135,1,41.2500015735627,2|8,0:0|0:0,0:0:0:0:
377,239,33284,2,0,L|385:179,1,41.2500015735627,2|8,0:0|0:0,0:0:0:0:
274,154,33404,6,0,L|266:94,1,41.2500015735627,2|8,0:0|0:0,0:0:0:0:
382,198,33524,2,0,L|390:138,1,41.2500015735627,2|8,0:0|0:0,0:0:0:0:
191,126,33644,6,0,L|183:71,1,55,2|8,0:0|0:0,0:0:0:0:
350,73,33764,2,0,L|357:18,1,55,2|8,0:0|0:0,0:0:0:0:
183,257,33884,6,0,L|175:202,1,55,2|8,0:0|0:0,0:0:0:0:
382,198,34004,2,0,L|389:143,1,55,2|8,0:0|0:0,0:0:0:0:
150,384,34124,6,0,L|142:329,1,55,2|2,0:0|0:0,0:0:0:0:
417,323,34244,2,0,L|424:268,1,55,2|2,0:0|0:0,0:0:0:0:
274,154,34364,5,8,0:0:0:0:
281,208,34424,1,8,0:0:0:0:
289,262,34484,1,8,0:0:0:0:
297,317,34544,1,8,0:0:0:0:
305,371,34604,5,2,0:0:0:0:
305,371,34724,1,8,0:0:0:0:
395,123,34844,1,2,0:0:0:0:
136,169,34964,1,8,0:0:0:0:
305,371,35084,5,2,0:0:0:0:
305,371,35204,1,8,0:0:0:0:
43,335,35324,1,2,0:0:0:0:
305,371,35444,1,8,0:0:0:0:
209,124,35564,5,2,0:0:0:0:
209,124,35684,1,8,0:0:0:0:
162,384,35804,1,2,0:0:0:0:
341,190,35924,1,8,0:0:0:0:
226,314,36044,6,0,L|221:268,1,27.5,2|2,0:0|0:0,0:0:0:0:
209,124,36164,1,8,0:0:0:0:
446,351,36284,6,0,L|450:303,1,27.5,2|2,0:0|0:0,0:0:0:0:
463,161,36404,1,8,0:0:0:0:
302,355,36524,6,0,L|295:297,1,41.2500015735627,2|8,0:0|0:0,0:0:0:0:
378,307,36644,2,0,L|385:249,1,41.2500015735627,2|8,0:0|0:0,0:0:0:0:
297,314,36764,6,0,L|290:256,1,41.2500015735627,2|8,0:0|0:0,0:0:0:0:
382,266,36884,2,0,L|389:208,1,41.2500015735627,2|8,0:0|0:0,0:0:0:0:
292,273,37004,6,0,L|285:215,1,41.2500015735627,2|8,0:0|0:0,0:0:0:0:
386,225,37124,2,0,L|393:167,1,41.2500015735627,2|8,0:0|0:0,0:0:0:0:
287,232,37244,6,0,L|280:174,1,41.2500015735627,2|8,0:0|0:0,0:0:0:0:
390,184,37364,2,0,L|397:126,1,41.2500015735627,2|8,0:0|0:0,0:0:0:0:
212,119,37484,6,0,L|202:47,1,55,2|8,0:0|0:0,0:0:0:0:
343,57,37604,2,0,L|353:-15,1,55,2|8,0:0|0:0,0:0:0:0:
185,252,37724,6,0,L|175:180,1,55,2|8,0:0|0:0,0:0:0:0:
390,184,37844,2,0,L|400:112,1,55,2|8,0:0|0:0,0:0:0:0:
142,365,37964,6,0,L|132:293,1,55,2|8,0:0|0:0,0:0:0:0:
446,286,38084,2,0,L|456:214,1,55,2|8,0:0|0:0,0:0:0:0:
274,78,38204,6,0,L|271:7,1,55,2|8,0:0|0:0,0:0:0:0:
285,318,38324,2,0,L|282:247,1,55,2|8,0:0|0:0,0:0:0:0:
107,175,38444,5,2,0:0:0:0:
107,175,38564,1,8,0:0:0:0:
350,277,38684,1,2,0:0:0:0:
341,13,38804,1,8,0:0:0:0:
473,241,38924,5,2,0:0:0:0:
473,241,39044,1,8,0:0:0:0:
229,138,39164,1,2,0:0:0:0:
461,12,39284,1,8,0:0:0:0:
324,238,39404,5,2,0:0:0:0:
324,238,39524,1,8,0:0:0:0:
142,46,39644,1,2,0:0:0:0:
43,290,39764,1,8,0:0:0:0:
181,332,39884,6,0,L|175:294,1,27.5,2|2,0:0|0:0,0:0:0:0:
151,156,40004,1,8,0:0:0:0:
400,311,40124,6,0,L|406:273,1,27.5,2|2,0:0|0:0,0:0:0:0:
430,135,40244,1,8,0:0:0:0:
260,352,40364,6,0,L|252:302,1,41.2500015735627,2|8,0:0|0:0,0:0:0:0:
331,277,40484,2,0,L|339:227,1,41.2500015735627,2|8,0:0|0:0,0:0:0:0:
253,311,40604,6,0,L|245:261,1,41.2500015735627,2|8,0:0|0:0,0:0:0:0:
337,236,40724,2,0,L|345:186,1,41.2500015735627,2|8,0:0|0:0,0:0:0:0:
246,270,40844,6,0,L|238:220,1,41.2500015735627,2|8,0:0|0:0,0:0:0:0:
343,195,40964,2,0,L|351:145,1,41.2500015735627,2|8,0:0|0:0,0:0:0:0:
239,229,41084,6,0,L|231:179,1,41.2500015735627,2|8,0:0|0:0,0:0:0:0:
349,154,41204,2,0,L|357:104,1,41.2500015735627,2|8,0:0|0:0,0:0:0:0:
271,110,41324,6,0,L|259:35,1,55,2|8,0:0|0:0,0:0:0:0:
430,94,41444,2,0,L|442:19,1,55,2|8,0:0|0:0,0:0:0:0:
239,229,41564,6,0,L|227:154,1,55,2|8,0:0|0:0,0:0:0:0:
437,231,41684,2,0,L|449:156,1,55,2|8,0:0|0:0,0:0:0:0:
202,354,41804,6,0,L|190:279,1,55,2|2,0:0|0:0,0:0:0:0:
460,365,41924,2,0,L|472:290,1,55,2|2,0:0|0:0,0:0:0:0:
306,87,42044,5,8,0:0:0:0:
314,141,42104,1,8,0:0:0:0:
323,195,42164,1,8,0:0:0:0:
332,249,42224,1,8,0:0:0:0:
341,304,42284,5,2,0:0:0:0:
341,304,42404,1,8,0:0:0:0:
437,58,42524,1,2,0:0:0:0:
177,106,42644,1,8,0:0:0:0:
423,201,42764,5,2,0:0:0:0:
423,201,42884,1,8,0:0:0:0:
165,260,43004,1,2,0:0:0:0:
264,15,43124,1,8,0:0:0:0:
307,275,43244,5,2,0:0:0:0:
307,275,43364,1,8,0:0:0:0:
398,27,43484,1,2,0:0:0:0:
307,275,43604,1,8,0:0:0:0:
403,289,43724,6,0,L|394:253,1,27.5,2|2,0:0|0:0,0:0:0:0:
362,102,43844,1,8,0:0:0:0:
139,348,43964,6,0,L|148:312,1,27.5,2|2,0:0|0:0,0:0:0:0:
180,161,44084,1,8,0:0:0:0:
236,315,44204,6,0,B|267:159|267:159|242:74,1,247.500009441376,6|0,0:0|0:0,0:0:0:0:
263,29,44444,6,0,P|194:78|293:70,1,247.500009441376,6|0,0:0|0:0,0:0:0:0:
242,74,44684,5,12,0:0:0:0:
250,117,44744,1,8,0:0:0:0:
259,108,44804,5,8,0:0:0:0:
264,135,44864,1,8,0:0:0:0:
310,162,44924,5,12,0:0:0:0:
302,205,44984,1,8,0:0:0:0:
293,196,45044,5,8,0:0:0:0:
288,223,45104,1,8,0:0:0:0:
237,262,45164,6,0,B|319:247|319:247|340:134|340:134|263:146,1,247.500009441376,6|0,0:0|0:0,0:0:0:0:
382,57,45404,6,0,B|420:114|420:114|379:330,1,247.500009441376,6|0,0:0|0:0,0:0:0:0:
222,371,45644,5,6,0:0:0:0:
222,371,46004,5,2,0:0:0:0:
219,363,46064,1,2,0:0:0:0:
216,355,46124,5,12,0:0:0:0:
155,352,46184,1,2,0:0:0:0:
97,332,46244,1,8,0:0:0:0:
62,282,46304,1,2,0:0:0:0:
66,220,46364,5,8,0:0:0:0:
105,175,46424,1,2,0:0:0:0:
165,161,46484,1,8,0:0:0:0:
219,186,46544,1,2,0:0:0:0:
248,239,46604,5,8,0:0:0:0:
303,263,46664,1,2,0:0:0:0:
362,248,46724,1,8,0:0:0:0:
401,201,46784,1,2,0:0:0:0:
401,140,46844,5,8,0:0:0:0:
369,92,46904,1,2,0:0:0:0:
314,73,46964,1,8,0:0:0:0:
259,89,47024,1,2,0:0:0:0:
224,133,47084,5,8,0:0:0:0:
173,117,47144,1,2,0:0:0:0:
125,138,47204,1,8,0:0:0:0:
103,186,47264,1,2,0:0:0:0:
119,237,47324,1,8,0:0:0:0:
162,260,47384,1,2,0:0:0:0:
168,308,47444,1,8,0:0:0:0:
137,341,47504,1,2,0:0:0:0:
92,338,47564,1,8,0:0:0:0:
68,301,47624,1,2,0:0:0:0:
75,261,47684,1,8,0:0:0:0:
110,239,47744,1,2,0:0:0:0:
145,245,47804,1,8,0:0:0:0:
176,226,47864,1,2,0:0:0:0:
187,195,47924,1,8,0:0:0:0:
177,164,47984,1,2,0:0:0:0:
154,140,48044,2,0,L|97:134,3,55,8|2|8|2,0:0|0:0|0:0|0:0,0:0:0:0:
252,309,48284,5,8,0:0:0:0:
277,299,48344,1,2,0:0:0:0:
304,299,48404,1,8,0:0:0:0:
331,308,48464,1,2,0:0:0:0:
365,334,48524,5,8,0:0:0:0:
390,344,48584,1,2,0:0:0:0:
417,344,48644,1,8,0:0:0:0:
444,335,48704,1,2,0:0:0:0:
478,307,48764,6,0,B|488:335|488:335|475:376,3,55,8|2|8|2,0:0|0:0|0:0|0:0,0:0:0:0:
406,255,49004,5,8,0:0:0:0:
396,246,49064,1,2,0:0:0:0:
388,236,49124,1,8,0:0:0:0:
384,225,49184,1,2,0:0:0:0:
382,212,49244,1,8,0:0:0:0:
384,200,49304,1,2,0:0:0:0:
389,188,49364,1,8,0:0:0:0:
397,178,49424,1,2,0:0:0:0:
430,210,49484,5,8,0:0:0:0:
418,216,49544,1,2,0:0:0:0:
406,221,49604,1,8,0:0:0:0:
394,221,49664,1,2,0:0:0:0:
381,219,49724,1,8,0:0:0:0:
370,213,49784,1,2,0:0:0:0:
361,205,49844,1,8,0:0:0:0:
353,194,49904,1,2,0:0:0:0:
397,178,49964,6,0,L|427:163,3,27.5,8|2|8|2,0:0|0:0|0:0|0:0,0:0:0:0:
319,98,50204,6,0,L|339:71,3,27.5,8|2|8|2,0:0|0:0|0:0|0:0,0:0:0:0:
220,109,50444,5,8,0:0:0:0:
222,129,50504,1,2,0:0:0:0:
224,149,50564,1,8,0:0:0:0:
226,170,50624,1,2,0:0:0:0:
229,190,50684,6,0,L|192:182,3,27.5,8|2|8|2,0:0|0:0|0:0|0:0,0:0:0:0:
415,189,50924,6,0,L|465:165,3,55,8|2|8|2,0:0|0:0|0:0|0:0,0:0:0:0:
338,84,51164,6,0,L|373:40,3,55,8|2|8|2,0:0|0:0|0:0|0:0,0:0:0:0:
206,102,51404,5,8,0:0:0:0:
210,144,51464,1,2,0:0:0:0:
213,185,51524,1,8,0:0:0:0:
216,226,51584,1,2,0:0:0:0:
220,267,51644,6,0,L|161:249,3,55,8|2|8|2,0:0|0:0|0:0|0:0,0:0:0:0:
325,164,51884,6,0,L|320:214,1,41.2500015735627,8|2,0:0|0:0,0:0:0:0:
307,341,52004,2,0,L|302:391,1,41.2500015735627,8|2,0:0|0:0,0:0:0:0:
383,256,52124,6,0,L|361:280,1,27.5,8|2,0:0|0:0,0:0:0:0:
307,341,52244,2,0,L|288:361,1,27.5,8|2,0:0|0:0,0:0:0:0:
230,118,52364,6,0,L|244:158,1,41.2500015735627,8|2,0:0|0:0,0:0:0:0:
307,341,52484,2,0,L|320:379,1,41.2500015735627,8|2,0:0|0:0,0:0:0:0:
122,95,52604,6,0,L|155:143,1,52.8000012890625,8|2,0:0|0:0,0:0:0:0:
307,341,52724,2,0,L|337:384,1,52.8000012890625,8|2,0:0|0:0,0:0:0:0:
165,261,52844,5,8,0:0:0:0:
167,244,52904,1,2,0:0:0:0:
168,227,52964,1,8,0:0:0:0:
169,210,53024,1,2,0:0:0:0:
170,193,53084,5,8,0:0:0:0:
220,213,53144,1,8,0:0:0:0:
273,203,53204,1,8,0:0:0:0:
312,166,53264,1,8,0:0:0:0:
325,113,53324,1,8,0:0:0:0:
307,62,53384,1,8,0:0:0:0:
265,28,53444,5,2,0:0:0:0:
266,56,53504,1,2,0:0:0:0:
267,83,53564,1,8,0:0:0:0:
268,111,53624,1,8,0:0:0:0:
270,138,53684,1,4,0:0:0:0:
271,166,53744,1,4,0:0:0:0:
272,193,53804,5,4,0:0:0:0:
512,142,53924,1,2,0:0:0:0:
349,249,54044,5,2,0:0:0:0:
507,264,54164,1,2,0:0:0:0:
108,202,54284,5,6,0:0:0:0:
312,159,54404,1,0,0:0:0:0:
25,193,54524,5,0,0:0:0:0:
216,211,54644,1,0,0:0:0:0:
0,307,54764,6,0,L|35:311,3,27.5,2|8|2|8,0:0|0:0|0:0|0:0,0:0:0:0:
167,126,55004,6,0,L|163:159,1,27.5,2|8,0:0|0:0,0:0:0:0:
140,348,55124,2,0,L|136:375,1,27.5,2|8,0:0|0:0,0:0:0:0:
306,204,55244,6,0,L|276:232,1,27.5,2|8,0:0|0:0,0:0:0:0:
140,348,55364,2,0,L|119:366,1,27.5,2|8,0:0|0:0,0:0:0:0:
359,336,55484,6,0,L|322:339,1,27.5,2|8,0:0|0:0,0:0:0:0:
140,348,55604,2,0,L|112:350,1,27.5,2|8,0:0|0:0,0:0:0:0:
239,152,55724,6,0,L|262:189,1,27.5,2|8,0:0|0:0,0:0:0:0:
359,336,55844,2,0,L|373:359,1,27.5,2|8,0:0|0:0,0:0:0:0:
285,283,55964,6,0,L|293:234,3,27.5,2|8|2|8,0:0|0:0|0:0|0:0,0:0:0:0:
399,224,56204,6,0,L|407:175,3,41.2500015735627,2|8|2|8,0:0|0:0|0:0|0:0,0:0:0:0:
392,69,56444,6,0,L|400:15,3,55,2|8|2|8,0:0|0:0|0:0|0:0,0:0:0:0:
273,81,56684,5,2,0:0:0:0:
297,92,56744,1,8,0:0:0:0:
309,116,56804,1,2,0:0:0:0:
303,143,56864,1,8,0:0:0:0:
282,160,56924,1,2,0:0:0:0:
255,161,56984,1,8,0:0:0:0:
234,144,57044,1,2,0:0:0:0:
227,118,57104,1,8,0:0:0:0:
267,122,57164,5,2,0:0:0:0:
256,145,57224,1,8,0:0:0:0:
231,157,57284,1,2,0:0:0:0:
204,151,57344,1,8,0:0:0:0:
187,130,57404,1,2,0:0:0:0:
187,102,57464,1,8,0:0:0:0:
204,81,57524,1,2,0:0:0:0:
230,75,57584,1,8,0:0:0:0:
255,85,57644,6,0,L|244:141,1,41.2500015735627,2|8,0:0|0:0,0:0:0:0:
207,314,57764,2,0,L|199:354,1,41.2500015735627,2|8,0:0|0:0,0:0:0:0:
116,175,57884,6,0,L|141:217,1,41.2500015735627,2|8,0:0|0:0,0:0:0:0:
207,314,58004,2,0,L|199:354,1,41.2500015735627,2|8,0:0|0:0,0:0:0:0:
262,115,58124,6,0,L|251:171,1,41.2500015735627,2|8,0:0|0:0,0:0:0:0:
214,344,58244,2,0,L|206:384,1,41.2500015735627,2|8,0:0|0:0,0:0:0:0:
123,205,58364,6,0,L|148:247,1,41.2500015735627,2|8,0:0|0:0,0:0:0:0:
214,344,58484,2,0,L|206:384,1,41.2500015735627,2|8,0:0|0:0,0:0:0:0:
265,40,58604,6,0,L|253:99,1,55,2|8,0:0|0:0,0:0:0:0:
207,314,58724,2,0,L|196:367,1,55,2|8,0:0|0:0,0:0:0:0:
98,148,58844,6,0,L|138:204,1,55,2|8,0:0|0:0,0:0:0:0:
207,314,58964,2,0,L|196:367,1,55,2|8,0:0|0:0,0:0:0:0:
258,0,59084,6,0,L|246:59,1,55,2|8,0:0|0:0,0:0:0:0:
200,275,59204,2,0,L|189:328,1,55,2|8,0:0|0:0,0:0:0:0:
91,109,59324,6,0,L|131:165,1,55,2|8,0:0|0:0,0:0:0:0:
200,275,59444,2,0,L|189:328,1,55,2|8,0:0|0:0,0:0:0:0:
240,21,59564,6,0,L|229:77,1,41.2500015735627,2|8,0:0|0:0,0:0:0:0:
193,245,59684,2,0,L|182:301,1,41.2500015735627,2|8,0:0|0:0,0:0:0:0:
87,79,59804,6,0,L|112:121,1,41.2500015735627,2|8,0:0|0:0,0:0:0:0:
193,245,59924,2,0,L|182:301,1,41.2500015735627,2|8,0:0|0:0,0:0:0:0:
177,142,60044,6,0,L|181:166,1,13.75,2|8,0:0|0:0,0:0:0:0:
193,245,60164,2,0,L|197:269,1,13.75,2|8,0:0|0:0,0:0:0:0:
248,184,60284,6,0,L|236:199,1,13.75,2|8,0:0|0:0,0:0:0:0:
193,245,60404,2,0,L|181:260,1,13.75,2|8,0:0|0:0,0:0:0:0:
499,122,60524,6,0,L|530:109,1,27.5,2|2,0:0|0:0,0:0:0:0:
193,245,60644,2,0,L|224:232,1,27.5,2|2,0:0|0:0,0:0:0:0:
283,29,60764,6,0,L|293:0,1,27.5,2|2,0:0|0:0,0:0:0:0:
193,245,60884,2,0,L|203:216,1,27.5,2|2,0:0|0:0,0:0:0:0:
346,165,61004,5,2,0:0:0:0:
345,159,61064,1,2,0:0:0:0:
344,153,61124,1,2,0:0:0:0:
343,147,61184,1,2,0:0:0:0:
342,141,61244,5,8,0:0:0:0:
34,260,61364,1,8,0:0:0:0:
301,299,61484,5,2,0:0:0:0:
301,299,61604,1,8,0:0:0:0:
416,111,61724,1,2,0:0:0:0:
196,94,61844,1,8,0:0:0:0:
377,218,61964,5,2,0:0:0:0:
377,218,62084,1,8,0:0:0:0:
269,25,62204,1,2,0:0:0:0:
488,40,62324,1,8,0:0:0:0:
377,218,62444,6,0,L|349:213,1,27.5,2|2,0:0|0:0,0:0:0:0:
429,120,62564,6,0,L|388:113,1,41.2500015735627,2|2,0:0|0:0,0:0:0:0:
512,327,62684,6,0,L|457:318,1,55,2|2,0:0|0:0,0:0:0:0:
247,168,62804,5,8,0:0:0:0:
247,168,62924,1,2,0:0:0:0:
508,205,63044,1,8,0:0:0:0:
389,106,63164,1,2,0:0:0:0:
389,106,63284,1,8,0:0:0:0:
365,324,63404,5,2,0:0:0:0:
365,324,63524,1,8,0:0:0:0:
153,262,63644,1,2,0:0:0:0:
307,105,63764,1,8,0:0:0:0:
247,316,63884,5,2,0:0:0:0:
247,316,64004,1,8,0:0:0:0:
210,98,64124,1,2,0:0:0:0:
38,236,64244,1,8,0:0:0:0:
254,198,64364,5,2,0:0:0:0:
254,198,64484,1,8,0:0:0:0:
40,146,64604,1,2,0:0:0:0:
76,362,64724,1,8,0:0:0:0:
126,58,64844,5,2,0:0:0:0:
76,362,64964,1,8,0:0:0:0:
76,362,65084,1,2,0:0:0:0:
363,250,65204,1,8,0:0:0:0:
150,284,65324,5,2,0:0:0:0:
170,301,65384,1,2,0:0:0:0:
182,325,65444,1,10,0:0:0:0:
186,352,65504,1,2,0:0:0:0:
179,378,65564,6,0,L|224:370,1,27.5,2|2,0:0|0:0,0:0:0:0:
335,245,65684,2,0,L|380:253,1,27.5,10|2,0:0|0:0,0:0:0:0:
282,329,65804,1,2,0:0:0:0:
308,334,65864,1,2,0:0:0:0:
335,339,65924,1,10,0:0:0:0:
362,344,65984,1,2,0:0:0:0:
389,350,66044,6,0,L|380:314,1,27.5,2|2,0:0|0:0,0:0:0:0:
490,211,66164,1,10,0:0:0:0:
463,216,66224,1,2,0:0:0:0:
436,222,66284,6,0,L|445:186,1,27.5,2|2,0:0|0:0,0:0:0:0:
328,312,66404,1,10,0:0:0:0:
355,317,66464,1,2,0:0:0:0:
382,323,66524,6,0,L|373:287,1,27.5,2|2,0:0|0:0,0:0:0:0:
506,160,66644,2,0,L|515:124,1,27.5,10|2,0:0|0:0,0:0:0:0:
417,216,66764,1,2,0:0:0:0:
408,189,66824,1,2,0:0:0:0:
399,162,66884,6,0,L|370:193,1,27.5,10|2,0:0|0:0,0:0:0:0:
217,147,67004,1,2,0:0:0:0:
226,174,67064,1,2,0:0:0:0:
235,201,67124,6,0,L|264:170,1,27.5,10|2,0:0|0:0,0:0:0:0:
417,216,67244,1,2,0:0:0:0:
409,243,67304,1,2,0:0:0:0:
399,269,67364,1,10,0:0:0:0:
391,296,67424,1,2,0:0:0:0:
382,323,67484,6,0,L|431:313,1,27.5,2|2,0:0|0:0,0:0:0:0:
176,350,67604,2,0,L|225:360,1,27.5,10|2,0:0|0:0,0:0:0:0:
293,343,67724,1,2,0:0:0:0:
301,316,67784,1,2,0:0:0:0:
310,290,67844,1,10,0:0:0:0:
319,264,67904,1,2,0:0:0:0:
328,238,67964,6,0,L|287:247,1,27.5,2|2,0:0|0:0,0:0:0:0:
220,187,68084,1,10,0:0:0:0:
211,160,68144,1,2,0:0:0:0:
202,134,68204,6,0,L|243:142,1,27.5,2|2,0:0|0:0,0:0:0:0:
337,216,68324,1,10,0:0:0:0:
346,189,68384,1,2,0:0:0:0:
355,163,68444,6,0,L|313:171,1,27.5,2|2,0:0|0:0,0:0:0:0:
183,71,68564,2,0,L|221:78,1,27.5,10|2,0:0|0:0,0:0:0:0:
391,73,68684,5,8,0:0:0:0:
433,106,68744,1,8,0:0:0:0:
451,157,68804,1,8,0:0:0:0:
439,210,68864,1,8,0:0:0:0:
400,248,68924,5,8,0:0:0:0:
406,194,68984,1,8,0:0:0:0:
412,139,69044,1,8,0:0:0:0:
418,84,69104,1,8,0:0:0:0:
424,30,69164,5,2,0:0:0:0:
424,30,69284,1,8,0:0:0:0:
223,118,69404,1,2,0:0:0:0:
400,248,69524,1,8,0:0:0:0:
314,45,69644,5,2,0:0:0:0:
314,45,69764,1,8,0:0:0:0:
232,249,69884,1,2,0:0:0:0:
61,109,70004,1,8,0:0:0:0:
314,45,70124,6,0,L|277:17,1,27.5,2|2,0:0|0:0,0:0:0:0:
223,118,70244,6,0,L|186:90,1,41.2500015735627,2|2,0:0|0:0,0:0:0:0:
480,62,70364,6,0,L|413:11,1,55,2|2,0:0|0:0,0:0:0:0:
232,249,70484,5,8,0:0:0:0:
232,249,70604,1,2,0:0:0:0:
486,180,70724,1,8,0:0:0:0:
336,141,70844,1,2,0:0:0:0:
336,141,70964,1,8,0:0:0:0:
391,353,71084,5,2,0:0:0:0:
391,353,71204,1,8,0:0:0:0:
177,300,71324,1,2,0:0:0:0:
336,141,71444,1,8,0:0:0:0:
278,353,71564,5,2,0:0:0:0:
278,353,71684,1,8,0:0:0:0:
247,135,71804,1,2,0:0:0:0:
80,278,71924,1,8,0:0:0:0:
296,236,72044,5,2,0:0:0:0:
296,236,72164,1,8,0:0:0:0:
80,191,72284,1,2,0:0:0:0:
251,53,72404,1,8,0:0:0:0:
145,342,72524,5,2,0:0:0:0:
24,58,72644,1,8,0:0:0:0:
24,58,72764,1,2,0:0:0:0:
327,113,72884,1,8,0:0:0:0:
217,142,73004,5,2,0:0:0:0:
216,169,73064,1,2,0:0:0:0:
215,196,73124,1,10,0:0:0:0:
214,224,73184,1,2,0:0:0:0:
213,251,73244,6,0,L|169:237,1,27.5,2|2,0:0|0:0,0:0:0:0:
2,169,73364,2,0,L|46:155,1,27.5,10|2,0:0|0:0,0:0:0:0:
103,194,73484,1,2,0:0:0:0:
102,221,73544,1,2,0:0:0:0:
101,248,73604,1,10,0:0:0:0:
100,276,73664,1,2,0:0:0:0:
99,303,73724,6,0,L|144:290,1,27.5,2|2,0:0|0:0,0:0:0:0:
238,271,73844,1,10,0:0:0:0:
239,243,73904,1,2,0:0:0:0:
240,216,73964,6,0,L|194:228,1,27.5,2|2,0:0|0:0,0:0:0:0:
74,255,74084,1,10,0:0:0:0:
73,283,74144,1,2,0:0:0:0:
72,310,74204,6,0,L|117:297,1,27.5,2|2,0:0|0:0,0:0:0:0:
104,125,74324,2,0,L|58:137,1,27.5,10|2,0:0|0:0,0:0:0:0:
77,221,74444,1,2,0:0:0:0:
103,214,74504,1,2,0:0:0:0:
130,207,74564,6,0,L|130:255,1,27.5,10|2,0:0|0:0,0:0:0:0:
130,346,74684,1,2,0:0:0:0:
103,352,74744,1,2,0:0:0:0:
76,359,74804,6,0,L|76:311,1,27.5,10|2,0:0|0:0,0:0:0:0:
224,367,74924,5,2,0:0:0:0:
224,367,75044,1,8,0:0:0:0:
487,207,75164,5,2,0:0:0:0:
211,69,75284,1,8,0:0:0:0:
349,293,75404,5,2,0:0:0:0:
368,21,75524,1,8,0:0:0:0:
406,228,75644,5,2,0:0:0:0:
309,80,75764,1,8,0:0:0:0:
357,157,75884,5,2,0:0:0:0:
357,157,76004,1,8,0:0:0:0:
268,153,76124,5,2,0:0:0:0:
446,155,76244,1,8,0:0:0:0:
243,236,76364,5,2,0:0:0:0:
465,75,76484,1,8,0:0:0:0:
316,306,76604,5,2,0:0:0:0:
360,1,76724,1,8,0:0:0:0:
406,228,76844,5,2,0:0:0:0:
404,244,76904,1,8,0:0:0:0:
402,260,76964,1,2,0:0:0:0:
401,277,77024,1,8,0:0:0:0:
399,293,77084,1,2,0:0:0:0:
397,310,77144,1,8,0:0:0:0:
396,326,77204,2,0,L|446:316,1,27.5,2|8,0:0|0:0,0:0:0:0:
301,193,77324,5,2,0:0:0:0:
302,209,77384,1,8,0:0:0:0:
304,225,77444,1,2,0:0:0:0:
305,242,77504,1,8,0:0:0:0:
307,258,77564,1,2,0:0:0:0:
309,275,77624,1,8,0:0:0:0:
310,291,77684,2,0,L|260:280,1,27.5,2|8,0:0|0:0,0:0:0:0:
204,350,77804,5,2,0:0:0:0:
175,334,77864,1,8,0:0:0:0:
143,326,77924,1,2,0:0:0:0:
110,326,77984,1,8,0:0:0:0:
78,334,78044,6,0,L|87:279,3,41.2500015735627,2|8|2|8,0:0|0:0|0:0|0:0,0:0:0:0:
151,224,78284,5,2,0:0:0:0:
147,191,78344,1,8,0:0:0:0:
143,158,78404,1,2,0:0:0:0:
139,125,78464,1,8,0:0:0:0:
135,92,78524,6,0,L|84:112,3,41.2500015735627,2|8|2|8,0:0|0:0|0:0|0:0,0:0:0:0:
218,48,78764,5,2,0:0:0:0:
237,53,78824,1,2,0:0:0:0:
259,59,78884,5,10,0:0:0:0:
252,79,78944,1,2,0:0:0:0:
246,98,79004,2,0,L|298:89,1,41.2500015735627,2|2,0:0|0:0,0:0:0:0:
443,30,79124,6,0,L|495:21,1,41.2500015735627,10|2,0:0|0:0,0:0:0:0:
475,121,79244,1,2,0:0:0:0:
470,140,79304,1,2,0:0:0:0:
467,160,79364,5,10,0:0:0:0:
447,154,79424,1,2,0:0:0:0:
426,149,79484,2,0,L|432:192,1,41.2500015735627,2|2,0:0|0:0,0:0:0:0:
202,188,79604,6,0,L|196:231,1,41.2500015735627,10|2,0:0|0:0,0:0:0:0:
410,296,79724,6,0,B|436:278|436:278|449:238,1,55,2|2,0:0|0:0,0:0:0:0:
426,149,79844,2,0,B|399:166|399:166|386:206,1,55,10|2,0:0|0:0,0:0:0:0:
283,308,79964,6,0,L|272:383,1,55,2|2,0:0|0:0,0:0:0:0:
306,138,80084,2,0,L|295:213,1,55,10|2,0:0|0:0,0:0:0:0:
185,222,80204,6,0,L|196:297,1,55,2|2,0:0|0:0,0:0:0:0:
162,52,80324,2,0,L|173:127,1,55,10|2,0:0|0:0,0:0:0:0:
65,262,80444,6,0,B|38:244|38:244|25:204,1,55,2|2,0:0|0:0,0:0:0:0:
49,115,80564,2,0,B|75:132|75:132|88:172,1,55,10|2,0:0|0:0,0:0:0:0:
121,331,80684,5,2,0:0:0:0:
120,334,80744,1,2,0:0:0:0:
120,337,80804,1,2,0:0:0:0:
120,340,80864,1,2,0:0:0:0:
119,343,80924,1,2,0:0:0:0:
119,346,80984,1,2,0:0:0:0:
119,349,81044,2,0,L|78:347,1,27.5,2|2,0:0|0:0,0:0:0:0:
253,291,81164,5,2,0:0:0:0:
254,294,81224,1,2,0:0:0:0:
254,297,81284,1,2,0:0:0:0:
254,300,81344,1,2,0:0:0:0:
255,303,81404,1,2,0:0:0:0:
255,306,81464,1,2,0:0:0:0:
255,309,81524,2,0,L|296:307,1,27.5,2|2,0:0|0:0,0:0:0:0:
405,351,81644,5,10,0:0:0:0:
412,324,81704,1,2,0:0:0:0:
411,296,81764,1,2,0:0:0:0:
404,270,81824,1,2,0:0:0:0:
390,246,81884,6,0,L|439:249,3,35.749998363495,2|2|2|2,0:0|0:0|0:0|0:0,0:0:0:0:
336,148,82124,5,2,0:0:0:0:
329,121,82184,1,2,0:0:0:0:
330,93,82244,1,2,0:0:0:0:
337,67,82304,1,2,0:0:0:0:
351,43,82364,6,0,L|302:46,3,35.749998363495,2|2|2|2,0:0|0:0|0:0|0:0,0:0:0:0:
218,150,82604,5,2,0:0:0:0:
424,105,82724,1,2,0:0:0:0:
254,48,82844,5,2,0:0:0:0:
292,196,82964,1,2,0:0:0:0:
180,0,83084,5,0,0:0:0:0:
248,266,83204,1,10,0:0:0:0:
143,227,83324,5,2,0:0:0:0:
292,196,83444,1,2,0:0:0:0:
101,293,83564,5,2,0:0:0:0:
369,237,83684,1,10,0:0:0:0:
330,344,83804,5,2,0:0:0:0:
292,196,83924,1,2,0:0:0:0:
403,384,84044,5,0,0:0:0:0:
335,118,84164,1,10,0:0:0:0:
441,165,84284,5,2,0:0:0:0:
292,196,84404,1,2,0:0:0:0:
453,308,84524,5,10,0:0:0:0:
450,272,84584,1,2,0:0:0:0:
447,236,84644,1,2,0:0:0:0:
444,201,84704,1,2,0:0:0:0:
441,165,84764,1,2,0:0:0:0:
438,129,84824,1,2,0:0:0:0:
436,94,84884,1,2,0:0:0:0:
433,58,84944,1,2,0:0:0:0:
430,22,85004,5,10,0:0:0:0:
368,158,85124,1,2,0:0:0:0:
512,136,85244,1,2,0:0:0:0:
430,22,85364,1,2,0:0:0:0:
441,165,85484,5,10,0:0:0:0:
444,201,85544,1,2,0:0:0:0:
447,237,85604,1,2,0:0:0:0:
449,272,85664,1,2,0:0:0:0:
452,308,85724,1,2,0:0:0:0:
455,344,85784,1,2,0:0:0:0:
458,379,85844,5,8,0:0:0:0:
458,379,85964,1,2,0:0:0:0:
101,252,86084,5,8,0:0:0:0:
101,252,86204,1,2,0:0:0:0:
284,190,86324,5,2,0:0:0:0:
183,22,86444,5,10,0:0:0:0:
178,57,86504,1,2,0:0:0:0:
174,92,86564,1,2,0:0:0:0:
169,128,86624,1,2,0:0:0:0:
165,163,86684,1,2,0:0:0:0:
74,42,86804,1,2,0:0:0:0:
193,311,86924,5,10,0:0:0:0:
284,190,87044,1,2,0:0:0:0:
165,163,87164,1,2,0:0:0:0:
193,311,87284,1,2,0:0:0:0:
0,163,87404,5,10,0:0:0:0:
0,163,87524,1,2,0:0:0:0:
92,236,87644,5,2,0:0:0:0:
399,194,87764,1,8,0:0:0:0:
330,264,87884,5,2,0:0:0:0:
74,42,88004,1,8,0:0:0:0:
83,135,88124,5,2,0:0:0:0:
484,81,88244,1,8,0:0:0:0:
252,134,88364,5,2,0:0:0:0:
254,161,88424,1,2,0:0:0:0:
256,188,88484,1,10,0:0:0:0:
258,216,88544,1,2,0:0:0:0:
260,243,88604,6,0,L|306:234,1,27.5,2|2,0:0|0:0,0:0:0:0:
75,277,88724,2,0,L|121:268,1,27.5,10|2,0:0|0:0,0:0:0:0:
186,256,88844,1,0,0:0:0:0:
184,283,88904,1,2,0:0:0:0:
182,310,88964,1,10,0:0:0:0:
180,338,89024,1,2,0:0:0:0:
178,365,89084,6,0,L|132:356,1,27.5,2|2,0:0|0:0,0:0:0:0:
329,384,89204,1,10,0:0:0:0:
331,356,89264,1,2,0:0:0:0:
333,329,89324,6,0,L|379:338,1,27.5,2|2,0:0|0:0,0:0:0:0:
182,310,89444,1,10,0:0:0:0:
184,282,89504,1,2,0:0:0:0:
186,255,89564,6,0,L|159:249,1,27.5,2|2,0:0|0:0,0:0:0:0:
373,284,89684,2,0,L|346:278,1,27.5,10|2,0:0|0:0,0:0:0:0:
267,267,89804,1,2,0:0:0:0:
265,239,89864,1,2,0:0:0:0:
263,212,89924,6,0,L|289:206,1,27.5,10|2,0:0|0:0,0:0:0:0:
404,183,90044,1,2,0:0:0:0:
406,155,90104,1,2,0:0:0:0:
408,128,90164,6,0,L|381:122,1,27.5,10|2,0:0|0:0,0:0:0:0:
250,55,90284,5,2,0:0:0:0:
250,55,90404,1,2,0:0:0:0:
97,322,90524,1,2,0:0:0:0:
402,285,90644,1,2,0:0:0:0:
192,374,90764,5,2,0:0:0:0:
164,100,90884,1,2,0:0:0:0:
97,322,91004,5,2,0:0:0:0:
254,184,91124,1,2,0:0:0:0:
180,252,91244,5,2,0:0:0:0:
180,252,91364,1,2,0:0:0:0:
261,323,91484,5,2,0:0:0:0:
104,185,91604,1,2,0:0:0:0:
166,375,91724,5,2,0:0:0:0:
194,101,91844,1,2,0:0:0:0:
97,322,91964,5,2,0:0:0:0:
404,324,92084,1,2,0:0:0:0:
205,294,92204,5,2,0:0:0:0:
203,277,92264,1,8,0:0:0:0:
201,261,92324,1,2,0:0:0:0:
199,244,92384,1,8,0:0:0:0:
197,228,92444,1,2,0:0:0:0:
195,212,92504,1,8,0:0:0:0:
193,195,92564,2,0,L|152:212,1,27.5,2|8,0:0|0:0,0:0:0:0:
297,236,92684,5,2,0:0:0:0:
299,219,92744,1,8,0:0:0:0:
301,203,92804,1,2,0:0:0:0:
303,186,92864,1,8,0:0:0:0:
305,170,92924,1,2,0:0:0:0:
307,154,92984,1,8,0:0:0:0:
309,137,93044,2,0,L|350:154,1,27.5,2|8,0:0|0:0,0:0:0:0:
218,82,93164,5,2,0:0:0:0:
187,93,93224,1,8,0:0:0:0:
154,92,93284,1,2,0:0:0:0:
123,81,93344,1,8,0:0:0:0:
98,60,93404,6,0,L|104:125,3,41.2500015735627,2|8|2|8,0:0|0:0|0:0|0:0,0:0:0:0:
25,156,93644,5,2,0:0:0:0:
27,188,93704,1,8,0:0:0:0:
30,221,93764,1,2,0:0:0:0:
32,254,93824,1,8,0:0:0:0:
35,287,93884,6,0,L|82:258,3,41.2500015735627,2|8|2|8,0:0|0:0|0:0|0:0,0:0:0:0:
158,341,94124,5,2,0:0:0:0:
161,320,94184,1,2,0:0:0:0:
164,300,94244,1,10,0:0:0:0:
184,305,94304,1,2,0:0:0:0:
204,309,94364,5,2,0:0:0:0:
164,119,94484,1,8,0:0:0:0:
183,216,94604,5,2,0:0:0:0:
223,26,94724,1,8,0:0:0:0:
285,116,94844,5,2,0:0:0:0:
58,72,94964,1,8,0:0:0:0:
164,119,95084,5,2,0:0:0:0:
167,139,95144,1,2,0:0:0:0:
170,159,95204,1,10,0:0:0:0:
150,163,95264,1,2,0:0:0:0:
130,167,95324,5,2,0:0:0:0:
442,129,95444,1,8,0:0:0:0:
224,230,95564,5,2,0:0:0:0:
373,213,95684,1,8,0:0:0:0:
282,0,95804,5,2,0:0:0:0:
316,357,95924,1,8,0:0:0:0:
312,122,96044,5,2,0:0:0:0:
310,138,96104,1,8,0:0:0:0:
308,154,96164,1,2,0:0:0:0:
307,171,96224,1,8,0:0:0:0:
305,187,96284,1,2,0:0:0:0:
304,204,96344,1,8,0:0:0:0:
302,220,96404,2,0,L|348:207,1,27.5,2|8,0:0|0:0,0:0:0:0:
206,188,96524,5,2,0:0:0:0:
208,204,96584,1,8,0:0:0:0:
210,220,96644,1,2,0:0:0:0:
211,237,96704,1,8,0:0:0:0:
213,253,96764,1,2,0:0:0:0:
214,270,96824,1,8,0:0:0:0:
216,286,96884,2,0,L|170:273,1,27.5,2|8,0:0|0:0,0:0:0:0:
78,204,97004,5,2,0:0:0:0:
91,174,97064,1,8,0:0:0:0:
94,141,97124,1,2,0:0:0:0:
86,109,97184,1,8,0:0:0:0:
67,82,97244,6,0,L|117:87,3,41.2500015735627,2|8|2|8,0:0|0:0|0:0|0:0,0:0:0:0:
242,75,97484,6,0,L|245:33,1,41.2500015735627,2|8,0:0|0:0,0:0:0:0:
375,69,97604,2,0,L|371:110,1,41.2500015735627,2|8,0:0|0:0,0:0:0:0:
208,194,97724,6,0,L|211:152,1,41.2500015735627,2|8,0:0|0:0,0:0:0:0:
393,201,97844,2,0,L|389:242,1,41.2500015735627,2|8,0:0|0:0,0:0:0:0:
278,328,97964,6,0,B|284:277|284:277|310:247|310:247|316:190|316:190|287:158|287:158|280:235,1,247.500009441376,6|0,0:0|0:0,0:0:0:0:
271,229,98204,6,0,B|280:132|280:132|327:183|327:183|318:274,1,247.500009441376,6|0,0:0|0:0,0:0:0:0:
261,339,98444,5,8,0:0:0:0:
265,295,98504,1,8,0:0:0:0:
249,301,98564,5,2,0:0:0:0:
255,279,98624,1,2,0:0:0:0:
230,236,98684,5,8,0:0:0:0:
225,220,98744,1,8,0:0:0:0:
245,203,98804,5,4,0:0:0:0:
247,192,98864,1,4,0:0:0:0:
274,217,98924,6,0,B|164:207|164:207|179:286|179:286|235:269,1,247.500009441376,6|0,0:0|0:0,0:0:0:0:
266,284,99164,6,0,B|165:313|165:313|132:144,1,247.500009441376,6|0,0:0|0:0,0:0:0:0:
191,64,99404,5,6,0:0:0:0:
191,64,99884,5,6,0:0:0:0:
191,64,100124,1,0,0:0:0:0:
78,90,100364,6,0,L|102:293,1,192.5,2|0,0:0|0:0,0:0:0:0:
167,325,100844,5,0,0:0:0:0:
376,273,101084,1,0,0:0:0:0:
235,288,101324,5,0,0:0:0:0:
308,310,101564,1,0,0:0:0:0:
254,362,101804,5,0,0:0:0:0:
289,237,102044,1,0,0:0:0:0:
166,264,102284,5,0,0:0:0:0:
381,333,102524,1,0,0:0:0:0:
0,298,102764,5,2,0:0:0:0:
331,228,103004,1,2,0:0:0:0:
19,49,103244,5,2,0:0:0:0:
324,243,103484,1,0,0:0:0:0:
0,298,103724,5,6,0:0:0:0:
331,228,103844,1,6,0:0:0:0:
325,243,103964,1,0,0:0:0:0:
318,258,104084,1,0,0:0:0:0:
19,49,104204,5,6,0:0:0:0:
324,243,104324,1,6,0:0:0:0:
318,258,104444,1,0,0:0:0:0:
312,273,104564,1,0,0:0:0:0:
216,245,104684,6,0,P|187:231|216:242,1,82.5000031471254,6|8,0:0|0:0,0:0:0:0:
222,245,104804,2,0,P|184:227|222:242,1,110,6|8,0:0|0:0,0:0:0:0:
188,344,104924,5,2,0:0:0:0:
228,348,104984,1,8,0:0:0:0:
269,353,105044,1,2,0:0:0:0:
310,358,105104,1,8,0:0:0:0:
351,363,105164,6,0,P|379:349|350:360,1,82.5000031471254,6|8,0:0|0:0,0:0:0:0:
347,365,105284,2,0,P|384:347|346:362,1,110,6|8,0:0|0:0,0:0:0:0:
434,253,105404,5,8,0:0:0:0:
431,198,105464,1,8,0:0:0:0:
429,143,105524,1,8,0:0:0:0:
420,149,105584,1,2,0:0:0:0:
412,156,105644,5,4,0:0:0:0:
512,179,105764,1,6,0:0:0:0:
319,131,105884,1,8,0:0:0:0:
320,158,105944,1,8,0:0:0:0:
322,185,106004,1,4,0:0:0:0:
323,213,106064,1,4,0:0:0:0:
325,240,106124,5,4,0:0:0:0:
420,265,106244,1,4,0:0:0:0:
227,217,106364,1,8,0:0:0:0:
228,244,106424,1,8,0:0:0:0:
230,271,106484,1,4,0:0:0:0:
231,299,106544,1,4,0:0:0:0:
233,326,106604,5,4,0:0:0:0:
328,351,106724,1,6,0:0:0:0:
320,158,106844,5,2,0:0:0:0:
328,351,106964,1,2,0:0:0:0:
390,229,107084,5,8,0:0:0:0:
415,180,107144,1,8,0:0:0:0:
411,125,107204,5,2,0:0:0:0:
408,152,107264,1,2,0:0:0:0:
405,179,107324,1,8,0:0:0:0:
402,207,107384,1,8,0:0:0:0:
400,234,107444,1,4,0:0:0:0:
397,261,107504,1,4,0:0:0:0:
394,289,107564,5,2,0:0:0:0:
487,231,107684,1,2,0:0:0:0:
320,158,107804,5,2,0:0:0:0:
489,328,107924,1,2,0:0:0:0:
274,249,108044,5,2,0:0:0:0:
247,229,108104,1,8,0:0:0:0:
229,201,108164,1,2,0:0:0:0:
220,170,108224,1,8,0:0:0:0:
222,137,108284,1,2,0:0:0:0:
234,106,108344,1,8,0:0:0:0:
255,81,108404,1,2,0:0:0:0:
284,64,108464,1,8,0:0:0:0:
316,57,108524,5,2,0:0:0:0:
132,94,108644,1,2,0:0:0:0:
320,158,108764,5,2,0:0:0:0:
176,4,108884,1,2,0:0:0:0:
241,229,109004,5,2,0:0:0:0:
266,249,109064,1,8,0:0:0:0:
297,261,109124,1,2,0:0:0:0:
330,263,109184,1,8,0:0:0:0:
361,255,109244,1,2,0:0:0:0:
389,237,109304,1,8,0:0:0:0:
410,212,109364,1,2,0:0:0:0:
422,181,109424,1,8,0:0:0:0:
425,149,109484,5,2,0:0:0:0:
512,229,109604,1,2,0:0:0:0:
320,158,109724,5,2,0:0:0:0:
512,229,109844,1,2,0:0:0:0:
266,249,109964,5,2,0:0:0:0:
240,227,110024,1,8,0:0:0:0:
223,199,110084,1,2,0:0:0:0:
215,167,110144,1,8,0:0:0:0:
218,135,110204,1,2,0:0:0:0:
230,104,110264,1,8,0:0:0:0:
251,79,110324,1,2,0:0:0:0:
279,62,110384,1,8,0:0:0:0:
311,54,110444,5,8,0:0:0:0:
308,109,110504,1,8,0:0:0:0:
305,164,110564,1,8,0:0:0:0:
301,219,110624,1,8,0:0:0:0:
298,274,110684,5,8,0:0:0:0:
325,270,110744,1,8,0:0:0:0:
352,266,110804,1,4,0:0:0:0:
380,262,110864,1,4,0:0:0:0:
384,210,110924,5,2,0:0:0:0:
397,219,110984,1,2,0:0:0:0:
411,228,111044,1,2,0:0:0:0:
425,237,111104,1,2,0:0:0:0:
451,214,111164,5,2,0:0:0:0:
457,228,111224,1,2,0:0:0:0:
464,243,111284,1,2,0:0:0:0:
471,258,111344,1,2,0:0:0:0:
453,324,111404,5,6,0:0:0:0:
486,128,111524,1,8,0:0:0:0:
88,353,111644,5,6,0:0:0:0:
55,157,111764,1,8,0:0:0:0:
256,191,111884,5,2,0:0:0:0:
256,191,112004,1,8,0:0:0:0:
174,206,112124,5,2,0:0:0:0:
336,179,112244,1,8,0:0:0:0:
121,60,112364,5,6,0:0:0:0:
85,254,112484,1,8,0:0:0:0:
414,101,112604,5,6,0:0:0:0:
450,295,112724,1,8,0:0:0:0:
256,191,112844,5,2,0:0:0:0:
256,191,112964,1,8,0:0:0:0:
215,122,113084,5,2,0:0:0:0:
296,265,113204,1,8,0:0:0:0:
121,60,113324,5,6,0:0:0:0:
310,4,113444,1,8,0:0:0:0:
100,300,113564,5,6,0:0:0:0:
289,356,113684,1,8,0:0:0:0:
256,191,113804,5,2,0:0:0:0:
256,191,113924,1,8,0:0:0:0:
318,134,114044,5,2,0:0:0:0:
196,245,114164,1,8,0:0:0:0:
415,205,114284,5,6,0:0:0:0:
360,14,114404,1,8,0:0:0:0:
102,275,114524,5,6,0:0:0:0:
157,84,114644,1,8,0:0:0:0:
256,191,114764,5,2,0:0:0:0:
256,191,114884,1,8,0:0:0:0:
335,215,115004,5,2,0:0:0:0:
177,167,115124,1,8,0:0:0:0:
197,273,115244,5,2,0:0:0:0:
205,294,115304,1,2,0:0:0:0:
203,316,115364,1,2,0:0:0:0:
190,335,115424,1,2,0:0:0:0:
177,307,115484,5,2,0:0:0:0:
164,325,115544,1,2,0:0:0:0:
162,348,115604,1,2,0:0:0:0:
171,369,115664,1,0,0:0:0:0:
189,380,115724,5,12,0:0:0:0:
67,318,115844,1,2,0:0:0:0:
129,195,115964,1,8,0:0:0:0:
253,257,116084,1,2,0:0:0:0:
77,301,116204,5,12,0:0:0:0:
25,143,116324,1,2,0:0:0:0:
182,92,116444,1,8,0:0:0:0:
235,250,116564,1,2,0:0:0:0:
0,238,116684,5,12,0:0:0:0:
88,59,116804,1,2,0:0:0:0:
266,149,116924,1,8,0:0:0:0:
176,327,117044,1,2,0:0:0:0:
124,144,117164,5,10,0:0:0:0:
122,165,117224,1,2,0:0:0:0:
121,187,117284,1,2,0:0:0:0:
120,209,117344,1,2,0:0:0:0:
100,200,117404,5,10,0:0:0:0:
101,221,117464,1,2,0:0:0:0:
102,243,117524,1,2,0:0:0:0:
103,265,117584,1,2,0:0:0:0:
84,253,117644,5,12,0:0:0:0:
174,115,117764,1,2,0:0:0:0:
312,207,117884,1,8,0:0:0:0:
218,346,118004,1,2,0:0:0:0:
193,130,118124,5,12,0:0:0:0:
386,92,118244,1,2,0:0:0:0:
424,287,118364,1,8,0:0:0:0:
230,326,118484,1,2,0:0:0:0:
277,44,118604,5,12,0:0:0:0:
473,175,118724,1,2,0:0:0:0:
340,373,118844,1,8,0:0:0:0:
142,241,118964,1,2,0:0:0:0:
231,165,119084,6,0,B|249:245|249:245|228:334,1,165.000006294251,6|0,0:0|0:0,0:0:0:0:
365,60,119264,5,0,0:0:0:0:
368,47,119324,2,0,B|350:127|350:127|371:216,1,165.000006294251,6|0,0:0|0:0,0:0:0:0:
445,180,119564,6,0,L|430:120,1,55,2|8,0:0|0:0,0:0:0:0:
277,90,119684,2,0,L|291:30,1,55,2|8,0:0|0:0,0:0:0:0:
437,179,119804,6,0,L|424:125,1,49.4999984893799,2|8,0:0|0:0,0:0:0:0:
284,93,119924,2,0,L|296:39,1,49.4999984893799,2|8,0:0|0:0,0:0:0:0:
427,178,120044,6,0,L|412:118,1,44,2|8,0:0|0:0,0:0:0:0:
253,209,120164,2,0,L|242:148,1,44,2|8,0:0|0:0,0:0:0:0:
419,177,120284,6,0,L|406:123,1,38.4999988250733,2|8,0:0|0:0,0:0:0:0:
260,209,120404,2,0,L|250:154,1,38.4999988250733,2|8,0:0|0:0,0:0:0:0:
411,176,120524,6,0,L|399:128,1,32.99999899292,2|8,0:0|0:0,0:0:0:0:
298,320,120644,2,0,L|273:282,1,32.99999899292,2|8,0:0|0:0,0:0:0:0:
404,175,120764,6,0,L|393:131,1,27.5,2|8,0:0|0:0,0:0:0:0:
302,318,120884,2,0,L|280:284,1,27.5,2|8,0:0|0:0,0:0:0:0:
452,343,121004,5,10,0:0:0:0:
467,314,121064,1,2,0:0:0:0:
470,281,121124,1,2,0:0:0:0:
460,250,121184,1,2,0:0:0:0:
429,217,121244,5,10,0:0:0:0:
414,188,121304,1,2,0:0:0:0:
411,155,121364,1,2,0:0:0:0:
421,124,121424,1,2,0:0:0:0:
452,93,121484,5,10,0:0:0:0:
459,62,121544,1,2,0:0:0:0:
445,33,121604,1,2,0:0:0:0:
416,19,121664,1,2,0:0:0:0:
375,37,121724,5,10,0:0:0:0:
368,68,121784,1,2,0:0:0:0:
382,97,121844,1,2,0:0:0:0:
411,111,121904,1,2,0:0:0:0:
454,102,121964,5,8,0:0:0:0:
451,156,122024,1,8,0:0:0:0:
449,211,122084,1,8,0:0:0:0:
447,266,122144,1,8,0:0:0:0:
445,321,122204,5,2,0:0:0:0:
449,317,122264,1,2,0:0:0:0:
452,312,122324,1,2,0:0:0:0:
455,307,122384,1,2,0:0:0:0:
458,302,122444,6,0,L|440:308,1,13.75,2|2,0:0|0:0,0:0:0:0:
235,354,122564,2,0,L|217:360,1,13.75,2|2,0:0|0:0,0:0:0:0:
368,68,122684,6,0,L|347:113,1,41.2500015735627,8|2,0:0|0:0,0:0:0:0:
235,354,122804,2,0,L|214:399,1,27.5,2|2,0:0|0:0,0:0:0:0:
275,156,122924,6,0,L|282:177,1,13.75,2|8,0:0|0:0,0:0:0:0:
323,270,123044,2,0,L|330:291,1,13.75,2|8,0:0|0:0,0:0:0:0:
376,182,123164,6,0,L|361:189,1,13.75,2|8,0:0|0:0,0:0:0:0:
222,246,123284,2,0,L|207:253,1,13.75,2|8,0:0|0:0,0:0:0:0:
306,127,123404,6,0,L|305:150,1,13.75,2|8,0:0|0:0,0:0:0:0:
296,299,123524,2,0,L|295:322,1,13.75,2|8,0:0|0:0,0:0:0:0:
300,124,123644,6,0,L|300:147,1,13.75,2|8,0:0|0:0,0:0:0:0:
302,297,123764,2,0,L|302:320,1,13.75,2|8,0:0|0:0,0:0:0:0:
402,221,123884,6,0,L|377:221,1,13.75,2|8,0:0|0:0,0:0:0:0:
195,209,124004,2,0,L|170:209,1,13.75,2|8,0:0|0:0,0:0:0:0:
403,214,124124,6,0,L|378:215,1,13.75,2|8,0:0|0:0,0:0:0:0:
196,217,124244,2,0,L|171:218,1,13.75,2|8,0:0|0:0,0:0:0:0:
302,216,124364,6,0,L|277:222,1,13.75,2|8,0:0|0:0,0:0:0:0:
98,257,124484,2,0,L|73:263,1,13.75,2|8,0:0|0:0,0:0:0:0:
301,208,124604,6,0,L|277:216,1,13.75,2|8,0:0|0:0,0:0:0:0:
101,265,124724,2,0,L|77:273,1,13.75,2|8,0:0|0:0,0:0:0:0:
196,217,124844,6,0,L|201:239,1,13.75,2|8,0:0|0:0,0:0:0:0:
222,318,124964,2,0,L|225:331,1,13.75,2|8,0:0|0:0,0:0:0:0:
268,98,125084,6,0,L|259:144,1,41.2500015735627,2|8,0:0|0:0,0:0:0:0:
222,318,125204,2,0,L|213:364,1,41.2500015735627,2|8,0:0|0:0,0:0:0:0:
301,208,125324,6,0,L|284:210,1,13.75,2|8,0:0|0:0,0:0:0:0:
196,217,125444,2,0,L|182:218,1,13.75,2|8,0:0|0:0,0:0:0:0:
392,112,125564,5,8,0:0:0:0:
393,166,125624,1,8,0:0:0:0:
395,221,125684,1,8,0:0:0:0:
397,276,125744,1,8,0:0:0:0:
399,331,125804,6,0,L|381:333,1,13.75,2|2,0:0|0:0,0:0:0:0:
299,339,125924,2,0,L|281:341,1,13.75,2|2,0:0|0:0,0:0:0:0:
393,166,126044,6,0,L|371:207,1,41.2500015735627,2|2,0:0|0:0,0:0:0:0:
299,339,126164,2,0,L|279:375,1,41.2500015735627,2|2,0:0|0:0,0:0:0:0:
257,219,126284,5,8,0:0:0:0:
203,207,126344,1,8,0:0:0:0:
148,197,126404,5,4,0:0:0:0:
170,180,126464,1,4,0:0:0:0:
192,163,126524,5,8,0:0:0:0:
196,217,126584,1,8,0:0:0:0:
201,272,126644,1,8,0:0:0:0:
206,327,126704,1,8,0:0:0:0:
210,382,126764,6,0,L|231:372,1,13.75,2|8,0:0|0:0,0:0:0:0:
299,339,126884,2,0,L|320:329,1,13.75,2|8,0:0|0:0,0:0:0:0:
201,272,127004,5,8,0:0:0:0:
196,217,127064,1,8,0:0:0:0:
192,163,127124,1,8,0:0:0:0:
187,108,127184,1,8,0:0:0:0:
183,53,127244,6,0,L|195:47,1,13.75,2|8,0:0|0:0,0:0:0:0:
274,10,127364,2,0,L|286:4,1,13.75,2|8,0:0|0:0,0:0:0:0:
32,47,127484,5,8,0:0:0:0:
36,102,127544,1,8,0:0:0:0:
41,157,127604,1,8,0:0:0:0:
46,212,127664,1,8,0:0:0:0:
51,267,127724,5,2,0:0:0:0:
54,265,127784,1,2,0:0:0:0:
57,264,127844,1,2,0:0:0:0:
61,263,127904,1,2,0:0:0:0:
64,261,127964,1,2,0:0:0:0:
67,260,128024,1,2,0:0:0:0:
71,259,128084,1,2,0:0:0:0:
74,258,128144,1,2,0:0:0:0:
77,257,128204,6,0,L|65:198,3,55,8|2|2|2,0:0|0:0|0:0|0:0,0:0:0:0:
211,181,128444,6,0,L|223:122,3,55,8|2|2|2,0:0|0:0|0:0|0:0,0:0:0:0:
85,256,128684,6,0,L|73:197,1,55,8|2,0:0|0:0,0:0:0:0:
203,182,128804,2,0,L|215:123,1,55,8|2,0:0|0:0,0:0:0:0:
175,314,128924,6,0,L|163:255,1,55,8|2,0:0|0:0,0:0:0:0:
133,104,129044,2,0,L|145:45,1,55,8|2,0:0|0:0,0:0:0:0:
81,250,129164,6,0,L|74:190,1,55,8|2,0:0|0:0,0:0:0:0:
205,186,129284,2,0,L|222:129,1,55,8|2,0:0|0:0,0:0:0:0:
166,315,129404,6,0,L|159:256,1,55,8|2,0:0|0:0,0:0:0:0:
142,103,129524,2,0,L|159:45,1,55,8|2,0:0|0:0,0:0:0:0:
91,218,129644,5,8,0:0:0:0:
145,213,129704,1,8,0:0:0:0:
200,208,129764,1,8,0:0:0:0:
255,203,129824,1,8,0:0:0:0:
310,198,129884,5,8,0:0:0:0:
285,186,129944,1,8,0:0:0:0:
257,187,130004,1,4,0:0:0:0:
233,200,130064,1,4,0:0:0:0:
217,222,130124,5,6,0:0:0:0:
218,216,130184,1,6,0:0:0:0:
219,210,130244,1,6,0:0:0:0:
220,204,130304,1,6,0:0:0:0:
221,198,130364,5,8,0:0:0:0:
512,313,130484,1,8,0:0:0:0:
445,8,130604,5,6,0:0:0:0:
445,8,130844,5,2,0:0:0:0:
445,8,130964,2,4,L|452:78,1,55,2|4,0:0|0:0,0:0:0:0:
329,81,131204,5,2,0:0:0:0:
329,81,131324,2,0,L|322:151,1,55,2|0,0:0|0:0,0:0:0:0:
260,216,131564,6,0,B|225:170|225:170|229:100,1,110,8|2,0:0|0:0,0:0:0:0:
395,1,131804,2,0,B|430:47|430:47|426:117,1,110,2|2,0:0|0:0,0:0:0:0:
329,81,132044,5,2,0:0:0:0:
342,156,132164,1,2,0:0:0:0:
356,232,132284,1,2,0:0:0:0:
370,308,132404,1,2,0:0:0:0:
320,91,132524,5,6,0:0:0:0:
324,118,132584,1,2,0:0:0:0:
329,145,132644,1,2,0:0:0:0:
334,172,132704,1,2,0:0:0:0:
339,199,132764,1,2,0:0:0:0:
344,226,132824,1,2,0:0:0:0:
349,253,132884,1,2,0:0:0:0:
354,280,132944,1,2,0:0:0:0:
359,307,133004,5,2,0:0:0:0:
358,296,133064,1,2,0:0:0:0:
354,286,133124,1,2,0:0:0:0:
347,278,133184,1,2,0:0:0:0:
337,274,133244,1,2,0:0:0:0:
326,273,133304,1,2,0:0:0:0:
316,276,133364,1,2,0:0:0:0:
307,283,133424,1,2,0:0:0:0:
302,293,133484,5,14,0:0:0:0:
321,294,133544,1,2,0:0:0:0:
337,284,133604,1,2,0:0:0:0:
346,268,133664,1,2,0:0:0:0:
344,249,133724,1,2,0:0:0:0:
331,234,133784,1,2,0:0:0:0:
313,229,133844,1,2,0:0:0:0:
295,234,133904,1,2,0:0:0:0:
283,249,133964,5,2,0:0:0:0:
306,263,134024,1,2,0:0:0:0:
333,262,134084,1,2,0:0:0:0:
354,245,134144,1,2,0:0:0:0:
362,219,134204,1,2,0:0:0:0:
353,193,134264,1,2,0:0:0:0:
331,178,134324,1,2,0:0:0:0:
304,178,134384,1,2,0:0:0:0:
282,193,134444,5,6,0:0:0:0:
282,193,134684,5,2,0:0:0:0:
272,269,134804,1,2,0:0:0:0:
271,201,135044,5,2,0:0:0:0:
261,276,135164,1,2,0:0:0:0:
378,104,135404,6,0,B|351:129|351:129|364:226,1,110,8|2,0:0|0:0,0:0:0:0:
158,147,135644,2,0,B|185:172|185:172|172:269,1,110,2|2,0:0|0:0,0:0:0:0:
251,49,135884,5,2,0:0:0:0:
261,125,136004,1,2,0:0:0:0:
271,201,136124,1,2,0:0:0:0:
282,277,136244,1,2,0:0:0:0:
228,37,136364,5,6,0:0:0:0:
232,69,136424,1,2,0:0:0:0:
236,102,136484,1,2,0:0:0:0:
241,135,136544,1,2,0:0:0:0:
245,167,136604,1,2,0:0:0:0:
249,200,136664,1,2,0:0:0:0:
254,233,136724,1,2,0:0:0:0:
258,265,136784,1,2,0:0:0:0:
263,298,136844,5,2,0:0:0:0:
247,293,136904,1,2,0:0:0:0:
233,283,136964,1,2,0:0:0:0:
225,268,137024,1,2,0:0:0:0:
227,251,137084,1,2,0:0:0:0:
236,239,137144,1,2,0:0:0:0:
252,233,137204,1,2,0:0:0:0:
268,235,137264,1,2,0:0:0:0:
280,245,137324,5,14,0:0:0:0:
262,262,137384,1,2,0:0:0:0:
238,262,137444,1,2,0:0:0:0:
217,251,137504,1,2,0:0:0:0:
209,228,137564,1,2,0:0:0:0:
215,204,137624,1,2,0:0:0:0:
235,189,137684,1,2,0:0:0:0:
260,189,137744,1,2,0:0:0:0:
279,204,137804,5,2,0:0:0:0:
256,229,137864,1,2,0:0:0:0:
224,233,137924,1,2,0:0:0:0:
196,217,137984,1,2,0:0:0:0:
184,187,138044,1,2,0:0:0:0:
192,156,138104,1,2,0:0:0:0:
219,136,138164,1,2,0:0:0:0:
251,138,138224,1,2,0:0:0:0:
275,159,138284,6,0,L|264:61,1,82.5000031471254,12|2,0:0|0:0,0:0:0:0:
357,99,138524,5,2,0:0:0:0:
357,99,138644,1,2,0:0:0:0:
183,48,138764,5,8,0:0:0:0:
183,48,138884,1,2,0:0:0:0:
192,156,139004,5,2,0:0:0:0:
192,156,139124,1,2,0:0:0:0:
84,128,139244,6,0,B|86:188|86:188|132:260,1,110,8|2,0:0|0:0,0:0:0:0:
303,181,139484,5,2,0:0:0:0:
302,153,139544,1,2,0:0:0:0:
301,126,139604,1,2,0:0:0:0:
288,102,139664,1,2,0:0:0:0:
274,78,139724,5,8,0:0:0:0:
282,165,139844,1,2,0:0:0:0:
291,253,139964,1,2,0:0:0:0:
300,340,140084,1,2,0:0:0:0:
253,57,140204,5,6,0:0:0:0:
256,95,140264,1,2,0:0:0:0:
260,133,140324,1,2,0:0:0:0:
264,171,140384,1,2,0:0:0:0:
268,210,140444,1,2,0:0:0:0:
272,248,140504,1,2,0:0:0:0:
276,286,140564,1,2,0:0:0:0:
280,325,140624,1,2,0:0:0:0:
284,363,140684,5,14,0:0:0:0:
262,361,140744,1,2,0:0:0:0:
245,348,140804,1,2,0:0:0:0:
238,327,140864,1,2,0:0:0:0:
244,306,140924,1,2,0:0:0:0:
261,293,140984,1,2,0:0:0:0:
283,291,141044,1,2,0:0:0:0:
301,301,141104,1,2,0:0:0:0:
311,320,141164,5,14,0:0:0:0:
282,327,141224,1,2,0:0:0:0:
254,317,141284,1,2,0:0:0:0:
238,292,141344,1,2,0:0:0:0:
238,262,141404,1,2,0:0:0:0:
256,238,141464,1,2,0:0:0:0:
284,229,141524,1,2,0:0:0:0:
312,236,141584,1,2,0:0:0:0:
331,259,141644,5,14,0:0:0:0:
301,281,141704,1,2,0:0:0:0:
263,277,141764,1,2,0:0:0:0:
237,250,141824,1,2,0:0:0:0:
236,212,141884,1,2,0:0:0:0:
260,183,141944,1,2,0:0:0:0:
297,177,142004,1,2,0:0:0:0:
329,197,142064,1,2,0:0:0:0:
339,234,142124,5,6,0:0:0:0:
339,234,142364,5,0,0:0:0:0:
324,158,142484,1,2,0:0:0:0:
349,228,142724,5,2,0:0:0:0:
334,152,142844,1,2,0:0:0:0:
202,146,143084,6,0,B|232:125|232:125|250:235,1,110,8|2,0:0|0:0,0:0:0:0:
483,196,143324,2,0,B|453:175|453:175|435:285,1,110,2|2,0:0|0:0,0:0:0:0:
321,77,143564,5,2,0:0:0:0:
334,152,143684,1,2,0:0:0:0:
348,228,143804,1,2,0:0:0:0:
361,304,143924,1,2,0:0:0:0:
295,62,144044,5,6,0:0:0:0:
300,94,144104,1,2,0:0:0:0:
306,127,144164,1,2,0:0:0:0:
311,159,144224,1,2,0:0:0:0:
317,192,144284,1,2,0:0:0:0:
323,224,144344,1,2,0:0:0:0:
328,257,144404,1,2,0:0:0:0:
334,289,144464,1,2,0:0:0:0:
340,322,144524,5,2,0:0:0:0:
324,318,144584,1,2,0:0:0:0:
311,308,144644,1,2,0:0:0:0:
303,293,144704,1,2,0:0:0:0:
302,277,144764,1,2,0:0:0:0:
308,262,144824,1,2,0:0:0:0:
320,250,144884,1,2,0:0:0:0:
335,245,144944,1,2,0:0:0:0:
351,247,145004,5,14,0:0:0:0:
350,271,145064,1,2,0:0:0:0:
336,290,145124,1,2,0:0:0:0:
313,298,145184,1,2,0:0:0:0:
289,292,145244,1,2,0:0:0:0:
274,273,145304,1,2,0:0:0:0:
271,248,145364,1,2,0:0:0:0:
283,227,145424,1,2,0:0:0:0:
305,216,145484,5,2,0:0:0:0:
313,248,145544,1,2,0:0:0:0:
300,278,145604,1,2,0:0:0:0:
271,293,145664,1,2,0:0:0:0:
240,287,145724,1,2,0:0:0:0:
218,263,145784,1,2,0:0:0:0:
215,231,145844,1,2,0:0:0:0:
233,204,145904,1,2,0:0:0:0:
264,194,145964,6,0,L|198:185,7,55,2|0|0|0|0|0|0|0,0:0|0:0|0:0|0:0|0:0|0:0|0:0|0:0,0:0:0:0:
409,234,146444,6,0,L|475:224,7,55,2|0|0|0|0|0|0|0,0:0|0:0|0:0|0:0|0:0|0:0|0:0|0:0,0:0:0:0:
341,334,146924,5,8,0:0:0:0:
340,328,146984,1,8,0:0:0:0:
339,322,147044,2,0,L|377:317,1,27.5,2|2,0:0|0:0,0:0:0:0:
233,296,147164,5,8,0:0:0:0:
234,290,147224,1,8,0:0:0:0:
235,284,147284,2,0,L|197:279,1,27.5,2|2,0:0|0:0,0:0:0:0:
305,218,147404,5,8,0:0:0:0:
304,212,147464,1,8,0:0:0:0:
303,207,147524,1,4,0:0:0:0:
302,201,147584,1,4,0:0:0:0:
301,196,147644,5,2,0:0:0:0:
301,196,147884,5,6,0:0:0:0:
301,196,148004,1,2,0:0:0:0:
220,163,148124,5,6,0:0:0:0:
220,163,148244,1,2,0:0:0:0:
372,145,148364,5,6,0:0:0:0:
372,145,148484,1,2,0:0:0:0:
149,214,148604,5,6,0:0:0:0:
149,214,148724,1,2,0:0:0:0:
450,186,148844,6,0,L|446:240,1,55,6|2,0:0|0:0,0:0:0:0:
386,330,149084,1,6,0:0:0:0:
380,328,149144,1,4,0:0:0:0:
374,327,149204,1,6,0:0:0:0:
368,327,149264,1,4,0:0:0:0:
362,328,149324,2,0,L|365:273,1,55,6|2,0:0|0:0,0:0:0:0:
372,145,149564,1,2,0:0:0:0:
298,203,149684,1,6,0:0:0:0:
293,199,149744,1,4,0:0:0:0:
288,195,149804,2,0,L|285:250,1,55,6|2,0:0|0:0,0:0:0:0:
210,318,150044,6,0,B|156:307|156:307|73:330,1,110,6|2,0:0|0:0,0:0:0:0:
157,380,150284,6,0,L|155:225,1,137.5,6|2,0:0|0:0,0:0:0:0:
176,201,150524,6,0,P|109:226|150:285,1,165.000006294251,6|2,0:0|0:0,0:0:0:0:
285,249,150764,6,0,B|349:264|406:332|406:332|239:149|564:172|432:65|433:-52|302:14,1,577.500022029878,12|0,0:0|0:0,0:0:0:0:
156,186,151244,6,0,B|124:185|62:134|0:162|0:162|33:28|182:322|374:61,1,577.500022029878,6|0,0:0|0:0,0:0:0:0:
471,69,151724,6,0,L|459:191,1,110,6|0,0:0|0:0,0:0:0:0:
469,270,151964,2,0,L|458:379,1,110,2|2,0:0|0:0,0:0:0:0:
384,225,152204,2,0,B|367:191|367:191|376:110,1,110,2|2,0:0|0:0,0:0:0:0:
285,176,152444,2,0,L|274:285,1,110,2|2,0:0|0:0,0:0:0:0:
169,79,152684,6,0,B|186:130|186:130|177:201|177:201|218:297,1,165.000006294251,12|2,0:0|0:0,0:0:0:0:
285,176,152924,5,6,0:0:0:0:
285,176,153044,1,6,0:0:0:0:
82,144,153164,5,6,0:0:0:0:
82,144,153284,1,6,0:0:0:0:
273,62,153404,5,6,0:0:0:0:
273,62,153524,1,6,0:0:0:0:
100,262,153644,5,6,0:0:0:0:
102,267,153704,1,4,0:0:0:0:
104,272,153764,1,6,0:0:0:0:
106,277,153824,1,4,0:0:0:0:
108,282,153884,5,6,0:0:0:0:
199,309,154004,1,6,0:0:0:0:
174,187,154124,5,6,0:0:0:0:
199,309,154244,1,6,0:0:0:0:
291,108,154364,6,0,L|272:149,1,27.5,6|4,0:0|0:0,0:0:0:0:
199,309,154484,2,0,L|180:350,1,27.5,6|4,0:0|0:0,0:0:0:0:
343,193,154604,5,6,0:0:0:0:
199,309,154724,1,6,0:0:0:0:
361,277,154844,6,0,L|312:286,1,27.5,6|4,0:0|0:0,0:0:0:0:
199,309,154964,2,0,L|150:318,1,27.5,6|4,0:0|0:0,0:0:0:0:
343,364,155084,5,6,0:0:0:0:
199,309,155204,1,6,0:0:0:0:
341,273,155324,5,6,0:0:0:0:
346,274,155384,1,4,0:0:0:0:
351,275,155444,1,6,0:0:0:0:
356,276,155504,1,4,0:0:0:0:
361,277,155564,5,14,0:0:0:0:
361,277,155684,1,6,0:0:0:0:
264,236,155804,5,14,0:0:0:0:
264,236,155924,1,6,0:0:0:0:
446,217,156044,5,14,0:0:0:0:
446,217,156164,1,6,0:0:0:0:
199,309,156284,5,14,0:0:0:0:
199,309,156404,1,6,0:0:0:0:
507,145,156524,5,14,0:0:0:0:
507,145,156644,1,6,0:0:0:0:
421,128,156764,5,6,0:0:0:0:
418,122,156824,1,4,0:0:0:0:
415,116,156884,1,6,0:0:0:0:
412,110,156944,1,4,0:0:0:0:
409,104,157004,5,6,0:0:0:0:
446,217,157124,1,6,0:0:0:0:
304,120,157244,6,0,L|332:140,1,27.5,6|4,0:0|0:0,0:0:0:0:
446,217,157364,2,0,L|474:237,1,27.5,6|4,0:0|0:0,0:0:0:0:
289,217,157484,5,6,0:0:0:0:
446,217,157604,1,6,0:0:0:0:
62,81,157724,5,10,0:0:0:0:
62,81,157844,1,2,0:0:0:0:
360,2,157964,5,10,0:0:0:0:
360,2,158084,1,2,0:0:0:0:
144,380,158204,5,10,0:0:0:0:
144,380,158324,1,2,0:0:0:0:
440,298,158444,5,10,0:0:0:0:
441,297,158564,1,2,0:0:0:0:
442,296,158684,1,2,0:0:0:0:
443,295,158804,1,2,0:0:0:0:
62,81,158924,5,14,0:0:0:0:
61,80,159044,1,2,0:0:0:0:
60,79,159164,1,2,0:0:0:0:
59,78,159284,1,2,0:0:0:0:
216,250,159404,5,2,0:0:0:0:
256,64,159524,1,2,0:0:0:0:
330,177,159644,5,2,0:0:0:0:
256,64,159764,1,2,0:0:0:0:
211,226,159884,5,2,0:0:0:0:
250,39,160004,1,2,0:0:0:0:
324,153,160124,5,2,0:0:0:0:
250,39,160244,1,2,0:0:0:0:
208,287,160364,5,10,0:0:0:0:
256,64,160484,1,2,0:0:0:0:
345,199,160604,5,2,0:0:0:0:
256,64,160724,1,2,0:0:0:0:
214,320,160844,5,2,0:0:0:0:
261,95,160964,1,2,0:0:0:0:
350,231,161084,5,2,0:0:0:0:
261,95,161204,1,2,0:0:0:0:
229,303,161324,5,2,0:0:0:0:
267,120,161444,1,2,0:0:0:0:
341,233,161564,5,2,0:0:0:0:
267,120,161684,1,2,0:0:0:0:
263,227,161804,5,2,0:0:0:0:
267,120,161924,1,2,0:0:0:0:
201,171,162044,5,2,0:0:0:0:
267,120,162164,1,2,0:0:0:0:
17,220,162284,5,8,0:0:0:0:
267,120,162404,1,2,0:0:0:0:
194,296,162524,5,0,0:0:0:0:
267,120,162644,1,0,0:0:0:0:
307,232,162764,5,2,0:0:0:0:
307,232,162884,1,2,0:0:0:0:
368,160,163004,5,2,0:0:0:0:
392,276,163124,1,2,0:0:0:0:
475,120,163244,6,0,L|469:195,1,55,6|2,0:0|0:0,0:0:0:0:
475,120,163484,6,0,L|469:195,1,55,6|2,0:0|0:0,0:0:0:0:
475,120,163724,6,0,L|469:195,1,55,6|2,0:0|0:0,0:0:0:0:
475,120,163964,6,0,L|469:195,1,55,6|2,0:0|0:0,0:0:0:0:
399,55,164204,5,6,0:0:0:0:
399,55,164324,1,2,0:0:0:0:
321,139,164444,5,6,0:0:0:0:
315,137,164504,1,4,0:0:0:0:
309,135,164564,1,6,0:0:0:0:
303,133,164624,1,4,0:0:0:0:
297,130,164684,5,6,0:0:0:0:
271,57,164804,1,6,0:0:0:0:
272,201,164924,5,6,0:0:0:0:
266,199,164984,1,4,0:0:0:0:
260,197,165044,1,6,0:0:0:0:
254,195,165104,1,4,0:0:0:0:
248,192,165164,5,6,0:0:0:0:
221,119,165284,1,6,0:0:0:0:
173,179,165404,1,6,0:0:0:0:
273,280,165524,5,2,0:0:0:0:
200,253,165644,1,2,0:0:0:0:
213,328,165764,1,2,0:0:0:0:
260,197,165884,5,2,0:0:0:0:
260,197,166004,1,2,0:0:0:0:
446,314,166124,5,8,0:0:0:0:
446,314,166244,1,2,0:0:0:0:
416,243,166364,5,2,0:0:0:0:
416,243,166484,1,2,0:0:0:0:
398,382,166604,5,4,0:0:0:0:
398,382,166724,1,2,0:0:0:0:
368,311,166844,5,2,0:0:0:0:
368,311,166964,1,2,0:0:0:0:
212,354,167084,5,2,0:0:0:0:
212,354,167204,1,2,0:0:0:0:
160,297,167324,2,0,L|149:235,1,55,6|2,0:0|0:0,0:0:0:0:
219,209,167564,2,0,L|208:147,1,55,6|2,0:0|0:0,0:0:0:0:
251,90,167804,1,6,0:0:0:0:
288,157,167924,1,6,0:0:0:0:
156,98,168044,5,10,0:0:0:0:
137,172,168164,1,6,0:0:0:0:
209,154,168284,2,0,L|219:209,1,55,6|2,0:0|0:0,0:0:0:0:
150,242,168524,2,0,L|160:297,1,55,6|2,0:0|0:0,0:0:0:0:
232,322,168764,1,6,0:0:0:0:
231,327,168824,1,4,0:0:0:0:
230,332,168884,1,6,0:0:0:0:
229,337,168944,1,4,0:0:0:0:
228,342,169004,5,6,0:0:0:0:
237,357,169084,2,0,L|169:367,1,36.6666666666667
385,374,169244,6,0,L|453:364,2,36.6666666666667,6|0|0,0:0|0:0|0:0,0:0:0:0:
320,309,169484,5,2,0:0:0:0:
314,283,169564,1,0,0:0:0:0:
309,261,169644,1,0,0:0:0:0:
339,236,169724,5,6,0:0:0:0:
343,203,169804,1,0,0:0:0:0:
348,170,169884,1,0,0:0:0:0:
385,129,169964,5,10,0:0:0:0:
333,148,170044,1,0,0:0:0:0:
279,133,170124,1,0,0:0:0:0:
241,92,170204,5,6,0:0:0:0:
189,73,170284,1,0,0:0:0:0:
135,88,170364,1,0,0:0:0:0:
79,60,170444,5,6,0:0:0:0:
88,125,170524,1,0,0:0:0:0:
98,190,170604,1,0,0:0:0:0:
168,211,170684,5,2,0:0:0:0:
157,283,170764,1,0,0:0:0:0:
146,355,170844,1,0,0:0:0:0:
218,384,170924,6,0,L|286:374,1,55,2|2,0:0|0:0,0:0:0:0:
218,384,171164,6,0,L|286:374,1,55,6|2,0:0|0:0,0:0:0:0:
218,384,171404,6,0,L|286:374,1,55,6|2,0:0|0:0,0:0:0:0:
218,384,171644,6,0,L|286:374,1,55,6|2,0:0|0:0,0:0:0:0:
351,309,171884,5,6,0:0:0:0:
351,309,172004,1,2,0:0:0:0:
434,267,172124,5,6,0:0:0:0:
434,261,172184,1,4,0:0:0:0:
434,256,172244,1,6,0:0:0:0:
435,250,172304,1,4,0:0:0:0:
435,245,172364,5,6,0:0:0:0:
484,184,172484,1,6,0:0:0:0:
407,173,172604,5,6,0:0:0:0:
407,167,172664,1,4,0:0:0:0:
407,162,172724,1,6,0:0:0:0:
408,156,172784,1,4,0:0:0:0:
408,151,172844,5,6,0:0:0:0:
457,90,172964,1,6,0:0:0:0:
335,121,173084,5,2,0:0:0:0:
335,121,173204,1,2,0:0:0:0:
276,171,173324,5,2,0:0:0:0:
276,171,173444,1,2,0:0:0:0:
212,127,173564,5,2,0:0:0:0:
212,127,173684,1,2,0:0:0:0:
408,151,173804,5,10,0:0:0:0:
408,151,173924,1,2,0:0:0:0:
451,214,174044,5,2,0:0:0:0:
451,214,174164,1,2,0:0:0:0:
391,263,174284,5,2,0:0:0:0:
391,263,174404,1,2,0:0:0:0:
434,326,174524,5,2,0:0:0:0:
434,326,174644,1,2,0:0:0:0:
279,360,174764,5,2,0:0:0:0:
279,360,174884,1,2,0:0:0:0:
207,334,175004,5,2,0:0:0:0:
207,334,175124,1,2,0:0:0:0:
131,350,175244,6,0,L|52:343,1,55,2|2,0:0|0:0,0:0:0:0:
263,281,175484,6,0,L|348:273,1,82.5000031471254,6|2,0:0|0:0,0:0:0:0:
171,146,175724,6,0,B|179:235|179:235|161:300,1,110,10|2,0:0|0:0,0:0:0:0:
250,189,175964,5,6,0:0:0:0:
250,189,176084,1,2,0:0:0:0:
242,112,176204,5,2,0:0:0:0:
242,112,176324,1,2,0:0:0:0:
97,178,176444,5,6,0:0:0:0:
97,178,176564,1,2,0:0:0:0:
365,362,176684,6,0,B|399:328|495:322|495:322|314:281|208:317|208:317|172:289|172:289|120:323|16:304,1,577.500022029878,6|0,0:0|0:0,0:0:0:0:
97,178,177164,5,2,0:0:0:0:
97,178,177644,5,2,0:0:0:0:
406,189,177764,1,2,0:0:0:0:
406,189,178004,5,2,0:0:0:0:
97,178,178124,1,8,0:0:0:0:
185,91,178244,1,2,0:0:0:0:
148,265,178364,1,2,0:0:0:0:
37,92,178484,1,0,0:0:0:0:
238,211,178604,5,2,0:0:0:0:
277,149,178684,2,0,L|268:247,1,73.3333333333333
358,312,178844,5,2,0:0:0:0:
388,357,178924,2,0,L|381:266,1,55.0000020980836
439,130,179084,5,2,0:0:0:0:
436,113,179164,1,0,0:0:0:0:
433,96,179244,1,0,0:0:0:0:
472,49,179324,6,0,L|466:117,2,36.6666666666667,2|0|0,0:0|0:0|0:0,0:0:0:0:
344,68,179564,5,2,0:0:0:0:
338,67,179624,1,2,0:0:0:0:
332,66,179684,1,2,0:0:0:0:
326,65,179744,1,2,0:0:0:0:
320,64,179804,1,2,0:0:0:0:
314,63,179864,1,2,0:0:0:0:
275,57,179924,5,10,0:0:0:0:
315,273,180044,1,2,0:0:0:0:
151,238,180164,5,10,0:0:0:0:
367,198,180284,1,2,0:0:0:0:
332,367,180404,5,10,0:0:0:0:
292,151,180524,1,2,0:0:0:0:
459,182,180644,1,10,0:0:0:0:
427,86,180764,5,0,0:0:0:0:
402,282,180884,1,10,0:0:0:0:
366,34,181004,5,0,0:0:0:0:
402,282,181124,1,10,0:0:0:0:
158,226,181244,5,0,0:0:0:0:
459,182,181364,1,10,0:0:0:0:
80,159,181484,5,0,0:0:0:0:
412,110,181604,1,10,0:0:0:0:
177,364,181724,5,0,0:0:0:0:
136,85,181844,1,10,0:0:0:0:
59,305,181964,1,2,0:0:0:0:
429,253,182084,1,10,0:0:0:0:
0,253,182204,5,2,0:0:0:0:
473,188,182324,1,10,0:0:0:0:
133,151,182444,5,2,0:0:0:0:
134,152,182504,1,2,0:0:0:0:
135,153,182564,1,2,0:0:0:0:
136,154,182624,1,2,0:0:0:0:
137,155,182684,1,2,0:0:0:0:
138,156,182744,1,2,0:0:0:0:
139,157,182804,1,2,0:0:0:0:
140,158,182864,1,2,0:0:0:0:
92,130,182924,5,2,0:0:0:0:
132,115,182984,1,2,0:0:0:0:
175,116,183044,1,10,0:0:0:0:
214,131,183104,1,2,0:0:0:0:
259,162,183164,5,2,0:0:0:0:
310,181,183224,1,2,0:0:0:0:
364,178,183284,1,10,0:0:0:0:
413,160,183344,1,2,0:0:0:0:
471,104,183404,6,0,B|463:138|463:138|474:166|474:166|462:213,1,110,2|2,0:0|0:0,0:0:0:0:
141,231,183524,5,10,0:0:0:0:
147,238,183584,2,0,P|151:199|165:239,1,82.5000031471254,2|2,0:0|0:0,0:0:0:0:
418,372,183704,5,2,0:0:0:0:
422,364,183764,2,0,B|386:360|386:360|378:353|378:353|370:358|370:358|317:354,1,82.5000031471254,10|2,0:0|0:0,0:0:0:0:
118,362,183884,5,2,0:0:0:0:
128,360,183944,1,2,0:0:0:0:
139,359,184004,1,10,0:0:0:0:
150,357,184064,1,2,0:0:0:0:
161,356,184124,1,2,0:0:0:0:
172,354,184184,1,2,0:0:0:0:
183,353,184244,1,10,0:0:0:0:
194,351,184304,1,2,0:0:0:0:
205,350,184364,6,0,L|195:308,1,41.2500015735627,2|2,0:0|0:0,0:0:0:0:
155,128,184484,2,0,L|144:85,1,41.2500015735627,10|2,0:0|0:0,0:0:0:0:
167,221,184604,6,0,B|187:212|187:212|214:175,1,35.749998363495,2|2,0:0|0:0,0:0:0:0:
168,231,184724,2,0,B|188:222|188:222|215:185,1,35.749998363495,10|2,0:0|0:0,0:0:0:0:
211,345,184844,6,0,L|201:303,1,27.5,2|2,0:0|0:0,0:0:0:0:
161,123,184964,2,0,L|150:80,1,27.5,10|2,0:0|0:0,0:0:0:0:
181,218,185084,6,0,B|192:212|192:212|208:191,1,20.8999997448731,2|2,0:0|0:0,0:0:0:0:
182,224,185204,2,0,B|193:218|193:218|209:197,1,20.8999997448731,10|2,0:0|0:0,0:0:0:0:
282,133,185324,6,0,L|301:129,1,13.75,2|2,0:0|0:0,0:0:0:0:
381,165,185444,2,0,L|400:161,1,13.75,10|2,0:0|0:0,0:0:0:0:
303,249,185564,2,0,L|322:245,1,13.75,2|2,0:0|0:0,0:0:0:0:
401,281,185684,2,0,L|420:277,1,13.75,10|2,0:0|0:0,0:0:0:0:
275,126,185804,6,0,L|294:122,1,20.3500004968262,2|2,0:0|0:0,0:0:0:0:
374,158,185924,2,0,L|393:154,1,20.3500004968262,10|2,0:0|0:0,0:0:0:0:
296,242,186044,2,0,L|315:238,1,20.3500004968262,2|2,0:0|0:0,0:0:0:0:
394,274,186164,2,0,L|413:270,1,20.3500004968262,10|2,0:0|0:0,0:0:0:0:
103,376,186284,5,2,0:0:0:0:
277,354,186404,1,10,0:0:0:0:
85,244,186524,1,2,0:0:0:0:
295,366,186644,2,0,B|345:353|345:353|382:373|382:373|477:349,1,165.000006294251,10|2,0:0|0:0,0:0:0:0:
451,355,186884,1,10,0:0:0:0:
213,283,187004,5,2,0:0:0:0:
102,121,187124,1,10,0:0:0:0:
339,197,187244,1,2,0:0:0:0:
82,114,187364,2,0,B|66:175|66:175|81:228|81:228|58:299,1,181.500001730919,10|2,0:0|0:0,0:0:0:0:
61,288,187604,1,8,0:0:0:0:
295,366,187724,5,2,0:0:0:0:
477,252,187844,1,10,0:0:0:0:
185,195,187964,1,2,0:0:0:0:
502,256,188084,2,0,B|479:185|479:185|494:144|494:144|456:58,1,197.99999395752,10|2,0:0|0:0,0:0:0:0:
461,71,188324,1,10,0:0:0:0:
26,177,188444,5,2,0:0:0:0:
105,184,188524,1,0,0:0:0:0:
185,195,188604,1,0,0:0:0:0:
249,161,188684,5,2,0:0:0:0:
312,156,188764,1,0,0:0:0:0:
376,147,188844,1,0,0:0:0:0:
339,127,188924,5,2,0:0:0:0:
334,98,189004,1,0,0:0:0:0:
329,69,189084,1,0,0:0:0:0:
372,94,189164,5,2,0:0:0:0:
376,69,189244,1,0,0:0:0:0:
380,44,189324,1,0,0:0:0:0:
341,43,189404,6,0,L|332:0,2,29.3333333333333,2|0|0,0:0|0:0|0:0,0:0:0:0:
257,70,189644,5,2,0:0:0:0:
251,69,189704,1,2,0:0:0:0:
245,68,189764,1,2,0:0:0:0:
239,67,189824,1,2,0:0:0:0:
200,61,189884,5,10,0:0:0:0:
482,105,190004,1,10,0:0:0:0:
210,164,190124,6,0,L|220:227,1,55,2|2,0:0|0:0,0:0:0:0:
376,69,190244,2,0,L|366:132,1,55,10|2,0:0|0:0,0:0:0:0:
308,203,190364,5,2,0:0:0:0:
310,213,190424,1,2,0:0:0:0:
311,223,190484,2,0,L|321:286,1,55,10|2,0:0|0:0,0:0:0:0:
260,354,190604,6,0,B|245:333|245:333|240:294,1,55,2|2,0:0|0:0,0:0:0:0:
367,123,190724,2,0,B|381:143|381:143|387:183,1,55,10|2,0:0|0:0,0:0:0:0:
253,367,190844,6,0,B|237:344|237:344|231:300,1,71.4999967269899,2|2,0:0|0:0,0:0:0:0:
371,102,190964,2,0,B|387:125|387:125|393:168,1,71.4999967269899,10|2,0:0|0:0,0:0:0:0:
135,157,191084,6,0,B|99:156|99:156|80:165|80:165|34:162,1,96.2500009179115,2|2,0:0|0:0,0:0:0:0:
312,282,191204,5,10,0:0:0:0:
323,297,191264,2,0,L|304:183,1,96.2500009179115,2|2,0:0|0:0,0:0:0:0:
247,21,191384,5,2,0:0:0:0:
228,18,191444,2,0,P|227:55|204:26,1,96.2500009179115,10|2,0:0|0:0,0:0:0:0:
144,357,191564,5,2,0:0:0:0:
154,358,191624,1,2,0:0:0:0:
165,359,191684,1,10,0:0:0:0:
176,360,191744,1,2,0:0:0:0:
187,361,191804,1,2,0:0:0:0:
198,362,191864,1,2,0:0:0:0:
209,363,191924,1,2,0:0:0:0:
220,364,191984,1,2,0:0:0:0:
231,365,192044,6,0,B|261:346|261:346|171:338,1,110,2|8,0:0|0:0,0:0:0:0:
108,59,192164,2,0,B|78:78|78:78|168:86,1,110,2|8,0:0|0:0,0:0:0:0:
312,270,192284,6,0,B|274:267|274:267|269:262|269:262|259:266|259:266|219:263,1,96.2500009179115,2|8,0:0|0:0,0:0:0:0:
32,150,192404,2,0,B|71:154|71:154|76:159|76:159|86:155|86:155|126:158,1,96.2500009179115,2|8,0:0|0:0,0:0:0:0:
318,189,192524,6,0,B|252:184|252:184|267:176,1,82.5000031471254,2|8,0:0|0:0,0:0:0:0:
34,233,192644,2,0,B|99:237|99:237|84:245,1,82.5000031471254,2|8,0:0|0:0,0:0:0:0:
201,119,192764,6,0,P|224:103|193:94,1,68.75,2|8,0:0|0:0,0:0:0:0:
150,301,192884,2,0,P|127:317|158:326,1,68.75,2|8,0:0|0:0,0:0:0:0:
196,133,193004,6,0,P|216:120|190:112,1,55,2|8,0:0|0:0,0:0:0:0:
154,286,193124,2,0,P|134:299|160:307,1,55,2|8,0:0|0:0,0:0:0:0:
192,149,193244,6,0,P|207:138|187:132,1,41.2500015735627,2|8,0:0|0:0,0:0:0:0:
158,270,193364,2,0,P|143:281|163:287,1,41.2500015735627,2|8,0:0|0:0,0:0:0:0:
196,133,193484,6,0,P|216:120|190:112,1,55,2|8,0:0|0:0,0:0:0:0:
154,286,193604,2,0,P|134:299|160:307,1,55,2|8,0:0|0:0,0:0:0:0:
201,119,193724,6,0,P|224:103|193:94,1,68.75,2|8,0:0|0:0,0:0:0:0:
150,301,193844,2,0,P|127:317|158:326,1,68.75,2|8,0:0|0:0,0:0:0:0:
269,213,193964,5,2,0:0:0:0:
87,162,194084,1,2,0:0:0:0:
201,119,194204,5,2,0:0:0:0:
201,119,194324,1,2,0:0:0:0:
269,213,194444,5,2,0:0:0:0:
249,21,194564,1,2,0:0:0:0:
201,119,194684,5,2,0:0:0:0:
360,10,194804,1,2,0:0:0:0:
269,213,194924,5,10,0:0:0:0:
269,213,195044,1,2,0:0:0:0:
358,140,195164,5,2,0:0:0:0:
358,140,195284,1,2,0:0:0:0:
310,312,195404,5,2,0:0:0:0:
233,343,195524,1,2,0:0:0:0:
200,267,195644,5,2,0:0:0:0:
123,298,195764,1,2,0:0:0:0:
76,229,195884,5,2,0:0:0:0:
310,312,196004,1,2,0:0:0:0:
233,343,196124,5,2,0:0:0:0:
316,109,196244,1,2,0:0:0:0:
310,312,196364,5,10,0:0:0:0:
310,312,196484,1,2,0:0:0:0:
383,349,196604,5,2,0:0:0:0:
383,349,196724,1,2,0:0:0:0:
459,55,196844,5,10,0:0:0:0:
450,137,196964,1,2,0:0:0:0:
459,55,197084,5,2,0:0:0:0:
450,137,197204,1,2,0:0:0:0:
226,95,197324,5,2,0:0:0:0:
450,137,197444,1,10,0:0:0:0:
156,193,197564,5,10,0:0:0:0:
450,137,197684,1,2,0:0:0:0:
397,264,197804,5,2,0:0:0:0:
357,54,197924,1,2,0:0:0:0:
296,167,198044,5,2,0:0:0:0:
450,137,198164,1,2,0:0:0:0:
465,218,198284,5,2,0:0:0:0:
465,218,198404,1,2,0:0:0:0:
397,264,198524,5,2,0:0:0:0:
397,264,198644,1,2,0:0:0:0:
243,361,198764,5,10,0:0:0:0:
279,287,198884,1,2,0:0:0:0:
243,212,199004,5,2,0:0:0:0:
279,138,199124,1,2,0:0:0:0:
196,144,199244,5,2,0:0:0:0:
196,144,199364,1,2,0:0:0:0:
243,212,199484,5,2,0:0:0:0:
243,212,199604,1,2,0:0:0:0:
279,138,199724,5,2,0:0:0:0:
32,164,199844,1,2,0:0:0:0:
84,100,199964,5,2,0:0:0:0:
110,347,200084,1,2,0:0:0:0:
187,304,200204,5,2,0:0:0:0:
214,308,200284,1,0,0:0:0:0:
241,312,200364,1,0,0:0:0:0:
286,340,200444,5,2,0:0:0:0:
273,286,200524,1,0,0:0:0:0:
297,236,200604,1,0,0:0:0:0:
373,248,200684,5,10,0:0:0:0:
355,176,200764,1,0,0:0:0:0:
337,104,200844,1,0,0:0:0:0:
368,27,200924,5,0,0:0:0:0:
377,42,201004,2,0,B|426:32|426:32|409:84,1,91.6666666666667
446,155,201164,5,2,0:0:0:0:
452,156,201224,1,2,0:0:0:0:
458,157,201284,1,2,0:0:0:0:
464,158,201344,1,2,0:0:0:0:
503,164,201404,5,10,0:0:0:0:
221,120,201524,1,10,0:0:0:0:
298,219,201644,5,2,0:0:0:0:
304,215,201704,1,2,0:0:0:0:
337,190,201764,5,10,0:0:0:0:
334,231,201824,1,2,0:0:0:0:
331,272,201884,1,2,0:0:0:0:
328,313,201944,1,2,0:0:0:0:
365,294,202004,5,10,0:0:0:0:
362,252,202064,1,2,0:0:0:0:
359,211,202124,1,2,0:0:0:0:
356,170,202184,1,2,0:0:0:0:
385,141,202244,5,10,0:0:0:0:
382,154,202304,1,2,0:0:0:0:
379,167,202364,1,2,0:0:0:0:
376,180,202424,1,2,0:0:0:0:
404,209,202484,5,10,0:0:0:0:
349,210,202544,1,2,0:0:0:0:
294,212,202604,1,2,0:0:0:0:
239,214,202664,1,2,0:0:0:0:
201,196,202724,5,10,0:0:0:0:
159,193,202784,1,2,0:0:0:0:
118,191,202844,1,2,0:0:0:0:
77,188,202904,1,2,0:0:0:0:
46,216,202964,5,10,0:0:0:0:
42,202,203024,1,2,0:0:0:0:
37,188,203084,1,2,0:0:0:0:
33,174,203144,1,2,0:0:0:0:
24,133,203204,5,10,0:0:0:0:
25,174,203264,1,2,0:0:0:0:
26,215,203324,1,2,0:0:0:0:
27,256,203384,1,2,0:0:0:0:
53,288,203444,5,10,0:0:0:0:
49,329,203504,1,2,0:0:0:0:
44,370,203564,5,2,0:0:0:0:
314,319,203684,1,10,0:0:0:0:
253,384,203804,5,2,0:0:0:0:
202,114,203924,1,10,0:0:0:0:
312,186,204044,5,2,0:0:0:0:
122,222,204164,1,10,0:0:0:0:
360,254,204284,5,2,0:0:0:0:
107,301,204404,1,10,0:0:0:0:
314,319,204524,5,2,0:0:0:0:
253,384,204644,1,10,0:0:0:0:
312,186,204764,5,2,0:0:0:0:
253,384,204884,1,10,0:0:0:0:
275,53,205004,5,2,0:0:0:0:
253,384,205124,1,10,0:0:0:0:
484,57,205244,5,2,0:0:0:0:
253,384,205364,1,10,0:0:0:0:
357,342,205484,5,2,0:0:0:0:
358,341,205544,1,2,0:0:0:0:
359,340,205604,1,2,0:0:0:0:
360,339,205664,1,2,0:0:0:0:
361,338,205724,1,2,0:0:0:0:
362,337,205784,1,2,0:0:0:0:
363,336,205844,1,2,0:0:0:0:
364,335,205904,1,2,0:0:0:0:
365,334,205964,1,2,0:0:0:0:
366,333,206024,1,2,0:0:0:0:
406,325,206084,5,10,0:0:0:0:
374,298,206144,1,2,0:0:0:0:
335,287,206204,1,2,0:0:0:0:
294,291,206264,1,2,0:0:0:0:
243,312,206324,5,10,0:0:0:0:
200,315,206384,1,2,0:0:0:0:
161,305,206444,1,2,0:0:0:0:
129,280,206504,1,2,0:0:0:0:
106,229,206564,5,10,0:0:0:0:
135,257,206624,1,2,0:0:0:0:
173,273,206684,1,2,0:0:0:0:
214,272,206744,1,2,0:0:0:0:
266,256,206804,5,10,0:0:0:0:
305,244,206864,1,2,0:0:0:0:
346,247,206924,1,2,0:0:0:0:
384,264,206984,1,2,0:0:0:0:
446,304,207044,5,10,0:0:0:0:
445,303,207104,1,2,0:0:0:0:
444,302,207164,1,2,0:0:0:0:
443,301,207224,1,2,0:0:0:0:
442,300,207284,1,10,0:0:0:0:
441,299,207344,1,2,0:0:0:0:
512,273,207404,6,0,B|399:290|399:290|329:260|329:260|184:283,1,288.750002753735,2|0,0:0|0:0,0:0:0:0:
250,194,207644,6,0,L|331:182,1,68.75,2|10,0:0|0:0,0:0:0:0:
287,344,207764,2,0,L|218:354,1,68.75,2|10,0:0|0:0,0:0:0:0:
265,115,207884,6,0,L|346:103,1,68.75,2|10,0:0|0:0,0:0:0:0:
291,330,208004,2,0,L|222:340,1,68.75,2|10,0:0|0:0,0:0:0:0:
281,33,208124,6,0,L|362:21,1,68.75,2|10,0:0|0:0,0:0:0:0:
294,318,208244,2,0,L|225:328,1,68.75,2|10,0:0|0:0,0:0:0:0:
111,272,208364,5,2,0:0:0:0:
142,222,208424,1,10,0:0:0:0:
113,170,208484,1,2,0:0:0:0:
54,170,208544,1,10,0:0:0:0:
26,222,208604,5,2,0:0:0:0:
26,216,208664,1,10,0:0:0:0:
25,209,208724,1,2,0:0:0:0:
24,202,208784,1,10,0:0:0:0:
23,195,208844,5,2,0:0:0:0:
111,272,208964,2,0,L|107:250,1,13.75,2|2,0:0|0:0,0:0:0:0:
7,317,209084,2,0,L|3:295,1,13.75,2|2,0:0|0:0,0:0:0:0:
85,384,209204,2,0,L|81:362,1,13.75,2|2,0:0|0:0,0:0:0:0:
23,195,209324,5,2,0:0:0:0:
89,137,209579,1,0,0:0:0:0:
166,242,209834,6,0,B|222:244|246:216|246:216|307:229|307:229|358:206|451:238,1,275
467,285,210600,6,0,P|393:286|463:175,1,275
430,77,211366,6,0,B|373:83|373:83|303:63,2,110,2|0|0,0:0|0:0|0:0,0:0:0:0:
291,148,212132,6,0,B|234:142|234:142|164:162,2,110
235,56,212898,6,0,L|121:88,1,110
22,139,213409,5,2,0:0:0:0:
88,197,213664,1,0,0:0:0:0:
228,143,213919,6,0,B|267:133|267:133|293:140|293:140|362:127,2,110
300,54,214685,6,0,B|339:44|339:44|365:51|365:51|434:38,2,110
468,130,215451,6,0,B|483:176|483:176|482:196|482:196|497:245,2,110,2|0|0,0:0|0:0|0:0,0:0:0:0:
397,221,216217,6,0,B|414:275|414:275|406:344,2,110
485,173,216983,5,0,0:0:0:0:
485,173,217238,1,0,0:0:0:0:
410,52,217494,6,0,P|348:65|249:40,1,165,6|0,0:0|0:0,0:0:0:0:
410,52,218004,6,0,B|336:78|279:53|279:53|314:197|156:292|41:197|29:108|29:108|155:91|155:91|76:297,1,885.500016889573
82,280,220558,5,0,0:0:0:0:
56,182,221068,1,0,0:0:0:0:
238,241,221579,6,0,P|317:232|379:283,1,165,6|0,0:0|0:0,0:0:0:0:
238,241,222089,6,0,B|296:213|347:246|347:246|365:180|365:180|469:207|491:110|490:32|364:4|336:74|328:98|328:98|266:71|266:71|252:150|172:166,1,695.750013270379
144,49,223621,5,2,0:0:0:0:
13,119,224132,5,0,0:0:0:0:
57,195,224643,1,0,0:0:0:0:
37,281,225153,1,0,0:0:0:0:
192,325,225664,6,0,B|243:322|271:307|271:307|261:287|261:287|274:305|274:305|325:292|376:313|376:313|388:333|388:333|385:257|413:228|413:228|387:137|387:137|463:148|463:148|508:283|508:283|421:218|305:222|305:222|286:151,1,948.750018095971,6|0,0:0|0:0,0:0:0:0:
321,52,227706,5,2,0:0:0:0:
321,52,228728,1,0,0:0:0:0:
86,69,229749,5,6,0:0:0:0:
103,142,230004,1,0,0:0:0:0:
119,216,230260,1,0,0:0:0:0:
119,216,230770,5,0,0:0:0:0:
221,287,231281,5,0,0:0:0:0:
312,274,231536,1,0,0:0:0:0:
399,260,231792,1,2,0:0:0:0:
406,265,232558,5,0,0:0:0:0:
477,91,232813,5,0,0:0:0:0:
419,158,233323,1,0,0:0:0:0:
206,100,233834,6,0,P|253:189|188:293,1,214.49999018097,6|0,0:0|0:0,0:0:0:0:
206,100,234345,6,0,B|285:162|240:243|240:243|152:197|196:108|196:108|123:92|123:92|64:267|267:330|267:330|378:195|290:83|290:83|391:108,1,1072.49995090485
438,34,236387,5,0,0:0:0:0:
473,127,236898,1,0,0:0:0:0:
470,227,237409,1,0,0:0:0:0:
215,323,237919,6,0,B|177:289|177:289|189:91,1,226.050006381111,6|0,0:0|0:0,0:0:0:0:
215,323,238430,6,0,B|181:292|181:292|204:243|144:193|85:257|130:300|130:300|56:324|56:324|0:222|86:102|252:137|260:263|260:263|308:209|308:209|300:221|300:221|302:290|371:328,1,877.250026771546
464,212,239962,6,0,B|425:206|400:221|400:221|425:168|415:123|415:123|475:147|532:71|532:71|442:5|322:35|322:35|347:183,1,616,2|0,0:0|0:0,0:0:0:0:
443,308,240983,5,0,0:0:0:0:
366,299,241238,1,0,0:0:0:0:
231,351,241494,5,0,0:0:0:0:
308,360,241749,1,0,0:0:0:0:
77,225,242004,6,0,B|120:207|168:218|168:218|146:167|146:167|274:223|394:172,1,385,6|0,0:0|0:0,0:0:0:0:
470,145,243026,6,0,B|415:81|415:81|425:195|425:195|442:213|442:213|451:376,1,385
512,307,244047,6,0,B|477:264|408:263|366:323|366:323|317:278|256:296|256:296|224:288|224:288|129:297,1,385,2|0,0:0|0:0,0:0:0:0:
134,202,245068,6,0,P|140:315|211:223,1,275
182,76,245834,5,2,0:0:0:0:
182,76,246089,2,0,B|211:66|228:34|228:34|254:63|254:63|276:49|276:49|346:98|439:47,1,275,2|0,0:0|0:0,0:0:0:0:
481,128,246855,5,0,0:0:0:0:
481,128,246983,1,0,0:0:0:0:
481,128,247111,2,0,B|473:34|473:34|438:142|438:142|510:247|408:332|408:332|309:313|309:313|238:333|238:333|223:258|146:223|85:228|32:276,1,825
120,361,249153,5,8,0:0:0:0:
98,357,249281,1,4,0:0:0:0:
76,353,249409,1,4,0:0:0:0:
54,348,249536,1,4,0:0:0:0:
32,343,249664,1,4,0:0:0:0:
32,343,249919,1,4,0:0:0:0:
356,343,250175,6,0,B|383:297|383:297|436:276|436:276|471:207|433:138|366:115|316:129|271:179,1,385,6|0,0:0|0:0,0:0:0:0:
269,68,251196,6,0,B|312:116|312:116|292:256|292:256|222:232|174:288|172:353|225:389,1,423.500012924195
84,331,252217,6,0,B|34:302|34:302|244:339|244:339|324:291|324:291|481:322,1,461.999985900879,2|0,0:0|0:0,0:0:0:0:
489,335,253238,6,0,P|381:373|480:268,1,357.49998363495
448,47,254004,5,2,0:0:0:0:
448,47,254260,2,0,B|376:56|376:56|323:38|323:38|247:48|247:48|314:111|314:175|296:243|250:278|210:305|153:308|104:293|56:264|38:225|33:180|33:180|160:152|160:152|145:368|145:368|199:369|249:358|300:328|334:279,1,1237.50004720688,2|0,0:0|0:0,0:0:0:0:
457,367,256302,6,0,B|434:300|434:300|444:239|444:239|451:230|451:230|443:226|443:226|432:190|432:190|425:190|425:190|430:184|430:184|420:151|420:151|425:143|425:143|417:143|417:143|401:98|401:98|396:84|396:84|410:91|410:91|486:80,1,385,2|0,0:0|0:0,0:0:0:0:
311,187,257323,5,0,0:0:0:0:
276,81,257579,1,0,0:0:0:0:
311,187,257834,5,0,0:0:0:0:
276,81,258089,1,0,0:0:0:0:
69,136,258345,6,0,B|17:110|17:110|169:130|169:130|242:308|242:308|427:335,1,577.500022029878,6|0,0:0|0:0,0:0:0:0:
379,245,259366,6,0,B|396:370|396:370|306:224|306:224|331:190|347:162|344:118|335:86|315:58|291:31|258:20|215:18,1,577.500022029878,4|0,0:0|0:0,0:0:0:0:
214,140,260387,6,0,B|23:124|23:124|256:114|256:114|428:82,1,577.500022029878
496,32,261409,6,0,B|478:166|478:166|505:327|505:327|376:273|376:273|232:279,1,577.500022029878,4|0,0:0|0:0,0:0:0:0:
3,241,262430,6,0,B|45:337|45:337|60:173|60:173|14:25,1,412.500015735627,6|0,0:0|0:0,0:0:0:0:
149,78,263196,5,0,0:0:0:0:
149,78,263323,1,0,0:0:0:0:
149,78,263451,2,0,B|238:61|238:61|356:88|356:88|461:52|461:52|425:308,1,577.500022029878,4|0,0:0|0:0,0:0:0:0:
325,245,264472,5,0,0:0:0:0:
325,245,264600,1,0,0:0:0:0:
244,228,264728,5,0,0:0:0:0:
268,306,264855,1,0,0:0:0:0:
325,245,264983,5,0,0:0:0:0:
325,245,265111,1,0,0:0:0:0:
300,169,265238,5,0,0:0:0:0:
244,228,265365,1,0,0:0:0:0:
325,245,265494,5,0,0:0:0:0:
325,245,265622,1,0,0:0:0:0:
380,188,265749,5,0,0:0:0:0:
300,169,265876,1,0,0:0:0:0:
325,245,266004,5,0,0:0:0:0:
325,245,266132,1,0,0:0:0:0:
404,267,266260,5,0,0:0:0:0:
380,188,266387,1,0,0:0:0:0:
298,335,266515,6,0,B|340:374|340:374|239:353|239:353|45:383|45:383|111:148,1,577.500022029878,6|0,0:0|0:0,0:0:0:0:
157,35,267536,6,0,B|59:67|59:67|281:73|281:73|454:128|454:128|329:8,1,616,4|0,0:0|0:0,0:0:0:0:
167,149,268558,6,0,B|266:153|266:153|321:106|321:106|270:264|270:264|294:328|294:328|132:315|132:315|42:331,1,654.500012483597
154,245,269579,6,0,B|171:364|171:364|106:207|106:207|9:55|9:55|246:64,1,692.999978851319,4|0,0:0|0:0,0:0:0:0:
313,133,270600,6,0,B|403:139|403:139|489:94|489:94|452:129|420:170|413:224|434:275|458:309|477:339|526:355|526:355|385:307|385:307|286:340|286:340|94:281,2,880,6|4|0,0:0|0:0|0:0,0:0:0:0:
43,145,273664,6,0,B|67:195|69:227|69:227|125:185|56:41,1,220,6|0,0:0|0:0,0:0:0:0:
170,111,273919,5,4,0:0:0:0:
171,105,273983,1,4,0:0:0:0:
172,99,274047,1,4,0:0:0:0:
173,93,274111,1,4,0:0:0:0:
174,87,274175,1,4,0:0:0:0:
174,87,274430,1,6,0:0:0:0:
120,251,274685,5,6,0:0:0:0:
188,215,274941,1,2,0:0:0:0:
120,251,275196,5,2,0:0:0:0:
188,215,275323,1,2,0:0:0:0:
251,258,275451,1,2,0:0:0:0:
319,222,275579,1,2,0:0:0:0:
460,340,275706,5,14,0:0:0:0:
489,268,275962,1,2,0:0:0:0:
460,340,276217,5,2,0:0:0:0:
489,268,276345,1,2,0:0:0:0:
447,203,276472,1,2,0:0:0:0:
476,131,276600,1,2,0:0:0:0:
309,66,276728,5,6,0:0:0:0:
242,104,276983,1,2,0:0:0:0:
309,66,277238,5,2,0:0:0:0:
242,104,277366,1,2,0:0:0:0:
176,62,277494,1,2,0:0:0:0:
109,100,277621,1,2,0:0:0:0:
134,299,277749,5,14,0:0:0:0:
202,334,278004,1,2,0:0:0:0:
267,293,278260,5,2,0:0:0:0:
271,256,278345,1,0,0:0:0:0:
275,219,278430,1,0,0:0:0:0:
315,194,278515,5,2,0:0:0:0:
358,214,278600,1,0,0:0:0:0:
355,166,278685,1,0,0:0:0:0:
312,146,278770,5,6,0:0:0:0:
241,92,279026,1,2,0:0:0:0:
312,146,279281,5,2,0:0:0:0:
241,92,279409,1,2,0:0:0:0:
167,139,279536,1,2,0:0:0:0:
96,85,279664,1,2,0:0:0:0:
84,319,279792,5,10,0:0:0:0:
168,295,280047,1,2,0:0:0:0:
84,319,280302,5,2,0:0:0:0:
168,295,280430,1,2,0:0:0:0:
246,333,280558,1,2,0:0:0:0:
330,309,280686,1,2,0:0:0:0:
417,88,280813,5,4,0:0:0:0:
401,99,280876,1,4,0:0:0:0:
391,115,280940,1,4,0:0:0:0:
386,133,281004,1,4,0:0:0:0:
388,152,281068,1,4,0:0:0:0:
396,170,281132,1,4,0:0:0:0:
409,184,281195,1,4,0:0:0:0:
426,192,281259,1,4,0:0:0:0:
445,194,281323,6,0,L|443:220,1,13.75,8|2,0:0|0:0,0:0:0:0:
434,291,281451,2,0,L|431:316,1,13.75,8|2,0:0|0:0,0:0:0:0:
345,249,281579,5,4,0:0:0:0:
326,244,281643,1,4,0:0:0:0:
307,242,281706,1,4,0:0:0:0:
287,242,281770,1,4,0:0:0:0:
268,245,281834,6,0,B|258:220|258:220|267:188|267:188|242:129,1,82.5000031471254,6|4,0:0|0:0,0:0:0:0:
192,256,281962,2,0,B|173:227|173:227|133:219,1,60.5000018463135,4|4,0:0|0:0,0:0:0:0:
125,292,282089,2,0,B|101:283|101:283|81:260,1,38.4999988250733,4|4,0:0|0:0,0:0:0:0:
76,351,282217,2,0,L|55:347,1,19.2499994125366,4|4,0:0|0:0,0:0:0:0:
27,154,282345,6,0,B|19:188|19:188|33:243,1,60.5000018463135,4|4,0:0|0:0,0:0:0:0:
96,123,282472,2,0,B|100:149|100:149|92:177,1,38.4999988250733
172,123,282600,1,6,0:0:0:0:
245,149,282728,1,4,0:0:0:0:
437,136,282855,6,0,L|448:-6,1,110,6|2,0:0|0:0,0:0:0:0:
346,84,283111,2,0,L|335:226,1,110,2|2,0:0|0:0,0:0:0:0:
426,237,283366,5,2,0:0:0:0:
342,290,283494,1,2,0:0:0:0:
259,236,283621,1,2,0:0:0:0:
175,289,283749,1,2,0:0:0:0:
137,53,283877,6,0,L|1:47,1,110,12|2,0:0|0:0,0:0:0:0:
94,144,284132,2,0,L|230:150,1,110,2|2,0:0|0:0,0:0:0:0:
241,57,284387,5,2,0:0:0:0:
296,139,284515,1,2,0:0:0:0:
376,80,284643,1,2,0:0:0:0:
431,162,284771,1,2,0:0:0:0:
348,345,284898,6,0,B|380:320|380:320|489:321,1,110,6|2,0:0|0:0,0:0:0:0:
303,258,285153,2,0,L|155:257,1,110,2|2,0:0|0:0,0:0:0:0:
121,327,285409,5,2,0:0:0:0:
56,252,285536,1,2,0:0:0:0:
117,173,285664,1,2,0:0:0:0:
52,98,285791,1,2,0:0:0:0:
294,49,285919,6,0,L|152:44,1,110,10|2,0:0|0:0,0:0:0:0:
359,113,286175,2,0,B|407:89|407:89|486:92,1,110,2|2,0:0|0:0,0:0:0:0:
269,143,286430,5,2,0:0:0:0:
303,236,286558,1,2,0:0:0:0:
433,184,286685,5,2,0:0:0:0:
404,279,286813,1,2,0:0:0:0:
133,352,286941,6,0,B|172:355|172:355|213:336|213:336|261:340,1,131.99999597168,6|2,0:0|0:0,0:0:0:0:
148,268,287196,2,0,L|39:257,1,110,2|2,0:0|0:0,0:0:0:0:
116,174,287451,5,2,0:0:0:0:
30,123,287579,1,2,0:0:0:0:
217,117,287706,5,2,0:0:0:0:
336,95,287834,1,2,0:0:0:0:
456,186,287962,6,0,B|449:253|449:253|453:268|453:268|445:343,1,110,10|2,0:0|0:0,0:0:0:0:
347,325,288217,2,0,L|359:190,1,110,2|2,0:0|0:0,0:0:0:0:
236,271,288472,5,2,0:0:0:0:
263,367,288600,1,2,0:0:0:0:
125,181,288728,5,2,0:0:0:0:
98,277,288856,1,2,0:0:0:0:
218,126,288983,5,8,0:0:0:0:
264,151,289046,1,8,0:0:0:0:
314,133,289110,1,8,0:0:0:0:
333,83,289174,1,8,0:0:0:0:
307,36,289238,5,4,0:0:0:0:
306,47,289301,1,4,0:0:0:0:
305,58,289365,1,4,0:0:0:0:
304,69,289429,1,4,0:0:0:0:
303,80,289494,6,0,L|282:71,1,13.75,8|4,0:0|0:0,0:0:0:0:
397,75,289621,2,0,L|376:66,1,13.75,8|4,0:0|0:0,0:0:0:0:
310,89,289749,2,0,L|289:80,1,13.75,8|4,0:0|0:0,0:0:0:0:
404,84,289877,2,0,L|383:75,1,13.75,8|4,0:0|0:0,0:0:0:0:
356,174,290004,5,4,0:0:0:0:
366,172,290068,1,4,0:0:0:0:
377,172,290132,1,4,0:0:0:0:
387,174,290196,1,4,0:0:0:0:
439,156,290260,5,8,0:0:0:0:
425,208,290323,1,8,0:0:0:0:
435,206,290387,5,4,0:0:0:0:
445,204,290451,1,4,0:0:0:0:
411,247,290515,5,8,0:0:0:0:
463,261,290579,1,8,0:0:0:0:
470,252,290643,5,4,0:0:0:0:
459,249,290706,1,4,0:0:0:0:
448,248,290770,1,4,0:0:0:0:
437,250,290834,1,4,0:0:0:0:
427,255,290898,1,4,0:0:0:0:
418,261,290962,1,4,0:0:0:0:
396,293,291026,5,2,0:0:0:0:
396,293,291153,1,0,0:0:0:0:
313,262,291281,6,0,L|321:336,1,55,2|10,0:0|0:0,0:0:0:0:
296,278,291408,2,0,L|304:352,1,55,2|10,0:0|0:0,0:0:0:0:
90,250,291536,6,0,B|53:254|53:254|22:213,1,55,2|10,0:0|0:0,0:0:0:0:
101,326,291664,2,0,B|138:322|138:322|169:363,1,55,2|10,0:0|0:0,0:0:0:0:
79,152,291791,5,2,0:0:0:0:
117,171,291854,1,10,0:0:0:0:
161,169,291918,1,2,0:0:0:0:
198,146,291982,1,10,0:0:0:0:
245,141,292047,1,2,0:0:0:0:
285,160,292111,1,10,0:0:0:0:
310,196,292175,1,2,0:0:0:0:
315,239,292238,1,10,0:0:0:0:
296,278,292302,6,0,L|366:270,1,55,2|10,0:0|0:0,0:0:0:0:
310,292,292430,2,0,L|380:284,1,55,2|10,0:0|0:0,0:0:0:0:
428,332,292557,6,0,L|498:324,1,55,2|10,0:0|0:0,0:0:0:0:
442,346,292685,2,0,L|512:338,1,55,2|10,0:0|0:0,0:0:0:0:
412,165,292813,6,0,B|445:162|445:162|472:142,1,55,2|10,0:0|0:0,0:0:0:0:
484,232,292940,2,0,B|451:235|451:235|424:255,1,55,2|10,0:0|0:0,0:0:0:0:
409,77,293068,5,2,0:0:0:0:
366,85,293131,1,10,0:0:0:0:
324,73,293195,1,2,0:0:0:0:
294,41,293259,1,10,0:0:0:0:
254,26,293323,1,2,0:0:0:0:
212,37,293387,1,10,0:0:0:0:
184,70,293451,1,2,0:0:0:0:
190,114,293515,1,10,0:0:0:0:
217,148,293579,6,0,L|119:138,1,55,2|10,0:0|0:0,0:0:0:0:
76,166,293706,2,0,L|133:245,1,55,2|10,0:0|0:0,0:0:0:0:
162,280,293834,2,0,L|202:190,1,55,2|10,0:0|0:0,0:0:0:0:
217,148,293962,2,0,L|119:138,1,55,2|10,0:0|0:0,0:0:0:0:
210,152,294089,6,0,L|125:144,1,45.6500006617355,2|10,0:0|0:0,0:0:0:0:
88,168,294217,2,0,L|138:237,1,45.6500006617355,2|10,0:0|0:0,0:0:0:0:
162,267,294344,2,0,L|197:189,1,45.6500006617355,2|10,0:0|0:0,0:0:0:0:
210,152,294472,2,0,L|125:144,1,45.6500006617355,2|10,0:0|0:0,0:0:0:0:
203,158,294600,6,0,L|132:151,1,36.2999998892212,2|10,0:0|0:0,0:0:0:0:
102,171,294727,2,0,L|143:228,1,36.2999998892212,2|10,0:0|0:0,0:0:0:0:
163,253,294855,2,0,L|192:188,1,36.2999998892212,2|10,0:0|0:0,0:0:0:0:
203,158,294983,2,0,L|132:151,1,36.2999998892212,2|10,0:0|0:0,0:0:0:0:
290,160,295111,6,0,L|282:210,1,27.5,2|10,0:0|0:0,0:0:0:0:
299,170,295238,2,0,L|291:220,1,27.5,2|10,0:0|0:0,0:0:0:0:
251,279,295366,6,0,L|243:329,1,27.5,2|10,0:0|0:0,0:0:0:0:
260,289,295493,2,0,L|252:339,1,27.5,2|10,0:0|0:0,0:0:0:0:
427,249,295621,6,0,B|430:225|430:225|452:208,1,27.5,2|10,0:0|0:0,0:0:0:0:
350,259,295749,2,0,B|346:282|346:282|325:300,1,27.5,2|10,0:0|0:0,0:0:0:0:
468,155,295877,5,2,0:0:0:0:
447,146,295940,1,10,0:0:0:0:
432,130,296004,1,2,0:0:0:0:
424,110,296068,1,10,0:0:0:0:
425,88,296132,1,2,0:0:0:0:
434,68,296196,1,10,0:0:0:0:
437,46,296260,1,2,0:0:0:0:
429,25,296323,1,10,0:0:0:0:
412,10,296387,6,0,L|407:52,1,27.5,2|10,0:0|0:0,0:0:0:0:
395,19,296515,2,0,L|390:61,1,27.5,2|10,0:0|0:0,0:0:0:0:
323,81,296643,6,0,L|318:123,1,27.5,2|10,0:0|0:0,0:0:0:0:
306,90,296771,2,0,L|301:132,1,27.5,2|10,0:0|0:0,0:0:0:0:
145,119,296898,6,0,B|143:100|143:100|128:84,1,27.5,2|10,0:0|0:0,0:0:0:0:
225,132,297026,2,0,B|227:151|227:151|242:167,1,27.5,2|10,0:0|0:0,0:0:0:0:
56,102,297153,5,2,0:0:0:0:
39,115,297216,1,10,0:0:0:0:
30,135,297280,1,2,0:0:0:0:
31,157,297344,1,10,0:0:0:0:
43,175,297408,1,2,0:0:0:0:
62,186,297472,1,10,0:0:0:0:
74,205,297536,1,2,0:0:0:0:
77,226,297600,1,10,0:0:0:0:
68,246,297664,6,0,L|139:239,1,36.2999998892212,2|10,0:0|0:0,0:0:0:0:
169,259,297791,2,0,L|128:316,1,36.2999998892212,2|10,0:0|0:0,0:0:0:0:
108,341,297919,2,0,L|79:276,1,36.2999998892212,2|10,0:0|0:0,0:0:0:0:
68,246,298047,2,0,L|139:239,1,36.2999998892212,2|10,0:0|0:0,0:0:0:0:
60,240,298174,6,0,L|145:232,1,45.6500006617355,2|10,0:0|0:0,0:0:0:0:
182,256,298302,2,0,L|132:325,1,45.6500006617355,2|10,0:0|0:0,0:0:0:0:
108,355,298430,2,0,L|73:277,1,45.6500006617355,2|10,0:0|0:0,0:0:0:0:
60,240,298557,2,0,L|145:232,1,45.6500006617355,2|10,0:0|0:0,0:0:0:0:
195,369,298685,6,0,L|293:359,1,55,2|10,0:0|0:0,0:0:0:0:
206,384,298813,2,0,L|304:374,1,55,2|10,0:0|0:0,0:0:0:0:
39,159,298940,6,0,L|49:61,1,55,2|10,0:0|0:0,0:0:0:0:
24,148,299068,2,0,L|34:50,1,55,2|10,0:0|0:0,0:0:0:0:
222,164,299196,6,0,L|167:169,1,55,2|10,0:0|0:0,0:0:0:0:
208,152,299323,2,0,L|153:157,1,55,2|10,0:0|0:0,0:0:0:0:
184,76,299451,6,0,L|129:81,1,55,2|10,0:0|0:0,0:0:0:0:
170,64,299579,2,0,L|115:69,1,55,2|10,0:0|0:0,0:0:0:0:
313,155,299706,6,0,B|311:186|311:186|329:215,1,55,2|10,0:0|0:0,0:0:0:0:
263,85,299834,2,0,B|264:53|264:53|246:24,1,55,2|10,0:0|0:0,0:0:0:0:
403,172,299962,5,2,0:0:0:0:
445,180,300025,1,10,0:0:0:0:
471,214,300089,1,2,0:0:0:0:
468,257,300153,1,10,0:0:0:0:
437,287,300217,1,2,0:0:0:0:
394,289,300281,1,10,0:0:0:0:
352,275,300345,1,2,0:0:0:0:
308,278,300408,1,10,0:0:0:0:
268,298,300472,6,0,L|336:305,1,55,2|10,0:0|0:0,0:0:0:0:
279,314,300600,2,0,L|347:321,1,55,2|10,0:0|0:0,0:0:0:0:
141,338,300728,6,0,L|209:345,1,55,2|10,0:0|0:0,0:0:0:0:
152,354,300856,2,0,L|220:361,1,55,2|10,0:0|0:0,0:0:0:0:
8,251,300983,6,0,B|18:217|18:217|4:170,1,55,2|10,0:0|0:0,0:0:0:0:
68,300,301111,2,0,B|57:333|57:333|71:380,1,55,2|10,0:0|0:0,0:0:0:0:
82,150,301238,5,2,0:0:0:0:
116,123,301301,1,10,0:0:0:0:
158,113,301365,1,2,0:0:0:0:
201,122,301429,1,10,0:0:0:0:
236,148,301493,1,2,0:0:0:0:
257,186,301557,1,10,0:0:0:0:
291,212,301620,1,2,0:0:0:0:
333,222,301684,1,10,0:0:0:0:
376,213,301749,6,0,L|418:124,1,55,2|10,0:0|0:0,0:0:0:0:
407,74,301876,2,0,L|313:100,1,55,2|10,0:0|0:0,0:0:0:0:
270,116,302004,2,0,L|340:184,1,55,2|10,0:0|0:0,0:0:0:0:
376,213,302132,2,0,L|418:124,1,55,2|10,0:0|0:0,0:0:0:0:
374,205,302260,6,0,L|410:127,1,45.6500006617355,2|10,0:0|0:0,0:0:0:0:
401,84,302387,2,0,L|319:107,1,45.6500006617355,2|10,0:0|0:0,0:0:0:0:
282,120,302515,2,0,L|343:179,1,45.6500006617355,2|10,0:0|0:0,0:0:0:0:
374,205,302642,2,0,L|410:127,1,45.6500006617355,2|10,0:0|0:0,0:0:0:0:
371,196,302770,6,0,L|401:131,1,36.2999998892212,2|10,0:0|0:0,0:0:0:0:
393,97,302898,2,0,L|325:116,1,36.2999998892212,2|10,0:0|0:0,0:0:0:0:
295,126,303025,2,0,L|346:175,1,36.2999998892212,2|10,0:0|0:0,0:0:0:0:
371,196,303153,2,0,L|401:131,1,36.2999998892212,2|10,0:0|0:0,0:0:0:0:
460,222,303281,6,0,L|472:197,1,27.5,2|10,0:0|0:0,0:0:0:0:
472,219,303408,2,0,L|484:194,1,27.5,2|10,0:0|0:0,0:0:0:0:
464,332,303536,6,0,L|476:307,1,27.5,2|10,0:0|0:0,0:0:0:0:
476,329,303664,2,0,L|488:304,1,27.5,2|10,0:0|0:0,0:0:0:0:
312,323,303791,6,0,B|307:304|307:304|290:278,1,27.5,2|10,0:0|0:0,0:0:0:0:
387,341,303919,2,0,B|392:360|392:360|409:386,1,27.5,2|10,0:0|0:0,0:0:0:0:
231,330,304047,5,2,0:0:0:0:
210,321,304110,1,10,0:0:0:0:
189,317,304174,1,2,0:0:0:0:
167,319,304238,1,10,0:0:0:0:
146,326,304302,1,2,0:0:0:0:
123,330,304366,1,10,0:0:0:0:
102,330,304430,1,2,0:0:0:0:
81,324,304494,1,10,0:0:0:0:
61,314,304557,6,0,L|56:346,1,27.5,2|10,0:0|0:0,0:0:0:0:
46,321,304685,2,0,L|41:353,1,27.5,2|10,0:0|0:0,0:0:0:0:
56,199,304813,6,0,L|51:231,1,27.5,2|10,0:0|0:0,0:0:0:0:
41,206,304941,2,0,L|36:238,1,27.5,2|10,0:0|0:0,0:0:0:0:
217,194,305068,6,0,B|216:208|216:208|227:230,1,27.5,2|10,0:0|0:0,0:0:0:0:
135,189,305196,2,0,B|136:175|136:175|125:153,1,27.5,2|10,0:0|0:0,0:0:0:0:
298,189,305323,5,2,0:0:0:0:
315,176,305386,1,10,0:0:0:0:
336,170,305450,1,2,0:0:0:0:
358,173,305514,1,10,0:0:0:0:
378,183,305578,1,2,0:0:0:0:
400,186,305643,1,10,0:0:0:0:
421,180,305706,1,2,0:0:0:0:
435,163,305770,1,10,0:0:0:0:
440,141,305835,6,0,L|447:212,1,36.2999998892212,2|10,0:0|0:0,0:0:0:0:
427,242,305962,2,0,L|370:201,1,36.2999998892212,2|10,0:0|0:0,0:0:0:0:
345,181,306090,2,0,L|410:152,1,36.2999998892212,2|10,0:0|0:0,0:0:0:0:
440,141,306218,2,0,L|447:212,1,36.2999998892212,2|10,0:0|0:0,0:0:0:0:
446,133,306345,6,0,L|454:218,1,45.6500006617355,2|10,0:0|0:0,0:0:0:0:
430,255,306473,2,0,L|361:205,1,45.6500006617355,2|10,0:0|0:0,0:0:0:0:
331,181,306600,2,0,L|409:146,1,45.6500006617355,2|10,0:0|0:0,0:0:0:0:
446,133,306728,2,0,L|454:218,1,45.6500006617355,2|10,0:0|0:0,0:0:0:0:
288,278,306855,5,2,0:0:0:0:
242,259,306918,1,2,0:0:0:0:
194,258,306982,1,2,0:0:0:0:
149,275,307046,1,2,0:0:0:0:
102,262,307111,1,2,0:0:0:0:
66,230,307174,1,2,0:0:0:0:
53,184,307238,1,2,0:0:0:0:
71,139,307302,1,2,0:0:0:0:
39,62,307366,6,0,L|208:52,1,131.99999597168,6|8,0:0|0:0,0:0:0:0:
290,25,307621,2,0,L|421:17,1,131.99999597168,2|8,0:0|0:0,0:0:0:0:
300,118,307877,2,0,B|234:122|234:122|172:158,1,131.99999597168,2|8,0:0|0:0,0:0:0:0:
262,216,308132,5,2,0:0:0:0:
71,139,308260,1,10,0:0:0:0:
300,118,308387,5,0,0:0:0:0:
63,248,308515,1,10,0:0:0:0:
73,38,308643,5,0,0:0:0:0:
223,313,308771,1,10,0:0:0:0:
397,44,308898,6,0,B|388:98|388:98|408:169|408:169|391:283,1,165.000006294251,2|10,0:0|0:0,0:0:0:0:
314,176,309153,5,2,0:0:0:0:
486,98,309281,1,10,0:0:0:0:
67,128,309408,6,0,B|103:123|103:123|144:142|144:142|167:124|167:124|220:116,1,165.000006294251,2|10,0:0|0:0,0:0:0:0:
332,269,309664,6,0,B|400:260|400:260|411:267|411:267|493:256,1,165.000006294251,2|10,0:0|0:0,0:0:0:0:
438,178,309919,5,2,0:0:0:0:
401,352,310047,1,10,0:0:0:0:
66,247,310174,6,0,B|50:280|50:280|216:265,1,150.700004254074,2|10,0:0|0:0,0:0:0:0:
318,117,310430,6,0,B|341:114|341:114|357:126|357:126|383:97|383:97|477:88,1,150.700004254074,2|10,0:0|0:0,0:0:0:0:
438,178,310685,5,2,0:0:0:0:
320,30,310813,1,10,0:0:0:0:
279,337,310940,6,0,B|263:259|263:259|269:252|269:252|259:248|259:248|239:160,1,137.5,2|8,0:0|0:0,0:0:0:0:
107,29,311196,6,0,B|128:115|128:115|113:213,1,137.5,2|10,0:0|0:0,0:0:0:0:
27,110,311451,5,2,0:0:0:0:
217,61,311579,1,10,0:0:0:0:
107,29,311706,5,0,0:0:0:0:
170,278,311834,1,10,0:0:0:0:
260,163,311962,5,2,0:0:0:0:
257,155,312026,1,2,0:0:0:0:
216,150,312089,5,10,0:0:0:0:
240,147,312152,1,2,0:0:0:0:
265,145,312216,1,2,0:0:0:0:
289,142,312280,1,2,0:0:0:0:
323,117,312345,5,10,0:0:0:0:
326,109,312408,1,2,0:0:0:0:
330,101,312472,2,0,L|266:107,1,41.2500015735627,2|2,0:0|0:0,0:0:0:0:
441,51,312600,5,10,0:0:0:0:
428,72,312663,1,2,0:0:0:0:
424,96,312727,1,2,0:0:0:0:
427,120,312791,1,2,0:0:0:0:
445,156,312855,5,10,0:0:0:0:
458,177,312918,1,2,0:0:0:0:
462,201,312982,1,2,0:0:0:0:
459,225,313046,1,2,0:0:0:0:
440,262,313111,5,10,0:0:0:0:
447,260,313174,1,2,0:0:0:0:
455,258,313238,2,0,L|423:320,1,41.2500015735627,2|2,0:0|0:0,0:0:0:0:
344,198,313366,5,10,0:0:0:0:
351,199,313429,1,2,0:0:0:0:
358,201,313493,2,0,L|343:245,1,41.2500015735627,2|2,0:0|0:0,0:0:0:0:
236,185,313621,5,10,0:0:0:0:
244,184,313684,1,2,0:0:0:0:
252,184,313749,2,0,L|250:230,1,41.2500015735627,2|2,0:0|0:0,0:0:0:0:
131,211,313877,5,10,0:0:0:0:
137,207,313940,1,2,0:0:0:0:
144,203,314004,2,0,L|154:248,1,41.2500015735627,2|2,0:0|0:0,0:0:0:0:
193,104,314132,5,10,0:0:0:0:
187,108,314195,1,2,0:0:0:0:
180,112,314259,2,0,L|170:67,1,41.2500015735627,2|2,0:0|0:0,0:0:0:0:
332,112,314387,6,0,L|342:67,1,41.2500015735627,10|2,0:0|0:0,0:0:0:0:
453,109,314515,5,2,0:0:0:0:
448,102,314579,1,2,0:0:0:0:
471,68,314643,5,10,0:0:0:0:
469,92,314706,1,2,0:0:0:0:
467,117,314770,1,2,0:0:0:0:
465,142,314834,1,2,0:0:0:0:
429,161,314898,5,10,0:0:0:0:
431,186,314961,1,2,0:0:0:0:
433,211,315026,2,0,B|410:197|410:197|421:251,1,68.75,2|2,0:0|0:0,0:0:0:0:
396,326,315153,5,10,0:0:0:0:
371,319,315216,1,2,0:0:0:0:
347,323,315280,1,2,0:0:0:0:
327,336,315344,1,2,0:0:0:0:
287,323,315408,5,10,0:0:0:0:
294,320,315472,1,2,0:0:0:0:
301,317,315536,2,0,L|300:370,1,41.2500015735627,2|2,0:0|0:0,0:0:0:0:
189,290,315664,5,10,0:0:0:0:
194,285,315728,1,2,0:0:0:0:
200,280,315792,2,0,L|212:331,1,41.2500015735627,2|2,0:0|0:0,0:0:0:0:
114,334,315919,5,10,0:0:0:0:
89,328,315982,1,2,0:0:0:0:
65,331,316046,1,2,0:0:0:0:
42,341,316110,1,2,0:0:0:0:
0,341,316174,5,10,0:0:0:0:
5,336,316238,1,2,0:0:0:0:
11,331,316302,2,0,L|23:382,1,41.2500015735627,2|2,0:0|0:0,0:0:0:0:
21,216,316430,5,10,0:0:0:0:
26,211,316494,1,2,0:0:0:0:
32,206,316558,2,0,L|44:257,1,41.2500015735627,2|2,0:0|0:0,0:0:0:0:
91,121,316685,5,10,0:0:0:0:
112,109,316748,1,2,0:0:0:0:
137,107,316812,1,2,0:0:0:0:
160,114,316876,1,2,0:0:0:0:
198,97,316940,5,10,0:0:0:0:
193,92,317004,1,2,0:0:0:0:
187,87,317068,2,0,L|174:138,1,41.2500015735627,2|2,0:0|0:0,0:0:0:0:
275,180,317196,5,10,0:0:0:0:
270,175,317260,1,2,0:0:0:0:
264,170,317324,2,0,L|251:221,1,41.2500015735627,2|2,0:0|0:0,0:0:0:0:
352,266,317451,5,10,0:0:0:0:
347,261,317515,1,2,0:0:0:0:
341,256,317579,1,2,0:0:0:0:
334,250,317643,1,2,0:0:0:0:
382,258,317706,5,10,0:0:0:0:
359,249,317769,1,2,0:0:0:0:
334,250,317833,1,2,0:0:0:0:
312,261,317897,1,2,0:0:0:0:
276,283,317962,5,10,0:0:0:0:
249,293,318025,1,2,0:0:0:0:
219,291,318089,1,2,0:0:0:0:
193,278,318153,1,2,0:0:0:0:
152,256,318217,5,10,0:0:0:0:
112,245,318280,1,2,0:0:0:0:
73,257,318344,1,2,0:0:0:0:
46,288,318408,1,2,0:0:0:0:
20,334,318472,5,10,0:0:0:0:
17,288,318535,1,2,0:0:0:0:
15,243,318599,1,2,0:0:0:0:
13,198,318663,1,2,0:0:0:0:
52,159,318728,5,10,0:0:0:0:
54,113,318791,1,2,0:0:0:0:
56,68,318855,1,2,0:0:0:0:
58,23,318919,1,2,0:0:0:0:
105,63,318983,5,10,0:0:0:0:
154,81,319046,1,2,0:0:0:0:
206,71,319110,1,2,0:0:0:0:
250,41,319174,1,2,0:0:0:0:
301,55,319238,5,10,0:0:0:0:
340,45,319301,1,2,0:0:0:0:
381,48,319365,1,2,0:0:0:0:
419,64,319429,1,2,0:0:0:0:
469,56,319494,5,10,0:0:0:0:
451,38,319557,1,2,0:0:0:0:
433,20,319621,5,6,0:0:0:0:
433,20,319876,1,8,0:0:0:0:
426,107,319961,1,8,0:0:0:0:
419,195,320046,1,8,0:0:0:0:
412,283,320131,5,8,0:0:0:0:
412,283,320387,1,2,0:0:0:0:
87,229,320642,5,8,0:0:0:0:
223,274,320770,1,2,0:0:0:0:
223,274,320897,1,0,0:0:0:0:
433,20,321025,1,8,0:0:0:0:
130,91,321153,5,6,0:0:0:0:
130,91,321408,1,8,0:0:0:0:
183,94,321471,1,8,0:0:0:0:
237,97,321535,1,8,0:0:0:0:
290,101,321599,1,8,0:0:0:0:
344,104,321663,5,8,0:0:0:0:
344,104,321919,1,2,0:0:0:0:
84,251,322174,5,8,0:0:0:0:
439,199,322302,1,8,0:0:0:0:
336,283,322429,1,2,0:0:0:0:
336,283,322557,1,0,0:0:0:0:
444,24,322685,5,6,0:0:0:0:
444,24,322940,1,8,0:0:0:0:
441,111,323025,1,8,0:0:0:0:
439,199,323110,1,8,0:0:0:0:
436,287,323195,5,8,0:0:0:0:
436,287,323451,1,2,0:0:0:0:
57,134,323706,5,8,0:0:0:0:
94,243,323834,1,2,0:0:0:0:
94,243,323961,1,0,0:0:0:0:
441,111,324089,1,8,0:0:0:0:
404,220,324217,5,6,0:0:0:0:
384,213,324280,1,4,0:0:0:0:
365,211,324344,1,4,0:0:0:0:
348,212,324408,1,4,0:0:0:0:
334,216,324472,1,4,0:0:0:0:
322,221,324536,1,4,0:0:0:0:
313,227,324600,1,4,0:0:0:0:
308,233,324663,1,4,0:0:0:0:
261,264,324727,5,8,0:0:0:0:
257,242,324790,1,4,0:0:0:0:
249,224,324854,1,4,0:0:0:0:
241,210,324918,1,4,0:0:0:0:
231,199,324982,1,4,0:0:0:0:
220,191,325046,1,4,0:0:0:0:
211,186,325110,1,4,0:0:0:0:
203,185,325173,1,4,0:0:0:0:
155,202,325238,6,0,L|134:168,3,27.5,6|0|4|4,0:0|0:0|0:0|0:0,0:0:0:0:
219,97,325493,6,0,L|230:59,3,27.5,6|0|4|4,0:0|0:0|0:0|0:0,0:0:0:0:
303,134,325748,6,0,P|325:130|354:129,1,41.2500015735627,2|10,0:0|0:0,0:0:0:0:
297,149,325876,2,0,P|319:145|348:144,1,41.2500015735627,2|10,0:0|0:0,0:0:0:0:
406,69,326004,5,2,0:0:0:0:
411,57,326068,1,10,0:0:0:0:
419,47,326131,2,0,P|397:51|368:52,1,41.2500015735627,2|10,0:0|0:0,0:0:0:0:
429,153,326259,5,2,0:0:0:0:
427,185,326322,1,10,0:0:0:0:
425,218,326386,1,2,0:0:0:0:
423,251,326450,1,10,0:0:0:0:
470,264,326514,5,2,0:0:0:0:
423,251,326577,1,10,0:0:0:0:
383,277,326641,1,2,0:0:0:0:
377,325,326705,1,10,0:0:0:0:
409,361,326770,6,0,P|410:335|414:316,1,41.2500015735627,2|10,0:0|0:0,0:0:0:0:
418,373,326897,2,0,P|419:347|423:328,1,41.2500015735627,2|10,0:0|0:0,0:0:0:0:
479,252,327025,6,0,P|478:226|474:207,1,41.2500015735627,2|10,0:0|0:0,0:0:0:0:
470,264,327153,2,0,P|469:238|465:219,1,41.2500015735627,2|10,0:0|0:0,0:0:0:0:
418,43,327280,5,2,0:0:0:0:
415,55,327344,1,10,0:0:0:0:
415,67,327408,1,2,0:0:0:0:
416,79,327472,1,10,0:0:0:0:
407,127,327536,6,0,P|413:157|413:193,1,41.2500015735627,2|10,0:0|0:0,0:0:0:0:
395,121,327663,2,0,P|401:151|401:187,1,41.2500015735627,2|10,0:0|0:0,0:0:0:0:
470,264,327791,5,2,0:0:0:0:
464,253,327855,1,10,0:0:0:0:
457,243,327919,2,0,P|427:249|391:249,1,41.2500015735627,2|10,0:0|0:0,0:0:0:0:
319,231,328046,5,2,0:0:0:0:
273,213,328109,1,10,0:0:0:0:
229,231,328173,1,2,0:0:0:0:
208,275,328237,1,10,0:0:0:0:
205,326,328302,5,2,0:0:0:0:
172,362,328365,1,10,0:0:0:0:
125,365,328429,1,2,0:0:0:0:
86,335,328493,1,10,0:0:0:0:
82,285,328557,6,0,P|53:291|21:292,1,41.2500015735627,2|10,0:0|0:0,0:0:0:0:
91,298,328685,2,0,P|62:304|30:305,1,41.2500015735627,2|10,0:0|0:0,0:0:0:0:
70,111,328812,5,2,0:0:0:0:
76,130,328876,1,10,0:0:0:0:
78,150,328940,1,2,0:0:0:0:
77,170,329004,1,10,0:0:0:0:
66,218,329068,6,0,P|95:212|127:211,1,41.2500015735627,2|10,0:0|0:0,0:0:0:0:
57,205,329196,2,0,P|86:199|118:198,1,41.2500015735627,2|10,0:0|0:0,0:0:0:0:
226,164,329323,5,2,0:0:0:0:
206,161,329387,1,10,0:0:0:0:
186,157,329451,2,0,P|192:186|193:218,1,41.2500015735627,2|10,0:0|0:0,0:0:0:0:
205,286,329578,5,2,0:0:0:0:
247,262,329641,1,10,0:0:0:0:
295,271,329705,1,2,0:0:0:0:
325,309,329769,1,10,0:0:0:0:
315,358,329834,5,2,0:0:0:0:
311,308,329897,1,10,0:0:0:0:
308,259,329961,1,2,0:0:0:0:
305,209,330025,1,10,0:0:0:0:
331,252,330089,5,2,0:0:0:0:
373,276,330152,1,10,0:0:0:0:
421,267,330216,1,2,0:0:0:0:
451,229,330280,1,10,0:0:0:0:
440,180,330344,6,0,P|465:182|495:182,1,41.2500015735627,2|10,0:0|0:0,0:0:0:0:
434,164,330472,2,0,P|459:166|489:166,1,41.2500015735627,2|10,0:0|0:0,0:0:0:0:
393,58,330600,5,2,0:0:0:0:
397,69,330663,1,10,0:0:0:0:
401,80,330727,2,0,P|426:82|456:82,1,41.2500015735627,2|10,0:0|0:0,0:0:0:0:
434,164,330855,5,2,0:0:0:0:
405,161,330919,1,10,0:0:0:0:
376,163,330983,1,2,0:0:0:0:
350,175,331046,1,10,0:0:0:0:
305,197,331110,5,2,0:0:0:0:
255,196,331174,1,2,0:0:0:0:
210,173,331238,1,2,0:0:0:0:
183,131,331302,1,2,0:0:0:0:
191,82,331366,5,2,0:0:0:0:
159,44,331429,1,2,0:0:0:0:
110,31,331493,1,2,0:0:0:0:
61,40,331557,1,2,0:0:0:0:
28,77,331621,5,2,0:0:0:0:
40,75,331685,1,2,0:0:0:0:
52,73,331748,1,2,0:0:0:0:
64,71,331812,1,2,0:0:0:0:
113,67,331876,6,0,P|108:101|108:143,1,41.2500015735627,2|2,0:0|0:0,0:0:0:0:
126,61,332004,2,0,P|121:95|121:137,1,41.2500015735627,10|2,0:0|0:0,0:0:0:0:
253,108,332131,5,2,0:0:0:0:
241,106,332195,1,2,0:0:0:0:
228,104,332259,2,0,P|233:138|233:180,1,41.2500015735627,10|2,0:0|0:0,0:0:0:0:
157,196,332387,5,2,0:0:0:0:
130,207,332450,1,2,0:0:0:0:
102,210,332514,1,10,0:0:0:0:
74,201,332578,1,2,0:0:0:0:
38,169,332642,5,2,0:0:0:0:
74,201,332705,1,2,0:0:0:0:
88,248,332770,1,10,0:0:0:0:
74,295,332833,1,2,0:0:0:0:
37,327,332897,6,0,P|66:323|101:322,1,41.2500015735627,2|2,0:0|0:0,0:0:0:0:
30,338,333025,2,0,P|59:334|94:333,1,41.2500015735627,10|2,0:0|0:0,0:0:0:0:
163,355,333153,6,0,P|192:351|227:350,1,41.2500015735627,2|2,0:0|0:0,0:0:0:0:
156,366,333281,2,0,P|185:362|220:361,1,41.2500015735627,10|2,0:0|0:0,0:0:0:0:
381,339,333408,5,2,0:0:0:0:
368,337,333472,1,2,0:0:0:0:
355,336,333536,1,10,0:0:0:0:
342,336,333600,1,2,0:0:0:0:
293,344,333663,6,0,P|289:315|288:280,1,41.2500015735627,2|2,0:0|0:0,0:0:0:0:
304,351,333791,2,0,P|300:322|299:287,1,41.2500015735627,10|2,0:0|0:0,0:0:0:0:
260,209,333919,5,2,0:0:0:0:
273,209,333983,1,2,0:0:0:0:
285,210,334046,2,0,P|281:181|280:146,1,41.2500015735627,10|2,0:0|0:0,0:0:0:0:
277,79,334174,5,2,0:0:0:0:
233,57,334237,1,2,0:0:0:0:
185,66,334301,1,10,0:0:0:0:
153,103,334365,1,2,0:0:0:0:
151,151,334429,5,2,0:0:0:0:
161,198,334492,1,2,0:0:0:0:
144,244,334556,1,10,0:0:0:0:
105,272,334620,1,2,0:0:0:0:
56,274,334684,5,2,0:0:0:0:
61,285,334748,1,2,0:0:0:0:
66,296,334812,2,0,P|91:293|129:293,1,41.2500015735627,10|2,0:0|0:0,0:0:0:0:
224,301,334940,5,2,0:0:0:0:
244,305,335004,1,2,0:0:0:0:
264,306,335068,1,10,0:0:0:0:
284,303,335131,1,2,0:0:0:0:
333,295,335195,6,0,P|329:322|329:348,1,41.2500015735627,2|2,0:0|0:0,0:0:0:0:
346,288,335323,2,0,P|342:315|342:341,1,41.2500015735627,10|2,0:0|0:0,0:0:0:0:
472,270,335451,5,2,0:0:0:0:
452,263,335514,1,2,0:0:0:0:
433,253,335578,2,0,P|437:280|437:306,1,41.2500015735627,10|2,0:0|0:0,0:0:0:0:
391,143,335706,5,2,0:0:0:0:
343,156,335769,1,2,0:0:0:0:
294,154,335833,1,10,0:0:0:0:
248,136,335897,1,2,0:0:0:0:
210,104,335961,5,2,0:0:0:0:
214,153,336024,1,2,0:0:0:0:
217,203,336088,1,10,0:0:0:0:
220,252,336152,1,2,0:0:0:0:
224,301,336217,5,2,0:0:0:0:
183,275,336280,1,2,0:0:0:0:
134,268,336344,1,10,0:0:0:0:
88,284,336408,1,2,0:0:0:0:
53,318,336472,6,0,P|51:293|45:264,1,41.2500015735627,2|2,0:0|0:0,0:0:0:0:
42,327,336600,2,0,P|40:302|34:273,1,41.2500015735627,10|2,0:0|0:0,0:0:0:0:
85,192,336727,5,2,0:0:0:0:
76,182,336791,1,2,0:0:0:0:
65,174,336855,2,0,P|63:149|57:120,1,41.2500015735627,10|2,0:0|0:0,0:0:0:0:
108,61,336983,5,2,0:0:0:0:
135,70,337046,1,2,0:0:0:0:
164,70,337110,1,10,0:0:0:0:
191,62,337174,1,2,0:0:0:0:
215,46,337238,5,2,0:0:0:0:
280,23,337301,1,2,0:0:0:0:
342,52,337365,1,10,0:0:0:0:
367,116,337429,1,2,0:0:0:0:
340,179,337493,5,2,0:0:0:0:
299,236,337557,1,2,0:0:0:0:
313,305,337620,1,10,0:0:0:0:
370,345,337684,1,2,0:0:0:0:
439,332,337748,5,2,0:0:0:0:
478,274,337812,1,2,0:0:0:0:
466,205,337876,1,10,0:0:0:0:
408,165,337940,1,2,0:0:0:0:
340,179,338004,5,2,0:0:0:0:
331,180,338068,1,10,0:0:0:0:
322,180,338131,1,2,0:0:0:0:
313,179,338195,1,10,0:0:0:0:
304,179,338259,6,0,P|309:202|309:230,1,41.2500015735627,2|10,0:0|0:0,0:0:0:0:
205,166,338386,5,2,0:0:0:0:
190,166,338450,1,10,0:0:0:0:
176,167,338514,1,2,0:0:0:0:
161,168,338578,1,10,0:0:0:0:
147,168,338641,1,2,0:0:0:0:
133,169,338705,1,10,0:0:0:0:
118,170,338769,5,2,0:0:0:0:
110,141,338834,1,10,0:0:0:0:
103,113,338897,2,0,L|176:111,1,41.2500015735627,2|8,0:0|0:0,0:0:0:0:
236,91,339025,5,2,0:0:0:0:
228,62,339090,1,10,0:0:0:0:
221,34,339153,2,0,L|294:32,1,41.2500015735627,2|8,0:0|0:0,0:0:0:0:
362,141,339280,5,2,0:0:0:0:
354,112,339345,1,10,0:0:0:0:
347,84,339408,2,0,L|420:82,1,41.2500015735627,2|8,0:0|0:0,0:0:0:0:
482,138,339536,5,2,0:0:0:0:
484,145,339600,1,10,0:0:0:0:
485,153,339663,1,2,0:0:0:0:
485,161,339727,1,10,0:0:0:0:
484,169,339791,6,0,P|509:166|537:166,1,41.2500015735627,2|10,0:0|0:0,0:0:0:0:
488,259,339919,5,2,0:0:0:0:
473,259,339982,1,10,0:0:0:0:
459,259,340046,1,2,0:0:0:0:
444,259,340110,1,10,0:0:0:0:
430,260,340174,1,2,0:0:0:0:
415,260,340238,1,10,0:0:0:0:
340,290,340302,5,2,0:0:0:0:
345,309,340365,1,10,0:0:0:0:
346,329,340429,1,2,0:0:0:0:
341,349,340493,1,10,0:0:0:0:
331,367,340557,1,2,0:0:0:0:
316,382,340621,1,10,0:0:0:0:
340,290,340685,5,2,0:0:0:0:
334,270,340748,1,10,0:0:0:0:
333,250,340812,1,2,0:0:0:0:
338,230,340876,1,10,0:0:0:0:
348,212,340940,1,2,0:0:0:0:
363,197,341004,1,10,0:0:0:0:
367,190,341068,5,2,0:0:0:0:
369,182,341131,1,10,0:0:0:0:
370,173,341195,1,2,0:0:0:0:
370,164,341259,1,10,0:0:0:0:
370,155,341323,6,0,P|396:156|436:153,1,41.2500015735627,2|10,0:0|0:0,0:0:0:0:
283,124,341451,5,2,0:0:0:0:
268,124,341514,1,10,0:0:0:0:
254,124,341578,1,2,0:0:0:0:
239,124,341642,1,10,0:0:0:0:
225,124,341706,1,2,0:0:0:0:
210,124,341770,1,10,0:0:0:0:
196,124,341834,5,2,0:0:0:0:
199,152,341897,1,10,0:0:0:0:
202,181,341961,2,0,L|129:178,1,41.2500015735627,2|10,0:0|0:0,0:0:0:0:
90,227,342089,5,2,0:0:0:0:
93,255,342152,1,10,0:0:0:0:
96,284,342216,2,0,L|23:281,1,41.2500015735627,2|10,0:0|0:0,0:0:0:0:
230,276,342344,5,2,0:0:0:0:
233,304,342407,1,10,0:0:0:0:
236,333,342472,2,0,L|163:330,1,41.2500015735627,2|10,0:0|0:0,0:0:0:0:
344,328,342600,5,2,0:0:0:0:
364,324,342663,1,10,0:0:0:0:
384,324,342727,1,2,0:0:0:0:
404,327,342791,1,10,0:0:0:0:
423,335,342855,6,0,P|421:310|414:279,1,41.2500015735627,2|10,0:0|0:0,0:0:0:0:
466,224,342983,5,2,0:0:0:0:
465,199,343046,1,10,0:0:0:0:
465,174,343110,1,2,0:0:0:0:
464,149,343174,1,10,0:0:0:0:
464,125,343238,1,2,0:0:0:0:
463,100,343302,1,10,0:0:0:0:
463,75,343365,5,2,0:0:0:0:
457,69,343429,1,10,0:0:0:0:
451,63,343493,2,0,P|433:67|403:68,1,41.2500015735627,2|10,0:0|0:0,0:0:0:0:
293,122,343621,6,0,P|311:118|341:117,1,41.2500015735627,2|10,0:0|0:0,0:0:0:0:
301,135,343748,2,0,P|319:131|349:130,1,41.2500015735627,2|10,0:0|0:0,0:0:0:0:
465,174,343876,5,2,0:0:0:0:
459,168,343940,1,10,0:0:0:0:
453,162,344004,2,0,P|435:166|405:167,1,41.2500015735627,2|10,0:0|0:0,0:0:0:0:
337,222,344131,5,2,0:0:0:0:
328,220,344195,1,10,0:0:0:0:
319,219,344259,1,2,0:0:0:0:
310,218,344323,1,10,0:0:0:0:
301,218,344387,6,0,P|305:246|305:279,1,41.2500015735627,2|10,0:0|0:0,0:0:0:0:
223,247,344514,5,2,0:0:0:0:
208,247,344577,1,10,0:0:0:0:
194,248,344641,1,2,0:0:0:0:
179,248,344705,1,10,0:0:0:0:
165,249,344769,1,2,0:0:0:0:
150,249,344833,1,10,0:0:0:0:
81,287,344897,5,2,0:0:0:0:
87,306,344960,1,10,0:0:0:0:
88,327,345024,1,2,0:0:0:0:
84,347,345088,1,10,0:0:0:0:
74,365,345152,1,2,0:0:0:0:
61,381,345216,1,10,0:0:0:0:
81,287,345280,5,2,0:0:0:0:
74,267,345343,1,10,0:0:0:0:
73,246,345407,1,2,0:0:0:0:
77,225,345471,1,10,0:0:0:0:
86,207,345535,1,2,0:0:0:0:
100,192,345599,1,10,0:0:0:0:
168,145,345663,5,2,0:0:0:0:
167,140,345727,1,2,0:0:0:0:
166,135,345791,1,2,0:0:0:0:
166,130,345855,1,2,0:0:0:0:
166,125,345919,1,2,0:0:0:0:
166,120,345983,1,2,0:0:0:0:
232,75,346046,5,10,0:0:0:0:
233,70,346111,1,2,0:0:0:0:
234,65,346175,1,2,0:0:0:0:
234,60,346239,1,2,0:0:0:0:
234,55,346303,1,2,0:0:0:0:
234,50,346365,1,2,0:0:0:0:
167,1,346429,5,10,0:0:0:0:
167,1,346685,1,10,0:0:0:0:
167,1,346940,5,10,0:0:0:0:
512,76,347068,1,10,0:0:0:0:
387,177,347195,5,2,0:0:0:0:
387,177,347578,5,2,0:0:0:0:
386,191,347641,1,10,0:0:0:0:
385,205,347705,1,2,0:0:0:0:
384,220,347769,1,10,0:0:0:0:
383,234,347833,1,2,0:0:0:0:
383,249,347897,1,10,0:0:0:0:
382,263,347961,5,2,0:0:0:0:
362,257,348025,1,10,0:0:0:0:
341,254,348088,1,2,0:0:0:0:
321,255,348153,1,10,0:0:0:0:
301,259,348216,1,2,0:0:0:0:
281,266,348280,1,10,0:0:0:0:
238,291,348344,5,2,0:0:0:0:
218,296,348408,1,10,0:0:0:0:
197,299,348471,1,2,0:0:0:0:
177,298,348536,1,10,0:0:0:0:
157,294,348599,1,2,0:0:0:0:
137,287,348663,1,10,0:0:0:0:
129,283,348727,5,2,0:0:0:0:
120,281,348791,1,10,0:0:0:0:
111,280,348855,1,2,0:0:0:0:
102,279,348919,1,10,0:0:0:0:
93,278,348983,6,0,P|98:307|98:330,1,41.2500015735627,2|10,0:0|0:0,0:0:0:0:
89,193,349110,5,2,0:0:0:0:
88,178,349173,1,10,0:0:0:0:
88,164,349237,1,2,0:0:0:0:
87,149,349301,1,10,0:0:0:0:
87,135,349365,1,2,0:0:0:0:
86,120,349429,1,10,0:0:0:0:
86,106,349492,5,2,0:0:0:0:
114,112,349557,1,10,0:0:0:0:
142,118,349621,2,0,L|137:61,1,41.2500015735627,2|10,0:0|0:0,0:0:0:0:
233,86,349748,5,2,0:0:0:0:
261,92,349813,1,10,0:0:0:0:
289,98,349877,2,0,L|284:41,1,41.2500015735627,2|10,0:0|0:0,0:0:0:0:
380,73,350004,5,2,0:0:0:0:
408,79,350069,1,10,0:0:0:0:
436,85,350131,2,0,L|431:28,1,41.2500015735627,2|10,0:0|0:0,0:0:0:0:
444,183,350259,5,2,0:0:0:0:
278,218,350387,1,2,0:0:0:0:
490,271,350514,1,2,0:0:0:0:
156,328,350642,5,10,0:0:0:0:
156,328,350770,1,0,0:0:0:0:
156,328,350897,1,0,0:0:0:0:
156,328,351025,5,2,0:0:0:0:
144,310,351088,1,2,0:0:0:0:
137,291,351152,1,2,0:0:0:0:
135,270,351216,1,2,0:0:0:0:
138,250,351280,1,2,0:0:0:0:
146,231,351344,1,2,0:0:0:0:
116,191,351408,5,10,0:0:0:0:
135,197,351471,1,2,0:0:0:0:
155,200,351535,1,2,0:0:0:0:
176,200,351599,1,2,0:0:0:0:
196,197,351663,1,2,0:0:0:0:
216,191,351727,1,2,0:0:0:0:
235,182,351790,5,2,0:0:0:0:
351,225,351919,1,2,0:0:0:0:
317,59,352046,1,2,0:0:0:0:
221,357,352174,5,10,0:0:0:0:
221,357,352302,1,0,0:0:0:0:
221,357,352429,1,0,0:0:0:0:
221,357,352557,5,2,0:0:0:0:
236,343,352620,1,2,0:0:0:0:
254,334,352684,1,2,0:0:0:0:
275,331,352748,1,2,0:0:0:0:
295,335,352812,1,2,0:0:0:0:
313,345,352876,1,2,0:0:0:0:
348,380,352940,5,10,0:0:0:0:
347,359,353003,1,2,0:0:0:0:
346,338,353067,1,2,0:0:0:0:
344,318,353131,1,2,0:0:0:0:
343,297,353195,1,2,0:0:0:0:
342,277,353259,1,2,0:0:0:0:
340,256,353322,5,2,0:0:0:0:
292,123,353451,1,2,0:0:0:0:
453,186,353578,1,2,0:0:0:0:
75,232,353706,5,10,0:0:0:0:
75,232,353834,1,0,0:0:0:0:
75,232,353961,1,0,0:0:0:0:
75,232,354089,5,2,0:0:0:0:
76,252,354152,1,2,0:0:0:0:
77,273,354216,1,2,0:0:0:0:
78,293,354280,1,2,0:0:0:0:
79,314,354344,1,2,0:0:0:0:
81,334,354408,1,2,0:0:0:0:
47,371,354472,5,10,0:0:0:0:
66,363,354535,1,2,0:0:0:0:
86,359,354599,1,2,0:0:0:0:
106,357,354663,1,2,0:0:0:0:
127,359,354727,1,2,0:0:0:0:
147,364,354791,1,2,0:0:0:0:
196,371,354855,5,10,0:0:0:0:
215,378,354918,1,2,0:0:0:0:
235,382,354982,1,2,0:0:0:0:
255,384,355046,1,2,0:0:0:0:
276,382,355110,1,2,0:0:0:0:
296,377,355174,1,2,0:0:0:0:
343,363,355238,5,10,0:0:0:0:
362,356,355301,1,2,0:0:0:0:
382,351,355365,1,2,0:0:0:0:
403,350,355429,1,2,0:0:0:0:
423,352,355493,1,2,0:0:0:0:
443,356,355557,1,2,0:0:0:0:
489,371,355621,6,0,L|491:312,1,41.2500015735627,10|2,0:0|0:0,0:0:0:0:
426,269,355748,1,2,0:0:0:0:
426,269,355812,1,2,0:0:0:0:
426,269,355876,2,0,L|428:210,1,41.2500015735627,10|2,0:0|0:0,0:0:0:0:
489,161,356004,6,0,L|491:102,1,41.2500015735627,2|2,0:0|0:0,0:0:0:0:
426,59,356131,1,10,0:0:0:0:
426,59,356195,1,2,0:0:0:0:
426,59,356259,2,0,L|428:0,1,41.2500015735627,2|2,0:0|0:0,0:0:0:0:
287,78,356387,6,0,L|342:72,1,41.2500015735627,10|2,0:0|0:0,0:0:0:0:
164,94,356514,2,0,L|219:88,1,41.2500015735627,2|2,0:0|0:0,0:0:0:0:
42,110,356642,2,0,L|97:104,1,41.2500015735627,2|2,0:0|0:0,0:0:0:0:
123,185,356770,5,10,0:0:0:0:
135,201,356833,1,2,0:0:0:0:
143,220,356897,1,2,0:0:0:0:
147,240,356961,1,2,0:0:0:0:
146,261,357025,1,2,0:0:0:0:
140,280,357089,1,2,0:0:0:0:
105,316,357153,5,10,0:0:0:0:
126,315,357216,1,2,0:0:0:0:
146,314,357280,1,2,0:0:0:0:
167,313,357344,1,2,0:0:0:0:
188,312,357408,1,2,0:0:0:0:
208,311,357472,1,2,0:0:0:0:
253,331,357536,5,10,0:0:0:0:
274,330,357599,1,2,0:0:0:0:
294,329,357663,1,2,0:0:0:0:
315,328,357727,1,2,0:0:0:0:
336,327,357791,1,2,0:0:0:0:
356,326,357855,1,2,0:0:0:0:
401,345,357919,5,10,0:0:0:0:
389,328,357982,1,2,0:0:0:0:
380,309,358046,1,2,0:0:0:0:
377,289,358110,1,2,0:0:0:0:
378,268,358174,1,2,0:0:0:0:
384,248,358238,1,2,0:0:0:0:
418,212,358302,5,10,0:0:0:0:
430,195,358365,1,2,0:0:0:0:
438,176,358429,1,2,0:0:0:0:
442,156,358493,1,2,0:0:0:0:
440,135,358557,1,2,0:0:0:0:
435,115,358621,1,2,0:0:0:0:
408,73,358685,5,10,0:0:0:0:
408,73,358940,1,10,0:0:0:0:
408,73,359195,5,10,0:0:0:0:
63,117,359323,1,10,0:0:0:0:
209,160,359451,5,2,0:0:0:0:
209,160,359578,1,0,0:0:0:0:
209,160,359706,1,0,0:0:0:0:
209,160,359834,5,10,0:0:0:0:
217,178,359897,1,2,0:0:0:0:
221,198,359961,1,2,0:0:0:0:
221,219,360025,1,2,0:0:0:0:
216,239,360089,1,2,0:0:0:0:
206,257,360153,1,2,0:0:0:0:
167,288,360217,5,10,0:0:0:0:
187,286,360280,1,2,0:0:0:0:
208,285,360344,1,2,0:0:0:0:
228,284,360408,1,2,0:0:0:0:
249,283,360472,1,2,0:0:0:0:
269,282,360536,1,2,0:0:0:0:
313,307,360600,5,10,0:0:0:0:
334,306,360663,1,2,0:0:0:0:
354,305,360727,1,2,0:0:0:0:
375,304,360791,1,2,0:0:0:0:
395,303,360855,1,2,0:0:0:0:
416,302,360919,1,2,0:0:0:0:
459,326,360983,5,10,0:0:0:0:
452,306,361046,1,2,0:0:0:0:
453,285,361110,1,2,0:0:0:0:
460,266,361174,1,2,0:0:0:0:
415,245,361238,5,10,0:0:0:0:
421,225,361301,1,2,0:0:0:0:
420,204,361365,1,2,0:0:0:0:
413,185,361429,1,2,0:0:0:0:
456,161,361493,5,10,0:0:0:0:
449,141,361556,1,2,0:0:0:0:
450,120,361620,1,2,0:0:0:0:
457,101,361684,1,2,0:0:0:0:
489,63,361748,6,0,L|422:65,1,41.2500015735627,10|2,0:0|0:0,0:0:0:0:
366,94,361876,1,10,0:0:0:0:
366,94,361940,1,2,0:0:0:0:
366,94,362004,2,0,L|299:96,1,41.2500015735627,2|2,0:0|0:0,0:0:0:0:
249,53,362131,6,0,L|182:55,1,41.2500015735627,10|2,0:0|0:0,0:0:0:0:
126,84,362259,1,2,0:0:0:0:
126,84,362323,1,2,0:0:0:0:
126,84,362387,2,0,L|59:86,1,41.2500015735627,2|2,0:0|0:0,0:0:0:0:
0,25,362514,5,10,0:0:0:0:
0,25,362770,1,10,0:0:0:0:
0,25,363025,5,10,0:0:0:0:
108,286,363153,1,10,0:0:0:0:
314,166,363280,5,10,0:0:0:0:
314,166,363536,1,10,0:0:0:0:
314,166,363791,5,10,0:0:0:0:
50,133,363919,1,10,0:0:0:0:
432,81,364046,5,10,0:0:0:0:
432,81,364302,1,10,0:0:0:0:
432,81,364557,5,10,0:0:0:0:
70,41,364685,1,10,0:0:0:0:
164,105,364812,5,2,0:0:0:0:
168,116,364876,1,2,0:0:0:0:
169,128,364940,1,2,0:0:0:0:
167,140,365004,1,2,0:0:0:0:
153,179,365068,5,2,0:0:0:0:
149,190,365132,1,2,0:0:0:0:
148,202,365196,1,2,0:0:0:0:
150,214,365260,1,2,0:0:0:0:
161,252,365323,5,2,0:0:0:0:
165,263,365387,1,2,0:0:0:0:
166,275,365451,1,2,0:0:0:0:
164,287,365515,1,2,0:0:0:0:
152,326,365578,5,10,0:0:0:0:
152,326,365834,1,10,0:0:0:0:
152,326,366089,5,10,0:0:0:0:
447,277,366217,1,10,0:0:0:0:
32,260,366344,5,10,0:0:0:0:
32,260,366600,1,10,0:0:0:0:
32,260,366855,5,10,0:0:0:0:
351,345,366983,1,10,0:0:0:0:
261,273,367110,5,2,0:0:0:0:
264,261,367174,1,2,0:0:0:0:
264,248,367238,1,2,0:0:0:0:
261,235,367302,1,2,0:0:0:0:
254,194,367365,5,2,0:0:0:0:
251,182,367429,1,2,0:0:0:0:
251,169,367493,1,2,0:0:0:0:
254,156,367557,1,2,0:0:0:0:
271,118,367621,5,10,0:0:0:0:
274,106,367685,1,2,0:0:0:0:
274,93,367749,1,2,0:0:0:0:
271,80,367813,1,2,0:0:0:0:
255,42,367876,5,10,0:0:0:0:
270,55,367939,1,2,0:0:0:0:
289,64,368003,1,2,0:0:0:0:
308,71,368067,1,2,0:0:0:0:
329,73,368131,1,6,0:0:0:0:
349,72,368195,1,6,0:0:0:0:
369,66,368258,1,6,0:0:0:0:
389,64,368322,1,6,0:0:0:0:
409,69,368386,1,6,0:0:0:0:
425,81,368450,1,6,0:0:0:0:
435,99,368514,1,6,0:0:0:0:
437,120,368578,1,6,0:0:0:0:
431,139,368642,6,0,L|486:135,1,41.2500015735627,6|2,0:0|0:0,0:0:0:0:
356,228,368770,1,2,0:0:0:0:
363,238,368834,1,2,0:0:0:0:
370,247,368897,2,0,L|424:242,1,41.2500015735627,10|2,0:0|0:0,0:0:0:0:
236,153,369025,1,2,0:0:0:0:
243,163,369089,1,2,0:0:0:0:
250,172,369153,6,0,L|304:167,1,41.2500015735627,10|2,0:0|0:0,0:0:0:0:
48,253,369280,2,0,L|-6:257,1,41.2500015735627,10|2,0:0|0:0,0:0:0:0:
396,123,369408,6,0,L|450:118,1,41.2500015735627,10|2,0:0|0:0,0:0:0:0:
287,78,369536,1,2,0:0:0:0:
280,68,369600,1,2,0:0:0:0:
273,59,369663,2,0,L|218:63,1,41.2500015735627,10|2,0:0|0:0,0:0:0:0:
134,161,369791,1,2,0:0:0:0:
141,171,369855,1,2,0:0:0:0:
147,181,369919,6,0,L|105:184,1,41.2500015735627,10|2,0:0|0:0,0:0:0:0:
451,212,370046,2,0,L|492:208,1,41.2500015735627,10|2,0:0|0:0,0:0:0:0:
91,330,370174,6,0,L|49:333,1,41.2500015735627,10|2,0:0|0:0,0:0:0:0:
208,321,370302,1,2,0:0:0:0:
215,331,370366,1,2,0:0:0:0:
222,340,370429,2,0,L|276:335,1,41.2500015735627,10|2,0:0|0:0,0:0:0:0:
394,330,370557,1,2,0:0:0:0:
387,320,370621,1,2,0:0:0:0:
381,310,370684,6,0,L|422:306,1,41.2500015735627,10|2,0:0|0:0,0:0:0:0:
72,239,370812,2,0,L|30:242,1,41.2500015735627,10|2,0:0|0:0,0:0:0:0:
147,181,370940,5,2,0:0:0:0:
159,183,371004,1,2,0:0:0:0:
171,183,371068,1,2,0:0:0:0:
182,180,371131,1,2,0:0:0:0:
221,168,371195,5,2,0:0:0:0:
233,166,371259,1,2,0:0:0:0:
245,166,371323,1,2,0:0:0:0:
256,169,371386,1,2,0:0:0:0:
296,180,371451,5,2,0:0:0:0:
308,182,371515,1,2,0:0:0:0:
320,182,371579,1,2,0:0:0:0:
331,179,371642,1,2,0:0:0:0:
374,169,371706,6,0,L|455:163,1,55,10|2,0:0|0:0,0:0:0:0:
76,90,371834,2,0,L|-5:96,1,55,10|2,0:0|0:0,0:0:0:0:
390,179,371961,2,0,L|471:173,1,55,10|2,0:0|0:0,0:0:0:0:
78,226,372089,6,0,L|-3:232,1,55,10|2,0:0|0:0,0:0:0:0:
456,303,372217,2,0,L|537:297,1,55,10|2,0:0|0:0,0:0:0:0:
62,216,372344,2,0,L|-19:222,1,55,10|2,0:0|0:0,0:0:0:0:
315,56,372472,5,10,0:0:0:0:
389,36,372536,1,10,0:0:0:0:
456,73,372600,2,0,L|537:67,1,55,10|2,0:0|0:0,0:0:0:0:
76,90,372727,2,0,L|-5:96,1,55,10|2,0:0|0:0,0:0:0:0:
73,237,372855,5,2,0:0:0:0:
70,232,372919,1,2,0:0:0:0:
67,227,372983,1,2,0:0:0:0:
64,222,373046,1,2,0:0:0:0:
62,216,373110,2,0,L|-19:222,1,55,10|2,0:0|0:0,0:0:0:0:
0,325,373238,5,2,0:0:0:0:
3,330,373301,1,2,0:0:0:0:
5,336,373365,2,0,L|86:330,1,55,10|2,0:0|0:0,0:0:0:0:
510,298,373493,2,0,L|429:304,1,55,10|2,0:0|0:0,0:0:0:0:
512,200,373621,5,2,0:0:0:0:
509,195,373684,1,2,0:0:0:0:
507,189,373748,2,0,L|426:195,1,55,10|2,0:0|0:0,0:0:0:0:
7,220,373876,2,0,L|88:214,1,55,10|2,0:0|0:0,0:0:0:0:
298,21,374004,5,8,0:0:0:0:
218,59,374068,1,8,0:0:0:0:
204,144,374131,1,8,0:0:0:0:
254,216,374195,1,8,0:0:0:0:
254,304,374259,1,8,0:0:0:0:
180,352,374323,1,8,0:0:0:0:
95,327,374387,5,4,0:0:0:0:
105,307,374450,1,4,0:0:0:0:
118,289,374514,1,4,0:0:0:0:
136,276,374578,1,4,0:0:0:0:
156,267,374642,1,4,0:0:0:0:
177,264,374706,1,4,0:0:0:0:
254,304,374770,6,0,B|310:305|341:330|341:330|382:288|440:323|440:323|474:244|474:244|397:214|342:235|342:235|351:200|351:200|420:208|450:149|456:127|463:37|371:0|296:34|284:86|281:126|292:152|292:152|247:140|247:140|263:178|263:178|254:216|254:216|205:142|205:142|143:122|143:122|155:77|140:31|82:-6|5:19|-12:99|15:132|43:154|43:154|34:199|34:199|8:219|8:219|23:275|23:275|57:219|106:198|106:198|151:213|151:213|148:223|148:223|176:264|176:264|101:275|86:354,1,1908.91803716704,6|0,0:0|0:0,0:0:0:0:
