osu file format v14

[General]
AudioFilename: audio.mp3
AudioLeadIn: 0
PreviewTime: 307906
Countdown: 0
SampleSet: Normal
StackLeniency: 0.7
Mode: 0
LetterboxInBreaks: 0
EpilepsyWarning: 1
WidescreenStoryboard: 1

[Editor]
Bookmarks: 121207,135976,202901,217076
DistanceSpacing: 1.4
BeatDivisor: 4
GridSize: 8
TimelineZoom: 2.1

[Metadata]
Title:Behold the Bearer of Light
TitleUnicode:Behold the Bearer of Light
Artist:Inferi
ArtistUnicode:Inferi
Creator:OlmyBootycheeks
Version:The Throne of Misery
Source:
Tags:black metal metal symphonic metal death metal melodic death metal symphonic death metal tech death technical death metal thrash metal Nashville
BeatmapID:1608863
BeatmapSetID:765188

[Difficulty]
HPDrainRate:4
CircleSize:4.2
OverallDifficulty:9
ApproachRate:9.7
SliderMultiplier:2
SliderTickRate:1

[Events]
//Background and Video events
0,0,"lightbearer.jpg",0,0
//Break Periods
//Storyboard Layer 0 (Background)
//Storyboard Layer 1 (Fail)
//Storyboard Layer 2 (Pass)
//Storyboard Layer 3 (Foreground)
//Storyboard Sound Samples

[TimingPoints]
15138,315.789473684211,3,1,1,40,1,0
15138,-125,3,1,1,40,0,0
29348,-100,3,1,1,40,0,0
30295,-83.3333333333333,3,1,1,40,0,0
45453,-100,3,1,1,40,0,0
60611,-83.3333333333333,3,1,1,40,0,0
73874,-66.6666666666667,3,1,1,40,0,0
75769,-125,4,1,1,40,0,0
90927,-83.3333333333333,4,1,1,40,0,0
106085,-83.3333333333333,4,1,1,40,0,0
121207,307.692307692308,3,1,1,40,1,0
121207,-100,3,1,1,40,0,1
135976,-100,3,1,1,40,0,0
145437,-100,3,3,1,50,0,0
145514,-100,3,1,1,50,0,0
146130,-83.3333333333333,3,1,1,40,0,0
159668,307.692307692308,3,1,1,40,1,0
159668,-100,3,1,1,40,0,0
188276,300,3,1,1,40,1,0
188276,-100,3,1,1,40,0,0
199076,-83.3333333333333,3,1,1,40,0,0
202901,-83.3333333333333,3,1,1,40,0,1
217076,-83.3333333333333,3,1,1,40,0,0
231476,-100,3,1,1,40,0,0
245876,307.692307692308,3,1,1,40,1,0
245876,-83.3333333333333,3,1,1,40,0,0
264337,300,3,1,1,40,1,0
264337,-83.3333333333333,3,1,1,40,0,0
278737,-83.3333333333333,3,1,1,40,0,0
293137,307.692307692308,3,1,1,40,1,0
293137,-125,3,1,1,40,0,0
307906,-83.3333333333333,3,1,1,40,0,1
337444,-166.666666666667,3,1,1,40,0,0
348829,-200,3,1,1,40,0,0
349137,-83.3333333333333,3,1,1,40,0,0
349790,324.324324324324,5,1,1,40,1,0
349790,-83.3333333333333,5,1,1,40,0,0
360806,333.333333333333,3,1,1,40,1,0
360806,-83.3333333333333,3,1,1,40,0,1
364139,-83.3333333333333,3,1,1,40,0,0
364269,320.855614973262,3,1,1,40,1,1
364269,-83.3333333333333,3,1,1,40,0,0
367585,333.333333333333,3,1,1,40,1,1
367585,-100,3,1,1,40,0,0
368575,324.324324324324,3,1,1,40,1,1
368575,-83.3333333333333,3,1,1,40,0,1
375385,-83.3333333333333,3,1,1,40,0,0
376358,-83.3333333333333,3,1,1,40,0,1
379302,324.324324324324,3,1,1,40,1,1
379302,-83.3333333333333,3,1,1,40,0,0
380274,-83.3333333333333,3,1,1,40,0,1
383193,-83.3333333333333,3,3,1,50,0,0
383274,-83.3333333333333,3,3,1,20,0,0

[Colours]
Combo1 : 81,68,68
Combo2 : 74,32,32
Combo3 : 106,27,0
Combo4 : 255,40,40

[HitObjects]
144,103,15137,5,8,0:0:0:0:
70,216,15453,1,0,0:0:0:0:
72,230,15611,1,0,0:0:0:0:
74,247,15769,2,0,B|72:259|72:259|66:273|66:273|72:307,4,40
378,91,17032,5,8,0:0:0:0:
441,210,17348,1,0,0:0:0:0:
430,225,17506,1,0,0:0:0:0:
420,240,17664,2,0,B|411:251|411:251|411:272|411:272|386:299,4,40
264,233,18295,5,8,0:0:0:0:
160,157,18611,1,0,0:0:0:0:
75,80,18927,5,8,0:0:0:0:
78,192,19243,1,0,0:0:0:0:
136,206,19401,1,0,0:0:0:0:
194,221,19559,2,0,B|207:224|207:224|223:222|223:222|254:231,4,40
417,74,20822,5,8,0:0:0:0:
211,64,21137,1,0,0:0:0:0:
195,126,21295,1,0,0:0:0:0:
177,187,21453,2,0,B|173:198|173:198|176:212|176:212|167:234,4,40
154,313,22085,6,0,P|215:317|257:284,1,80
226,355,22401,2,0,P|278:323|293:272,1,80
275,228,22716,1,0,0:0:0:0:
386,89,23032,5,8,0:0:0:0:
308,107,23190,1,0,0:0:0:0:
230,125,23348,2,0,B|218:127|218:127|208:137|208:137|184:140,4,40
411,324,24611,5,8,0:0:0:0:
273,178,24927,1,0,0:0:0:0:
184,223,25085,1,0,0:0:0:0:
95,270,25243,2,0,B|84:275|84:275|77:287|77:287|54:297,4,40
136,58,25874,5,8,0:0:0:0:
158,134,26032,1,0,0:0:0:0:
271,94,26190,1,8,0:0:0:0:
265,173,26348,1,0,0:0:0:0:
201,275,26506,5,8,0:0:0:0:
361,336,26822,1,0,0:0:0:0:
388,227,26980,1,0,0:0:0:0:
432,115,27138,2,0,B|436:103|436:103|433:89|433:89|443:68,4,40
191,58,27769,5,8,0:0:0:0:
225,173,27927,1,8,0:0:0:0:
260,303,28401,5,8,0:0:0:0:
273,317,28479,1,0,0:0:0:0:
290,327,28558,1,0,0:0:0:0:
310,329,28637,1,0,0:0:0:0:
330,328,28716,1,0,0:0:0:0:
348,320,28794,1,0,0:0:0:0:
366,312,28873,5,12,0:0:0:0:
368,272,28952,1,0,0:0:0:0:
383,234,29032,1,0,0:0:0:0:
396,196,29110,1,0,0:0:0:0:
394,156,29189,1,0,0:0:0:0:
370,126,29268,1,0,0:0:0:0:
332,115,29348,6,2,P|290:116|244:156,2,100
338,214,29822,2,2,P|387:209|424:176,2,100
174,132,30295,5,12,0:0:0:0:
142,168,30373,1,0,0:0:0:0:
109,203,30452,1,0,0:0:0:0:
77,238,30531,1,0,0:0:0:0:
44,274,30611,1,0,0:0:0:0:
37,320,30689,1,0,0:0:0:0:
69,354,30768,1,0,0:0:0:0:
116,344,30847,1,0,0:0:0:0:
160,325,30927,1,0,0:0:0:0:
203,304,31005,1,0,0:0:0:0:
250,299,31084,1,0,0:0:0:0:
297,309,31163,1,0,0:0:0:0:
341,329,31243,5,8,0:0:0:0:
383,349,31321,1,0,0:0:0:0:
428,336,31400,1,0,0:0:0:0:
454,297,31479,1,0,0:0:0:0:
445,249,31559,1,0,0:0:0:0:
430,203,31637,1,0,0:0:0:0:
416,157,31716,1,0,0:0:0:0:
402,111,31795,1,0,0:0:0:0:
395,63,31874,1,0,0:0:0:0:
355,89,31952,1,0,0:0:0:0:
309,100,32031,1,0,0:0:0:0:
262,92,32110,1,0,0:0:0:0:
226,83,32190,5,8,0:0:0:0:
192,72,32268,1,0,0:0:0:0:
158,83,32347,1,0,0:0:0:0:
137,112,32426,1,0,0:0:0:0:
139,148,32506,1,0,0:0:0:0:
146,183,32584,1,0,0:0:0:0:
154,218,32663,1,0,0:0:0:0:
161,253,32742,1,0,0:0:0:0:
153,289,32822,1,0,0:0:0:0:
188,292,32900,1,0,0:0:0:0:
224,295,32979,1,0,0:0:0:0:
260,298,33058,1,0,0:0:0:0:
296,301,33138,5,8,0:0:0:0:
330,292,33216,1,0,0:0:0:0:
354,266,33295,1,0,0:0:0:0:
360,231,33374,1,0,0:0:0:0:
379,200,33453,1,0,0:0:0:0:
346,214,33531,1,0,0:0:0:0:
310,216,33610,1,0,0:0:0:0:
276,204,33689,1,0,0:0:0:0:
255,174,33769,1,0,0:0:0:0:
231,201,33847,1,0,0:0:0:0:
218,234,33926,1,0,0:0:0:0:
216,270,34005,1,0,0:0:0:0:
211,306,34085,5,12,0:0:0:0:
232,264,34163,1,0,0:0:0:0:
272,239,34242,1,0,0:0:0:0:
320,238,34321,1,0,0:0:0:0:
366,250,34401,1,0,0:0:0:0:
413,258,34479,1,0,0:0:0:0:
458,243,34558,1,0,0:0:0:0:
489,207,34637,1,0,0:0:0:0:
498,160,34716,1,0,0:0:0:0:
482,115,34795,1,0,0:0:0:0:
446,84,34874,1,0,0:0:0:0:
400,75,34953,1,0,0:0:0:0:
354,60,35032,5,8,0:0:0:0:
365,106,35110,1,0,0:0:0:0:
357,153,35189,1,0,0:0:0:0:
333,194,35268,1,0,0:0:0:0:
308,235,35348,1,0,0:0:0:0:
296,279,35426,1,0,0:0:0:0:
280,324,35506,1,0,0:0:0:0:
256,365,35584,1,0,0:0:0:0:
213,384,35663,1,0,0:0:0:0:
167,376,35742,1,0,0:0:0:0:
134,342,35821,1,0,0:0:0:0:
126,295,35900,1,0,0:0:0:0:
145,250,35980,5,12,0:0:0:0:
132,192,36058,1,0,0:0:0:0:
84,160,36137,1,0,0:0:0:0:
26,171,36216,1,0,0:0:0:0:
0,218,36295,1,0,0:0:0:0:
2,276,36374,1,0,0:0:0:0:
49,311,36453,1,0,0:0:0:0:
107,303,36532,1,0,0:0:0:0:
164,285,36611,1,0,0:0:0:0:
223,277,36689,1,0,0:0:0:0:
282,285,36768,1,0,0:0:0:0:
337,310,36847,1,0,0:0:0:0:
370,360,36927,5,12,0:0:0:0:
355,302,37005,1,0,0:0:0:0:
364,243,37084,1,0,0:0:0:0:
395,191,37163,1,0,0:0:0:0:
426,139,37243,1,0,0:0:0:0:
443,83,37321,1,0,0:0:0:0:
420,29,37400,1,0,0:0:0:0:
367,4,37479,1,0,0:0:0:0:
310,20,37558,1,0,0:0:0:0:
279,69,37637,1,0,0:0:0:0:
287,127,37716,1,0,0:0:0:0:
332,165,37795,1,0,0:0:0:0:
352,208,37874,5,12,0:0:0:0:
343,254,37952,1,0,0:0:0:0:
315,293,38031,1,0,0:0:0:0:
273,315,38110,1,0,0:0:0:0:
226,317,38189,1,0,0:0:0:0:
182,298,38268,1,0,0:0:0:0:
151,262,38347,1,0,0:0:0:0:
139,216,38426,1,0,0:0:0:0:
148,170,38505,1,0,0:0:0:0:
176,132,38584,1,0,0:0:0:0:
219,110,38663,1,0,0:0:0:0:
266,109,38742,1,0,0:0:0:0:
311,128,38822,5,8,0:0:0:0:
289,99,38900,1,0,0:0:0:0:
259,81,38979,1,0,0:0:0:0:
224,78,39058,1,0,0:0:0:0:
190,92,39138,1,0,0:0:0:0:
171,123,39216,1,0,0:0:0:0:
172,157,39295,1,0,0:0:0:0:
193,187,39374,1,0,0:0:0:0:
203,217,39453,1,0,0:0:0:0:
169,204,39531,1,0,0:0:0:0:
135,195,39610,1,0,0:0:0:0:
99,190,39689,1,0,0:0:0:0:
62,194,39769,5,12,0:0:0:0:
67,140,39847,1,0,0:0:0:0:
97,96,39926,1,0,0:0:0:0:
145,73,40005,1,0,0:0:0:0:
198,77,40084,1,0,0:0:0:0:
243,106,40163,1,0,0:0:0:0:
267,154,40242,1,0,0:0:0:0:
265,207,40321,1,0,0:0:0:0:
247,258,40401,1,0,0:0:0:0:
245,305,40479,1,0,0:0:0:0:
278,338,40558,1,0,0:0:0:0:
324,338,40637,1,0,0:0:0:0:
362,283,40716,5,12,0:0:0:0:
357,236,40794,1,0,0:0:0:0:
365,188,40873,1,0,0:0:0:0:
386,145,40952,1,0,0:0:0:0:
405,100,41032,1,0,0:0:0:0:
396,53,41110,1,0,0:0:0:0:
358,26,41189,1,0,0:0:0:0:
312,31,41268,1,0,0:0:0:0:
264,23,41348,1,0,0:0:0:0:
285,65,41426,1,0,0:0:0:0:
286,113,41505,1,0,0:0:0:0:
268,157,41584,1,0,0:0:0:0:
238,165,41664,5,14,0:0:0:0:
247,194,41742,1,0,0:0:0:0:
257,222,41821,1,0,0:0:0:0:
267,251,41900,1,0,0:0:0:0:
276,279,41979,1,0,0:0:0:0:
286,308,42058,1,0,0:0:0:0:
352,350,42138,5,14,0:0:0:0:
380,360,42216,1,0,0:0:0:0:
410,358,42295,1,0,0:0:0:0:
436,344,42374,1,0,0:0:0:0:
453,320,42453,1,0,0:0:0:0:
458,290,42532,1,0,0:0:0:0:
451,212,42611,5,12,0:0:0:0:
452,181,42689,1,0,0:0:0:0:
464,153,42768,1,0,0:0:0:0:
483,132,42847,1,0,0:0:0:0:
497,54,42927,5,12,0:0:0:0:
467,46,43005,1,0,0:0:0:0:
437,45,43084,1,0,0:0:0:0:
408,50,43163,1,0,0:0:0:0:
330,64,43243,5,12,0:0:0:0:
301,67,43321,1,0,0:0:0:0:
271,64,43400,1,0,0:0:0:0:
243,55,43479,1,0,0:0:0:0:
165,39,43559,5,12,0:0:0:0:
118,40,43637,1,0,0:0:0:0:
83,72,43716,1,0,0:0:0:0:
82,120,43795,2,0,L|89:194,2,59.9999981689454
173,157,44031,5,8,0:0:0:0:
219,168,44110,1,0,0:0:0:0:
252,182,44190,1,0,0:0:0:0:
282,202,44268,1,0,0:0:0:0:
317,209,44347,1,0,0:0:0:0:
352,202,44426,1,0,0:0:0:0:
383,182,44506,5,8,0:0:0:0:
376,217,44584,1,0,0:0:0:0:
370,252,44663,1,0,0:0:0:0:
363,288,44742,1,0,0:0:0:0:
353,323,44822,1,0,0:0:0:0:
327,347,44900,1,0,0:0:0:0:
292,353,44979,1,0,0:0:0:0:
260,338,45058,1,0,0:0:0:0:
230,318,45138,1,0,0:0:0:0:
196,305,45216,1,0,0:0:0:0:
160,303,45295,1,0,0:0:0:0:
126,313,45374,1,0,0:0:0:0:
96,333,45453,6,0,L|48:370,1,50,8|0,0:0|0:0,0:0:0:0:
19,297,45611,1,0,0:0:0:0:
14,247,45689,1,0,0:0:0:0:
36,203,45768,1,0,0:0:0:0:
77,176,45847,1,0,0:0:0:0:
126,174,45926,1,0,0:0:0:0:
259,246,46085,1,8,0:0:0:0:
399,192,46243,1,8,0:0:0:0:
457,127,46401,6,2,L|501:8,1,100
343,54,46716,1,8,0:0:0:0:
331,81,46794,1,0,0:0:0:0:
328,111,46873,1,0,0:0:0:0:
334,140,46952,1,0,0:0:0:0:
345,168,47032,1,0,0:0:0:0:
355,201,47110,1,0,0:0:0:0:
351,235,47189,1,0,0:0:0:0:
332,265,47268,1,0,0:0:0:0:
303,284,47348,5,8,0:0:0:0:
256,296,47426,1,0,0:0:0:0:
212,274,47505,1,0,0:0:0:0:
194,229,47584,1,0,0:0:0:0:
177,181,47664,1,0,0:0:0:0:
140,148,47742,1,0,0:0:0:0:
100,115,47822,2,0,L|8:44,1,100
179,40,48138,5,8,0:0:0:0:
324,74,48295,1,8,0:0:0:0:
250,205,48453,1,0,0:0:0:0:
238,227,48531,1,0,0:0:0:0:
234,252,48610,1,0,0:0:0:0:
236,277,48689,1,0,0:0:0:0:
245,300,48768,1,0,0:0:0:0:
261,319,48847,1,0,0:0:0:0:
282,332,48926,1,0,0:0:0:0:
307,339,49005,1,0,0:0:0:0:
332,339,49084,1,0,0:0:0:0:
354,331,49163,1,0,0:0:0:0:
384,329,49243,5,8,0:0:0:0:
360,297,49321,1,0,0:0:0:0:
351,258,49400,1,0,0:0:0:0:
357,219,49479,1,0,0:0:0:0:
372,181,49559,1,0,0:0:0:0:
400,152,49638,1,0,0:0:0:0:
429,125,49716,2,0,B|453:112|453:112|470:89|470:89|470:62|470:62|453:31,2,100
295,195,50190,5,8,0:0:0:0:
388,318,50506,1,0,0:0:0:0:
362,332,50584,1,0,0:0:0:0:
332,335,50663,1,0,0:0:0:0:
304,325,50742,1,0,0:0:0:0:
275,316,50822,1,0,0:0:0:0:
245,308,50900,1,0,0:0:0:0:
216,309,50979,1,0,0:0:0:0:
187,318,51058,1,0,0:0:0:0:
118,336,51138,5,8,0:0:0:0:
88,336,51216,1,0,0:0:0:0:
62,322,51295,1,0,0:0:0:0:
45,298,51374,1,0,0:0:0:0:
17,269,51453,5,8,0:0:0:0:
46,273,51531,1,0,0:0:0:0:
75,269,51610,1,0,0:0:0:0:
102,256,51689,1,0,0:0:0:0:
130,246,51769,6,0,P|210:236|261:253,1,100
377,282,52085,1,8,0:0:0:0:
315,144,52243,1,0,0:0:0:0:
292,124,52321,1,0,0:0:0:0:
265,111,52400,1,0,0:0:0:0:
235,107,52479,1,0,0:0:0:0:
206,112,52558,1,0,0:0:0:0:
179,125,52637,1,0,0:0:0:0:
151,134,52716,1,0,0:0:0:0:
176,151,52794,1,0,0:0:0:0:
194,175,52873,1,0,0:0:0:0:
205,203,52952,1,0,0:0:0:0:
208,233,53032,5,8,0:0:0:0:
197,271,53110,1,0,0:0:0:0:
170,299,53189,1,0,0:0:0:0:
131,309,53268,1,0,0:0:0:0:
93,299,53347,1,0,0:0:0:0:
65,270,53426,1,0,0:0:0:0:
56,232,53505,1,0,0:0:0:0:
66,194,53584,1,0,0:0:0:0:
80,156,53664,6,0,P|88:94|60:56,1,100
140,26,53980,1,8,0:0:0:0:
270,119,54138,1,8,0:0:0:0:
252,277,54295,1,0,0:0:0:0:
240,314,54373,1,0,0:0:0:0:
207,336,54452,1,0,0:0:0:0:
168,334,54531,1,0,0:0:0:0:
128,332,54611,1,0,0:0:0:0:
157,304,54689,1,0,0:0:0:0:
169,267,54768,1,0,0:0:0:0:
163,228,54847,1,0,0:0:0:0:
142,192,54927,5,0,0:0:0:0:
185,80,55085,1,0,0:0:0:0:
302,104,55243,1,0,0:0:0:0:
302,104,55322,1,0,0:0:0:0:
302,104,55401,2,0,L|407:112,1,100
293,215,55716,5,8,0:0:0:0:
146,96,55874,1,0,0:0:0:0:
193,278,56032,1,8,0:0:0:0:
63,201,56190,1,0,0:0:0:0:
293,215,56348,1,8,0:0:0:0:
77,321,56506,1,4,0:0:0:0:
334,329,56664,1,8,0:0:0:0:
194,215,56822,5,8,0:0:0:0:
167,174,56900,1,0,0:0:0:0:
171,125,56979,1,0,0:0:0:0:
205,90,57058,1,0,0:0:0:0:
254,83,57137,1,0,0:0:0:0:
296,109,57216,1,0,0:0:0:0:
353,167,57295,5,8,0:0:0:0:
313,171,57374,1,0,0:0:0:0:
284,198,57453,1,0,0:0:0:0:
256,225,57531,1,0,0:0:0:0:
217,223,57610,1,0,0:0:0:0:
192,193,57689,1,0,0:0:0:0:
159,169,57769,5,8,0:0:0:0:
197,161,57847,1,0,0:0:0:0:
225,133,57926,1,0,0:0:0:0:
232,94,58005,1,0,0:0:0:0:
217,57,58085,1,0,0:0:0:0:
178,48,58163,1,0,0:0:0:0:
109,33,58242,5,8,0:0:0:0:
96,70,58321,1,0,0:0:0:0:
108,109,58401,1,0,0:0:0:0:
116,147,58479,1,0,0:0:0:0:
109,185,58558,1,0,0:0:0:0:
80,212,58637,1,0,0:0:0:0:
28,268,58716,5,12,0:0:0:0:
23,316,58794,1,0,0:0:0:0:
59,348,58873,1,0,0:0:0:0:
106,338,58952,1,0,0:0:0:0:
144,303,59032,1,0,0:0:0:0:
185,276,59110,1,0,0:0:0:0:
235,274,59189,1,0,0:0:0:0:
279,296,59268,1,0,0:0:0:0:
318,328,59348,1,0,0:0:0:0:
362,347,59426,1,0,0:0:0:0:
406,327,59505,1,0,0:0:0:0:
421,281,59584,1,0,0:0:0:0:
438,233,59664,5,8,0:0:0:0:
402,266,59742,1,0,0:0:0:0:
353,271,59821,1,0,0:0:0:0:
311,246,59900,1,0,0:0:0:0:
291,201,59979,1,0,0:0:0:0:
302,153,60058,1,0,0:0:0:0:
248,107,60138,5,12,0:0:0:0:
200,72,60216,1,0,0:0:0:0:
141,67,60295,1,0,0:0:0:0:
88,94,60374,1,0,0:0:0:0:
57,144,60453,1,0,0:0:0:0:
57,203,60532,1,0,0:0:0:0:
68,294,60651,6,0,L|128:330,1,59.9999981689454,8|0,0:0|0:0,0:0:0:0:
160,345,60769,1,0,0:0:0:0:
180,356,60847,1,0,0:0:0:0:
204,359,60926,1,0,0:0:0:0:
227,352,61005,1,0,0:0:0:0:
245,336,61084,1,0,0:0:0:0:
256,315,61163,1,0,0:0:0:0:
258,279,61243,1,0,0:0:0:0:
254,232,61321,1,0,0:0:0:0:
274,189,61400,1,0,0:0:0:0:
313,161,61479,1,0,0:0:0:0:
361,164,61559,6,0,L|419:177,1,59.9999981689454,8|0,0:0|0:0,0:0:0:0:
348,80,61716,2,0,L|286:94,1,59.9999981689454,8|0,0:0|0:0,0:0:0:0:
226,36,61874,2,0,L|187:86,1,59.9999981689454,8|0,0:0|0:0,0:0:0:0:
143,144,62032,1,0,0:0:0:0:
130,189,62110,1,0,0:0:0:0:
145,234,62189,1,0,0:0:0:0:
183,263,62268,1,0,0:0:0:0:
230,265,62347,1,0,0:0:0:0:
271,241,62426,1,0,0:0:0:0:
316,223,62506,5,8,0:0:0:0:
281,216,62584,1,0,0:0:0:0:
253,193,62663,1,0,0:0:0:0:
239,161,62742,1,0,0:0:0:0:
168,142,62822,5,8,0:0:0:0:
166,177,62900,1,0,0:0:0:0:
177,211,62979,1,0,0:0:0:0:
200,238,63058,1,0,0:0:0:0:
186,310,63138,5,8,0:0:0:0:
153,294,63216,1,0,0:0:0:0:
127,269,63295,1,0,0:0:0:0:
111,236,63374,1,0,0:0:0:0:
42,216,63453,5,12,0:0:0:0:
40,251,63531,1,0,0:0:0:0:
52,285,63610,1,0,0:0:0:0:
77,311,63689,1,0,0:0:0:0:
107,330,63769,1,0,0:0:0:0:
147,339,63847,1,0,0:0:0:0:
192,325,63926,1,0,0:0:0:0:
226,283,64005,1,0,0:0:0:0:
267,249,64085,1,0,0:0:0:0:
317,231,64163,1,0,0:0:0:0:
363,257,64242,1,0,0:0:0:0:
391,303,64322,1,0,0:0:0:0:
334,340,64401,5,8,0:0:0:0:
307,316,64479,1,0,0:0:0:0:
274,302,64558,1,0,0:0:0:0:
238,299,64637,1,0,0:0:0:0:
203,309,64716,1,0,0:0:0:0:
170,323,64794,1,0,0:0:0:0:
136,314,64873,1,0,0:0:0:0:
116,285,64952,1,0,0:0:0:0:
118,249,65032,1,0,0:0:0:0:
130,202,65110,1,0,0:0:0:0:
127,155,65189,1,0,0:0:0:0:
110,110,65268,1,0,0:0:0:0:
81,71,65348,5,8,0:0:0:0:
126,84,65426,1,0,0:0:0:0:
174,84,65505,1,0,0:0:0:0:
220,69,65584,1,0,0:0:0:0:
264,49,65664,1,0,0:0:0:0:
309,35,65742,1,0,0:0:0:0:
356,45,65821,1,0,0:0:0:0:
392,75,65900,1,0,0:0:0:0:
419,116,65980,1,0,0:0:0:0:
373,105,66058,1,0,0:0:0:0:
326,115,66137,1,0,0:0:0:0:
288,143,66216,1,0,0:0:0:0:
257,162,66295,5,8,0:0:0:0:
212,177,66373,1,0,0:0:0:0:
164,172,66452,1,0,0:0:0:0:
123,148,66531,1,0,0:0:0:0:
77,130,66611,1,0,0:0:0:0:
31,141,66689,1,0,0:0:0:0:
4,179,66768,1,0,0:0:0:0:
9,226,66847,1,0,0:0:0:0:
6,262,66927,1,0,0:0:0:0:
33,238,67005,1,0,0:0:0:0:
67,228,67084,1,0,0:0:0:0:
102,234,67163,1,0,0:0:0:0:
136,247,67243,5,8,0:0:0:0:
179,266,67321,1,0,0:0:0:0:
225,256,67400,1,0,0:0:0:0:
258,222,67479,1,0,0:0:0:0:
304,206,67559,1,0,0:0:0:0:
446,215,67716,1,0,0:0:0:0:
347,305,67874,1,0,0:0:0:0:
336,300,67952,1,0,0:0:0:0:
324,295,68031,1,0,0:0:0:0:
314,289,68110,1,0,0:0:0:0:
306,285,68190,5,12,0:0:0:0:
264,262,68268,1,0,0:0:0:0:
217,253,68347,1,0,0:0:0:0:
169,260,68426,1,0,0:0:0:0:
127,282,68505,1,0,0:0:0:0:
93,316,68584,1,0,0:0:0:0:
57,365,68664,5,8,0:0:0:0:
71,319,68742,1,0,0:0:0:0:
64,272,68822,1,0,0:0:0:0:
55,225,68900,1,0,0:0:0:0:
67,179,68979,1,0,0:0:0:0:
97,142,69058,1,0,0:0:0:0:
96,94,69138,5,8,0:0:0:0:
146,126,69216,1,0,0:0:0:0:
205,127,69295,1,0,0:0:0:0:
257,99,69374,1,0,0:0:0:0:
299,75,69453,1,0,0:0:0:0:
344,63,69531,1,0,0:0:0:0:
388,81,69610,5,8,0:0:0:0:
414,120,69689,1,0,0:0:0:0:
409,169,69769,1,0,0:0:0:0:
405,217,69847,1,0,0:0:0:0:
419,262,69926,1,0,0:0:0:0:
449,299,70005,1,0,0:0:0:0:
486,330,70085,5,8,0:0:0:0:
450,327,70163,1,0,0:0:0:0:
414,325,70242,1,0,0:0:0:0:
378,323,70321,1,0,0:0:0:0:
343,289,70401,5,8,0:0:0:0:
307,292,70479,1,0,0:0:0:0:
271,295,70558,1,0,0:0:0:0:
235,298,70637,1,0,0:0:0:0:
201,311,70716,5,8,0:0:0:0:
216,265,70794,1,0,0:0:0:0:
206,219,70873,1,0,0:0:0:0:
176,183,70952,1,0,0:0:0:0:
143,147,71032,5,8,0:0:0:0:
189,160,71110,1,0,0:0:0:0:
236,155,71189,1,0,0:0:0:0:
279,133,71268,1,0,0:0:0:0:
313,119,71348,1,0,0:0:0:0:
348,111,71426,1,0,0:0:0:0:
381,124,71505,1,0,0:0:0:0:
401,154,71584,1,0,0:0:0:0:
411,188,71664,1,0,0:0:0:0:
391,230,71742,1,0,0:0:0:0:
347,247,71821,1,0,0:0:0:0:
303,228,71900,1,0,0:0:0:0:
255,217,71980,5,8,0:0:0:0:
207,210,72058,1,0,0:0:0:0:
162,225,72137,1,0,0:0:0:0:
128,258,72216,1,0,0:0:0:0:
93,291,72295,1,0,0:0:0:0:
49,307,72373,1,0,0:0:0:0:
10,282,72452,1,0,0:0:0:0:
6,236,72531,1,0,0:0:0:0:
17,201,72611,1,0,0:0:0:0:
36,170,72689,1,0,0:0:0:0:
43,135,72768,1,0,0:0:0:0:
36,100,72847,1,0,0:0:0:0:
14,70,72927,5,12,0:0:0:0:
60,79,73005,1,0,0:0:0:0:
108,78,73084,1,0,0:0:0:0:
155,65,73163,1,0,0:0:0:0:
202,55,73243,5,8,0:0:0:0:
189,89,73321,1,0,0:0:0:0:
178,123,73400,1,0,0:0:0:0:
167,158,73479,1,0,0:0:0:0:
119,149,73559,5,8,0:0:0:0:
129,184,73638,1,0,0:0:0:0:
139,219,73717,1,0,0:0:0:0:
149,253,73795,1,0,0:0:0:0:
184,320,73874,6,0,P|215:349|272:330,3,75.0000028610231
317,307,74190,2,0,P|341:347|315:394,3,75.0000028610231
210,219,74506,2,0,P|222:259|280:272,3,75.0000028610231
354,297,74822,1,0,0:0:0:0:
388,289,74900,1,0,0:0:0:0:
412,263,74979,1,0,0:0:0:0:
418,228,75058,1,0,0:0:0:0:
432,194,75138,5,8,0:0:0:0:
361,209,75216,1,0,0:0:0:0:
290,209,75295,1,0,0:0:0:0:
219,193,75374,1,0,0:0:0:0:
149,170,75453,2,2,P|126:165|44:223,1,75.0000028610231,10|2,0:0|0:0,0:0:0:0:
74,262,75769,5,8,0:0:0:0:
92,270,75847,1,0,0:0:0:0:
111,274,75926,1,0,0:0:0:0:
131,272,76005,1,0,0:0:0:0:
150,266,76084,1,0,0:0:0:0:
167,256,76163,1,0,0:0:0:0:
181,242,76242,1,0,0:0:0:0:
191,224,76321,1,0,0:0:0:0:
198,203,76401,2,4,L|206:102,1,80
286,155,76716,5,8,0:0:0:0:
275,138,76794,1,0,0:0:0:0:
269,119,76873,1,0,0:0:0:0:
270,99,76952,1,0,0:0:0:0:
276,80,77031,1,0,0:0:0:0:
288,64,77110,1,0,0:0:0:0:
304,53,77189,1,0,0:0:0:0:
323,46,77268,1,0,0:0:0:0:
342,42,77348,2,4,L|421:35,1,80
364,151,77665,5,8,0:0:0:0:
351,138,77743,1,0,0:0:0:0:
333,129,77822,1,0,0:0:0:0:
313,126,77901,1,0,0:0:0:0:
293,129,77980,1,0,0:0:0:0:
275,138,78059,1,0,0:0:0:0:
261,153,78138,1,0,0:0:0:0:
252,170,78216,1,0,0:0:0:0:
245,189,78295,2,4,L|218:273,1,80
345,231,78611,5,8,0:0:0:0:
326,237,78689,1,0,0:0:0:0:
306,238,78768,1,0,0:0:0:0:
287,233,78847,1,0,0:0:0:0:
270,222,78926,1,0,0:0:0:0:
256,208,79005,1,0,0:0:0:0:
248,189,79084,1,0,0:0:0:0:
246,170,79163,1,0,0:0:0:0:
249,150,79243,2,4,L|256:71,1,80
330,149,79560,5,8,0:0:0:0:
330,169,79638,1,0,0:0:0:0:
325,188,79717,1,0,0:0:0:0:
316,206,79796,1,0,0:0:0:0:
303,221,79875,1,0,0:0:0:0:
287,233,79954,1,0,0:0:0:0:
269,241,80033,1,0,0:0:0:0:
249,244,80112,1,0,0:0:0:0:
229,243,80190,2,4,L|150:236,1,80
199,327,80506,5,8,0:0:0:0:
217,335,80584,1,0,0:0:0:0:
235,339,80663,1,0,0:0:0:0:
256,337,80742,1,0,0:0:0:0:
275,331,80821,1,0,0:0:0:0:
291,320,80900,1,0,0:0:0:0:
304,305,80979,1,0,0:0:0:0:
312,287,81058,1,0,0:0:0:0:
316,266,81137,2,4,L|315:187,1,80
412,145,81453,5,8,0:0:0:0:
400,160,81531,1,0,0:0:0:0:
391,179,81610,1,0,0:0:0:0:
387,198,81689,1,0,0:0:0:0:
387,218,81768,1,0,0:0:0:0:
392,237,81847,1,0,0:0:0:0:
400,255,81926,1,0,0:0:0:0:
413,271,82005,1,0,0:0:0:0:
426,286,82085,2,4,L|485:338,1,80
301,215,82401,5,8,0:0:0:0:
298,195,82479,1,0,0:0:0:0:
302,175,82558,1,0,0:0:0:0:
313,159,82637,1,0,0:0:0:0:
329,147,82716,1,0,0:0:0:0:
348,143,82795,1,0,0:0:0:0:
368,145,82874,1,0,0:0:0:0:
385,155,82953,1,0,0:0:0:0:
401,168,83032,2,4,L|460:220,1,80
434,323,83348,5,8,0:0:0:0:
398,340,83426,1,0,0:0:0:0:
358,345,83505,1,0,0:0:0:0:
319,336,83584,1,0,0:0:0:0:
285,316,83663,1,0,0:0:0:0:
260,285,83742,1,0,0:0:0:0:
245,248,83821,1,0,0:0:0:0:
244,208,83900,1,0,0:0:0:0:
254,169,83980,2,4,L|282:73,1,80
65,189,84295,5,8,0:0:0:0:
45,223,84373,1,0,0:0:0:0:
40,262,84452,1,0,0:0:0:0:
51,300,84531,1,0,0:0:0:0:
77,331,84610,1,0,0:0:0:0:
113,348,84689,1,0,0:0:0:0:
152,351,84768,1,0,0:0:0:0:
190,337,84847,1,0,0:0:0:0:
225,318,84927,2,4,L|298:274,1,80
101,194,85243,5,8,0:0:0:0:
74,164,85322,1,0,0:0:0:0:
65,125,85400,1,0,0:0:0:0:
74,87,85479,1,0,0:0:0:0:
99,56,85558,1,0,0:0:0:0:
135,40,85637,1,0,0:0:0:0:
175,42,85716,1,0,0:0:0:0:
209,62,85795,1,0,0:0:0:0:
236,92,85874,2,4,L|284:166,1,80
245,280,86190,5,8,0:0:0:0:
265,314,86268,1,0,0:0:0:0:
298,337,86347,1,0,0:0:0:0:
337,344,86426,1,0,0:0:0:0:
375,334,86505,1,0,0:0:0:0:
406,309,86584,1,0,0:0:0:0:
424,274,86663,1,0,0:0:0:0:
425,234,86742,1,0,0:0:0:0:
416,195,86822,2,4,L|391:108,1,80
161,232,87138,5,14,0:0:0:0:
112,249,87216,1,0,0:0:0:0:
62,232,87295,1,0,0:0:0:0:
34,190,87374,1,0,0:0:0:0:
38,138,87453,1,0,0:0:0:0:
72,99,87532,1,0,0:0:0:0:
123,89,87611,1,0,0:0:0:0:
174,100,87690,1,0,0:0:0:0:
225,114,87768,1,0,0:0:0:0:
278,115,87847,1,0,0:0:0:0:
329,104,87926,1,0,0:0:0:0:
377,82,88005,1,0,0:0:0:0:
417,41,88085,5,12,0:0:0:0:
393,89,88163,1,0,0:0:0:0:
387,140,88242,1,0,0:0:0:0:
398,192,88321,1,0,0:0:0:0:
424,237,88400,1,0,0:0:0:0:
457,280,88480,1,0,0:0:0:0:
473,328,88558,1,0,0:0:0:0:
445,371,88637,1,0,0:0:0:0:
395,379,88716,1,0,0:0:0:0:
357,344,88795,1,0,0:0:0:0:
309,322,88874,1,0,0:0:0:0:
256,326,88952,1,0,0:0:0:0:
206,337,89032,5,12,0:0:0:0:
224,311,89110,1,0,0:0:0:0:
234,280,89189,1,0,0:0:0:0:
235,249,89268,1,0,0:0:0:0:
226,218,89347,1,0,0:0:0:0:
209,191,89426,1,0,0:0:0:0:
184,171,89505,1,0,0:0:0:0:
152,165,89585,1,0,0:0:0:0:
120,172,89664,5,8,0:0:0:0:
144,151,89742,1,0,0:0:0:0:
157,123,89821,1,0,0:0:0:0:
156,91,89900,1,0,0:0:0:0:
148,60,89980,5,8,0:0:0:0:
112,41,90058,1,0,0:0:0:0:
73,45,90137,1,0,0:0:0:0:
41,68,90216,1,0,0:0:0:0:
27,105,90295,1,0,0:0:0:0:
34,144,90374,1,0,0:0:0:0:
61,173,90453,1,0,0:0:0:0:
99,184,90532,1,0,0:0:0:0:
137,174,90611,5,8,0:0:0:0:
127,212,90689,1,0,0:0:0:0:
138,250,90768,1,0,0:0:0:0:
166,278,90847,1,0,0:0:0:0:
224,321,90927,5,14,0:0:0:0:
270,331,91005,1,0,0:0:0:0:
312,311,91084,1,0,0:0:0:0:
334,270,91163,1,0,0:0:0:0:
366,232,91243,5,12,0:0:0:0:
319,238,91321,1,0,0:0:0:0:
275,221,91400,1,0,0:0:0:0:
244,185,91479,1,0,0:0:0:0:
250,149,91559,5,0,0:0:0:0:
216,161,91637,1,0,0:0:0:0:
182,173,91716,1,0,0:0:0:0:
148,184,91795,1,0,0:0:0:0:
115,198,91874,5,8,0:0:0:0:
95,240,91952,1,0,0:0:0:0:
116,281,92031,1,0,0:0:0:0:
162,290,92110,1,0,0:0:0:0:
208,275,92190,1,0,0:0:0:0:
254,260,92268,1,0,0:0:0:0:
301,264,92347,1,0,0:0:0:0:
343,286,92426,1,0,0:0:0:0:
373,323,92506,1,0,0:0:0:0:
410,350,92584,1,0,0:0:0:0:
455,339,92663,1,0,0:0:0:0:
474,297,92742,1,0,0:0:0:0:
461,269,92822,5,12,0:0:0:0:
463,239,92900,1,0,0:0:0:0:
466,209,92979,1,0,0:0:0:0:
468,179,93058,1,0,0:0:0:0:
468,99,93138,5,8,0:0:0:0:
444,71,93216,1,0,0:0:0:0:
412,56,93295,1,0,0:0:0:0:
376,55,93374,1,0,0:0:0:0:
301,77,93453,5,8,0:0:0:0:
261,90,93531,1,0,0:0:0:0:
219,90,93610,1,0,0:0:0:0:
180,76,93689,1,0,0:0:0:0:
109,42,93769,5,12,0:0:0:0:
63,32,93847,1,0,0:0:0:0:
26,61,93926,1,0,0:0:0:0:
22,107,94005,1,0,0:0:0:0:
38,153,94085,1,0,0:0:0:0:
57,197,94163,1,0,0:0:0:0:
61,245,94242,1,0,0:0:0:0:
51,292,94321,1,0,0:0:0:0:
31,336,94401,5,8,0:0:0:0:
75,317,94479,1,0,0:0:0:0:
122,313,94558,1,0,0:0:0:0:
169,326,94637,1,0,0:0:0:0:
213,343,94716,5,8,0:0:0:0:
269,359,94794,1,0,0:0:0:0:
325,339,94873,1,0,0:0:0:0:
358,290,94952,1,0,0:0:0:0:
357,231,95031,1,0,0:0:0:0:
321,184,95110,1,0,0:0:0:0:
265,161,95189,5,8,0:0:0:0:
231,179,95268,1,0,0:0:0:0:
200,197,95348,1,0,0:0:0:0:
165,204,95426,1,0,0:0:0:0:
134,187,95505,1,0,0:0:0:0:
123,154,95584,1,0,0:0:0:0:
107,125,95664,5,8,0:0:0:0:
109,89,95742,1,0,0:0:0:0:
89,61,95821,1,0,0:0:0:0:
55,51,95900,1,0,0:0:0:0:
17,114,95980,5,8,0:0:0:0:
37,155,96058,1,0,0:0:0:0:
82,171,96137,1,0,0:0:0:0:
124,151,96216,1,0,0:0:0:0:
205,170,96295,5,8,0:0:0:0:
184,212,96374,1,0,0:0:0:0:
144,238,96453,1,0,0:0:0:0:
98,239,96531,1,0,0:0:0:0:
47,300,96611,5,8,0:0:0:0:
106,304,96689,1,0,0:0:0:0:
166,309,96768,1,0,0:0:0:0:
226,314,96847,1,0,0:0:0:0:
246,238,96927,5,8,0:0:0:0:
200,250,97005,1,0,0:0:0:0:
154,262,97084,1,0,0:0:0:0:
107,274,97163,1,0,0:0:0:0:
84,179,97243,5,8,0:0:0:0:
118,191,97321,1,0,0:0:0:0:
152,205,97400,1,0,0:0:0:0:
185,218,97479,1,0,0:0:0:0:
207,223,97559,5,8,0:0:0:0:
261,246,97637,1,0,0:0:0:0:
321,248,97716,1,0,0:0:0:0:
377,228,97795,1,0,0:0:0:0:
434,210,97874,1,0,0:0:0:0:
490,213,97952,1,0,0:0:0:0:
506,267,98031,1,0,0:0:0:0:
461,301,98110,1,0,0:0:0:0:
402,316,98190,1,0,0:0:0:0:
344,305,98269,1,0,0:0:0:0:
303,262,98348,1,0,0:0:0:0:
293,204,98426,1,0,0:0:0:0:
248,245,98506,5,14,0:0:0:0:
177,242,98584,1,0,0:0:0:0:
125,195,98663,1,0,0:0:0:0:
115,125,98742,1,0,0:0:0:0:
151,65,98821,1,0,0:0:0:0:
218,42,98900,1,0,0:0:0:0:
284,67,98979,1,0,0:0:0:0:
319,128,99058,1,0,0:0:0:0:
299,198,99138,1,0,0:0:0:0:
297,256,99216,1,0,0:0:0:0:
335,301,99295,1,0,0:0:0:0:
393,309,99374,1,0,0:0:0:0:
440,304,99453,5,8,0:0:0:0:
398,280,99531,1,0,0:0:0:0:
374,239,99610,1,0,0:0:0:0:
371,192,99689,1,0,0:0:0:0:
387,146,99769,1,0,0:0:0:0:
388,98,99847,1,0,0:0:0:0:
362,59,99926,1,0,0:0:0:0:
318,41,100005,1,0,0:0:0:0:
270,49,100085,1,0,0:0:0:0:
223,61,100163,1,0,0:0:0:0:
176,61,100242,1,0,0:0:0:0:
130,47,100321,1,0,0:0:0:0:
82,37,100401,5,14,0:0:0:0:
28,56,100479,1,0,0:0:0:0:
24,113,100558,1,0,0:0:0:0:
74,139,100637,1,0,0:0:0:0:
119,105,100716,1,0,0:0:0:0:
177,88,100795,1,0,0:0:0:0:
235,82,100873,1,0,0:0:0:0:
285,113,100952,1,0,0:0:0:0:
304,169,101031,1,0,0:0:0:0:
285,225,101110,1,0,0:0:0:0:
291,285,101190,1,0,0:0:0:0:
326,329,101268,1,0,0:0:0:0:
352,343,101348,5,8,0:0:0:0:
380,353,101426,1,0,0:0:0:0:
409,348,101505,1,0,0:0:0:0:
434,331,101584,1,0,0:0:0:0:
441,303,101663,1,0,0:0:0:0:
432,274,101742,1,0,0:0:0:0:
416,249,101822,1,0,0:0:0:0:
398,224,101900,1,0,0:0:0:0:
389,196,101979,1,0,0:0:0:0:
388,166,102058,1,0,0:0:0:0:
395,137,102137,1,0,0:0:0:0:
409,111,102216,1,0,0:0:0:0:
432,91,102295,6,2,P|456:73|522:79,3,59.9999981689454
378,125,102611,2,2,P|354:107|288:113,3,59.9999981689454
414,183,102927,2,2,P|438:165|504:171,3,59.9999981689454
347,232,103243,5,8,0:0:0:0:
324,251,103321,1,0,0:0:0:0:
296,259,103400,1,0,0:0:0:0:
266,256,103479,1,0,0:0:0:0:
240,241,103558,1,0,0:0:0:0:
222,218,103637,1,0,0:0:0:0:
214,189,103716,1,0,0:0:0:0:
217,160,103795,1,0,0:0:0:0:
229,132,103874,1,0,0:0:0:0:
231,84,103952,1,0,0:0:0:0:
204,46,104031,1,0,0:0:0:0:
159,31,104110,1,0,0:0:0:0:
68,34,104190,5,12,0:0:0:0:
19,63,104268,1,0,0:0:0:0:
12,121,104347,1,0,0:0:0:0:
54,160,104426,1,0,0:0:0:0:
112,151,104505,1,0,0:0:0:0:
166,124,104584,1,0,0:0:0:0:
224,115,104663,1,0,0:0:0:0:
278,142,104742,1,0,0:0:0:0:
315,173,104822,1,0,0:0:0:0:
354,198,104900,1,0,0:0:0:0:
401,191,104979,1,0,0:0:0:0:
431,155,105058,1,0,0:0:0:0:
470,79,105138,5,12,0:0:0:0:
455,47,105216,1,0,0:0:0:0:
427,25,105295,1,0,0:0:0:0:
392,20,105374,1,0,0:0:0:0:
385,103,105453,5,8,0:0:0:0:
410,127,105531,1,0,0:0:0:0:
421,161,105610,1,0,0:0:0:0:
414,196,105689,1,0,0:0:0:0:
331,176,105769,5,8,0:0:0:0:
322,141,105847,1,0,0:0:0:0:
301,112,105926,1,0,0:0:0:0:
270,94,106005,1,0,0:0:0:0:
241,73,106085,5,12,0:0:0:0:
248,120,106163,1,0,0:0:0:0:
251,168,106242,1,0,0:0:0:0:
248,216,106321,1,0,0:0:0:0:
240,264,106401,1,0,0:0:0:0:
248,310,106479,1,0,0:0:0:0:
286,339,106558,1,0,0:0:0:0:
332,334,106637,1,0,0:0:0:0:
363,316,106716,1,0,0:0:0:0:
395,300,106794,1,0,0:0:0:0:
431,303,106873,1,0,0:0:0:0:
460,324,106952,1,0,0:0:0:0:
443,291,107032,5,8,0:0:0:0:
416,252,107110,1,0,0:0:0:0:
379,222,107189,1,0,0:0:0:0:
334,205,107268,1,0,0:0:0:0:
286,213,107348,1,0,0:0:0:0:
239,214,107426,1,0,0:0:0:0:
204,183,107505,1,0,0:0:0:0:
200,136,107584,1,0,0:0:0:0:
221,92,107664,1,0,0:0:0:0:
221,45,107742,1,0,0:0:0:0:
186,15,107821,1,0,0:0:0:0:
140,21,107900,1,0,0:0:0:0:
91,21,107980,5,8,0:0:0:0:
130,64,108058,1,0,0:0:0:0:
144,122,108137,1,0,0:0:0:0:
129,179,108216,1,0,0:0:0:0:
112,237,108295,1,0,0:0:0:0:
106,295,108373,1,0,0:0:0:0:
137,345,108452,1,0,0:0:0:0:
192,367,108531,1,0,0:0:0:0:
249,351,108610,1,0,0:0:0:0:
285,305,108689,1,0,0:0:0:0:
286,246,108768,1,0,0:0:0:0:
251,198,108847,1,0,0:0:0:0:
233,153,108927,5,12,0:0:0:0:
237,106,109005,1,0,0:0:0:0:
269,71,109084,1,0,0:0:0:0:
315,61,109163,1,0,0:0:0:0:
372,115,109243,5,8,0:0:0:0:
358,161,109321,1,0,0:0:0:0:
362,208,109400,1,0,0:0:0:0:
382,252,109479,1,0,0:0:0:0:
366,329,109559,5,8,0:0:0:0:
320,341,109637,1,0,0:0:0:0:
277,322,109716,1,0,0:0:0:0:
254,281,109795,1,0,0:0:0:0:
251,203,109874,5,12,0:0:0:0:
248,167,109952,1,0,0:0:0:0:
227,138,110031,1,0,0:0:0:0:
195,123,110110,1,0,0:0:0:0:
160,126,110189,1,0,0:0:0:0:
131,147,110268,1,0,0:0:0:0:
116,180,110347,1,0,0:0:0:0:
120,215,110426,1,0,0:0:0:0:
131,250,110506,1,0,0:0:0:0:
135,296,110584,1,0,0:0:0:0:
101,326,110663,1,0,0:0:0:0:
56,317,110742,1,0,0:0:0:0:
20,284,110822,5,8,0:0:0:0:
10,237,110900,1,0,0:0:0:0:
50,211,110979,1,0,0:0:0:0:
95,225,111058,1,0,0:0:0:0:
139,240,111138,1,0,0:0:0:0:
186,249,111216,1,0,0:0:0:0:
234,243,111295,1,0,0:0:0:0:
278,224,111374,1,0,0:0:0:0:
321,204,111453,1,0,0:0:0:0:
367,196,111531,1,0,0:0:0:0:
406,221,111610,1,0,0:0:0:0:
419,267,111689,1,0,0:0:0:0:
397,310,111769,5,14,0:0:0:0:
344,336,111847,1,0,0:0:0:0:
286,325,111926,1,0,0:0:0:0:
248,280,112005,1,0,0:0:0:0:
209,233,112085,1,0,0:0:0:0:
164,194,112163,1,0,0:0:0:0:
107,179,112242,1,0,0:0:0:0:
48,192,112321,1,0,0:0:0:0:
2,232,112401,1,0,0:0:0:0:
9,289,112479,1,0,0:0:0:0:
62,311,112558,1,0,0:0:0:0:
106,275,112637,1,0,0:0:0:0:
161,251,112716,5,8,0:0:0:0:
228,234,112794,1,0,0:0:0:0:
278,281,112873,1,0,0:0:0:0:
263,349,112952,1,0,0:0:0:0:
198,372,113031,1,0,0:0:0:0:
145,329,113110,1,0,0:0:0:0:
105,266,113190,5,12,0:0:0:0:
161,251,113268,1,0,0:0:0:0:
183,197,113347,1,0,0:0:0:0:
156,146,113426,1,0,0:0:0:0:
98,136,113505,1,0,0:0:0:0:
55,174,113584,1,0,0:0:0:0:
69,112,113664,5,12,0:0:0:0:
101,77,113742,1,0,0:0:0:0:
146,60,113821,1,0,0:0:0:0:
193,66,113900,1,0,0:0:0:0:
237,85,113980,1,0,0:0:0:0:
281,101,114058,1,0,0:0:0:0:
329,101,114137,1,0,0:0:0:0:
374,85,114216,1,0,0:0:0:0:
420,72,114295,1,0,0:0:0:0:
464,85,114373,1,0,0:0:0:0:
480,128,114452,1,0,0:0:0:0:
455,167,114531,1,0,0:0:0:0:
431,209,114611,5,8,0:0:0:0:
417,242,114689,1,0,0:0:0:0:
417,278,114768,1,0,0:0:0:0:
429,311,114847,1,0,0:0:0:0:
429,348,114927,1,0,0:0:0:0:
409,376,115005,1,0,0:0:0:0:
375,384,115084,1,8,0:0:0:0:
344,366,115163,1,0,0:0:0:0:
311,350,115243,1,0,0:0:0:0:
277,338,115321,1,0,0:0:0:0:
241,341,115400,1,0,0:0:0:0:
211,360,115479,1,0,0:0:0:0:
177,374,115559,5,8,0:0:0:0:
131,382,115637,1,0,0:0:0:0:
95,352,115716,1,0,0:0:0:0:
94,306,115795,1,0,0:0:0:0:
114,262,115874,1,0,0:0:0:0:
131,217,115952,1,0,0:0:0:0:
132,169,116031,1,8,0:0:0:0:
116,124,116110,1,0,0:0:0:0:
99,78,116190,1,0,0:0:0:0:
103,31,116268,1,0,0:0:0:0:
140,3,116347,1,0,0:0:0:0:
186,10,116426,1,0,0:0:0:0:
234,17,116506,5,8,0:0:0:0:
207,41,116584,1,0,0:0:0:0:
194,74,116663,1,0,0:0:0:0:
197,109,116742,1,0,0:0:0:0:
210,143,116822,1,0,0:0:0:0:
225,175,116900,1,0,0:0:0:0:
240,208,116979,1,0,0:0:0:0:
255,241,117058,1,0,0:0:0:0:
267,275,117138,1,0,0:0:0:0:
267,304,117216,1,0,0:0:0:0:
252,323,117295,1,0,0:0:0:0:
234,327,117374,1,0,0:0:0:0:
221,325,117453,6,0,P|188:325|150:348,1,59.9999981689454
229,304,117611,2,0,P|203:282|159:275,1,59.9999981689454
250,285,117769,2,0,P|244:252|215:219,1,59.9999981689454
384,308,117927,6,0,P|354:307|326:318,1,59.9999981689454
392,287,118085,2,0,P|369:267|341:258,1,59.9999981689454
413,268,118243,2,0,P|408:238|392:213,1,59.9999981689454
437,137,118401,6,0,P|442:107|401:50,5,59.9999981689454
318,112,118874,2,0,P|313:142|354:199,5,59.9999981689454
400,300,119348,5,12,0:0:0:0:
397,335,119426,1,0,0:0:0:0:
372,360,119505,1,0,0:0:0:0:
337,362,119584,1,0,0:0:0:0:
261,341,119664,5,0,0:0:0:0:
228,325,119742,1,0,0:0:0:0:
192,325,119821,1,0,0:0:0:0:
160,340,119900,1,0,0:0:0:0:
142,356,119980,1,0,0:0:0:0:
121,367,120058,1,0,0:0:0:0:
98,365,120137,1,0,0:0:0:0:
80,349,120216,1,0,0:0:0:0:
72,328,120295,5,0,0:0:0:0:
59,121,121203,5,12,0:0:0:0:
102,81,121283,1,0,0:0:0:0:
160,76,121360,1,0,0:0:0:0:
209,110,121437,1,0,0:0:0:0:
248,139,121514,1,0,0:0:0:0:
293,159,121590,1,0,0:0:0:0:
341,150,121667,1,0,0:0:0:0:
375,113,121744,1,0,0:0:0:0:
382,73,121822,1,0,0:0:0:0:
357,43,121898,1,0,0:0:0:0:
318,40,121975,1,0,0:0:0:0:
290,67,122052,1,0,0:0:0:0:
265,99,122130,5,12,0:0:0:0:
226,128,122206,1,0,0:0:0:0:
177,127,122283,1,0,0:0:0:0:
139,95,122360,1,0,0:0:0:0:
97,69,122437,1,0,0:0:0:0:
48,63,122513,1,0,0:0:0:0:
11,95,122590,1,0,0:0:0:0:
8,143,122667,1,0,0:0:0:0:
37,184,122745,1,0,0:0:0:0:
94,198,122821,1,0,0:0:0:0:
148,173,122898,1,0,0:0:0:0:
176,121,122975,1,0,0:0:0:0:
211,85,123053,5,12,0:0:0:0:
254,62,123129,1,0,0:0:0:0:
304,57,123206,1,0,0:0:0:0:
351,72,123283,1,0,0:0:0:0:
389,105,123360,1,0,0:0:0:0:
411,149,123437,1,0,0:0:0:0:
414,199,123514,1,0,0:0:0:0:
397,246,123591,1,0,0:0:0:0:
364,282,123668,1,0,0:0:0:0:
318,303,123745,1,0,0:0:0:0:
269,304,123822,1,0,0:0:0:0:
223,286,123899,1,0,0:0:0:0:
195,274,123976,5,8,0:0:0:0:
165,268,124052,1,0,0:0:0:0:
136,274,124129,1,0,0:0:0:0:
111,290,124206,1,0,0:0:0:0:
90,312,124283,5,8,0:0:0:0:
97,283,124359,1,0,0:0:0:0:
92,253,124436,1,0,0:0:0:0:
76,228,124513,1,0,0:0:0:0:
58,204,124591,5,8,0:0:0:0:
88,206,124667,1,0,0:0:0:0:
116,196,124744,1,0,0:0:0:0:
136,174,124821,1,0,0:0:0:0:
162,158,124899,5,12,0:0:0:0:
198,142,124975,1,0,0:0:0:0:
238,142,125052,1,0,0:0:0:0:
275,156,125129,1,0,0:0:0:0:
312,174,125207,1,0,0:0:0:0:
358,191,125283,1,0,0:0:0:0:
404,174,125360,1,0,0:0:0:0:
428,132,125437,1,0,0:0:0:0:
419,84,125514,1,0,0:0:0:0:
380,53,125591,1,0,0:0:0:0:
331,55,125668,1,0,0:0:0:0:
295,88,125745,1,0,0:0:0:0:
250,110,125822,5,12,0:0:0:0:
203,127,125898,1,0,0:0:0:0:
154,120,125975,1,0,0:0:0:0:
115,90,126052,1,0,0:0:0:0:
78,55,126130,1,0,0:0:0:0:
29,56,126206,1,0,0:0:0:0:
4,97,126283,1,0,0:0:0:0:
11,146,126360,1,0,0:0:0:0:
50,175,126436,1,0,0:0:0:0:
99,177,126513,1,0,0:0:0:0:
144,156,126590,1,0,0:0:0:0:
191,140,126667,1,0,0:0:0:0:
238,121,126745,6,0,P|271:119|315:133,3,50
163,227,127053,2,0,P|187:233|212:230,3,50
271,221,127360,1,0,0:0:0:0:
311,181,127436,1,0,0:0:0:0:
291,128,127513,1,0,0:0:0:0:
234,125,127590,1,0,0:0:0:0:
203,177,127668,6,0,P|199:209|221:234,3,50
333,118,127976,2,0,P|336:143|330:167,3,50
319,195,128283,1,0,0:0:0:0:
304,220,128359,1,0,0:0:0:0:
278,236,128436,1,0,0:0:0:0:
249,238,128513,1,0,0:0:0:0:
218,233,128591,5,12,0:0:0:0:
178,233,128667,1,0,0:0:0:0:
145,255,128744,1,0,0:0:0:0:
130,291,128821,1,0,0:0:0:0:
137,330,128898,1,0,0:0:0:0:
164,359,128975,1,0,0:0:0:0:
202,368,129052,1,0,0:0:0:0:
240,355,129129,1,0,0:0:0:0:
278,341,129207,1,0,0:0:0:0:
325,327,129283,1,0,0:0:0:0:
375,331,129360,1,0,0:0:0:0:
420,352,129437,1,0,0:0:0:0:
466,371,129514,5,12,0:0:0:0:
447,324,129590,1,0,0:0:0:0:
440,275,129667,1,0,0:0:0:0:
445,225,129744,1,0,0:0:0:0:
452,175,129822,1,0,0:0:0:0:
453,125,129898,1,0,0:0:0:0:
426,84,129975,1,0,0:0:0:0:
382,63,130052,1,0,0:0:0:0:
333,71,130129,1,0,0:0:0:0:
296,104,130206,1,0,0:0:0:0:
284,152,130283,1,0,0:0:0:0:
300,198,130360,1,0,0:0:0:0:
327,241,130437,5,12,0:0:0:0:
335,288,130513,1,0,0:0:0:0:
303,325,130590,1,0,0:0:0:0:
255,324,130667,1,0,0:0:0:0:
206,309,130745,1,0,0:0:0:0:
158,296,130821,1,0,0:0:0:0:
108,302,130898,1,0,0:0:0:0:
65,327,130975,1,0,0:0:0:0:
24,356,131053,1,0,0:0:0:0:
49,313,131129,1,0,0:0:0:0:
55,263,131206,1,0,0:0:0:0:
42,216,131283,1,0,0:0:0:0:
26,168,131360,5,8,0:0:0:0:
25,109,131436,1,0,0:0:0:0:
69,72,131513,1,0,0:0:0:0:
126,81,131590,1,0,0:0:0:0:
180,109,131668,1,0,0:0:0:0:
237,126,131744,1,0,0:0:0:0:
296,118,131821,1,0,0:0:0:0:
347,87,131898,1,0,0:0:0:0:
398,55,131976,1,0,0:0:0:0:
455,47,132052,1,0,0:0:0:0:
496,88,132129,1,0,0:0:0:0:
488,146,132206,1,0,0:0:0:0:
469,192,132283,5,12,0:0:0:0:
461,230,132359,1,0,0:0:0:0:
465,260,132436,1,0,0:0:0:0:
480,285,132513,1,0,0:0:0:0:
495,310,132591,1,0,0:0:0:0:
499,338,132667,1,0,0:0:0:0:
482,362,132744,1,0,0:0:0:0:
452,361,132821,1,0,0:0:0:0:
423,349,132899,1,0,0:0:0:0:
386,334,132975,1,0,0:0:0:0:
346,334,133052,1,0,0:0:0:0:
309,348,133129,1,0,0:0:0:0:
273,366,133207,5,12,0:0:0:0:
223,362,133283,1,0,0:0:0:0:
186,330,133360,1,0,0:0:0:0:
175,282,133437,1,0,0:0:0:0:
194,237,133514,1,0,0:0:0:0:
236,211,133591,1,0,0:0:0:0:
285,216,133668,1,0,0:0:0:0:
322,248,133745,1,0,0:0:0:0:
350,277,133822,1,0,0:0:0:0:
377,298,133899,1,0,0:0:0:0:
406,300,133975,1,0,0:0:0:0:
428,288,134052,1,0,0:0:0:0:
441,266,134130,5,12,0:0:0:0:
448,208,134206,1,0,0:0:0:0:
408,167,134283,1,0,0:0:0:0:
350,175,134360,1,0,0:0:0:0:
312,221,134437,1,0,0:0:0:0:
267,260,134513,1,0,0:0:0:0:
208,265,134590,1,0,0:0:0:0:
158,235,134667,1,0,0:0:0:0:
99,218,134745,1,0,0:0:0:0:
43,232,134821,1,0,0:0:0:0:
27,287,134898,1,0,0:0:0:0:
67,328,134975,1,0,0:0:0:0:
128,332,135053,5,12,0:0:0:0:
188,327,135129,1,0,0:0:0:0:
248,322,135206,1,0,0:0:0:0:
307,317,135283,1,0,0:0:0:0:
366,313,135360,1,0,0:0:0:0:
422,297,135436,1,0,0:0:0:0:
461,252,135513,1,0,0:0:0:0:
468,193,135590,1,0,0:0:0:0:
442,140,135667,1,0,0:0:0:0:
390,111,135744,1,0,0:0:0:0:
331,115,135821,1,0,0:0:0:0:
284,152,135898,1,0,0:0:0:0:
250,189,135976,5,14,0:0:0:0:
215,217,136052,1,0,0:0:0:0:
175,213,136129,1,0,0:0:0:0:
140,204,136206,1,0,0:0:0:0:
109,202,136283,1,0,0:0:0:0:
82,225,136359,1,0,0:0:0:0:
34,277,136437,5,12,0:0:0:0:
72,309,136513,1,0,0:0:0:0:
119,326,136590,1,0,0:0:0:0:
168,324,136667,1,0,0:0:0:0:
214,304,136744,1,0,0:0:0:0:
249,269,136821,1,0,0:0:0:0:
255,220,136899,5,8,0:0:0:0:
250,170,136975,1,0,0:0:0:0:
250,119,137053,1,0,0:0:0:0:
263,72,137129,1,0,0:0:0:0:
306,49,137206,1,0,0:0:0:0:
351,65,137283,1,0,0:0:0:0:
384,101,137360,5,14,0:0:0:0:
351,138,137436,1,0,0:0:0:0:
336,185,137513,1,0,0:0:0:0:
343,234,137590,1,0,0:0:0:0:
370,276,137667,1,0,0:0:0:0:
412,302,137744,1,0,0:0:0:0:
439,279,137822,5,8,0:0:0:0:
456,238,137898,1,0,0:0:0:0:
443,200,137975,1,0,0:0:0:0:
413,181,138052,1,0,0:0:0:0:
383,186,138130,1,0,0:0:0:0:
354,189,138206,1,0,0:0:0:0:
324,185,138283,1,0,0:0:0:0:
297,171,138360,1,0,0:0:0:0:
269,158,138437,1,0,0:0:0:0:
229,151,138513,1,0,0:0:0:0:
191,160,138590,1,0,0:0:0:0:
159,185,138667,1,0,0:0:0:0:
127,209,138745,5,8,0:0:0:0:
92,227,138821,1,0,0:0:0:0:
53,222,138898,1,0,0:0:0:0:
24,195,138975,1,0,0:0:0:0:
17,156,139052,1,0,0:0:0:0:
33,120,139129,1,0,0:0:0:0:
68,101,139206,1,0,0:0:0:0:
107,106,139283,1,0,0:0:0:0:
145,116,139360,1,0,0:0:0:0:
192,130,139436,1,0,0:0:0:0:
242,127,139513,1,0,0:0:0:0:
287,107,139590,1,0,0:0:0:0:
324,92,139668,5,8,0:0:0:0:
363,84,139744,1,0,0:0:0:0:
399,98,139821,1,0,0:0:0:0:
423,130,139898,1,0,0:0:0:0:
425,170,139975,1,0,0:0:0:0:
405,204,140052,1,0,0:0:0:0:
371,222,140129,1,0,0:0:0:0:
332,219,140206,1,0,0:0:0:0:
292,213,140283,1,8,0:0:0:0:
253,204,140359,1,0,0:0:0:0:
217,219,140436,1,0,0:0:0:0:
196,253,140513,1,0,0:0:0:0:
196,291,140590,5,8,0:0:0:0:
221,323,140667,1,0,0:0:0:0:
258,335,140744,1,0,0:0:0:0:
296,325,140821,1,0,0:0:0:0:
336,328,140899,1,0,0:0:0:0:
328,279,140975,1,0,0:0:0:0:
320,229,141052,1,0,0:0:0:0:
312,180,141129,1,0,0:0:0:0:
303,130,141207,1,0,0:0:0:0:
279,86,141283,1,0,0:0:0:0:
234,68,141360,1,0,0:0:0:0:
187,83,141437,1,0,0:0:0:0:
139,97,141514,5,2,0:0:0:0:
181,119,141590,1,0,0:0:0:0:
194,166,141667,1,0,0:0:0:0:
168,207,141744,1,0,0:0:0:0:
122,247,141822,5,2,0:0:0:0:
172,251,141898,1,0,0:0:0:0:
220,255,141975,1,0,0:0:0:0:
271,259,142052,1,0,0:0:0:0:
305,280,142130,5,8,0:0:0:0:
312,249,142206,1,0,0:0:0:0:
319,218,142283,1,0,0:0:0:0:
326,187,142360,1,0,0:0:0:0:
294,187,142437,5,8,0:0:0:0:
289,155,142513,1,0,0:0:0:0:
283,123,142590,1,0,0:0:0:0:
279,91,142667,1,0,0:0:0:0:
273,61,142745,5,12,0:0:0:0:
231,34,142821,1,0,0:0:0:0:
183,42,142898,1,0,0:0:0:0:
150,78,142975,1,0,0:0:0:0:
150,127,143052,1,0,0:0:0:0:
181,165,143129,1,0,0:0:0:0:
230,173,143206,1,0,0:0:0:0:
272,148,143283,1,0,0:0:0:0:
317,126,143360,1,0,0:0:0:0:
364,111,143436,1,0,0:0:0:0:
412,121,143513,1,0,0:0:0:0:
438,163,143590,1,0,0:0:0:0:
460,230,143668,5,8,0:0:0:0:
409,262,143744,1,0,0:0:0:0:
351,258,143821,1,0,0:0:0:0:
303,224,143898,1,0,0:0:0:0:
253,187,143977,1,0,0:0:0:0:
198,163,144053,1,0,0:0:0:0:
138,165,144130,1,0,0:0:0:0:
87,195,144207,1,0,0:0:0:0:
55,245,144283,1,0,0:0:0:0:
35,191,144359,1,0,0:0:0:0:
45,133,144436,1,0,0:0:0:0:
89,95,144513,1,0,0:0:0:0:
149,87,144591,5,12,0:0:0:0:
208,88,144667,1,0,0:0:0:0:
268,89,144744,1,0,0:0:0:0:
328,91,144821,1,0,0:0:0:0:
388,80,144899,5,12,0:0:0:0:
338,113,144975,1,0,0:0:0:0:
288,146,145052,1,0,0:0:0:0:
238,179,145129,1,0,0:0:0:0:
181,202,145207,5,12,0:0:0:0:
114,211,145283,1,0,0:0:0:0:
64,166,145360,1,0,0:0:0:0:
68,98,145437,1,12,0:0:0:0:
256,192,145514,12,8,146130,0:0:0:0:
86,73,146437,6,0,P|116:96|140:138,1,59.9999981689454,8|0,0:0|0:0,0:0:0:0:
140,57,146591,2,0,P|154:92|154:140,1,59.9999981689454,8|0,0:0|0:0,0:0:0:0:
194,71,146745,2,0,P|190:109|165:151,1,59.9999981689454,8|0,0:0|0:0,0:0:0:0:
196,261,146899,6,0,P|166:238|142:196,1,59.9999981689454,8|0,0:0|0:0,0:0:0:0:
140,275,147053,2,0,P|126:240|126:192,1,59.9999981689454,8|0,0:0|0:0,0:0:0:0:
86,261,147207,2,0,P|90:223|115:181,1,59.9999981689454,8|0,0:0|0:0,0:0:0:0:
148,127,147360,6,2,P|205:90|275:111,1,119.999996337891
116,331,147668,2,2,P|48:322|8:261,1,119.999996337891,2|6,0:0|0:0,0:0:0:0:
86,90,147976,6,0,P|116:92|141:107,1,59.9999981689454,8|0,0:0|0:0,0:0:0:0:
145,55,148130,2,0,P|170:72|184:98,1,59.9999981689454,8|0,0:0|0:0,0:0:0:0:
213,55,148283,2,0,P|226:81|225:111,1,59.9999981689454,8|0,0:0|0:0,0:0:0:0:
274,274,148437,6,0,P|242:271|203:227,1,59.9999981689454,8|0,0:0|0:0,0:0:0:0:
215,308,148591,2,0,P|189:289|177:232,1,59.9999981689454,8|0,0:0|0:0,0:0:0:0:
147,308,148745,2,0,P|134:279|152:223,1,59.9999981689454,8|0,0:0|0:0,0:0:0:0:
135,145,148899,5,12,0:0:0:0:
149,112,148975,1,0,0:0:0:0:
180,96,149052,1,0,0:0:0:0:
215,103,149129,1,0,0:0:0:0:
246,122,149207,1,0,0:0:0:0:
279,136,149283,1,0,0:0:0:0:
314,135,149360,5,8,0:0:0:0:
346,118,149437,1,0,0:0:0:0:
378,103,149514,1,0,0:0:0:0:
413,105,149590,1,0,0:0:0:0:
438,129,149667,1,0,0:0:0:0:
442,164,149744,1,0,0:0:0:0:
449,200,149822,5,8,0:0:0:0:
422,175,149898,1,0,0:0:0:0:
389,162,149975,1,0,0:0:0:0:
353,161,150052,1,0,0:0:0:0:
320,173,150129,1,0,0:0:0:0:
292,196,150206,1,0,0:0:0:0:
267,221,150283,5,8,0:0:0:0:
239,243,150359,1,0,0:0:0:0:
205,253,150436,1,0,0:0:0:0:
169,249,150513,1,0,0:0:0:0:
139,231,150590,1,0,0:0:0:0:
118,202,150667,1,0,0:0:0:0:
108,167,150745,5,8,0:0:0:0:
138,185,150821,1,0,0:0:0:0:
173,191,150898,1,0,0:0:0:0:
208,183,150975,1,0,0:0:0:0:
238,163,151052,1,0,0:0:0:0:
257,133,151129,1,0,0:0:0:0:
286,110,151207,5,8,0:0:0:0:
319,96,151283,1,0,0:0:0:0:
354,97,151360,1,0,0:0:0:0:
387,112,151437,1,0,0:0:0:0:
410,139,151514,1,0,0:0:0:0:
421,174,151591,1,0,0:0:0:0:
416,209,151668,5,8,0:0:0:0:
444,187,151744,1,0,0:0:0:0:
463,156,151821,1,0,0:0:0:0:
469,121,151898,1,0,0:0:0:0:
461,86,151975,1,0,0:0:0:0:
442,56,152052,1,0,0:0:0:0:
428,22,152130,5,8,0:0:0:0:
396,37,152206,1,0,0:0:0:0:
363,52,152283,1,0,0:0:0:0:
330,67,152360,1,0,0:0:0:0:
298,82,152437,1,0,0:0:0:0:
265,97,152514,1,0,0:0:0:0:
234,115,152591,6,2,B|211:122|211:122|199:133|199:133|167:145|167:145|138:133|138:133|126:111|105:118|105:118|111:152|111:152|108:158|108:158|127:237,1,239.999992675781,2|6,0:0|0:0,0:0:0:0:
154,331,153053,1,0,0:0:0:0:
154,331,153360,1,0,0:0:0:0:
319,259,153514,6,0,P|334:232|313:162,1,59.9999981689454,8|0,0:0|0:0,0:0:0:0:
371,230,153668,2,0,P|370:199|317:149,1,59.9999981689454,8|0,0:0|0:0,0:0:0:0:
402,179,153822,2,0,P|386:153|315:136,1,59.9999981689454,8|0,0:0|0:0,0:0:0:0:
265,35,153976,6,0,P|250:62|271:132,1,59.9999981689454,8|0,0:0|0:0,0:0:0:0:
212,63,154130,2,0,P|213:94|266:144,1,59.9999981689454,8|0,0:0|0:0,0:0:0:0:
181,114,154284,2,0,P|197:140|268:157,1,59.9999981689454,8|0,0:0|0:0,0:0:0:0:
288,215,154437,5,12,0:0:0:0:
310,242,154513,1,0,0:0:0:0:
316,277,154590,1,0,0:0:0:0:
302,310,154667,1,0,0:0:0:0:
274,331,154744,1,0,0:0:0:0:
239,335,154821,1,0,0:0:0:0:
207,319,154898,1,0,0:0:0:0:
187,290,154975,1,0,0:0:0:0:
186,254,155053,5,8,0:0:0:0:
186,218,155129,1,0,0:0:0:0:
170,187,155206,1,0,0:0:0:0:
140,167,155283,1,0,0:0:0:0:
105,158,155360,5,8,0:0:0:0:
71,146,155436,1,0,0:0:0:0:
49,118,155513,1,0,0:0:0:0:
44,83,155590,1,0,0:0:0:0:
60,51,155667,1,0,0:0:0:0:
89,32,155744,1,0,0:0:0:0:
125,31,155821,1,0,0:0:0:0:
155,50,155898,1,0,0:0:0:0:
184,73,155976,5,8,0:0:0:0:
212,94,156052,1,0,0:0:0:0:
246,103,156129,1,0,0:0:0:0:
281,98,156206,1,0,0:0:0:0:
315,88,156283,5,8,0:0:0:0:
350,84,156359,1,0,0:0:0:0:
383,96,156436,1,0,0:0:0:0:
406,123,156513,1,0,0:0:0:0:
413,158,156590,1,0,0:0:0:0:
403,192,156667,1,0,0:0:0:0:
377,217,156744,1,0,0:0:0:0:
342,226,156821,1,0,0:0:0:0:
304,219,156899,5,12,0:0:0:0:
258,210,156975,1,0,0:0:0:0:
214,227,157052,1,0,0:0:0:0:
186,265,157129,1,0,0:0:0:0:
184,312,157206,1,0,0:0:0:0:
208,353,157283,1,0,0:0:0:0:
250,374,157360,1,0,0:0:0:0:
297,369,157437,1,0,0:0:0:0:
343,355,157514,5,8,0:0:0:0:
302,331,157590,1,0,0:0:0:0:
280,289,157667,1,0,0:0:0:0:
283,242,157744,1,0,0:0:0:0:
296,195,157822,5,8,0:0:0:0:
292,136,157898,1,0,0:0:0:0:
249,96,157975,1,0,0:0:0:0:
190,98,158052,1,0,0:0:0:0:
149,140,158129,1,0,0:0:0:0:
149,198,158206,1,0,0:0:0:0:
189,241,158283,1,0,0:0:0:0:
247,243,158360,1,0,0:0:0:0:
303,266,158437,5,8,0:0:0:0:
277,214,158513,1,0,0:0:0:0:
303,162,158590,1,0,0:0:0:0:
359,151,158667,1,0,0:0:0:0:
418,161,158745,5,8,0:0:0:0:
475,156,158821,1,0,0:0:0:0:
512,111,158898,1,0,0:0:0:0:
507,54,158975,1,0,0:0:0:0:
462,20,159052,1,0,0:0:0:0:
405,23,159129,1,0,0:0:0:0:
368,70,159206,5,8,0:0:0:0:
376,127,159283,1,0,0:0:0:0:
394,172,159360,1,0,0:0:0:0:
396,218,159436,1,0,0:0:0:0:
367,256,159513,1,0,0:0:0:0:
321,265,159590,1,0,0:0:0:0:
290,260,159668,5,8,0:0:0:0:
261,254,159744,1,0,0:0:0:0:
233,263,159821,1,0,0:0:0:0:
214,286,159898,1,0,0:0:0:0:
209,315,159975,1,0,0:0:0:0:
220,343,160052,1,0,0:0:0:0:
244,360,160129,1,0,0:0:0:0:
273,363,160206,1,0,0:0:0:0:
300,351,160283,1,4,0:0:0:0:
300,351,160591,5,8,0:0:0:0:
317,327,160667,1,0,0:0:0:0:
327,299,160744,1,0,0:0:0:0:
328,269,160821,1,0,0:0:0:0:
319,240,160898,1,0,0:0:0:0:
303,215,160975,1,0,0:0:0:0:
279,197,161052,1,0,0:0:0:0:
251,186,161129,1,0,0:0:0:0:
222,184,161206,1,4,0:0:0:0:
222,184,161514,5,8,0:0:0:0:
192,184,161590,1,0,0:0:0:0:
166,170,161667,1,0,0:0:0:0:
149,146,161744,1,0,0:0:0:0:
147,116,161821,1,0,0:0:0:0:
159,89,161898,1,0,0:0:0:0:
183,71,161975,1,0,0:0:0:0:
212,67,162052,1,0,0:0:0:0:
240,78,162129,1,4,0:0:0:0:
240,78,162437,5,8,0:0:0:0:
249,106,162513,1,0,0:0:0:0:
246,136,162590,1,0,0:0:0:0:
230,161,162667,1,0,0:0:0:0:
205,178,162744,1,0,0:0:0:0:
176,182,162821,1,0,0:0:0:0:
147,174,162898,1,0,0:0:0:0:
125,154,162975,1,0,0:0:0:0:
113,127,163052,1,4,0:0:0:0:
113,127,163360,5,8,0:0:0:0:
99,101,163436,1,0,0:0:0:0:
74,85,163513,1,0,0:0:0:0:
45,84,163590,1,0,0:0:0:0:
19,100,163667,1,0,0:0:0:0:
6,126,163744,1,0,0:0:0:0:
8,155,163821,1,0,0:0:0:0:
25,179,163898,1,0,0:0:0:0:
52,191,163975,1,4,0:0:0:0:
52,191,164283,5,8,0:0:0:0:
81,196,164359,1,0,0:0:0:0:
103,216,164436,1,0,0:0:0:0:
110,245,164513,1,0,0:0:0:0:
101,273,164590,1,0,0:0:0:0:
79,292,164667,1,0,0:0:0:0:
49,295,164744,1,0,0:0:0:0:
23,282,164821,1,0,0:0:0:0:
7,257,164898,1,4,0:0:0:0:
7,257,165206,5,8,0:0:0:0:
22,231,165282,1,0,0:0:0:0:
45,212,165359,1,0,0:0:0:0:
72,199,165436,1,0,0:0:0:0:
102,196,165513,1,0,0:0:0:0:
131,202,165590,1,0,0:0:0:0:
157,216,165667,1,0,0:0:0:0:
178,238,165744,1,0,0:0:0:0:
190,265,165821,1,4,0:0:0:0:
190,265,166129,5,14,0:0:0:0:
219,292,166205,1,0,0:0:0:0:
258,302,166282,1,0,0:0:0:0:
296,293,166359,1,0,0:0:0:0:
326,266,166436,1,0,0:0:0:0:
340,229,166513,1,0,0:0:0:0:
334,190,166590,1,0,0:0:0:0:
311,158,166667,1,0,0:0:0:0:
291,136,166744,1,0,0:0:0:0:
282,109,166820,1,0,0:0:0:0:
292,81,166897,1,0,0:0:0:0:
317,66,166974,1,0,0:0:0:0:
386,35,167052,5,12,0:0:0:0:
367,70,167128,1,0,0:0:0:0:
360,109,167205,1,0,0:0:0:0:
367,148,167282,1,0,0:0:0:0:
375,188,167360,1,0,0:0:0:0:
374,227,167436,1,0,0:0:0:0:
349,258,167513,1,0,0:0:0:0:
311,267,167590,1,0,0:0:0:0:
283,280,167668,1,0,0:0:0:0:
265,303,167744,1,0,0:0:0:0:
266,332,167821,1,0,0:0:0:0:
285,355,167898,1,0,0:0:0:0:
353,324,167975,5,12,0:0:0:0:
382,297,168051,1,0,0:0:0:0:
398,261,168128,1,0,0:0:0:0:
396,221,168205,1,0,0:0:0:0:
377,187,168282,1,0,0:0:0:0:
345,164,168359,1,0,0:0:0:0:
306,157,168436,1,0,0:0:0:0:
268,168,168513,1,0,0:0:0:0:
241,184,168591,1,0,0:0:0:0:
213,191,168667,1,0,0:0:0:0:
184,182,168744,1,0,0:0:0:0:
165,160,168821,1,0,0:0:0:0:
114,104,168898,5,12,0:0:0:0:
80,82,168974,1,0,0:0:0:0:
41,83,169051,1,0,0:0:0:0:
8,105,169128,1,0,0:0:0:0:
0,141,169205,1,0,0:0:0:0:
1,180,169282,1,0,0:0:0:0:
28,208,169359,1,0,0:0:0:0:
67,217,169436,1,0,0:0:0:0:
97,213,169514,1,0,0:0:0:0:
126,213,169590,1,0,0:0:0:0:
152,228,169667,1,0,0:0:0:0:
166,254,169744,1,0,0:0:0:0:
128,317,169821,5,14,0:0:0:0:
166,347,169897,1,0,0:0:0:0:
215,348,169974,1,0,0:0:0:0:
254,318,170051,1,0,0:0:0:0:
267,270,170128,1,0,0:0:0:0:
247,225,170205,1,0,0:0:0:0:
237,176,170283,1,0,0:0:0:0:
227,128,170359,1,0,0:0:0:0:
250,85,170436,1,0,0:0:0:0:
296,67,170513,1,0,0:0:0:0:
342,83,170590,1,0,0:0:0:0:
367,125,170667,1,0,0:0:0:0:
408,187,170744,5,12,0:0:0:0:
452,204,170820,1,0,0:0:0:0:
493,178,170897,1,0,0:0:0:0:
496,130,170974,1,0,0:0:0:0:
458,99,171051,1,0,0:0:0:0:
412,112,171128,1,0,0:0:0:0:
366,133,171206,1,0,0:0:0:0:
320,152,171282,1,0,0:0:0:0:
270,156,171359,1,0,0:0:0:0:
223,142,171436,1,0,0:0:0:0:
182,113,171513,1,0,0:0:0:0:
154,71,171590,1,0,0:0:0:0:
134,56,171668,5,8,0:0:0:0:
109,50,171744,1,0,0:0:0:0:
85,55,171821,1,0,0:0:0:0:
64,68,171898,1,0,0:0:0:0:
49,88,171975,1,0,0:0:0:0:
43,112,172052,1,0,0:0:0:0:
47,136,172129,1,0,0:0:0:0:
60,158,172206,1,0,0:0:0:0:
79,173,172283,1,0,0:0:0:0:
103,179,172360,1,0,0:0:0:0:
128,176,172437,1,0,0:0:0:0:
150,164,172514,1,0,0:0:0:0:
172,153,172591,5,8,0:0:0:0:
193,140,172667,1,0,0:0:0:0:
216,129,172744,1,0,0:0:0:0:
239,122,172821,1,0,0:0:0:0:
264,118,172898,1,0,0:0:0:0:
289,118,172975,1,0,0:0:0:0:
314,121,173052,1,0,0:0:0:0:
338,128,173129,1,0,0:0:0:0:
361,138,173206,1,0,0:0:0:0:
382,151,173283,1,0,0:0:0:0:
401,167,173360,1,0,0:0:0:0:
418,186,173437,1,0,0:0:0:0:
432,206,173514,5,0,0:0:0:0:
446,243,173590,1,0,0:0:0:0:
443,283,173667,1,0,0:0:0:0:
423,318,173744,1,0,0:0:0:0:
391,341,173821,1,0,0:0:0:0:
352,348,173898,1,0,0:0:0:0:
313,339,173975,1,0,0:0:0:0:
283,314,174052,1,0,0:0:0:0:
265,279,174129,1,4,0:0:0:0:
265,279,174437,5,8,0:0:0:0:
300,262,174513,1,0,0:0:0:0:
323,229,174590,1,0,0:0:0:0:
328,190,174667,1,0,0:0:0:0:
313,153,174744,1,0,0:0:0:0:
282,129,174821,1,0,0:0:0:0:
243,122,174898,1,0,0:0:0:0:
206,135,174975,1,0,0:0:0:0:
179,165,175052,1,4,0:0:0:0:
179,165,175360,5,8,0:0:0:0:
142,152,175436,1,0,0:0:0:0:
116,122,175513,1,0,0:0:0:0:
110,83,175590,1,0,0:0:0:0:
125,47,175667,1,0,0:0:0:0:
157,24,175744,1,0,0:0:0:0:
196,21,175821,1,0,0:0:0:0:
232,39,175898,1,0,0:0:0:0:
252,73,175975,1,4,0:0:0:0:
252,73,176283,5,8,0:0:0:0:
213,84,176359,1,0,0:0:0:0:
182,108,176436,1,0,0:0:0:0:
161,142,176513,1,0,0:0:0:0:
153,181,176590,1,0,0:0:0:0:
160,220,176667,1,0,0:0:0:0:
180,255,176744,1,0,0:0:0:0:
210,280,176821,1,0,0:0:0:0:
248,292,176898,1,4,0:0:0:0:
248,292,177206,5,8,0:0:0:0:
263,256,177282,1,0,0:0:0:0:
257,216,177359,1,0,0:0:0:0:
233,185,177436,1,0,0:0:0:0:
197,169,177513,1,0,0:0:0:0:
158,173,177590,1,0,0:0:0:0:
125,196,177667,1,0,0:0:0:0:
109,232,177744,1,0,0:0:0:0:
111,272,177821,1,4,0:0:0:0:
111,272,178129,5,8,0:0:0:0:
72,270,178205,1,0,0:0:0:0:
37,251,178282,1,0,0:0:0:0:
14,218,178359,1,0,0:0:0:0:
9,179,178436,1,0,0:0:0:0:
21,141,178513,1,0,0:0:0:0:
48,113,178590,1,0,0:0:0:0:
86,100,178667,1,0,0:0:0:0:
125,105,178744,1,4,0:0:0:0:
125,105,179052,5,8,0:0:0:0:
146,139,179128,1,0,0:0:0:0:
175,166,179205,1,0,0:0:0:0:
211,183,179282,1,0,0:0:0:0:
250,190,179359,1,0,0:0:0:0:
290,184,179436,1,0,0:0:0:0:
326,167,179513,1,0,0:0:0:0:
356,141,179590,1,0,0:0:0:0:
377,107,179667,1,4,0:0:0:0:
377,107,179975,5,8,0:0:0:0:
364,70,180051,1,0,0:0:0:0:
334,43,180128,1,0,0:0:0:0:
295,35,180205,1,0,0:0:0:0:
258,47,180282,1,0,0:0:0:0:
231,76,180359,1,0,0:0:0:0:
221,114,180436,1,0,0:0:0:0:
232,152,180513,1,0,0:0:0:0:
260,180,180590,1,4,0:0:0:0:
260,180,180898,5,14,0:0:0:0:
281,224,180974,1,0,0:0:0:0:
273,273,181051,1,0,0:0:0:0:
238,307,181128,1,0,0:0:0:0:
190,316,181205,1,0,0:0:0:0:
145,294,181282,1,0,0:0:0:0:
122,251,181359,1,0,0:0:0:0:
128,202,181436,1,0,0:0:0:0:
139,163,181514,1,0,0:0:0:0:
134,124,181590,1,0,0:0:0:0:
101,104,181667,1,0,0:0:0:0:
65,119,181744,1,0,0:0:0:0:
54,194,181821,5,12,0:0:0:0:
86,231,181897,1,0,0:0:0:0:
130,254,181974,1,0,0:0:0:0:
180,259,182051,1,0,0:0:0:0:
228,246,182128,1,0,0:0:0:0:
267,216,182205,1,0,0:0:0:0:
293,174,182282,1,0,0:0:0:0:
302,125,182359,1,0,0:0:0:0:
309,85,182437,1,0,0:0:0:0:
323,49,182513,1,0,0:0:0:0:
359,34,182590,1,0,0:0:0:0:
394,49,182667,1,0,0:0:0:0:
449,99,182744,5,12,0:0:0:0:
464,144,182820,1,0,0:0:0:0:
434,181,182897,1,0,0:0:0:0:
387,176,182974,1,0,0:0:0:0:
340,156,183052,1,0,0:0:0:0:
291,144,183128,1,0,0:0:0:0:
245,160,183205,1,0,0:0:0:0:
213,198,183282,1,0,0:0:0:0:
182,238,183360,1,0,0:0:0:0:
143,267,183436,1,0,0:0:0:0:
95,260,183513,1,0,0:0:0:0:
67,220,183590,1,0,0:0:0:0:
50,172,183668,5,12,0:0:0:0:
98,183,183744,1,0,0:0:0:0:
147,195,183821,1,0,0:0:0:0:
195,207,183898,1,0,0:0:0:0:
244,217,183975,1,0,0:0:0:0:
293,221,184051,1,0,0:0:0:0:
335,194,184128,1,0,0:0:0:0:
351,148,184205,1,0,0:0:0:0:
335,101,184282,1,0,0:0:0:0:
294,74,184359,1,0,0:0:0:0:
245,78,184436,1,0,0:0:0:0:
209,111,184513,1,0,0:0:0:0:
208,151,184591,5,12,0:0:0:0:
205,190,184667,1,0,0:0:0:0:
181,221,184744,1,0,0:0:0:0:
143,232,184821,1,0,0:0:0:0:
103,223,184898,1,0,0:0:0:0:
64,213,184974,1,0,0:0:0:0:
27,226,185051,1,0,0:0:0:0:
4,258,185128,1,0,0:0:0:0:
3,298,185205,1,0,0:0:0:0:
23,331,185282,1,0,0:0:0:0:
60,347,185359,1,0,0:0:0:0:
98,340,185436,1,0,0:0:0:0:
139,340,185514,5,12,0:0:0:0:
104,320,185590,1,0,0:0:0:0:
85,286,185667,1,0,0:0:0:0:
88,246,185744,1,0,0:0:0:0:
103,209,185821,1,0,0:0:0:0:
114,170,185897,1,0,0:0:0:0:
109,131,185974,1,0,0:0:0:0:
90,96,186051,1,0,0:0:0:0:
60,69,186129,2,0,L|18:32,3,50
23,132,186437,5,12,0:0:0:0:
47,149,186513,1,0,0:0:0:0:
73,164,186590,1,0,0:0:0:0:
101,174,186667,1,0,0:0:0:0:
130,180,186744,1,0,0:0:0:0:
160,183,186821,1,0,0:0:0:0:
190,181,186898,1,0,0:0:0:0:
220,174,186975,1,0,0:0:0:0:
248,164,187052,1,0,0:0:0:0:
274,150,187129,1,0,0:0:0:0:
298,132,187206,1,0,0:0:0:0:
320,111,187283,1,0,0:0:0:0:
345,96,187360,5,8,0:0:0:0:
373,86,187436,1,0,0:0:0:0:
403,87,187513,1,0,0:0:0:0:
429,100,187590,1,0,0:0:0:0:
449,123,187667,1,0,0:0:0:0:
459,151,187744,1,0,0:0:0:0:
456,180,187821,1,0,0:0:0:0:
442,207,187898,1,0,0:0:0:0:
419,226,187975,2,2,P|350:239|324:217,1,100
418,48,188276,5,8,0:0:0:0:
243,113,188576,1,8,0:0:0:0:
68,178,188876,1,0,0:0:0:0:
76,186,188951,1,0,0:0:0:0:
83,193,189026,1,0,0:0:0:0:
90,200,189101,1,0,0:0:0:0:
97,205,189176,5,4,0:0:0:0:
187,252,189326,1,8,0:0:0:0:
279,329,189476,1,8,0:0:0:0:
357,262,189626,1,8,0:0:0:0:
228,166,189776,2,0,B|210:139|210:139|202:109|202:109|174:72,1,100
89,31,190076,6,0,B|65:105|65:105|70:153|33:177|33:177|78:232|56:308,1,300,2|4,0:0|0:0,0:0:0:0:
167,207,190676,2,0,P|141:264|146:316,1,100,8|0,0:0|0:0,0:0:0:0:
173,156,190976,2,0,P|129:179|100:220,1,100,8|0,0:0|0:0,0:0:0:0:
246,73,191276,5,8,0:0:0:0:
374,225,191426,1,0,0:0:0:0:
361,67,191576,1,8,0:0:0:0:
374,225,191726,1,0,0:0:0:0:
246,73,191876,6,8,B|198:76|198:76|186:66|186:66|132:73,1,100
64,257,192176,2,0,B|110:246|110:246|127:257|127:257|168:253,1,100,8|0,0:0|0:0,0:0:0:0:
398,157,192476,2,0,B|357:171|357:171|338:160|338:160|287:177,1,100,8|0,0:0|0:0,0:0:0:0:
122,85,192776,6,8,B|139:121|139:121|128:137|128:137|156:188,1,100
183,344,193076,2,0,B|217:317|217:317|216:288|216:288|236:264,1,100,8|0,0:0|0:0,0:0:0:0:
305,78,193376,2,0,B|322:114|322:114|301:122|301:122|332:169,1,100,8|0,0:0|0:0,0:0:0:0:
409,285,193676,6,0,P|432:241|434:191,1,100,8|0,0:0|0:0,0:0:0:0:
403,335,193976,2,0,P|446:311|475:270,1,100,8|0,0:0|0:0,0:0:0:0:
282,225,194276,6,0,P|232:231|191:257,1,100,8|0,0:0|0:0,0:0:0:0:
326,202,194576,2,0,P|281:179|232:179,1,100,8|0,0:0|0:0,0:0:0:0:
390,62,194876,6,0,P|423:98|469:117,1,100,8|0,0:0|0:0,0:0:0:0:
346,39,195176,2,0,P|353:88|381:128,1,100,8|0,0:0|0:0,0:0:0:0:
233,51,195476,6,0,B|229:79|215:98|215:98|166:119|166:119|133:118|133:118|116:184|66:194|66:194|39:248,1,300,2|4,0:0|0:0,0:0:0:0:
119,349,196076,2,0,L|169:254,1,100
287,37,196376,1,8,0:0:0:0:
309,279,196525,1,0,0:0:0:0:
434,70,196676,1,8,0:0:0:0:
210,165,196825,1,0,0:0:0:0:
447,220,196976,1,8,0:0:0:0:
287,37,197126,5,8,0:0:0:0:
287,37,197201,1,8,0:0:0:0:
287,37,197276,1,8,0:0:0:0:
229,358,197426,1,0,0:0:0:0:
466,129,197577,1,8,0:0:0:0:
141,175,197726,1,0,0:0:0:0:
431,330,197877,1,8,0:0:0:0:
287,37,198026,1,0,0:0:0:0:
141,175,198176,5,12,0:0:0:0:
123,192,198251,1,0,0:0:0:0:
112,214,198326,1,0,0:0:0:0:
110,239,198401,1,0,0:0:0:0:
117,263,198476,1,0,0:0:0:0:
131,283,198551,1,0,0:0:0:0:
152,297,198626,1,0,0:0:0:0:
176,303,198701,1,0,0:0:0:0:
201,300,198776,1,0,0:0:0:0:
223,289,198851,1,0,0:0:0:0:
240,270,198926,1,0,0:0:0:0:
249,247,199001,1,0,0:0:0:0:
260,212,199076,5,14,0:0:0:0:
262,165,199151,1,0,0:0:0:0:
228,133,199226,1,0,0:0:0:0:
182,139,199301,1,0,0:0:0:0:
157,178,199376,1,0,0:0:0:0:
171,223,199451,1,0,0:0:0:0:
235,277,199526,5,8,0:0:0:0:
266,311,199601,1,0,0:0:0:0:
261,358,199676,1,0,0:0:0:0:
223,384,199751,1,0,0:0:0:0:
178,372,199826,1,0,0:0:0:0:
157,331,199901,1,0,0:0:0:0:
155,247,199976,5,8,0:0:0:0:
167,202,200051,1,0,0:0:0:0:
210,183,200126,1,0,0:0:0:0:
251,203,200201,1,0,0:0:0:0:
324,243,200276,5,8,0:0:0:0:
369,260,200351,1,0,0:0:0:0:
415,250,200426,1,0,0:0:0:0:
450,218,200501,1,0,0:0:0:0:
461,172,200576,1,0,0:0:0:0:
447,127,200651,1,0,0:0:0:0:
410,96,200726,1,0,0:0:0:0:
363,106,200801,1,0,0:0:0:0:
284,136,200876,5,12,0:0:0:0:
238,150,200951,1,0,0:0:0:0:
190,146,201026,1,0,0:0:0:0:
148,124,201101,1,0,0:0:0:0:
103,106,201176,1,0,0:0:0:0:
56,102,201251,1,0,0:0:0:0:
16,126,201326,1,0,0:0:0:0:
1,170,201401,1,0,0:0:0:0:
10,216,201476,1,0,0:0:0:0:
47,245,201551,1,0,0:0:0:0:
95,247,201626,1,0,0:0:0:0:
133,220,201701,1,0,0:0:0:0:
178,204,201776,6,0,P|210:201|256:213,1,59.9999981689454,8|0,0:0|0:0,0:0:0:0:
283,217,201926,1,0,0:0:0:0:
319,248,202001,1,0,0:0:0:0:
356,278,202076,2,0,P|400:292|425:280,1,59.9999981689454,8|0,0:0|0:0,0:0:0:0:
458,275,202226,1,0,0:0:0:0:
483,234,202301,1,0,0:0:0:0:
484,186,202376,2,0,P|473:151|437:126,1,59.9999981689454,8|0,0:0|0:0,0:0:0:0:
416,108,202526,1,0,0:0:0:0:
371,95,202601,1,0,0:0:0:0:
325,107,202676,1,0,0:0:0:0:
290,140,202751,1,0,0:0:0:0:
277,185,202826,1,0,0:0:0:0:
274,232,202901,5,8,0:0:0:0:
274,291,202976,1,0,0:0:0:0:
236,335,203051,1,0,0:0:0:0:
177,342,203126,1,0,0:0:0:0:
130,308,203201,1,0,0:0:0:0:
118,249,203276,1,0,0:0:0:0:
92,197,203351,1,0,0:0:0:0:
35,191,203426,1,0,0:0:0:0:
0,234,203501,1,0,0:0:0:0:
18,291,203576,5,8,0:0:0:0:
66,287,203651,1,0,0:0:0:0:
114,283,203726,1,0,0:0:0:0:
161,279,203801,1,0,0:0:0:0:
150,219,203876,5,8,0:0:0:0:
198,222,203951,1,0,0:0:0:0:
246,224,204026,1,0,0:0:0:0:
294,227,204101,1,0,0:0:0:0:
353,226,204176,5,8,0:0:0:0:
407,209,204251,1,0,0:0:0:0:
420,153,204326,1,0,0:0:0:0:
378,114,204401,1,0,0:0:0:0:
335,93,204476,5,12,0:0:0:0:
331,141,204551,1,0,0:0:0:0:
327,189,204626,1,0,0:0:0:0:
323,237,204701,1,0,0:0:0:0:
319,284,204776,5,8,0:0:0:0:
290,245,204851,1,0,0:0:0:0:
262,206,204926,1,0,0:0:0:0:
234,167,205001,1,0,0:0:0:0:
247,121,205076,5,8,0:0:0:0:
206,94,205151,1,0,0:0:0:0:
166,68,205226,1,0,0:0:0:0:
126,41,205301,1,0,0:0:0:0:
86,16,205376,5,12,0:0:0:0:
104,73,205451,1,0,0:0:0:0:
103,132,205526,1,0,0:0:0:0:
83,189,205601,1,0,0:0:0:0:
62,245,205676,1,0,0:0:0:0:
63,303,205751,1,0,0:0:0:0:
111,339,205826,1,0,0:0:0:0:
167,327,205901,1,0,0:0:0:0:
222,304,205976,1,0,0:0:0:0:
277,283,206051,1,0,0:0:0:0:
337,286,206126,1,0,0:0:0:0:
390,312,206201,1,0,0:0:0:0:
434,352,206276,5,12,0:0:0:0:
411,296,206351,1,0,0:0:0:0:
412,237,206426,1,0,0:0:0:0:
436,182,206501,1,0,0:0:0:0:
467,131,206576,1,0,0:0:0:0:
481,75,206651,1,0,0:0:0:0:
440,35,206726,1,0,0:0:0:0:
385,49,206801,1,0,0:0:0:0:
334,81,206876,1,0,0:0:0:0:
279,106,206951,1,0,0:0:0:0:
220,106,207026,1,0,0:0:0:0:
166,81,207101,1,0,0:0:0:0:
131,70,207176,5,12,0:0:0:0:
95,71,207251,1,0,0:0:0:0:
66,91,207326,1,0,0:0:0:0:
52,124,207401,1,0,0:0:0:0:
57,159,207476,1,0,0:0:0:0:
83,183,207551,1,0,0:0:0:0:
131,179,207626,1,0,0:0:0:0:
179,175,207701,1,0,0:0:0:0:
227,170,207776,1,0,0:0:0:0:
274,166,207851,1,0,0:0:0:0:
322,162,207926,1,0,0:0:0:0:
370,157,208001,1,0,0:0:0:0:
413,135,208076,5,8,0:0:0:0:
384,172,208151,1,0,0:0:0:0:
372,219,208226,1,0,0:0:0:0:
380,266,208301,1,0,0:0:0:0:
401,309,208376,1,0,0:0:0:0:
399,355,208451,1,0,0:0:0:0:
362,383,208526,1,0,0:0:0:0:
316,373,208601,1,0,0:0:0:0:
269,359,208676,1,0,0:0:0:0:
222,346,208751,1,0,0:0:0:0:
174,346,208826,1,0,0:0:0:0:
128,357,208901,1,0,0:0:0:0:
84,376,208976,5,12,0:0:0:0:
116,325,209051,1,0,0:0:0:0:
126,267,209126,1,0,0:0:0:0:
111,209,209201,1,0,0:0:0:0:
96,151,209276,1,0,0:0:0:0:
97,92,209351,1,0,0:0:0:0:
133,46,209426,1,0,0:0:0:0:
190,32,209501,1,0,0:0:0:0:
244,55,209576,1,0,0:0:0:0:
273,107,209651,1,0,0:0:0:0:
264,165,209726,1,0,0:0:0:0:
222,206,209801,1,0,0:0:0:0:
162,207,209876,5,12,0:0:0:0:
103,206,209951,1,0,0:0:0:0:
56,242,210026,1,0,0:0:0:0:
43,299,210101,1,0,0:0:0:0:
68,352,210176,1,0,0:0:0:0:
121,378,210251,1,0,0:0:0:0:
180,369,210326,6,0,L|243:348,2,59.9999981689454
337,308,210626,1,12,0:0:0:0:
200,190,210776,5,8,0:0:0:0:
200,190,210851,1,8,0:0:0:0:
200,190,210926,1,8,0:0:0:0:
341,79,211076,1,8,0:0:0:0:
319,257,211226,2,0,L|309:328,2,59.9999981689454
341,79,211526,1,8,0:0:0:0:
190,234,211676,5,8,0:0:0:0:
186,186,211751,1,0,0:0:0:0:
181,139,211826,1,0,0:0:0:0:
177,91,211901,1,0,0:0:0:0:
149,37,211976,2,0,L|72:30,1,59.9999981689454,8|0,0:0|0:0,0:0:0:0:
69,100,212126,1,0,0:0:0:0:
117,99,212201,1,0,0:0:0:0:
165,98,212276,1,0,0:0:0:0:
213,97,212351,1,0,0:0:0:0:
261,97,212426,1,0,0:0:0:0:
309,96,212501,1,0,0:0:0:0:
380,88,212576,6,0,L|395:30,2,59.9999981689454
324,321,212876,1,8,0:0:0:0:
146,291,213026,1,8,0:0:0:0:
146,291,213101,1,8,0:0:0:0:
146,291,213176,1,8,0:0:0:0:
256,148,213326,1,12,0:0:0:0:
423,361,213476,5,12,0:0:0:0:
408,303,213551,1,0,0:0:0:0:
405,243,213626,1,0,0:0:0:0:
414,184,213701,1,0,0:0:0:0:
429,126,213776,1,0,0:0:0:0:
437,69,213851,1,0,0:0:0:0:
393,33,213926,5,12,0:0:0:0:
339,52,214001,1,0,0:0:0:0:
287,83,214076,1,0,0:0:0:0:
232,105,214151,1,0,0:0:0:0:
173,96,214226,1,0,0:0:0:0:
127,59,214301,1,0,0:0:0:0:
73,32,214376,5,12,0:0:0:0:
108,80,214451,1,0,0:0:0:0:
126,136,214526,1,0,0:0:0:0:
126,196,214601,1,0,0:0:0:0:
111,254,214676,1,0,0:0:0:0:
111,312,214751,1,0,0:0:0:0:
159,344,214826,5,12,0:0:0:0:
213,322,214901,1,0,0:0:0:0:
267,296,214976,1,0,0:0:0:0:
324,280,215051,1,0,0:0:0:0:
381,294,215126,1,0,0:0:0:0:
425,334,215201,1,0,0:0:0:0:
450,359,215276,5,12,0:0:0:0:
437,325,215351,1,0,0:0:0:0:
430,290,215426,1,0,0:0:0:0:
429,254,215501,1,0,0:0:0:0:
435,218,215576,1,0,0:0:0:0:
446,184,215651,1,0,0:0:0:0:
462,152,215726,1,0,0:0:0:0:
466,116,215801,1,0,0:0:0:0:
452,83,215876,1,0,0:0:0:0:
424,61,215951,1,0,0:0:0:0:
389,55,216026,1,0,0:0:0:0:
355,67,216101,1,0,0:0:0:0:
322,82,216176,5,8,0:0:0:0:
266,102,216251,1,0,0:0:0:0:
207,101,216326,1,0,0:0:0:0:
151,80,216401,1,0,0:0:0:0:
94,58,216476,1,0,0:0:0:0:
38,64,216551,1,0,0:0:0:0:
18,117,216626,1,0,0:0:0:0:
58,158,216701,1,0,0:0:0:0:
117,164,216776,1,0,0:0:0:0:
177,166,216851,1,0,0:0:0:0:
237,168,216926,1,0,0:0:0:0:
297,170,217001,1,0,0:0:0:0:
356,172,217076,6,12,L|434:173,3,59.9999981689454
380,50,217376,2,0,P|347:68|334:106,1,59.9999981689454,8|0,0:0|0:0,0:0:0:0:
273,264,217526,2,0,P|306:246|319:208,1,59.9999981689454,8|0,0:0|0:0,0:0:0:0:
340,185,217676,1,0,0:0:0:0:
331,139,217751,1,0,0:0:0:0:
296,109,217826,1,0,0:0:0:0:
249,108,217901,1,0,0:0:0:0:
201,116,217976,6,0,P|179:127|154:178,1,59.9999981689454,8|0,0:0|0:0,0:0:0:0:
141,199,218126,1,0,0:0:0:0:
134,246,218201,1,0,0:0:0:0:
159,285,218276,1,0,0:0:0:0:
204,300,218351,1,0,0:0:0:0:
248,282,218426,1,0,0:0:0:0:
269,241,218501,1,0,0:0:0:0:
260,195,218576,1,0,0:0:0:0:
260,147,218651,1,0,0:0:0:0:
297,120,218726,1,0,0:0:0:0:
336,144,218801,1,0,0:0:0:0:
344,191,218876,6,0,L|351:250,3,59.9999981689454
250,184,219176,2,0,L|243:125,3,59.9999981689454
334,46,219476,2,0,P|354:99|347:126,1,59.9999981689454,8|0,0:0|0:0,0:0:0:0:
441,120,219626,2,0,P|436:149|421:174,1,59.9999981689454,8|0,0:0|0:0,0:0:0:0:
393,215,219776,5,12,0:0:0:0:
355,244,219851,1,0,0:0:0:0:
308,249,219926,1,0,0:0:0:0:
266,227,220001,1,0,0:0:0:0:
221,210,220076,1,0,0:0:0:0:
174,210,220151,1,0,0:0:0:0:
138,240,220226,1,0,0:0:0:0:
130,287,220301,1,0,0:0:0:0:
140,333,220376,1,0,0:0:0:0:
164,307,220451,1,0,0:0:0:0:
197,293,220526,1,0,0:0:0:0:
233,294,220601,1,0,0:0:0:0:
268,302,220676,5,12,0:0:0:0:
313,318,220751,1,0,0:0:0:0:
358,305,220826,1,0,0:0:0:0:
388,268,220901,1,0,0:0:0:0:
407,223,220976,2,0,P|411:193|430:170,1,59.9999981689454,8|0,0:0|0:0,0:0:0:0:
309,81,221126,2,0,P|313:110|332:133,1,59.9999981689454,8|0,0:0|0:0,0:0:0:0:
354,162,221276,1,0,0:0:0:0:
362,208,221351,1,0,0:0:0:0:
338,248,221426,1,0,0:0:0:0:
293,262,221501,1,0,0:0:0:0:
252,285,221576,5,12,0:0:0:0:
239,226,221651,1,0,0:0:0:0:
226,167,221726,1,0,0:0:0:0:
214,109,221801,1,0,0:0:0:0:
198,51,221876,1,0,0:0:0:0:
149,22,221951,1,0,0:0:0:0:
104,56,222026,1,0,0:0:0:0:
121,110,222101,1,0,0:0:0:0:
146,165,222176,1,0,0:0:0:0:
171,219,222251,1,0,0:0:0:0:
162,277,222326,1,0,0:0:0:0:
122,321,222401,1,0,0:0:0:0:
67,347,222476,6,0,P|25:351|-10:297,5,59.9999981689454
104,216,222926,2,0,P|146:212|181:266,5,59.9999981689454
253,91,223376,2,0,P|245:132|184:152,5,59.9999981689454
154,348,223826,2,0,P|136:323|135:294,5,59.9999981689454
164,189,224276,5,12,0:0:0:0:
323,61,224426,1,0,0:0:0:0:
323,61,224501,1,0,0:0:0:0:
323,61,224576,1,0,0:0:0:0:
442,226,224726,2,0,L|447:287,2,59.9999981689454
323,61,225026,1,12,0:0:0:0:
251,252,225176,5,12,0:0:0:0:
139,81,225326,1,0,0:0:0:0:
139,81,225401,1,0,0:0:0:0:
139,81,225476,1,0,0:0:0:0:
339,120,225626,2,0,L|409:152,2,59.9999981689454
139,81,225926,1,12,0:0:0:0:
178,280,226076,5,8,0:0:0:0:
209,315,226151,1,0,0:0:0:0:
255,322,226226,1,0,0:0:0:0:
296,299,226301,1,0,0:0:0:0:
336,273,226376,1,0,0:0:0:0:
381,260,226451,1,0,0:0:0:0:
428,269,226526,6,0,L|489:291,1,59.9999981689454,8|0,0:0|0:0,0:0:0:0:
506,365,226676,2,0,P|456:360|436:345,1,59.9999981689454,8|0,0:0|0:0,0:0:0:0:
361,238,226826,2,0,P|396:200|426:198,1,59.9999981689454,8|0,0:0|0:0,0:0:0:0:
506,181,226976,5,12,0:0:0:0:
428,45,227126,1,0,0:0:0:0:
428,45,227201,1,0,0:0:0:0:
428,45,227276,1,0,0:0:0:0:
369,189,227426,2,0,L|352:251,2,59.9999981689454
428,45,227726,1,12,0:0:0:0:
283,107,227876,5,14,0:0:0:0:
236,100,227951,1,0,0:0:0:0:
195,124,228026,1,0,0:0:0:0:
178,168,228101,1,0,0:0:0:0:
191,213,228176,1,0,0:0:0:0:
229,241,228251,1,0,0:0:0:0:
274,256,228326,5,12,0:0:0:0:
258,212,228401,1,0,0:0:0:0:
266,165,228476,1,0,0:0:0:0:
298,130,228551,1,0,0:0:0:0:
343,116,228626,1,0,0:0:0:0:
389,128,228701,1,0,0:0:0:0:
435,138,228776,5,12,0:0:0:0:
389,153,228851,1,0,0:0:0:0:
344,168,228926,1,0,0:0:0:0:
298,183,229001,1,0,0:0:0:0:
253,199,229076,1,0,0:0:0:0:
207,214,229151,1,0,0:0:0:0:
164,235,229226,5,12,0:0:0:0:
187,194,229301,1,0,0:0:0:0:
230,173,229376,1,0,0:0:0:0:
277,180,229451,1,0,0:0:0:0:
311,212,229526,1,0,0:0:0:0:
322,258,229601,1,0,0:0:0:0:
311,304,229676,5,12,0:0:0:0:
338,355,229751,1,0,0:0:0:0:
395,364,229826,1,0,0:0:0:0:
437,324,229901,1,0,0:0:0:0:
431,266,229976,1,0,0:0:0:0:
381,237,230051,1,0,0:0:0:0:
321,237,230126,5,12,0:0:0:0:
263,231,230201,1,0,0:0:0:0:
227,185,230276,1,0,0:0:0:0:
235,128,230351,1,0,0:0:0:0:
283,94,230426,1,0,0:0:0:0:
340,106,230501,1,0,0:0:0:0:
380,131,230576,5,8,0:0:0:0:
399,174,230651,1,0,0:0:0:0:
384,218,230726,1,0,0:0:0:0:
343,241,230801,1,0,0:0:0:0:
298,230,230876,1,0,0:0:0:0:
272,191,230951,1,0,0:0:0:0:
279,144,231026,1,0,0:0:0:0:
263,100,231101,1,0,0:0:0:0:
218,90,231176,1,0,0:0:0:0:
185,122,231251,1,0,0:0:0:0:
193,167,231326,1,0,0:0:0:0:
235,189,231401,1,0,0:0:0:0:
274,196,231476,6,0,P|313:194|335:174,3,50
352,67,231776,2,0,P|313:69|291:89,3,50
206,49,232076,2,0,P|175:73|168:102,1,50
78,118,232226,2,0,P|66:155|77:182,1,50,4|4,0:0|0:0,0:0:0:0:
41,261,232376,6,0,P|53:298|78:314,3,50
185,325,232676,2,0,P|172:287|147:271,3,50
73,194,232976,2,0,P|71:169|82:146,1,50
178,118,233126,2,0,P|197:102|222:98,1,50,4|0,0:0|0:0,0:0:0:0:
304,152,233276,6,0,P|328:156|347:172,3,50
224,232,233576,2,0,P|199:236|180:252,3,50
336,296,233876,2,0,P|357:283|370:261,1,50
304,152,234026,2,0,P|314:129|311:103,1,50,4|0,0:0|0:0,0:0:0:0:
193,52,234176,6,0,P|182:74|185:100,3,50
102,156,234476,2,0,P|108:180|126:198,3,50
162,290,234776,2,0,P|182:304|208:306,1,50
298,346,234926,2,0,P|322:343|343:328,1,50,4|0,0:0|0:0,0:0:0:0:
189,349,235076,5,8,0:0:0:0:
149,346,235151,1,0,0:0:0:0:
120,320,235226,1,0,0:0:0:0:
115,281,235301,1,0,0:0:0:0:
135,247,235376,1,0,0:0:0:0:
171,234,235451,1,0,0:0:0:0:
211,238,235526,5,8,0:0:0:0:
250,239,235601,1,0,0:0:0:0:
284,218,235676,1,0,0:0:0:0:
301,183,235751,1,0,0:0:0:0:
297,144,235826,1,0,0:0:0:0:
273,113,235901,1,0,0:0:0:0:
227,74,235976,5,8,0:0:0:0:
229,113,236051,1,0,0:0:0:0:
231,153,236126,1,0,0:0:0:0:
234,193,236201,1,0,0:0:0:0:
236,233,236276,1,0,0:0:0:0:
238,273,236351,1,0,0:0:0:0:
245,313,236426,1,0,0:0:0:0:
267,345,236501,1,0,0:0:0:0:
305,354,236576,1,0,0:0:0:0:
339,335,236651,1,0,0:0:0:0:
352,298,236726,1,0,0:0:0:0:
337,262,236801,1,0,0:0:0:0:
293,206,236876,5,8,0:0:0:0:
274,171,236951,1,0,0:0:0:0:
279,132,237026,1,0,0:0:0:0:
305,103,237101,1,0,0:0:0:0:
344,95,237176,1,0,0:0:0:0:
380,111,237251,1,0,0:0:0:0:
414,130,237326,1,0,0:0:0:0:
447,151,237401,1,0,0:0:0:0:
485,143,237476,1,0,0:0:0:0:
508,111,237551,1,0,0:0:0:0:
503,73,237626,1,0,0:0:0:0:
473,48,237701,1,0,0:0:0:0:
419,21,237776,5,12,0:0:0:0:
444,63,237851,1,0,0:0:0:0:
445,112,237926,1,0,0:0:0:0:
421,155,238001,1,0,0:0:0:0:
379,181,238076,1,0,0:0:0:0:
330,182,238151,1,0,0:0:0:0:
280,176,238226,1,0,0:0:0:0:
232,168,238301,1,0,0:0:0:0:
196,200,238376,1,0,0:0:0:0:
197,247,238451,1,0,0:0:0:0:
233,279,238526,1,0,0:0:0:0:
280,271,238601,1,0,0:0:0:0:
328,257,238676,5,8,0:0:0:0:
445,233,238826,1,0,0:0:0:0:
315,156,238976,2,0,B|278:167|278:167|251:150|251:150|212:161,2,100
460,117,239426,1,4,0:0:0:0:
327,81,239576,6,0,P|285:107|258:149,1,100,8|0,0:0|0:0,0:0:0:0:
357,40,239876,2,0,P|307:39|262:60,1,100,8|0,0:0|0:0,0:0:0:0:
446,92,240176,2,0,B|427:127|427:127|430:145|430:145|406:187,1,100,4|0,0:0|0:0,0:0:0:0:
271,241,240476,5,8,0:0:0:0:
193,112,240626,1,0,0:0:0:0:
168,249,240776,2,0,B|158:270|158:270|165:309|165:309|155:344,1,100
61,239,241076,1,0,0:0:0:0:
112,87,241226,1,4,0:0:0:0:
271,69,241376,6,0,P|312:95|339:137,1,100,8|0,0:0|0:0,0:0:0:0:
241,28,241676,2,0,P|290:27|335:48,1,100,8|0,0:0|0:0,0:0:0:0:
180,91,241976,2,0,B|199:126|199:126|196:144|196:144|220:186,1,100
282,326,242276,5,8,0:0:0:0:
286,206,242426,1,0,0:0:0:0:
282,326,242576,1,8,0:0:0:0:
320,201,242726,1,0,0:0:0:0:
282,326,242876,1,8,0:0:0:0:
358,204,243026,1,4,0:0:0:0:
282,326,243176,5,12,0:0:0:0:
166,218,243326,1,4,0:0:0:0:
265,92,243476,1,8,0:0:0:0:
295,67,243551,1,0,0:0:0:0:
335,66,243626,1,0,0:0:0:0:
367,88,243701,1,0,0:0:0:0:
380,125,243776,1,0,0:0:0:0:
369,163,243851,1,0,0:0:0:0:
337,186,243926,1,0,0:0:0:0:
298,186,244001,1,0,0:0:0:0:
258,185,244076,5,8,0:0:0:0:
208,180,244151,1,0,0:0:0:0:
158,176,244226,1,0,0:0:0:0:
108,171,244301,1,0,0:0:0:0:
62,152,244376,1,0,0:0:0:0:
91,191,244451,1,0,0:0:0:0:
88,240,244526,1,0,0:0:0:0:
55,276,244601,1,0,0:0:0:0:
18,309,244676,1,0,0:0:0:0:
0,353,244751,1,0,0:0:0:0:
34,386,244826,1,0,0:0:0:0:
78,369,244901,1,0,0:0:0:0:
123,347,244976,6,0,P|155:336|188:336,3,50
214,273,245276,2,0,P|182:262|149:262,3,50
117,201,245576,2,0,P|149:190|182:190,3,50
249,165,245876,5,14,0:0:0:0:
293,150,245952,1,0,0:0:0:0:
336,170,246029,1,0,0:0:0:0:
354,213,246106,1,0,0:0:0:0:
339,257,246183,1,0,0:0:0:0:
298,280,246260,1,0,0:0:0:0:
250,280,246337,1,0,0:0:0:0:
204,289,246413,1,0,0:0:0:0:
183,330,246490,1,0,0:0:0:0:
204,372,246567,1,0,0:0:0:0:
249,381,246644,1,0,0:0:0:0:
284,352,246721,1,0,0:0:0:0:
313,312,246799,6,0,P|315:257|297:238,3,59.9999981689454
199,158,247106,2,0,P|191:186|199:214,3,59.9999981689454
239,329,247414,2,0,P|209:326|185:308,3,59.9999981689454
126,238,247722,5,12,0:0:0:0:
103,196,247798,1,0,0:0:0:0:
103,148,247875,1,0,0:0:0:0:
126,107,247952,1,0,0:0:0:0:
198,119,248029,5,12,0:0:0:0:
172,159,248105,1,0,0:0:0:0:
171,206,248182,1,0,0:0:0:0:
195,247,248259,1,0,0:0:0:0:
267,243,248337,5,12,0:0:0:0:
251,198,248413,1,0,0:0:0:0:
254,150,248490,1,0,0:0:0:0:
275,108,248567,1,0,0:0:0:0:
329,59,248645,6,0,P|366:47|402:69,3,59.9999981689454
264,187,248952,2,0,P|227:199|191:177,3,59.9999981689454
63,147,249260,2,0,P|51:184|73:220,3,59.9999981689454
109,277,249568,5,12,0:0:0:0:
137,315,249644,1,0,0:0:0:0:
182,329,249721,1,0,0:0:0:0:
228,314,249798,1,0,0:0:0:0:
256,277,249875,1,0,0:0:0:0:
258,230,249952,1,0,0:0:0:0:
234,191,250029,1,0,0:0:0:0:
191,171,250106,1,0,0:0:0:0:
142,169,250183,1,0,0:0:0:0:
97,160,250259,1,0,0:0:0:0:
83,116,250336,1,0,0:0:0:0:
115,83,250413,1,0,0:0:0:0:
159,63,250491,5,12,0:0:0:0:
154,122,250567,1,0,0:0:0:0:
150,182,250644,1,0,0:0:0:0:
146,242,250721,1,0,0:0:0:0:
146,303,250799,1,0,0:0:0:0:
168,357,250875,1,0,0:0:0:0:
223,377,250952,1,0,0:0:0:0:
274,349,251029,1,0,0:0:0:0:
296,293,251106,2,0,P|291:247|272:234,1,59.9999981689454,8|0,0:0|0:0,0:0:0:0:
162,196,251260,2,0,P|178:239|200:246,1,59.9999981689454,8|0,0:0|0:0,0:0:0:0:
273,276,251414,5,8,0:0:0:0:
343,286,251490,1,0,0:0:0:0:
406,255,251567,1,0,0:0:0:0:
440,193,251644,1,0,0:0:0:0:
432,122,251721,1,0,0:0:0:0:
385,69,251798,1,0,0:0:0:0:
316,53,251875,1,0,0:0:0:0:
250,79,251952,1,0,0:0:0:0:
211,138,252029,1,0,0:0:0:0:
228,209,252106,1,0,0:0:0:0:
255,274,252182,1,0,0:0:0:0:
221,337,252259,1,0,0:0:0:0:
151,360,252337,5,8,0:0:0:0:
102,369,252413,1,0,0:0:0:0:
62,348,252490,1,0,0:0:0:0:
39,306,252567,1,0,0:0:0:0:
45,260,252644,1,0,0:0:0:0:
79,225,252721,1,0,0:0:0:0:
126,219,252798,1,0,0:0:0:0:
169,239,252875,1,0,0:0:0:0:
204,267,252952,1,0,0:0:0:0:
246,288,253028,1,0,0:0:0:0:
292,280,253105,1,0,0:0:0:0:
321,245,253182,1,0,0:0:0:0:
317,131,253260,5,12,0:0:0:0:
279,85,253336,1,0,0:0:0:0:
222,72,253413,1,0,0:0:0:0:
168,96,253490,1,0,0:0:0:0:
140,148,253567,1,0,0:0:0:0:
149,206,253644,1,0,0:0:0:0:
191,247,253721,1,0,0:0:0:0:
250,254,253798,1,0,0:0:0:0:
284,242,253876,1,0,0:0:0:0:
319,236,253952,1,0,0:0:0:0:
353,246,254029,1,0,0:0:0:0:
377,272,254106,1,0,0:0:0:0:
401,298,254183,5,12,0:0:0:0:
385,240,254259,1,0,0:0:0:0:
394,181,254336,1,0,0:0:0:0:
426,131,254413,1,0,0:0:0:0:
449,74,254491,1,0,0:0:0:0:
443,17,254567,1,0,0:0:0:0:
390,0,254644,1,0,0:0:0:0:
346,31,254721,1,0,0:0:0:0:
340,91,254799,2,0,P|353:121|380:135,1,59.9999981689454,8|0,0:0|0:0,0:0:0:0:
470,151,254952,2,0,P|470:183|452:207,1,59.9999981689454,8|0,0:0|0:0,0:0:0:0:
389,269,255106,5,12,0:0:0:0:
332,280,255182,1,0,0:0:0:0:
288,242,255259,1,0,0:0:0:0:
290,184,255336,1,0,0:0:0:0:
311,127,255414,1,0,0:0:0:0:
321,69,255490,1,0,0:0:0:0:
291,18,255567,1,0,0:0:0:0:
236,0,255644,1,0,0:0:0:0:
182,23,255721,1,0,0:0:0:0:
156,76,255798,1,0,0:0:0:0:
172,132,255875,1,0,0:0:0:0:
221,165,255952,1,0,0:0:0:0:
280,175,256029,6,0,P|316:171|349:136,3,59.9999981689454
306,39,256337,2,0,P|290:64|288:94,3,59.9999981689454
259,243,256645,2,0,P|232:228|216:203,3,59.9999981689454
169,127,256952,5,12,0:0:0:0:
144,88,257028,1,0,0:0:0:0:
99,72,257105,1,0,0:0:0:0:
54,87,257182,1,0,0:0:0:0:
28,126,257259,1,0,0:0:0:0:
31,173,257336,1,0,0:0:0:0:
62,209,257413,1,0,0:0:0:0:
108,218,257490,1,0,0:0:0:0:
154,204,257568,1,0,0:0:0:0:
200,192,257644,1,0,0:0:0:0:
246,203,257721,1,0,0:0:0:0:
282,234,257798,1,0,0:0:0:0:
294,281,257876,5,8,0:0:0:0:
316,335,257952,1,0,0:0:0:0:
368,363,258029,1,0,0:0:0:0:
426,353,258106,1,0,0:0:0:0:
465,309,258183,1,0,0:0:0:0:
469,251,258260,1,0,0:0:0:0:
437,199,258337,2,0,P|419:182|364:177,1,59.9999981689454,8|0,0:0|0:0,0:0:0:0:
336,95,258491,2,0,P|311:91|263:118,1,59.9999981689454,8|0,0:0|0:0,0:0:0:0:
187,98,258645,2,0,P|164:109|141:159,1,59.9999981689454,8|0,0:0|0:0,0:0:0:0:
68,187,258799,6,0,P|56:208|65:263,3,59.9999981689454
175,186,259106,2,0,P|191:161|217:146,3,59.9999981689454
296,191,259414,2,0,P|323:179|353:183,1,59.9999981689454
450,255,259568,2,0,P|427:274|398:281,1,59.9999981689454,12|0,0:0|0:0,0:0:0:0:
312,313,259722,5,8,0:0:0:0:
277,320,259798,1,0,0:0:0:0:
242,311,259875,1,0,0:0:0:0:
215,288,259952,1,0,0:0:0:0:
200,255,260029,1,0,0:0:0:0:
201,219,260106,1,0,0:0:0:0:
217,187,260183,1,0,0:0:0:0:
245,166,260260,1,0,0:0:0:0:
280,158,260337,1,0,0:0:0:0:
315,166,260414,1,0,0:0:0:0:
343,189,260491,1,0,0:0:0:0:
358,221,260568,1,0,0:0:0:0:
354,256,260645,5,14,0:0:0:0:
353,302,260721,1,0,0:0:0:0:
389,332,260798,1,0,0:0:0:0:
434,323,260875,1,0,0:0:0:0:
456,282,260952,1,0,0:0:0:0:
438,240,261029,1,0,0:0:0:0:
421,194,261106,2,0,P|421:158|439:131,3,59.9999981689454
321,87,261414,2,0,P|321:123|339:150,1,59.9999981689454
383,219,261568,5,8,0:0:0:0:
394,264,261644,1,0,0:0:0:0:
378,309,261721,1,0,0:0:0:0:
340,337,261798,1,0,0:0:0:0:
292,339,261875,1,0,0:0:0:0:
252,314,261952,1,0,0:0:0:0:
232,271,262029,1,0,0:0:0:0:
239,225,262106,1,0,0:0:0:0:
252,191,262183,1,0,0:0:0:0:
253,156,262259,1,0,0:0:0:0:
235,125,262336,1,0,0:0:0:0:
203,110,262413,1,0,0:0:0:0:
129,110,262491,5,12,0:0:0:0:
72,124,262567,1,0,0:0:0:0:
35,170,262644,1,0,0:0:0:0:
35,229,262721,1,0,0:0:0:0:
71,276,262798,1,0,0:0:0:0:
128,290,262875,1,0,0:0:0:0:
181,266,262952,1,0,0:0:0:0:
209,214,263029,1,0,0:0:0:0:
256,177,263106,1,0,0:0:0:0:
307,150,263182,1,0,0:0:0:0:
360,173,263259,1,0,0:0:0:0:
373,230,263336,1,0,0:0:0:0:
396,285,263414,5,12,0:0:0:0:
337,274,263490,1,0,0:0:0:0:
278,262,263567,1,0,0:0:0:0:
219,251,263644,1,0,0:0:0:0:
160,240,263721,1,0,0:0:0:0:
101,229,263798,1,0,0:0:0:0:
42,213,263876,5,12,0:0:0:0:
89,247,263952,1,0,0:0:0:0:
148,242,264029,1,0,0:0:0:0:
189,200,264106,1,0,0:0:0:0:
193,142,264183,1,0,0:0:0:0:
157,95,264260,1,0,0:0:0:0:
94,55,264337,6,2,P|104:117|83:176,1,119.999996337891,14|2,0:0|0:0,0:0:0:0:
27,274,264637,1,0,0:0:0:0:
172,168,264787,2,0,P|224:147|300:174,1,119.999996337891
393,210,265087,5,8,0:0:0:0:
260,331,265237,1,0,0:0:0:0:
142,194,265387,1,0,0:0:0:0:
152,313,265537,1,0,0:0:0:0:
250,162,265687,2,0,L|313:52,1,119.999996337891,12|0,0:0|0:0,0:0:0:0:
427,33,265987,5,8,0:0:0:0:
347,194,266137,1,0,0:0:0:0:
452,137,266287,1,0,0:0:0:0:
277,93,266437,1,0,0:0:0:0:
347,194,266587,2,0,L|217:257,1,119.999996337891
186,354,266887,1,0,0:0:0:0:
74,283,267037,6,0,L|-1:278,3,59.9999981689454
84,196,267337,2,0,P|113:191|141:199,1,59.9999981689454,8|0,0:0|0:0,0:0:0:0:
283,226,267487,2,0,P|254:233|224:227,1,59.9999981689454,8|0,0:0|0:0,0:0:0:0:
143,121,267637,2,0,P|175:116|202:124,3,59.9999981689454
327,167,267937,5,8,0:0:0:0:
133,230,268087,1,0,0:0:0:0:
253,65,268237,1,4,0:0:0:0:
253,269,268387,2,0,B|258:292|258:292|250:299|250:299|256:328,2,59.9999981689454
133,104,268687,2,0,B|127:80|127:80|135:73|135:73|129:44,2,59.9999981689454
327,167,268987,5,8,0:0:0:0:
133,230,269137,1,4,0:0:0:0:
253,65,269287,2,0,B|247:41|247:41|255:34|255:34|249:5,2,59.9999981689454
253,269,269587,2,0,B|258:292|258:292|250:299|250:299|256:328,2,59.9999981689454
133,104,269887,5,8,0:0:0:0:
253,269,270037,1,0,0:0:0:0:
253,65,270187,2,0,B|247:41|247:41|255:34|255:34|249:5,2,59.9999981689454
133,230,270487,2,0,B|144:251|144:251|139:260|139:260|162:302,1,59.9999981689454,4|0,0:0|0:0,0:0:0:0:
178,333,270637,5,12,3:0:0:0:
222,373,270712,1,0,3:0:0:0:
281,373,270787,1,0,3:0:0:0:
324,334,270862,1,0,3:0:0:0:
331,276,270937,1,0,3:0:0:0:
296,228,271011,1,0,3:0:0:0:
252,205,271087,1,0,0:0:0:0:
213,179,271162,1,0,0:0:0:0:
199,134,271237,1,0,0:0:0:0:
217,91,271312,1,0,0:0:0:0:
259,70,271387,1,0,0:0:0:0:
305,80,271462,1,0,0:0:0:0:
361,99,271537,6,0,P|409:107|437:92,5,59.9999981689454
294,154,271987,2,0,P|246:162|218:147,5,59.9999981689454
79,117,272437,6,0,L|65:58,3,59.9999981689454
98,216,272737,2,0,L|108:299,3,59.9999981689454
199,144,273037,2,0,L|257:131,3,59.9999981689454
355,49,273337,6,0,P|387:94|383:123,5,59.9999981689454
343,242,273787,2,0,P|311:197|315:168,5,59.9999981689454
280,109,274237,5,12,0:0:0:0:
234,72,274312,1,0,0:0:0:0:
175,76,274387,1,0,0:0:0:0:
135,119,274462,1,0,0:0:0:0:
135,178,274537,2,0,P|149:212|191:227,1,59.9999981689454,8|0,0:0|0:0,0:0:0:0:
159,315,274687,2,0,P|188:335|231:323,1,59.9999981689454,8|0,0:0|0:0,0:0:0:0:
302,337,274837,1,0,0:0:0:0:
358,321,274912,1,0,0:0:0:0:
389,271,274987,1,0,0:0:0:0:
379,213,275062,1,0,0:0:0:0:
358,156,275137,6,0,P|345:119|358:74,5,59.9999981689454
456,128,275587,2,0,P|469:165|456:210,5,59.9999981689454
375,293,276037,6,0,L|292:265,3,59.9999981689454,0|0|0|0,0:0|0:0|0:0|0:0,0:0:0:0:
163,238,276337,2,0,L|244:268,3,59.9999981689454,0|0|0|0,0:0|0:0|0:0|0:0,0:0:0:0:
287,158,276637,2,0,L|303:100,3,59.9999981689454,0|0|0|0,0:0|0:0|0:0|0:0,0:0:0:0:
193,47,276937,6,0,P|178:75|196:121,5,59.9999981689454
200,259,277387,2,0,P|215:231|197:185,5,59.9999981689454
193,115,277837,5,8,0:0:0:0:
194,86,277912,1,0,0:0:0:0:
214,65,277987,1,0,0:0:0:0:
243,61,278062,1,0,0:0:0:0:
271,70,278137,1,0,0:0:0:0:
299,81,278212,1,0,0:0:0:0:
328,82,278287,1,0,0:0:0:0:
356,72,278362,1,0,0:0:0:0:
384,60,278437,1,0,0:0:0:0:
412,58,278512,1,0,0:0:0:0:
433,77,278587,1,0,0:0:0:0:
435,106,278662,1,0,0:0:0:0:
432,135,278737,5,14,0:0:0:0:
421,181,278812,1,0,0:0:0:0:
427,229,278887,1,0,0:0:0:0:
451,270,278962,1,0,0:0:0:0:
482,305,279037,1,0,0:0:0:0:
488,351,279112,1,0,0:0:0:0:
455,384,279187,1,0,0:0:0:0:
409,377,279262,1,0,0:0:0:0:
365,356,279337,1,0,0:0:0:0:
320,341,279412,1,0,0:0:0:0:
272,340,279487,1,0,0:0:0:0:
227,354,279562,1,0,0:0:0:0:
182,371,279637,5,14,0:0:0:0:
215,322,279712,1,0,0:0:0:0:
217,263,279787,1,0,0:0:0:0:
188,212,279862,1,0,0:0:0:0:
143,172,279937,1,0,0:0:0:0:
127,116,280012,1,0,0:0:0:0:
158,67,280087,1,0,0:0:0:0:
215,58,280162,1,0,0:0:0:0:
273,72,280237,1,0,0:0:0:0:
331,84,280312,1,0,0:0:0:0:
390,75,280387,1,0,0:0:0:0:
442,46,280462,1,0,0:0:0:0:
497,21,280537,5,14,0:0:0:0:
452,60,280612,1,0,0:0:0:0:
432,116,280687,1,0,0:0:0:0:
440,175,280762,1,0,0:0:0:0:
464,229,280837,1,0,0:0:0:0:
466,286,280912,1,0,0:0:0:0:
423,326,280987,1,0,0:0:0:0:
365,319,281062,1,0,0:0:0:0:
306,304,281137,1,0,0:0:0:0:
247,293,281212,1,0,0:0:0:0:
188,300,281287,1,0,0:0:0:0:
133,323,281362,1,0,0:0:0:0:
111,344,281437,5,14,0:0:0:0:
123,325,281512,1,0,0:0:0:0:
135,306,281587,1,0,0:0:0:0:
148,287,281662,1,0,0:0:0:0:
160,268,281737,1,0,0:0:0:0:
172,249,281812,1,0,0:0:0:0:
185,231,281887,1,0,0:0:0:0:
197,212,281962,1,0,0:0:0:0:
192,189,282037,1,0,0:0:0:0:
219,195,282112,1,0,0:0:0:0:
246,196,282187,1,0,0:0:0:0:
272,193,282262,1,0,0:0:0:0:
295,189,282337,5,14,0:0:0:0:
352,175,282412,1,0,0:0:0:0:
404,204,282487,1,0,0:0:0:0:
422,260,282562,1,0,0:0:0:0:
397,313,282637,1,0,0:0:0:0:
343,336,282712,1,0,0:0:0:0:
288,316,282787,1,0,0:0:0:0:
261,264,282862,1,0,0:0:0:0:
271,204,282937,1,0,0:0:0:0:
257,147,283012,1,0,0:0:0:0:
206,121,283087,1,0,0:0:0:0:
152,143,283162,1,0,0:0:0:0:
94,158,283237,5,14,0:0:0:0:
137,178,283312,1,0,0:0:0:0:
165,215,283387,1,0,0:0:0:0:
173,262,283462,1,0,0:0:0:0:
171,310,283537,1,0,0:0:0:0:
178,356,283612,1,0,0:0:0:0:
218,380,283687,1,0,0:0:0:0:
262,365,283762,1,0,0:0:0:0:
303,340,283837,1,0,0:0:0:0:
349,328,283912,1,0,0:0:0:0:
396,331,283987,1,0,0:0:0:0:
441,349,284062,1,0,0:0:0:0:
481,375,284137,5,14,0:0:0:0:
461,318,284212,1,0,0:0:0:0:
455,258,284287,1,0,0:0:0:0:
464,199,284362,1,0,0:0:0:0:
481,142,284437,1,0,0:0:0:0:
470,84,284512,1,0,0:0:0:0:
422,51,284587,1,0,0:0:0:0:
365,64,284662,1,0,0:0:0:0:
308,83,284737,1,0,0:0:0:0:
249,95,284812,1,0,0:0:0:0:
189,93,284887,1,0,0:0:0:0:
131,77,284962,1,0,0:0:0:0:
73,60,285037,5,14,0:0:0:0:
109,90,285112,1,0,0:0:0:0:
135,131,285187,1,0,0:0:0:0:
145,177,285262,1,0,0:0:0:0:
140,225,285337,1,0,0:0:0:0:
120,268,285412,1,0,0:0:0:0:
98,311,285487,2,0,P|90:343|102:376,1,59.9999981689454,8|0,0:0|0:0,0:0:0:0:
203,328,285637,2,0,P|211:296|199:263,1,59.9999981689454,8|0,0:0|0:0,0:0:0:0:
309,227,285787,2,8,P|297:196|268:176,1,59.9999981689454
222,106,285937,5,12,0:0:0:0:
220,59,286012,1,0,0:0:0:0:
251,23,286087,1,0,0:0:0:0:
298,18,286162,1,0,0:0:0:0:
336,45,286237,1,0,0:0:0:0:
346,91,286312,1,0,0:0:0:0:
332,137,286387,1,0,0:0:0:0:
330,183,286462,1,0,0:0:0:0:
359,220,286537,1,0,0:0:0:0:
406,228,286612,1,0,0:0:0:0:
445,203,286687,1,0,0:0:0:0:
459,158,286762,1,0,0:0:0:0:
459,110,286837,5,12,0:0:0:0:
430,148,286912,1,0,0:0:0:0:
389,171,286987,1,0,0:0:0:0:
341,174,287062,1,0,0:0:0:0:
297,157,287137,1,0,0:0:0:0:
264,122,287212,1,0,0:0:0:0:
222,98,287287,1,0,0:0:0:0:
176,84,287362,1,0,0:0:0:0:
131,98,287437,1,0,0:0:0:0:
102,136,287512,1,0,0:0:0:0:
99,183,287587,1,0,0:0:0:0:
124,223,287662,1,0,0:0:0:0:
142,267,287737,5,12,0:0:0:0:
160,223,287812,1,0,0:0:0:0:
196,192,287887,1,0,0:0:0:0:
243,181,287962,1,0,0:0:0:0:
289,191,288037,1,0,0:0:0:0:
325,222,288112,1,0,0:0:0:0:
362,252,288187,1,0,0:0:0:0:
400,280,288262,1,0,0:0:0:0:
445,270,288337,1,0,0:0:0:0:
467,229,288412,1,0,0:0:0:0:
451,186,288487,1,0,0:0:0:0:
408,169,288562,1,0,0:0:0:0:
360,170,288637,5,12,0:0:0:0:
312,171,288712,1,0,0:0:0:0:
264,172,288787,1,0,0:0:0:0:
216,173,288862,1,0,0:0:0:0:
168,175,288937,1,0,0:0:0:0:
120,176,289012,1,0,0:0:0:0:
72,178,289087,5,8,0:0:0:0:
115,160,289162,1,0,0:0:0:0:
157,180,289237,1,0,0:0:0:0:
169,225,289312,1,0,0:0:0:0:
144,264,289387,1,0,0:0:0:0:
98,272,289462,1,0,0:0:0:0:
50,275,289537,5,14,0:0:0:0:
72,254,289612,1,0,0:0:0:0:
94,234,289687,1,0,0:0:0:0:
116,214,289762,1,0,0:0:0:0:
138,194,289837,1,0,0:0:0:0:
160,173,289912,1,0,0:0:0:0:
154,114,289987,5,8,0:0:0:0:
183,111,290062,1,0,0:0:0:0:
211,120,290137,1,0,0:0:0:0:
234,140,290212,1,0,0:0:0:0:
246,167,290287,1,0,0:0:0:0:
247,197,290362,1,0,0:0:0:0:
283,244,290437,5,8,0:0:0:0:
304,265,290512,1,0,0:0:0:0:
333,271,290587,1,0,0:0:0:0:
361,261,290662,1,0,0:0:0:0:
379,237,290737,1,0,0:0:0:0:
382,208,290812,1,0,0:0:0:0:
404,152,290887,5,8,0:0:0:0:
375,157,290962,1,0,0:0:0:0:
345,161,291037,1,0,0:0:0:0:
315,166,291112,1,0,0:0:0:0:
286,170,291187,1,0,0:0:0:0:
256,175,291262,1,0,0:0:0:0:
197,189,291337,5,8,0:0:0:0:
222,174,291412,1,0,0:0:0:0:
237,148,291487,1,0,0:0:0:0:
235,119,291562,1,0,0:0:0:0:
218,94,291637,1,0,0:0:0:0:
191,83,291712,1,0,0:0:0:0:
132,70,291787,5,8,0:0:0:0:
139,99,291862,1,0,0:0:0:0:
146,128,291937,1,0,0:0:0:0:
152,157,292012,1,0,0:0:0:0:
159,187,292087,1,0,0:0:0:0:
166,216,292162,1,0,0:0:0:0:
189,271,292237,5,8,0:0:0:0:
197,293,292312,1,0,0:0:0:0:
214,310,292387,1,0,0:0:0:0:
236,318,292462,1,0,0:0:0:0:
260,317,292537,1,0,0:0:0:0:
281,306,292612,1,0,0:0:0:0:
340,298,292687,5,8,0:0:0:0:
322,281,292762,1,0,0:0:0:0:
311,260,292837,1,0,0:0:0:0:
308,236,292912,1,0,0:0:0:0:
313,213,292987,1,0,0:0:0:0:
327,193,293062,1,0,0:0:0:0:
340,174,293137,6,0,B|349:160|349:160|375:146|375:146|390:109,1,80,10|0,0:0|0:0,0:0:0:0:
294,38,293444,1,8,0:0:0:0:
252,106,293597,1,0,0:0:0:0:
210,174,293752,1,0,0:0:0:0:
204,184,293828,1,0,0:0:0:0:
197,194,293905,1,0,0:0:0:0:
191,204,293982,1,0,0:0:0:0:
184,215,294060,1,4,0:0:0:0:
283,341,294367,5,8,0:0:0:0:
323,185,294521,1,4,0:0:0:0:
285,349,294675,5,8,0:0:0:0:
223,192,294829,1,4,0:0:0:0:
353,285,294983,6,14,B|417:307|417:307|440:235|409:204|409:204|412:184|412:184|400:166|400:166|396:137,1,240
79,67,295752,5,8,0:0:0:0:
79,67,295906,2,0,B|93:101|93:101|85:115|85:115|102:145,1,80
193,314,296213,1,8,0:0:0:0:
193,314,296367,2,0,B|207:279|207:279|199:265|199:265|216:235,1,80
277,51,296675,1,0,0:0:0:0:
369,181,296829,1,4,0:0:0:0:
62,148,297137,5,8,0:0:0:0:
71,140,297213,1,0,0:0:0:0:
81,134,297290,1,0,0:0:0:0:
92,129,297367,1,0,0:0:0:0:
104,125,297444,1,0,0:0:0:0:
222,105,297598,1,0,0:0:0:0:
159,252,297752,1,4,0:0:0:0:
235,328,298060,5,8,0:0:0:0:
386,123,298213,1,0,0:0:0:0:
202,133,298367,1,8,0:0:0:0:
384,311,298520,1,4,0:0:0:0:
386,123,298675,5,8,0:0:0:0:
368,117,298777,1,0,0:0:0:0:
350,112,298880,1,0,0:0:0:0:
332,106,298982,1,0,0:0:0:0:
314,101,299085,1,0,0:0:0:0:
296,96,299187,1,0,0:0:0:0:
278,90,299290,1,0,0:0:0:0:
260,85,299392,1,0,0:0:0:0:
242,80,299495,1,0,0:0:0:0:
162,123,299598,5,8,0:0:0:0:
179,128,299700,1,0,0:0:0:0:
197,134,299803,1,0,0:0:0:0:
215,140,299905,1,0,0:0:0:0:
232,146,300008,1,0,0:0:0:0:
250,152,300110,1,0,0:0:0:0:
268,158,300213,1,0,0:0:0:0:
285,164,300315,1,0,0:0:0:0:
303,170,300418,1,0,0:0:0:0:
388,202,300521,5,8,0:0:0:0:
413,206,300623,1,0,0:0:0:0:
439,199,300726,1,0,0:0:0:0:
458,180,300828,1,0,0:0:0:0:
466,155,300931,1,0,0:0:0:0:
461,129,301033,1,0,0:0:0:0:
445,108,301136,1,0,0:0:0:0:
421,97,301238,1,0,0:0:0:0:
395,98,301341,1,0,0:0:0:0:
304,103,301444,5,8,0:0:0:0:
279,113,301546,1,0,0:0:0:0:
253,118,301649,1,0,0:0:0:0:
226,116,301751,1,0,0:0:0:0:
201,107,301854,1,0,0:0:0:0:
179,92,301956,1,0,0:0:0:0:
162,72,302059,1,0,0:0:0:0:
150,48,302161,1,0,0:0:0:0:
144,22,302264,1,0,0:0:0:0:
54,38,302367,5,8,0:0:0:0:
65,62,302469,1,0,0:0:0:0:
77,86,302572,1,0,0:0:0:0:
88,110,302674,1,0,0:0:0:0:
100,134,302777,1,0,0:0:0:0:
111,158,302879,1,0,0:0:0:0:
123,182,302982,1,0,0:0:0:0:
134,206,303084,1,0,0:0:0:0:
146,230,303187,1,0,0:0:0:0:
200,303,303290,5,8,0:0:0:0:
197,276,303392,1,0,0:0:0:0:
200,250,303495,1,0,0:0:0:0:
211,225,303597,1,0,0:0:0:0:
228,205,303700,1,0,0:0:0:0:
250,189,303802,1,0,0:0:0:0:
274,180,303905,1,0,0:0:0:0:
301,178,304007,1,0,0:0:0:0:
327,182,304110,1,0,0:0:0:0:
413,212,304213,5,12,0:0:0:0:
449,216,304315,1,0,0:0:0:0:
483,203,304418,1,0,0:0:0:0:
507,174,304520,1,0,0:0:0:0:
512,138,304623,1,0,0:0:0:0:
501,103,304725,1,0,0:0:0:0:
473,79,304828,1,0,0:0:0:0:
437,71,304930,1,0,0:0:0:0:
401,82,305033,1,0,0:0:0:0:
319,124,305137,5,12,0:0:0:0:
285,140,305239,1,0,0:0:0:0:
249,134,305342,1,0,0:0:0:0:
222,110,305444,1,0,0:0:0:0:
214,74,305547,1,0,0:0:0:0:
227,40,305649,1,0,0:0:0:0:
258,19,305752,1,0,0:0:0:0:
295,19,305854,1,0,0:0:0:0:
325,40,305957,1,0,0:0:0:0:
347,71,306060,6,0,P|363:128|348:173,1,106.666666666667,10|0,0:0|0:0,0:0:0:0:
286,211,306367,2,0,P|265:140|284:86,1,106.666666666667,10|0,0:0|0:0,0:0:0:0:
250,37,306675,2,0,P|204:79|194:127,1,106.666666666667,8|0,0:0|0:0,0:0:0:0:
139,183,306983,6,14,B|127:222|148:258|148:258|108:268|87:315,2,160
140,100,307906,5,14,0:0:0:0:
145,53,307982,1,0,0:0:0:0:
179,20,308059,1,0,0:0:0:0:
226,16,308136,1,0,0:0:0:0:
272,31,308213,2,0,P|309:43|348:33,1,59.9999981689454,8|0,0:0|0:0,0:0:0:0:
426,92,308367,2,0,P|399:120|361:131,1,59.9999981689454,8|0,0:0|0:0,0:0:0:0:
298,167,308521,1,0,0:0:0:0:
256,189,308597,1,0,0:0:0:0:
238,232,308674,1,0,0:0:0:0:
250,277,308751,1,0,0:0:0:0:
280,329,308829,5,12,0:0:0:0:
223,343,308905,1,0,0:0:0:0:
176,310,308982,1,0,0:0:0:0:
170,252,309059,1,0,0:0:0:0:
185,194,309137,1,0,0:0:0:0:
182,137,309213,1,0,0:0:0:0:
134,104,309290,1,0,0:0:0:0:
79,121,309367,1,0,0:0:0:0:
54,175,309444,1,0,0:0:0:0:
114,181,309520,1,0,0:0:0:0:
173,187,309597,1,0,0:0:0:0:
233,192,309674,1,0,0:0:0:0:
293,198,309752,6,0,L|367:202,3,59.9999981689454
310,74,310060,2,0,P|282:98|272:142,3,59.9999981689454
221,240,310367,2,0,P|193:216|183:172,1,59.9999981689454,8|0,0:0|0:0,0:0:0:0:
166,62,310521,2,0,P|194:86|204:130,1,59.9999981689454,8|0,0:0|0:0,0:0:0:0:
248,185,310675,5,12,0:0:0:0:
261,231,310751,1,0,0:0:0:0:
245,275,310828,1,0,0:0:0:0:
205,300,310905,1,0,0:0:0:0:
158,297,310982,1,0,0:0:0:0:
123,265,311059,1,0,0:0:0:0:
113,219,311136,1,0,0:0:0:0:
133,176,311213,1,0,0:0:0:0:
165,140,311290,1,0,0:0:0:0:
178,95,311366,1,0,0:0:0:0:
175,46,311444,2,0,P|151:19|104:22,1,59.9999981689454,12|0,0:0|0:0,0:0:0:0:
61,33,311598,5,12,0:0:0:0:
69,92,311674,1,0,0:0:0:0:
77,151,311751,1,0,0:0:0:0:
85,211,311828,1,0,0:0:0:0:
95,271,311906,1,0,0:0:0:0:
117,325,311982,1,0,0:0:0:0:
169,352,312059,1,0,0:0:0:0:
226,339,312136,1,0,0:0:0:0:
261,292,312213,1,0,0:0:0:0:
257,233,312290,1,0,0:0:0:0:
216,191,312367,1,0,0:0:0:0:
158,186,312444,1,0,0:0:0:0:
99,200,312521,5,8,0:0:0:0:
41,199,312597,1,0,0:0:0:0:
6,154,312674,1,0,0:0:0:0:
20,98,312751,1,0,0:0:0:0:
73,75,312828,1,0,0:0:0:0:
124,102,312905,1,0,0:0:0:0:
171,140,312983,2,0,P|206:159|243:145,5,59.9999981689454
332,152,313444,6,0,P|317:165|325:248,5,59.9999981689454
306,372,313906,2,0,P|324:365|346:284,5,59.9999981689454
375,295,314367,5,14,0:0:0:0:
385,248,314443,1,0,0:0:0:0:
373,202,314520,1,0,0:0:0:0:
341,167,314597,1,0,0:0:0:0:
296,151,314674,1,0,0:0:0:0:
249,157,314751,1,0,0:0:0:0:
210,185,314828,1,0,0:0:0:0:
189,227,314905,1,0,0:0:0:0:
193,276,314983,1,0,0:0:0:0:
182,321,315059,1,0,0:0:0:0:
139,338,315136,1,0,0:0:0:0:
99,314,315213,1,0,0:0:0:0:
86,267,315290,6,0,P|83:218|104:186,5,59.9999981689454
174,99,315752,2,0,P|177:148|156:180,5,59.9999981689454
154,245,316213,5,12,0:0:0:0:
152,292,316289,1,0,0:0:0:0:
176,333,316366,1,0,0:0:0:0:
217,356,316443,1,0,0:0:0:0:
264,352,316520,1,0,0:0:0:0:
302,324,316597,1,0,0:0:0:0:
320,280,316674,1,0,0:0:0:0:
311,233,316751,1,0,0:0:0:0:
291,188,316829,1,0,0:0:0:0:
279,143,316905,1,0,0:0:0:0:
302,102,316982,1,0,0:0:0:0:
347,89,317059,1,0,0:0:0:0:
395,91,317137,6,0,P|441:112|453:142,5,59.9999981689454
334,189,317598,2,0,P|288:168|276:138,5,59.9999981689454
181,75,318060,6,0,P|160:96|153:125,5,59.9999981689454
178,255,318521,2,0,P|198:233|205:204,5,59.9999981689454
203,156,318983,5,12,0:0:0:0:
211,109,319059,1,0,0:0:0:0:
245,77,319136,1,0,0:0:0:0:
292,73,319213,1,0,0:0:0:0:
331,99,319290,1,0,0:0:0:0:
346,144,319367,1,0,0:0:0:0:
344,179,319444,1,0,0:0:0:0:
332,212,319520,1,0,0:0:0:0:
304,235,319597,1,0,0:0:0:0:
270,242,319674,1,0,0:0:0:0:
236,232,319751,1,0,0:0:0:0:
211,206,319828,1,0,0:0:0:0:
180,185,319906,5,12,0:0:0:0:
137,164,319982,1,0,0:0:0:0:
91,173,320059,1,0,0:0:0:0:
59,208,320136,1,0,0:0:0:0:
53,254,320213,1,0,0:0:0:0:
77,295,320290,1,0,0:0:0:0:
106,316,320367,1,0,0:0:0:0:
140,326,320443,1,0,0:0:0:0:
174,317,320520,1,0,0:0:0:0:
198,291,320597,1,0,0:0:0:0:
205,256,320674,1,0,0:0:0:0:
192,223,320751,1,0,0:0:0:0:
185,187,320829,5,14,3:0:0:0:
184,127,320905,1,0,3:0:0:0:
211,74,320982,1,0,3:0:0:0:
258,38,321059,1,0,3:0:0:0:
316,28,321136,1,0,3:0:0:0:
374,44,321213,1,0,3:0:0:0:
417,85,321290,1,0,3:0:0:0:
438,140,321367,1,0,3:0:0:0:
431,200,321444,1,0,3:0:0:0:
398,249,321521,1,0,3:0:0:0:
346,279,321598,1,0,3:0:0:0:
287,283,321675,1,0,3:0:0:0:
228,270,321752,5,12,0:0:0:0:
181,258,321828,1,0,0:0:0:0:
134,247,321905,1,0,0:0:0:0:
87,236,321982,1,0,0:0:0:0:
42,218,322060,1,0,0:0:0:0:
5,188,322136,1,0,0:0:0:0:
0,142,322213,1,0,0:0:0:0:
16,100,322290,1,0,0:0:0:0:
59,81,322367,1,0,0:0:0:0:
105,93,322444,1,0,0:0:0:0:
132,131,322521,1,0,0:0:0:0:
130,178,322598,1,0,0:0:0:0:
113,222,322675,5,12,0:0:0:0:
120,279,322751,1,0,0:0:0:0:
168,311,322828,1,0,0:0:0:0:
224,296,322905,1,0,0:0:0:0:
281,276,322983,2,0,P|312:259|318:206,1,59.9999981689454,8|0,0:0|0:0,0:0:0:0:
271,127,323137,2,0,P|240:144|234:197,1,59.9999981689454,8|0,0:0|0:0,0:0:0:0:
197,249,323290,1,0,0:0:0:0:
164,296,323366,1,0,0:0:0:0:
106,298,323443,1,0,0:0:0:0:
71,252,323520,1,0,0:0:0:0:
54,193,323598,6,0,P|47:164|58:131,3,59.9999981689454
119,273,323906,2,0,P|111:301|120:330,3,59.9999981689454
199,203,324213,2,0,P|206:174|197:145,3,59.9999981689454
151,66,324521,5,12,0:0:0:0:
106,50,324597,1,0,0:0:0:0:
66,73,324674,1,0,0:0:0:0:
57,119,324751,1,0,0:0:0:0:
67,166,324829,1,0,0:0:0:0:
74,211,324905,1,0,0:0:0:0:
69,255,324982,1,0,0:0:0:0:
55,298,325059,1,0,0:0:0:0:
31,333,325137,2,0,P|7:360|-19:370,1,59.9999981689454,8|0,0:0|0:0,0:0:0:0:
121,342,325290,2,0,P|145:315|171:305,1,59.9999981689454,8|0,0:0|0:0,0:0:0:0:
250,294,325444,5,12,0:0:0:0:
294,279,325520,1,0,0:0:0:0:
323,241,325597,1,0,0:0:0:0:
324,194,325674,1,0,0:0:0:0:
297,155,325751,1,0,0:0:0:0:
253,139,325828,1,0,0:0:0:0:
207,151,325905,1,0,0:0:0:0:
177,188,325982,1,0,0:0:0:0:
176,236,326060,1,0,0:0:0:0:
162,280,326136,1,0,0:0:0:0:
130,316,326213,2,0,P|97:322|60:302,1,59.9999981689454
15,333,326367,5,12,0:0:0:0:
35,290,326443,1,0,0:0:0:0:
56,247,326520,1,0,0:0:0:0:
76,203,326597,1,0,0:0:0:0:
100,160,326675,1,0,0:0:0:0:
134,127,326751,1,0,0:0:0:0:
181,121,326828,1,0,0:0:0:0:
222,142,326905,1,0,0:0:0:0:
244,184,326982,1,0,0:0:0:0:
237,230,327059,1,0,0:0:0:0:
204,264,327136,1,0,0:0:0:0:
158,273,327213,1,0,0:0:0:0:
123,244,327290,5,8,0:0:0:0:
77,254,327366,1,0,0:0:0:0:
51,293,327443,1,0,0:0:0:0:
60,339,327520,1,0,0:0:0:0:
99,366,327597,1,0,0:0:0:0:
145,358,327674,1,0,0:0:0:0:
189,337,327752,2,0,P|248:321|286:335,5,59.9999981689454
356,346,328213,6,0,P|359:316|372:289,5,59.9999981689454
445,129,328675,2,0,P|441:158|428:185,5,59.9999981689454
385,251,329137,5,14,0:0:0:0:
341,291,329213,1,0,0:0:0:0:
284,307,329290,1,0,0:0:0:0:
226,293,329367,1,0,0:0:0:0:
182,254,329444,1,0,0:0:0:0:
161,198,329521,1,0,0:0:0:0:
170,139,329598,1,0,0:0:0:0:
205,92,329675,1,0,0:0:0:0:
259,66,329752,1,0,0:0:0:0:
318,70,329829,1,0,0:0:0:0:
369,101,329906,1,0,0:0:0:0:
399,152,329983,1,0,0:0:0:0:
411,211,330060,6,0,P|409:243|374:279,5,59.9999981689454
268,273,330521,2,0,P|270:241|305:205,5,59.9999981689454
331,147,330983,5,12,0:0:0:0:
333,99,331059,1,0,0:0:0:0:
305,62,331136,1,0,0:0:0:0:
259,51,331213,1,0,0:0:0:0:
217,71,331290,1,0,0:0:0:0:
198,114,331367,1,0,0:0:0:0:
210,148,331444,1,0,0:0:0:0:
221,182,331520,1,0,0:0:0:0:
214,217,331597,1,0,0:0:0:0:
190,243,331674,1,0,0:0:0:0:
156,253,331751,1,0,0:0:0:0:
121,245,331828,1,0,0:0:0:0:
85,238,331906,6,0,P|54:235|0:255,5,59.9999981689454
70,339,332367,2,0,P|101:342|155:322,5,59.9999981689454
237,349,332829,6,0,P|234:318|254:264,5,59.9999981689454
341,155,333290,2,0,P|344:186|324:240,5,59.9999981689454
312,288,333752,5,12,0:0:0:0:
288,329,333828,1,0,0:0:0:0:
246,350,333905,1,0,0:0:0:0:
199,344,333982,1,0,0:0:0:0:
163,313,334059,1,0,0:0:0:0:
150,267,334136,1,0,0:0:0:0:
164,222,334213,1,0,0:0:0:0:
201,192,334290,1,0,0:0:0:0:
236,184,334367,1,0,0:0:0:0:
271,177,334443,1,0,0:0:0:0:
296,153,334520,1,0,0:0:0:0:
304,118,334597,1,0,0:0:0:0:
291,83,334675,5,12,0:0:0:0:
267,42,334751,1,0,0:0:0:0:
221,32,334828,1,0,0:0:0:0:
182,58,334905,1,0,0:0:0:0:
175,104,334982,1,0,0:0:0:0:
203,142,335059,1,0,0:0:0:0:
231,165,335137,1,0,0:0:0:0:
252,193,335213,1,0,0:0:0:0:
256,228,335290,1,0,0:0:0:0:
240,260,335367,1,0,0:0:0:0:
211,280,335444,1,0,0:0:0:0:
175,281,335521,1,0,0:0:0:0:
144,299,335598,5,14,0:0:0:0:
152,239,335674,1,0,0:0:0:0:
160,180,335751,1,0,0:0:0:0:
168,120,335828,1,0,0:0:0:0:
192,64,335906,1,0,0:0:0:0:
236,25,335982,1,0,0:0:0:0:
295,21,336059,1,0,0:0:0:0:
344,53,336136,1,0,0:0:0:0:
363,109,336213,1,0,0:0:0:0:
344,165,336290,1,0,0:0:0:0:
296,198,336367,1,0,0:0:0:0:
237,195,336444,1,0,0:0:0:0:
181,173,336521,6,0,P|145:144|150:85,5,59.9999981689454,0|0|0|0|0|0,3:0|0:0|3:0|0:0|3:0|0:0,0:0:0:0:
230,94,336983,2,0,P|270:116|275:175,5,59.9999981689454
253,226,337444,5,14,0:0:0:0:
61,209,338367,5,0,0:0:0:0:
95,59,338675,1,0,0:0:0:0:
207,164,338983,2,0,B|276:261|161:324|161:324|168:261|168:261|162:205|110:199|110:199|87:136|131:77|131:77|176:89|176:89|208:66|253:87,1,599.999981689454,0|4,0:0|0:0,0:0:0:0:
404,57,340983,5,0,0:0:0:0:
354,166,341290,1,0,0:0:0:0:
305,275,341598,1,0,0:0:0:0:
266,87,341906,1,0,0:0:0:0:
203,189,342213,2,0,B|213:244|179:292|179:292|396:292|422:216|406:86|223:86|186:294|436:299|436:299|429:197|451:151|451:151|414:111|421:62|421:62|390:92|327:64,1,1019.99996887207,0|4,0:0|0:0,0:0:0:0:
113,62,345290,5,0,0:0:0:0:
142,178,345598,1,0,0:0:0:0:
178,292,345906,1,0,0:0:0:0:
113,62,346213,5,0,0:0:0:0:
229,162,346521,1,0,0:0:0:0:
351,257,346829,2,0,B|433:338|433:338|425:238|425:238|421:217|421:217|417:173|435:122|435:122|288:143|288:143|256:152|256:152|230:148|181:147|181:147|108:171,1,659.999979858399,0|4,0:0|0:0,0:0:0:0:
25,226,348829,6,0,P|57:232|106:218,1,75,8|0,0:0|0:0,0:0:0:0:
197,139,349137,6,2,P|162:187|110:217,1,119.999996337891,10|2,0:0|0:0,0:0:0:0:
244,136,349444,2,2,P|222:191|180:234,1,119.999996337891,10|2,0:0|0:0,0:0:0:0:
188,333,349790,5,12,0:0:0:0:
264,318,349898,1,0,0:0:0:0:
307,253,350006,1,0,0:0:0:0:
292,176,350114,1,0,0:0:0:0:
227,134,350222,1,0,0:0:0:0:
150,155,350330,2,0,L|94:176,2,39.9999987792969
227,134,350546,1,0,0:0:0:0:
304,125,350654,1,0,0:0:0:0:
365,174,350762,1,0,0:0:0:0:
373,252,350871,2,0,L|379:325,2,39.9999987792969
365,174,351087,5,12,0:0:0:0:
317,112,351195,1,0,0:0:0:0:
242,88,351303,1,0,0:0:0:0:
167,112,351411,1,0,0:0:0:0:
119,175,351519,1,0,0:0:0:0:
115,253,351627,1,0,0:0:0:0:
157,320,351735,1,0,0:0:0:0:
230,350,351843,1,0,0:0:0:0:
307,334,351951,1,0,0:0:0:0:
364,277,352060,5,8,0:0:0:0:
286,257,352168,1,0,0:0:0:0:
209,236,352276,1,0,0:0:0:0:
132,213,352384,1,0,0:0:0:0:
66,172,352492,1,0,0:0:0:0:
64,95,352600,1,0,0:0:0:0:
128,52,352708,1,0,0:0:0:0:
199,81,352816,1,0,0:0:0:0:
213,156,352924,1,0,0:0:0:0:
163,219,353033,1,12,0:0:0:0:
307,347,353357,5,12,0:0:0:0:
329,229,353519,1,0,0:0:0:0:
350,111,353681,1,0,0:0:0:0:
352,99,353762,1,0,0:0:0:0:
354,87,353843,1,0,0:0:0:0:
356,75,353924,1,0,0:0:0:0:
358,63,354005,1,12,0:0:0:0:
457,310,354654,5,12,0:0:0:0:
279,278,354816,1,0,0:0:0:0:
102,247,354979,1,0,0:0:0:0:
90,245,355060,1,0,0:0:0:0:
78,243,355141,1,0,0:0:0:0:
66,241,355222,1,0,0:0:0:0:
53,239,355303,1,0,0:0:0:0:
66,226,355384,1,0,0:0:0:0:
79,214,355465,1,0,0:0:0:0:
92,202,355546,1,0,0:0:0:0:
92,172,355627,5,0,0:0:0:0:
109,175,355708,1,0,0:0:0:0:
127,179,355789,1,0,0:0:0:0:
144,183,355870,1,0,0:0:0:0:
162,186,355951,1,14,0:0:0:0:
378,77,356276,5,12,0:0:0:0:
252,99,356492,2,0,L|170:115,1,79.9999975585938
313,281,356925,2,0,P|366:209|362:162,1,119.999996337891
241,274,357249,2,0,P|310:218|319:171,1,119.999996337891,0|0,3:0|0:0,0:0:0:0:
147,62,357573,5,12,0:0:0:0:
163,180,357735,1,0,0:0:0:0:
183,298,357898,1,0,0:0:0:0:
202,327,357979,1,0,0:0:0:0:
231,348,358060,1,0,0:0:0:0:
266,357,358141,1,0,0:0:0:0:
302,352,358222,1,0,0:0:0:0:
333,335,358303,1,0,0:0:0:0:
356,307,358384,1,0,0:0:0:0:
367,273,358465,1,0,0:0:0:0:
364,237,358546,1,0,0:0:0:0:
349,205,358627,1,0,0:0:0:0:
323,180,358708,1,0,0:0:0:0:
290,167,358789,1,0,0:0:0:0:
254,171,358871,6,0,P|202:178|110:120,1,119.999996337891,8|0,0:0|0:0,0:0:0:0:
308,340,359195,1,8,0:0:0:0:
349,128,359357,2,0,P|401:135|492:77,1,119.999996337891,8|0,0:0|0:0,0:0:0:0:
205,52,359681,1,0,0:0:0:0:
126,254,359844,1,12,0:0:0:0:
287,316,360330,5,12,0:0:0:0:
287,316,360492,2,0,P|288:247|251:202,1,119.999996337891,8|0,0:0|0:0,0:0:0:0:
200,142,360806,5,14,0:0:0:0:
193,114,360861,1,0,0:0:0:0:
194,87,360917,1,0,0:0:0:0:
203,60,360972,1,0,0:0:0:0:
219,38,361028,1,0,0:0:0:0:
241,21,361083,1,0,0:0:0:0:
268,11,361139,1,0,0:0:0:0:
295,9,361194,1,0,0:0:0:0:
322,16,361250,1,0,0:0:0:0:
347,30,361306,1,0,0:0:0:0:
366,50,361361,1,0,0:0:0:0:
378,75,361417,1,0,0:0:0:0:
382,103,361472,1,0,0:0:0:0:
379,131,361528,1,0,0:0:0:0:
367,156,361583,1,0,0:0:0:0:
349,177,361639,1,0,0:0:0:0:
325,192,361694,1,0,0:0:0:0:
297,194,361750,1,0,0:0:0:0:
269,189,361806,6,0,P|226:185|186:208,1,79.9999975585938,8|0,0:0|0:0,0:0:0:0:
173,219,361972,1,0,0:0:0:0:
155,240,362027,1,0,0:0:0:0:
145,266,362083,1,0,0:0:0:0:
146,294,362138,1,0,0:0:0:0:
155,320,362194,1,0,0:0:0:0:
172,342,362249,1,0,0:0:0:0:
196,357,362305,1,0,0:0:0:0:
223,362,362360,1,0,0:0:0:0:
251,358,362416,1,0,0:0:0:0:
278,353,362472,2,0,L|338:338,1,39.9999987792969
375,251,362583,2,0,L|254:278,1,119.999996337891
187,299,362806,5,12,0:0:0:0:
160,304,362861,1,0,0:0:0:0:
133,301,362917,1,0,0:0:0:0:
107,290,362972,1,0,0:0:0:0:
86,271,363028,1,0,0:0:0:0:
71,247,363083,1,0,0:0:0:0:
69,221,363139,1,0,0:0:0:0:
69,192,363194,1,0,0:0:0:0:
79,167,363250,1,0,0:0:0:0:
97,145,363306,1,0,0:0:0:0:
121,130,363361,1,0,0:0:0:0:
148,124,363417,1,0,0:0:0:0:
176,126,363472,1,0,0:0:0:0:
202,136,363528,1,0,0:0:0:0:
223,154,363583,1,0,0:0:0:0:
238,178,363639,1,0,0:0:0:0:
245,206,363694,1,0,0:0:0:0:
245,232,363750,2,0,P|235:255|212:289,6,39.9999987792969
184,205,364269,6,2,L|103:175,1,79.9999975585938,10|2,0:0|0:0,0:0:0:0:
305,167,364696,2,2,P|339:203|345:266,1,79.9999975585938
301,351,365017,2,2,P|272:323|258:286,1,79.9999975585938
236,172,365338,5,12,0:0:0:0:
253,96,365444,1,0,0:0:0:0:
315,48,365551,1,0,0:0:0:0:
394,50,365658,1,0,0:0:0:0:
453,102,365765,1,0,0:0:0:0:
465,179,365872,1,0,0:0:0:0:
425,247,365979,1,0,0:0:0:0:
352,274,366086,1,0,0:0:0:0:
288,287,366194,5,8,0:0:0:0:
225,291,366300,1,0,0:0:0:0:
172,258,366407,1,0,0:0:0:0:
149,200,366514,1,0,0:0:0:0:
164,138,366621,1,0,0:0:0:0:
213,99,366728,1,0,0:0:0:0:
277,96,366835,1,0,0:0:0:0:
329,131,366942,1,0,0:0:0:0:
350,191,367049,1,0,0:0:0:0:
349,214,367156,1,0,0:0:0:0:
344,238,367262,1,0,0:0:0:0:
334,260,367369,1,0,0:0:0:0:
319,279,367476,1,0,0:0:0:0:
306,294,367585,6,2,P|255:323|178:300,1,100
344,303,367918,2,2,P|302:344|221:341,1,100
377,304,368251,2,0,P|347:354|269:373,1,100
388,216,368575,5,14,0:0:0:0:
364,141,368683,1,0,0:0:0:0:
300,95,368791,1,0,0:0:0:0:
221,98,368899,1,0,0:0:0:0:
160,148,369007,1,0,0:0:0:0:
142,224,369115,1,0,0:0:0:0:
173,296,369223,1,0,0:0:0:0:
242,334,369331,1,0,0:0:0:0:
320,323,369439,1,0,0:0:0:0:
267,263,369547,5,14,0:0:0:0:
218,202,369655,1,0,0:0:0:0:
214,124,369763,1,0,0:0:0:0:
256,57,369871,1,0,0:0:0:0:
330,29,369979,1,0,0:0:0:0:
406,49,370087,1,0,0:0:0:0:
456,110,370195,1,0,0:0:0:0:
460,189,370303,1,0,0:0:0:0:
418,255,370411,1,0,0:0:0:0:
379,184,370520,5,14,0:0:0:0:
314,140,370628,1,0,0:0:0:0:
235,147,370736,1,0,0:0:0:0:
178,201,370844,1,0,0:0:0:0:
167,279,370952,1,0,0:0:0:0:
207,347,371060,1,0,0:0:0:0:
280,375,371168,1,0,0:0:0:0:
355,352,371276,1,0,0:0:0:0:
399,287,371384,1,0,0:0:0:0:
318,286,371493,5,12,0:0:0:0:
239,294,371601,1,0,0:0:0:0:
173,252,371709,1,0,0:0:0:0:
146,178,371817,1,0,0:0:0:0:
170,103,371925,1,0,0:0:0:0:
235,59,372033,1,0,0:0:0:0:
313,65,372141,1,0,0:0:0:0:
372,117,372249,1,0,0:0:0:0:
386,194,372357,1,0,0:0:0:0:
311,164,372466,5,14,0:0:0:0:
231,158,372574,1,0,0:0:0:0:
151,153,372682,1,0,0:0:0:0:
116,226,372791,1,8,0:0:0:0:
195,230,372899,1,0,0:0:0:0:
275,235,373007,1,0,0:0:0:0:
228,299,373115,5,12,0:0:0:0:
149,302,373223,1,0,0:0:0:0:
82,261,373331,1,0,0:0:0:0:
48,189,373439,1,0,0:0:0:0:
60,111,373547,1,0,0:0:0:0:
112,52,373655,1,0,0:0:0:0:
188,32,373763,1,0,0:0:0:0:
263,57,373871,1,0,0:0:0:0:
312,119,373979,1,0,0:0:0:0:
319,197,374087,1,0,0:0:0:0:
281,268,374196,1,0,0:0:0:0:
205,293,374304,1,0,0:0:0:0:
223,215,374412,5,12,0:0:0:0:
227,187,374466,1,0,0:0:0:0:
232,159,374520,1,0,0:0:0:0:
237,132,374574,1,0,0:0:0:0:
242,104,374628,1,0,0:0:0:0:
247,77,374682,1,0,0:0:0:0:
300,33,374737,5,12,0:0:0:0:
325,46,374791,1,0,0:0:0:0:
344,66,374845,1,0,0:0:0:0:
354,92,374899,1,0,0:0:0:0:
355,120,374953,1,0,0:0:0:0:
346,146,375007,1,0,0:0:0:0:
366,214,375061,5,12,0:0:0:0:
338,216,375115,1,0,0:0:0:0:
310,218,375169,1,0,0:0:0:0:
282,220,375223,1,0,0:0:0:0:
254,223,375277,1,0,0:0:0:0:
226,225,375331,1,0,0:0:0:0:
198,229,375385,1,14,0:0:0:0:
76,48,375872,5,12,0:0:0:0:
76,48,376034,2,0,P|93:123|142:159,1,119.999996337891,8|0,0:0|0:0,0:0:0:0:
173,201,376358,5,14,0:0:0:0:
210,245,376439,1,0,0:0:0:0:
209,304,376520,1,0,0:0:0:0:
169,347,376601,1,0,0:0:0:0:
111,353,376682,1,0,0:0:0:0:
63,319,376763,1,0,0:0:0:0:
50,262,376844,1,0,0:0:0:0:
78,211,376925,1,0,0:0:0:0:
117,182,377007,1,0,0:0:0:0:
163,170,377088,1,0,0:0:0:0:
207,186,377169,1,0,0:0:0:0:
233,226,377250,1,0,0:0:0:0:
230,273,377331,5,12,0:0:0:0:
237,332,377412,1,0,0:0:0:0:
278,374,377493,1,0,0:0:0:0:
337,379,377574,1,0,0:0:0:0:
387,348,377655,1,0,0:0:0:0:
406,293,377736,1,0,0:0:0:0:
386,237,377817,1,0,0:0:0:0:
336,205,377898,1,0,0:0:0:0:
287,211,377980,1,0,0:0:0:0:
241,216,378061,1,0,0:0:0:0:
211,181,378142,1,0,0:0:0:0:
222,136,378223,1,0,0:0:0:0:
214,58,378304,5,14,0:0:0:0:
261,23,378385,1,0,0:0:0:0:
320,19,378466,1,0,0:0:0:0:
371,48,378547,1,0,0:0:0:0:
398,101,378628,1,0,0:0:0:0:
392,160,378709,1,0,0:0:0:0:
355,206,378790,1,0,0:0:0:0:
295,213,378871,1,0,0:0:0:0:
247,213,378953,1,0,0:0:0:0:
199,217,379034,1,0,0:0:0:0:
156,237,379115,1,0,0:0:0:0:
124,272,379196,1,0,0:0:0:0:
74,333,379302,6,0,P|39:362|-4:373,1,59.9999981689454,8|0,0:0|0:0,0:0:0:0:
37,212,379626,1,8,0:0:0:0:
118,144,379842,2,0,L|201:84,1,79.9999975585938,8|0,0:0|0:0,0:0:0:0:
355,334,380274,5,12,0:0:0:0:
380,293,380355,1,0,0:0:0:0:
390,247,380436,1,0,0:0:0:0:
384,199,380517,1,0,0:0:0:0:
306,167,380599,5,12,0:0:0:0:
313,213,380680,1,0,0:0:0:0:
297,258,380761,1,0,0:0:0:0:
262,291,380842,1,0,0:0:0:0:
181,269,380923,5,12,0:0:0:0:
208,230,381004,1,0,0:0:0:0:
207,182,381085,1,0,0:0:0:0:
179,144,381166,1,0,0:0:0:0:
150,105,381247,5,8,0:0:0:0:
144,59,381328,1,0,0:0:0:0:
173,22,381409,1,0,0:0:0:0:
220,17,381490,1,0,0:0:0:0:
264,37,381572,1,0,0:0:0:0:
308,56,381653,1,0,0:0:0:0:
355,61,381734,1,0,0:0:0:0:
402,53,381815,1,0,0:0:0:0:
449,45,381896,1,0,0:0:0:0:
491,67,381977,1,0,0:0:0:0:
506,112,382058,1,0,0:0:0:0:
485,155,382139,1,0,0:0:0:0:
476,202,382220,5,14,0:0:0:0:
441,154,382301,1,0,0:0:0:0:
385,137,382382,1,0,0:0:0:0:
330,159,382463,1,0,0:0:0:0:
274,183,382545,1,0,0:0:0:0:
216,196,382626,1,0,0:0:0:0:
163,170,382707,1,0,0:0:0:0:
138,117,382788,1,0,0:0:0:0:
161,62,382869,1,0,0:0:0:0:
219,22,382950,1,0,0:0:0:0:
290,51,383031,1,0,0:0:0:0:
306,133,383112,1,0,0:0:0:0:
230,181,383193,5,4,0:0:0:0:
256,192,383274,12,2,387085,0:0:0:0:
