osu file format v14

[General]
AudioFilename: audio.mp3
AudioLeadIn: 0
PreviewTime: 76140
Countdown: 0
SampleSet: Normal
StackLeniency: 0.7
Mode: 1
LetterboxInBreaks: 0
WidescreenStoryboard: 0

[Editor]
Bookmarks: 41245,89578,91245,102078,102495,104578,178950,256866,326450
DistanceSpacing: 0.4
BeatDivisor: 4
GridSize: 32
TimelineZoom: 5.699997

[Metadata]
Title:Aeons Torn
TitleUnicode:Aeons Torn
Artist:Inferi
ArtistUnicode:Inferi
Creator:Raiden
Version:Act IV: Convergence
Source:
Tags:eldritch lovecraftian english technical melodic death metal featured artist fa of sunless realms
BeatmapID:2965143
BeatmapSetID:1441294

[Difficulty]
HPDrainRate:5
CircleSize:2
OverallDifficulty:7
ApproachRate:10
SliderMultiplier:1.4
SliderTickRate:1

[Events]
//Background and Video events
0,0,"ddn6d6l-2833a8e1-4d85-41e1-a406-663b9a5d19c0.jpg",0,-85
//Break Periods
2,271545,289541
//Storyboard Layer 0 (Background)
//Storyboard Layer 1 (Fail)
//Storyboard Layer 2 (Pass)
//Storyboard Layer 3 (Foreground)
//Storyboard Layer 4 (Overlay)
//Storyboard Sound Samples

[TimingPoints]
1245,416.666666666667,3,1,0,80,1,0
39995,-100,3,1,0,80,0,0
40047,-98.9760923248989,3,1,0,80,0,0
40099,-97.9729398740068,3,1,0,80,0,0
40151,-96.9900119685675,3,1,0,80,0,0
40203,-96.0265186833996,3,1,0,80,0,0
40307,-94.1558410988363,3,1,0,80,0,0
40411,-92.3566555438468,3,1,0,80,0,0
40515,-90.6250226562557,3,1,0,80,0,0
40620,-88.9570497572362,3,1,0,80,0,0
40672,-88.1458779020928,3,1,0,80,0,0
40724,-87.3493660183014,3,1,0,80,0,0
40776,-86.567195188249,3,1,0,80,0,0
40828,-85.7988343370367,3,1,0,80,0,0
40932,-84.302318229449,3,1,0,80,0,0
41036,-82.8571120816441,3,1,0,80,0,0
41140,-81.4606878866328,3,1,0,80,0,0
41245,-80.1104883855814,3,1,0,80,0,0
54995,-80,3,1,0,80,0,0
55099,-81.3464463804899,3,1,0,80,0,0
55203,-82.73892311982,3,1,0,80,0,0
55307,-84.1799734159644,3,1,0,80,0,0
55411,-85.6721105581452,3,1,0,80,0,0
55515,-87.2180241279942,3,1,0,80,0,0
55620,-88.8208323933129,3,1,0,80,0,0
55724,-90.4836532232087,3,1,0,80,0,0
55828,-92.2098363920873,3,1,0,80,0,0
55932,-94.0032506324069,3,1,0,80,0,0
56036,-95.8678097944307,3,1,0,80,0,0
56140,-97.8077373744882,3,1,0,80,0,0
56245,-100,3,1,0,80,0,0
66245,-80,3,1,0,80,0,0
76245,-71.4285714285714,3,1,0,80,0,1
91245,-71.4285714285714,3,1,0,80,0,0
92495,-100,3,1,0,60,0,0
93797,-71.4285714285714,3,1,0,80,0,0
95984,-75.4716981132076,3,1,0,80,0,0
96245,-80,3,1,0,80,0,0
123745,208.333333333333,4,1,0,80,1,0
123745,-160,4,1,0,80,0,0
129161,-160,4,1,0,80,0,0
129213,-159.212091203054,4,1,0,80,0,0
129265,-158.431904383177,4,1,0,80,0,0
129317,-157.659575138977,4,1,0,80,0,0
129370,-156.894493160185,4,1,0,80,0,0
129422,-156.136800819406,4,1,0,80,0,0
129474,-155.386391570599,4,1,0,80,0,0
129526,-154.643400051651,4,1,0,80,0,0
129578,-153.846153846154,4,1,0,80,0,0
135411,-153.846153846154,4,1,0,80,0,0
135515,-150.943396226415,4,1,0,80,0,0
135619,-148.148148148148,4,1,0,80,0,0
135723,-145.454545454545,4,1,0,80,0,0
135828,-142.857142857143,4,1,0,80,0,0
135932,-140.350877192982,4,1,0,80,0,0
136036,-137.931034482759,4,1,0,80,0,0
136140,-135.593220338983,4,1,0,80,0,0
136192,-134.453781512605,4,1,0,80,0,0
136244,208.333333333333,3,1,0,80,1,0
136244,-133.333333333333,3,1,0,80,0,0
142910,208.333333333333,4,1,0,80,1,0
142910,-117.647058823529,4,1,0,80,0,0
166243,208.333333333333,3,1,0,80,1,0
166243,-117.647058823529,3,1,0,80,0,0
168118,-117.647058823529,3,1,0,80,0,0
168170,-117.073125044634,3,1,0,80,0,0
168222,-116.504899613553,3,1,0,80,0,0
168274,-115.942028985507,3,1,0,80,0,0
168326,-115.384571005934,3,1,0,80,0,0
168430,-114.285714285714,3,1,0,80,0,0
168534,-113.207589889657,3,1,0,80,0,0
168638,-112.149490785237,3,1,0,80,0,0
168743,208.333333333333,4,1,0,80,1,0
168743,-111.111111111111,4,1,0,80,0,0
172909,208.333333333333,3,1,0,80,1,0
172909,-111.111111111111,3,1,0,80,0,0
177284,208.333333333333,4,1,0,80,1,0
177284,-105.263157894737,4,1,0,80,0,0
178950,-100,4,1,0,80,0,0
184784,-100,4,1,0,80,0,1
204783,-100,4,1,0,80,0,0
230617,-100,4,1,0,80,0,0
230756,-104.347862381865,4,1,0,80,0,0
230825,-106.666666666667,4,1,0,80,0,0
230895,-109.090869421502,4,1,0,80,0,0
231033,-114.285714285714,4,1,0,80,0,0
231172,-120.000048000019,4,1,0,80,0,0
231311,-126.315736288111,4,1,0,80,0,0
231450,416.666666666667,3,1,0,80,1,1
231450,-66.6666666666667,3,1,0,80,0,1
251450,-66.6666666666667,3,1,0,80,0,0
256450,-66.6666666666667,3,1,0,80,0,1
261033,-66.6666666666667,3,1,0,80,0,0
261450,-66.6666666666667,3,1,0,80,0,1
268950,-66.6666666666667,3,1,0,80,0,0
289939,-71.4285714285714,3,1,0,80,0,0

[HitObjects]
256,192,411,5,0,0:0:0:0:
256,192,515,5,8,0:0:0:0:
256,192,619,5,0,0:0:0:0:
256,192,672,5,0,0:0:0:0:
256,192,724,5,0,0:0:0:0:
256,192,776,5,0,0:0:0:0:
256,192,828,5,8,0:0:0:0:
256,192,932,5,8,0:0:0:0:
256,192,1036,5,8,0:0:0:0:
256,192,1140,5,8,0:0:0:0:
256,192,1245,5,4,0:0:0:0:
256,192,2078,5,0,0:0:0:0:
256,192,2286,5,0,0:0:0:0:
256,192,2495,5,8,0:0:0:0:
256,192,2911,5,8,0:0:0:0:
256,192,3328,5,0,0:0:0:0:
256,192,3536,5,8,0:0:0:0:
256,192,3745,5,0,0:0:0:0:
256,192,4578,5,0,0:0:0:0:
256,192,4786,5,8,0:0:0:0:
256,192,4995,5,8,0:0:0:0:
256,192,5828,5,0,0:0:0:0:
256,192,5932,5,0,0:0:0:0:
256,192,6036,5,0,0:0:0:0:
256,192,6140,5,0,0:0:0:0:
256,192,6245,5,12,0:0:0:0:
256,192,7078,5,0,0:0:0:0:
256,192,7182,5,8,0:0:0:0:
256,192,7286,5,0,0:0:0:0:
256,192,7390,5,0,0:0:0:0:
256,192,7495,5,8,0:0:0:0:
256,192,8328,5,0,0:0:0:0:
256,192,8432,5,0,0:0:0:0:
256,192,8536,5,0,0:0:0:0:
256,192,8640,5,0,0:0:0:0:
256,192,8745,5,0,0:0:0:0:
256,192,9578,5,0,0:0:0:0:
256,192,9682,5,0,0:0:0:0:
256,192,9786,5,0,0:0:0:0:
256,192,9890,5,0,0:0:0:0:
256,192,9995,5,8,0:0:0:0:
256,192,10411,5,0,0:0:0:0:
256,192,10515,5,0,0:0:0:0:
256,192,10620,5,8,0:0:0:0:
256,192,10724,5,0,0:0:0:0:
256,192,10828,5,8,0:0:0:0:
256,192,11036,5,8,0:0:0:0:
256,192,11245,5,4,0:0:0:0:
256,192,11661,5,0,0:0:0:0:
256,192,12078,5,0,0:0:0:0:
256,192,12286,5,0,0:0:0:0:
256,192,12495,5,8,0:0:0:0:
256,192,13328,5,0,0:0:0:0:
256,192,13536,5,8,0:0:0:0:
256,192,13745,5,0,0:0:0:0:
256,192,14578,5,0,0:0:0:0:
256,192,14786,5,0,0:0:0:0:
256,192,14995,5,8,0:0:0:0:
256,192,15620,5,0,0:0:0:0:
256,192,15672,5,0,0:0:0:0:
256,192,15724,5,0,0:0:0:0:
256,192,15776,5,0,0:0:0:0:
256,192,15828,5,8,0:0:0:0:
256,192,15932,5,0,0:0:0:0:
256,192,16036,5,0,0:0:0:0:
256,192,16140,5,0,0:0:0:0:
256,192,16245,5,12,0:0:0:0:
256,192,17078,5,0,0:0:0:0:
256,192,17182,5,0,0:0:0:0:
256,192,17286,5,0,0:0:0:0:
256,192,17390,5,0,0:0:0:0:
256,192,17495,5,8,0:0:0:0:
256,192,18328,5,0,0:0:0:0:
256,192,18432,5,0,0:0:0:0:
256,192,18536,5,8,0:0:0:0:
256,192,18640,5,8,0:0:0:0:
256,192,18745,5,0,0:0:0:0:
256,192,19578,5,0,0:0:0:0:
256,192,19647,5,0,0:0:0:0:
256,192,19717,5,0,0:0:0:0:
256,192,19786,5,0,0:0:0:0:
256,192,19856,5,0,0:0:0:0:
256,192,19925,5,0,0:0:0:0:
256,192,19995,5,8,0:0:0:0:
256,192,20203,5,0,0:0:0:0:
256,192,20307,5,0,0:0:0:0:
256,192,20411,5,8,0:0:0:0:
256,192,20515,5,0,0:0:0:0:
256,192,20620,5,8,0:0:0:0:
256,192,20724,5,8,0:0:0:0:
256,192,20828,5,0,0:0:0:0:
256,192,20932,5,0,0:0:0:0:
256,192,21036,5,0,0:0:0:0:
256,192,21140,5,0,0:0:0:0:
256,192,21245,5,12,0:0:0:0:
256,192,22078,5,0,0:0:0:0:
256,192,22286,5,8,0:0:0:0:
256,192,22495,5,8,0:0:0:0:
256,192,23224,5,0,0:0:0:0:
256,192,23328,5,8,0:0:0:0:
256,192,23432,5,8,0:0:0:0:
256,192,23536,5,8,0:0:0:0:
256,192,23640,5,0,0:0:0:0:
256,192,23745,5,8,0:0:0:0:
256,192,24161,5,0,0:0:0:0:
256,192,24578,5,0,0:0:0:0:
256,192,24786,5,0,0:0:0:0:
256,192,24995,5,8,0:0:0:0:
256,192,25099,5,8,0:0:0:0:
256,192,25203,5,0,0:0:0:0:
256,192,25307,5,8,0:0:0:0:
256,192,25411,5,8,0:0:0:0:
256,192,25515,5,0,0:0:0:0:
256,192,25620,5,8,0:0:0:0:
256,192,25672,5,8,0:0:0:0:
256,192,25724,5,0,0:0:0:0:
256,192,25776,5,0,0:0:0:0:
256,192,25828,5,8,0:0:0:0:
256,192,25932,5,0,0:0:0:0:
256,192,26036,5,8,0:0:0:0:
256,192,26140,5,8,0:0:0:0:
256,192,26245,5,0,0:0:0:0:
256,192,26349,5,0,0:0:0:0:
256,192,26453,5,0,0:0:0:0:
256,192,26557,5,8,0:0:0:0:
256,192,26661,5,0,0:0:0:0:
256,192,26765,5,0,0:0:0:0:
256,192,26870,5,8,0:0:0:0:
256,192,26974,5,0,0:0:0:0:
256,192,27078,5,8,0:0:0:0:
256,192,27182,5,8,0:0:0:0:
256,192,27286,5,0,0:0:0:0:
256,192,27390,5,0,0:0:0:0:
256,192,27495,5,8,0:0:0:0:
256,192,27599,5,0,0:0:0:0:
256,192,27703,5,8,0:0:0:0:
256,192,27807,5,8,0:0:0:0:
256,192,27911,5,0,0:0:0:0:
256,192,28015,5,8,0:0:0:0:
256,192,28120,5,8,0:0:0:0:
256,192,28224,5,8,0:0:0:0:
256,192,28328,5,0,0:0:0:0:
256,192,28432,5,0,0:0:0:0:
256,192,28536,5,8,0:0:0:0:
256,192,28640,5,0,0:0:0:0:
256,192,28745,5,8,0:0:0:0:
256,192,28849,5,8,0:0:0:0:
256,192,28953,5,0,0:0:0:0:
256,192,29057,5,8,0:0:0:0:
256,192,29161,5,8,0:0:0:0:
256,192,29265,5,0,0:0:0:0:
256,192,29370,5,8,0:0:0:0:
256,192,29474,5,0,0:0:0:0:
256,192,29578,5,8,0:0:0:0:
256,192,29647,5,0,0:0:0:0:
256,192,29717,5,0,0:0:0:0:
256,192,29786,5,8,0:0:0:0:
256,192,29856,5,0,0:0:0:0:
256,192,29925,5,0,0:0:0:0:
256,192,29995,5,8,0:0:0:0:
256,192,30203,5,8,0:0:0:0:
256,192,30307,5,8,0:0:0:0:
256,192,30411,5,0,0:0:0:0:
256,192,30515,5,8,0:0:0:0:
256,192,30620,5,0,0:0:0:0:
256,192,30724,5,0,0:0:0:0:
256,192,30828,5,8,0:0:0:0:
256,192,30932,5,8,0:0:0:0:
256,192,31036,5,0,0:0:0:0:
256,192,31140,5,0,0:0:0:0:
256,192,31245,5,12,0:0:0:0:
256,192,32078,5,0,0:0:0:0:
256,192,32286,5,0,0:0:0:0:
256,192,32390,5,0,0:0:0:0:
256,192,32495,5,8,0:0:0:0:
256,192,32703,5,8,0:0:0:0:
256,192,32911,5,0,0:0:0:0:
256,192,33328,5,0,0:0:0:0:
256,192,33536,5,8,0:0:0:0:
256,192,33640,5,8,0:0:0:0:
256,192,33745,5,0,0:0:0:0:
256,192,34161,5,0,0:0:0:0:
256,192,34578,5,0,0:0:0:0:
256,192,34682,5,8,0:0:0:0:
256,192,34786,5,8,0:0:0:0:
256,192,34890,5,0,0:0:0:0:
256,192,34995,5,8,0:0:0:0:
256,192,35411,5,0,0:0:0:0:
256,192,35515,5,0,0:0:0:0:
256,192,35620,5,8,0:0:0:0:
256,192,35672,5,0,0:0:0:0:
256,192,35724,5,0,0:0:0:0:
256,192,35776,5,0,0:0:0:0:
256,192,35828,5,8,0:0:0:0:
256,192,35932,5,8,0:0:0:0:
256,192,36036,5,0,0:0:0:0:
256,192,36140,5,0,0:0:0:0:
256,192,36245,5,8,0:0:0:0:
256,192,36349,5,8,0:0:0:0:
256,192,36453,5,8,0:0:0:0:
256,192,36557,5,0,0:0:0:0:
256,192,36661,5,8,0:0:0:0:
256,192,36765,5,8,0:0:0:0:
256,192,36870,5,0,0:0:0:0:
256,192,36974,5,0,0:0:0:0:
256,192,37078,5,8,0:0:0:0:
256,192,37147,5,8,0:0:0:0:
256,192,37217,5,8,0:0:0:0:
256,192,37286,5,0,0:0:0:0:
256,192,37356,5,0,0:0:0:0:
256,192,37425,5,0,0:0:0:0:
256,192,37495,5,8,0:0:0:0:
256,192,37599,5,0,0:0:0:0:
256,192,37703,5,8,0:0:0:0:
256,192,37807,5,8,0:0:0:0:
256,192,37911,5,0,0:0:0:0:
256,192,38015,5,0,0:0:0:0:
256,192,38120,5,8,0:0:0:0:
256,192,38224,5,0,0:0:0:0:
256,192,38328,5,8,0:0:0:0:
256,192,38432,5,8,0:0:0:0:
256,192,38536,5,8,0:0:0:0:
256,192,38640,5,8,0:0:0:0:
256,192,38745,5,0,0:0:0:0:
256,192,38849,5,8,0:0:0:0:
256,192,38953,5,0,0:0:0:0:
256,192,39057,5,0,0:0:0:0:
256,192,39161,5,8,0:0:0:0:
256,192,39265,5,0,0:0:0:0:
256,192,39370,5,8,0:0:0:0:
256,192,39474,5,8,0:0:0:0:
256,192,39578,5,8,0:0:0:0:
256,192,39682,5,0,0:0:0:0:
256,192,39786,5,8,0:0:0:0:
256,192,39890,5,0,0:0:0:0:
256,192,39995,5,8,0:0:0:0:
256,192,40047,5,8,0:0:0:0:
256,192,40099,5,8,0:0:0:0:
256,192,40151,5,8,0:0:0:0:
256,192,40203,5,0,0:0:0:0:
256,192,40307,5,0,0:0:0:0:
256,192,40411,5,8,0:0:0:0:
256,192,40515,5,0,0:0:0:0:
256,192,40620,5,8,0:0:0:0:
256,192,40672,5,8,0:0:0:0:
256,192,40724,5,0,0:0:0:0:
256,192,40776,5,0,0:0:0:0:
256,192,40828,5,8,0:0:0:0:
256,192,40932,5,8,0:0:0:0:
256,192,41036,5,8,0:0:0:0:
256,192,41140,5,8,0:0:0:0:
256,192,41245,5,0,0:0:0:0:
256,192,41349,5,0,0:0:0:0:
256,192,41453,5,0,0:0:0:0:
256,192,41557,5,0,0:0:0:0:
256,192,41661,5,8,0:0:0:0:
256,192,41765,5,0,0:0:0:0:
256,192,41870,5,8,0:0:0:0:
256,192,41974,5,8,0:0:0:0:
256,192,42078,5,0,0:0:0:0:
256,192,42182,5,0,0:0:0:0:
256,192,42286,5,0,0:0:0:0:
256,192,42390,5,0,0:0:0:0:
256,192,42495,5,8,0:0:0:0:
256,192,42599,5,0,0:0:0:0:
256,192,42703,5,8,0:0:0:0:
256,192,42807,5,0,0:0:0:0:
256,192,42911,5,8,0:0:0:0:
256,192,43015,5,8,0:0:0:0:
256,192,43120,5,8,0:0:0:0:
256,192,43224,5,0,0:0:0:0:
256,192,43328,5,8,0:0:0:0:
256,192,43432,5,8,0:0:0:0:
256,192,43536,5,8,0:0:0:0:
256,192,43640,5,8,0:0:0:0:
256,192,43745,5,0,0:0:0:0:
256,192,43849,5,0,0:0:0:0:
256,192,43953,5,0,0:0:0:0:
256,192,44057,5,0,0:0:0:0:
256,192,44161,5,8,0:0:0:0:
256,192,44265,5,8,0:0:0:0:
256,192,44370,5,0,0:0:0:0:
256,192,44474,5,8,0:0:0:0:
256,192,44578,5,0,0:0:0:0:
256,192,44682,5,8,0:0:0:0:
256,192,44786,5,0,0:0:0:0:
256,192,44890,5,0,0:0:0:0:
256,192,44995,5,8,0:0:0:0:
256,192,45099,5,8,0:0:0:0:
256,192,45203,5,8,0:0:0:0:
256,192,45307,5,8,0:0:0:0:
256,192,45411,5,0,0:0:0:0:
256,192,45515,5,0,0:0:0:0:
256,192,45620,5,8,0:0:0:0:
256,192,45724,5,0,0:0:0:0:
256,192,45828,5,8,0:0:0:0:
256,192,45932,5,8,0:0:0:0:
256,192,46036,5,0,0:0:0:0:
256,192,46140,5,0,0:0:0:0:
256,192,46245,5,12,0:0:0:0:
256,192,46661,5,4,0:0:0:0:
256,192,47078,5,8,0:0:0:0:
256,192,47130,5,0,0:0:0:0:
256,192,47182,5,8,0:0:0:0:
256,192,47234,5,0,0:0:0:0:
256,192,47286,5,8,0:0:0:0:
256,192,47338,5,8,0:0:0:0:
256,192,47390,5,0,0:0:0:0:
256,192,47442,5,0,0:0:0:0:
256,192,47495,5,8,0:0:0:0:
256,192,47599,5,8,0:0:0:0:
256,192,47703,5,8,0:0:0:0:
256,192,47807,5,8,0:0:0:0:
256,192,47911,5,0,0:0:0:0:
256,192,48015,5,0,0:0:0:0:
256,192,48120,5,8,0:0:0:0:
256,192,48224,5,0,0:0:0:0:
256,192,48328,5,8,0:0:0:0:
256,192,48432,5,8,0:0:0:0:
256,192,48536,5,8,0:0:0:0:
256,192,48640,5,8,0:0:0:0:
256,192,48745,5,0,0:0:0:0:
256,192,48849,5,8,0:0:0:0:
256,192,48953,5,0,0:0:0:0:
256,192,49057,5,0,0:0:0:0:
256,192,49161,5,12,0:0:0:0:
256,192,49578,5,0,0:0:0:0:
256,192,49630,5,0,0:0:0:0:
256,192,49682,5,8,0:0:0:0:
256,192,49734,5,0,0:0:0:0:
256,192,49786,5,8,0:0:0:0:
256,192,49890,5,0,0:0:0:0:
256,192,49995,5,8,0:0:0:0:
256,192,50047,5,8,0:0:0:0:
256,192,50099,5,0,0:0:0:0:
256,192,50151,5,0,0:0:0:0:
256,192,50203,5,8,0:0:0:0:
256,192,50307,5,0,0:0:0:0:
256,192,50411,5,8,0:0:0:0:
256,192,50620,5,4,0:0:0:0:
256,192,50828,5,12,0:0:0:0:
256,192,51036,5,4,0:0:0:0:
256,192,51245,5,0,0:0:0:0:
256,192,51349,5,0,0:0:0:0:
256,192,51453,5,0,0:0:0:0:
256,192,51557,5,0,0:0:0:0:
256,192,51661,5,8,0:0:0:0:
256,192,52078,5,0,0:0:0:0:
256,192,52130,5,0,0:0:0:0:
256,192,52182,5,8,0:0:0:0:
256,192,52234,5,8,0:0:0:0:
256,192,52286,5,0,0:0:0:0:
256,192,52390,5,0,0:0:0:0:
256,192,52495,5,8,0:0:0:0:
256,192,52599,5,0,0:0:0:0:
256,192,52703,5,0,0:0:0:0:
256,192,52807,5,8,0:0:0:0:
256,192,52911,5,0,0:0:0:0:
256,192,53328,5,0,0:0:0:0:
256,192,53432,5,8,0:0:0:0:
256,192,53536,5,8,0:0:0:0:
256,192,53640,5,0,0:0:0:0:
256,192,53745,5,8,0:0:0:0:
256,192,53849,5,8,0:0:0:0:
256,192,53953,5,0,0:0:0:0:
256,192,54057,5,0,0:0:0:0:
256,192,54161,5,8,0:0:0:0:
256,192,54578,5,0,0:0:0:0:
256,192,54630,5,8,0:0:0:0:
256,192,54682,5,0,0:0:0:0:
256,192,54734,5,0,0:0:0:0:
256,192,54786,5,8,0:0:0:0:
256,192,54838,5,8,0:0:0:0:
256,192,54890,5,0,0:0:0:0:
256,192,54942,5,0,0:0:0:0:
256,192,54995,5,8,0:0:0:0:
256,192,55099,5,0,0:0:0:0:
256,192,55203,5,8,0:0:0:0:
256,192,55307,5,0,0:0:0:0:
256,192,55411,5,8,0:0:0:0:
256,192,55515,5,8,0:0:0:0:
256,192,55620,5,0,0:0:0:0:
256,192,55724,5,0,0:0:0:0:
256,192,55828,5,8,0:0:0:0:
256,192,55932,5,8,0:0:0:0:
256,192,56036,5,8,0:0:0:0:
256,192,56140,5,0,0:0:0:0:
256,192,56245,5,12,0:0:0:0:
256,192,57078,5,0,0:0:0:0:
256,192,57286,5,0,0:0:0:0:
256,192,57495,5,8,0:0:0:0:
256,192,58328,5,0,0:0:0:0:
256,192,58536,5,0,0:0:0:0:
256,192,58745,5,8,0:0:0:0:
256,192,59578,5,0,0:0:0:0:
256,192,59787,5,8,0:0:0:0:
256,192,59995,5,8,0:0:0:0:
256,192,60828,5,0,0:0:0:0:
256,192,60932,5,0,0:0:0:0:
256,192,61036,5,8,0:0:0:0:
256,192,61140,5,0,0:0:0:0:
256,192,61245,5,12,0:0:0:0:
256,192,61453,5,8,0:0:0:0:
256,192,61522,5,0,0:0:0:0:
256,192,61592,5,0,0:0:0:0:
256,192,61661,5,8,0:0:0:0:
256,192,61765,5,0,0:0:0:0:
256,192,61870,5,8,0:0:0:0:
256,192,62078,5,0,0:0:0:0:
256,192,62147,5,8,0:0:0:0:
256,192,62217,5,8,0:0:0:0:
256,192,62286,5,0,0:0:0:0:
256,192,62390,5,0,0:0:0:0:
256,192,62495,5,8,0:0:0:0:
256,192,63120,5,0,0:0:0:0:
256,192,63189,5,0,0:0:0:0:
256,192,63258,5,0,0:0:0:0:
256,192,63328,5,8,0:0:0:0:
256,192,63432,5,0,0:0:0:0:
256,192,63536,5,0,0:0:0:0:
256,192,63640,5,0,0:0:0:0:
256,192,63745,5,8,0:0:0:0:
256,192,63953,5,0,0:0:0:0:
256,192,64005,5,0,0:0:0:0:
256,192,64057,5,0,0:0:0:0:
256,192,64161,5,8,0:0:0:0:
256,192,64265,5,8,0:0:0:0:
256,192,64370,5,0,0:0:0:0:
256,192,64474,5,0,0:0:0:0:
256,192,64578,5,8,0:0:0:0:
256,192,64647,5,8,0:0:0:0:
256,192,64717,5,8,0:0:0:0:
256,192,64786,5,0,0:0:0:0:
256,192,64856,5,0,0:0:0:0:
256,192,64925,5,0,0:0:0:0:
256,192,64995,5,8,0:0:0:0:
256,192,65620,5,8,0:0:0:0:
256,192,65672,5,8,0:0:0:0:
256,192,65828,5,0,0:0:0:0:
256,192,66036,5,0,0:0:0:0:
256,192,66245,5,8,0:0:0:0:
256,192,66349,5,8,0:0:0:0:
256,192,66453,5,8,0:0:0:0:
256,192,66557,5,8,0:0:0:0:
256,192,66661,5,8,0:0:0:0:
256,192,66765,5,8,0:0:0:0:
256,192,66870,5,0,0:0:0:0:
256,192,66974,5,0,0:0:0:0:
256,192,67078,5,0,0:0:0:0:
256,192,67182,5,0,0:0:0:0:
256,192,67286,5,0,0:0:0:0:
256,192,67390,5,0,0:0:0:0:
256,192,67495,5,8,0:0:0:0:
256,192,67599,5,8,0:0:0:0:
256,192,67703,5,0,0:0:0:0:
256,192,67807,5,8,0:0:0:0:
256,192,67911,5,0,0:0:0:0:
256,192,68015,5,0,0:0:0:0:
256,192,68120,5,8,0:0:0:0:
256,192,68224,5,8,0:0:0:0:
256,192,68328,5,8,0:0:0:0:
256,192,68432,5,0,0:0:0:0:
256,192,68536,5,8,0:0:0:0:
256,192,68640,5,0,0:0:0:0:
256,192,68745,5,8,0:0:0:0:
256,192,68849,5,8,0:0:0:0:
256,192,68953,5,8,0:0:0:0:
256,192,69057,5,8,0:0:0:0:
256,192,69161,5,8,0:0:0:0:
256,192,69265,5,8,0:0:0:0:
256,192,69370,5,8,0:0:0:0:
256,192,69474,5,8,0:0:0:0:
256,192,69578,5,0,0:0:0:0:
256,192,69682,5,0,0:0:0:0:
256,192,69786,5,0,0:0:0:0:
256,192,69890,5,0,0:0:0:0:
256,192,69995,5,12,0:0:0:0:
256,192,70203,5,0,0:0:0:0:
256,192,70255,5,0,0:0:0:0:
256,192,70307,5,8,0:0:0:0:
256,192,70359,5,8,0:0:0:0:
256,192,70411,5,0,0:0:0:0:
256,192,70515,5,0,0:0:0:0:
256,192,70620,5,0,0:0:0:0:
256,192,70672,5,0,0:0:0:0:
256,192,70724,5,8,0:0:0:0:
256,192,70776,5,0,0:0:0:0:
256,192,70828,5,0,0:0:0:0:
256,192,70932,5,0,0:0:0:0:
256,192,71036,5,8,0:0:0:0:
256,192,71140,5,0,0:0:0:0:
256,192,71245,5,8,0:0:0:0:
256,192,71314,5,0,0:0:0:0:
256,192,71383,5,0,0:0:0:0:
256,192,71453,5,8,0:0:0:0:
256,192,71522,5,0,0:0:0:0:
256,192,71592,5,8,0:0:0:0:
256,192,71661,5,8,0:0:0:0:
256,192,71731,5,0,0:0:0:0:
256,192,71800,5,0,0:0:0:0:
256,192,71870,5,8,0:0:0:0:
256,192,71939,5,0,0:0:0:0:
256,192,72008,5,0,0:0:0:0:
256,192,72078,5,8,0:0:0:0:
256,192,72147,5,8,0:0:0:0:
256,192,72217,5,8,0:0:0:0:
256,192,72286,5,0,0:0:0:0:
256,192,72356,5,0,0:0:0:0:
256,192,72425,5,0,0:0:0:0:
256,192,72495,5,8,0:0:0:0:
256,192,73120,5,0,0:0:0:0:
256,192,73172,5,0,0:0:0:0:
256,192,73224,5,0,0:0:0:0:
256,192,73276,5,0,0:0:0:0:
256,192,73328,5,8,0:0:0:0:
256,192,73536,5,0,0:0:0:0:
256,192,73745,5,8,0:0:0:0:
256,192,73814,5,8,0:0:0:0:
256,192,73883,5,0,0:0:0:0:
256,192,73953,5,8,0:0:0:0:
256,192,74022,5,0,0:0:0:0:
256,192,74092,5,0,0:0:0:0:
256,192,74161,5,8,0:0:0:0:
256,192,74231,5,8,0:0:0:0:
256,192,74300,5,8,0:0:0:0:
256,192,74370,5,0,0:0:0:0:
256,192,74439,5,0,0:0:0:0:
256,192,74508,5,0,0:0:0:0:
256,192,74578,5,8,0:0:0:0:
256,192,74647,5,0,0:0:0:0:
256,192,74717,5,0,0:0:0:0:
256,192,74786,5,8,0:0:0:0:
256,192,74856,5,0,0:0:0:0:
256,192,74925,5,0,0:0:0:0:
256,192,74995,5,8,0:0:0:0:
256,192,75064,5,8,0:0:0:0:
256,192,75133,5,0,0:0:0:0:
256,192,75203,5,0,0:0:0:0:
256,192,75272,5,8,0:0:0:0:
256,192,75342,5,0,0:0:0:0:
256,192,75411,5,8,0:0:0:0:
256,192,75550,5,8,0:0:0:0:
256,192,75689,5,0,0:0:0:0:
256,192,75828,5,8,0:0:0:0:
256,192,76036,5,0,0:0:0:0:
256,192,76245,5,8,0:0:0:0:
256,192,76314,5,8,0:0:0:0:
256,192,76383,5,0,0:0:0:0:
256,192,76453,5,8,0:0:0:0:
256,192,76522,5,0,0:0:0:0:
256,192,76592,5,0,0:0:0:0:
256,192,76661,5,8,0:0:0:0:
256,192,76731,5,0,0:0:0:0:
256,192,76800,5,0,0:0:0:0:
256,192,76870,5,8,0:0:0:0:
256,192,76939,5,8,0:0:0:0:
256,192,77008,5,0,0:0:0:0:
256,192,77078,5,8,0:0:0:0:
256,192,77147,5,8,0:0:0:0:
256,192,77217,5,8,0:0:0:0:
256,192,77286,5,0,0:0:0:0:
256,192,77356,5,0,0:0:0:0:
256,192,77425,5,0,0:0:0:0:
256,192,77495,5,8,0:0:0:0:
256,192,77564,5,0,0:0:0:0:
256,192,77633,5,8,0:0:0:0:
256,192,77703,5,8,0:0:0:0:
256,192,77772,5,0,0:0:0:0:
256,192,77842,5,0,0:0:0:0:
256,192,77911,5,8,0:0:0:0:
256,192,77981,5,8,0:0:0:0:
256,192,78050,5,0,0:0:0:0:
256,192,78120,5,8,0:0:0:0:
256,192,78189,5,8,0:0:0:0:
256,192,78258,5,0,0:0:0:0:
256,192,78328,5,8,0:0:0:0:
256,192,78397,5,0,0:0:0:0:
256,192,78467,5,8,0:0:0:0:
256,192,78536,5,8,0:0:0:0:
256,192,78606,5,0,0:0:0:0:
256,192,78675,5,0,0:0:0:0:
256,192,78745,5,8,0:0:0:0:
256,192,78814,5,8,0:0:0:0:
256,192,78883,5,0,0:0:0:0:
256,192,78953,5,8,0:0:0:0:
256,192,79022,5,0,0:0:0:0:
256,192,79092,5,0,0:0:0:0:
256,192,79161,5,8,0:0:0:0:
256,192,79231,5,8,0:0:0:0:
256,192,79300,5,8,0:0:0:0:
256,192,79370,5,0,0:0:0:0:
256,192,79439,5,0,0:0:0:0:
256,192,79508,5,0,0:0:0:0:
256,192,79578,5,8,0:0:0:0:
256,192,79647,5,0,0:0:0:0:
256,192,79717,5,0,0:0:0:0:
256,192,79786,5,8,0:0:0:0:
256,192,79856,5,0,0:0:0:0:
256,192,79925,5,0,0:0:0:0:
256,192,79995,5,8,0:0:0:0:
256,192,80064,5,0,0:0:0:0:
256,192,80133,5,0,0:0:0:0:
256,192,80203,5,0,0:0:0:0:
256,192,80272,5,0,0:0:0:0:
256,192,80342,5,0,0:0:0:0:
256,192,80411,5,8,0:0:0:0:
256,192,80481,5,8,0:0:0:0:
256,192,80550,5,0,0:0:0:0:
256,192,80620,5,0,0:0:0:0:
256,192,80689,5,0,0:0:0:0:
256,192,80758,5,0,0:0:0:0:
256,192,80828,5,8,0:0:0:0:
256,192,81036,5,8,0:0:0:0:
256,192,81245,5,4,0:0:0:0:
256,192,81453,5,4,0:0:0:0:
256,192,81870,5,4,0:0:0:0:
256,192,82078,5,0,0:0:0:0:
256,192,82286,5,0,0:0:0:0:
256,192,82495,5,8,0:0:0:0:
256,192,82703,5,0,0:0:0:0:
256,192,82911,5,0,0:0:0:0:
256,192,83120,5,8,0:0:0:0:
256,192,83328,5,0,0:0:0:0:
256,192,83536,5,0,0:0:0:0:
256,192,83745,5,12,0:0:0:0:
256,192,83953,5,12,0:0:0:0:
256,192,84370,5,8,0:0:0:0:
256,192,84422,5,8,0:0:0:0:
256,192,84474,5,0,0:0:0:0:
256,192,84526,5,0,0:0:0:0:
256,192,84578,5,0,0:0:0:0:
256,192,84682,5,0,0:0:0:0:
256,192,84786,5,8,0:0:0:0:
256,192,84890,5,0,0:0:0:0:
256,192,84995,5,8,0:0:0:0:
256,192,85047,5,8,0:0:0:0:
256,192,85099,5,8,0:0:0:0:
256,192,85203,5,0,0:0:0:0:
256,192,85255,5,0,0:0:0:0:
256,192,85307,5,0,0:0:0:0:
256,192,85359,5,0,0:0:0:0:
256,192,85411,5,8,0:0:0:0:
256,192,85515,5,8,0:0:0:0:
256,192,85620,5,0,0:0:0:0:
256,192,85724,5,0,0:0:0:0:
256,192,85828,5,0,0:0:0:0:
256,192,85932,5,8,0:0:0:0:
256,192,86036,5,0,0:0:0:0:
256,192,86140,5,0,0:0:0:0:
256,192,86245,5,8,0:0:0:0:
256,192,86349,5,8,0:0:0:0:
256,192,86453,5,8,0:0:0:0:
256,192,86557,5,0,0:0:0:0:
256,192,86661,5,8,0:0:0:0:
256,192,86765,5,0,0:0:0:0:
256,192,86870,5,8,0:0:0:0:
256,192,86974,5,8,0:0:0:0:
256,192,87078,5,0,0:0:0:0:
256,192,87182,5,8,0:0:0:0:
256,192,87286,5,0,0:0:0:0:
256,192,87390,5,0,0:0:0:0:
256,192,87495,5,8,0:0:0:0:
256,192,87911,5,0,0:0:0:0:
256,192,87981,5,0,0:0:0:0:
256,192,88050,5,0,0:0:0:0:
256,192,88120,5,0,0:0:0:0:
256,192,88189,5,0,0:0:0:0:
256,192,88258,5,0,0:0:0:0:
256,192,88328,5,8,0:0:0:0:
256,192,88397,5,0,0:0:0:0:
256,192,88467,5,0,0:0:0:0:
256,192,88536,5,8,0:0:0:0:
256,192,88606,5,0,0:0:0:0:
256,192,88675,5,0,0:0:0:0:
256,192,88745,5,8,0:0:0:0:
256,192,88814,5,8,0:0:0:0:
256,192,88883,5,8,0:0:0:0:
256,192,88953,5,8,0:0:0:0:
256,192,89022,5,8,0:0:0:0:
256,192,89092,5,8,0:0:0:0:
256,192,89161,5,0,0:0:0:0:
256,192,89231,5,0,0:0:0:0:
256,192,89300,5,0,0:0:0:0:
256,192,89370,5,0,0:0:0:0:
256,192,89439,5,0,0:0:0:0:
256,192,89508,5,0,0:0:0:0:
256,192,89578,5,8,0:0:0:0:
256,192,89717,5,0,0:0:0:0:
256,192,89856,5,0,0:0:0:0:
256,192,89995,5,12,0:0:0:0:
256,192,90133,5,0,0:0:0:0:
256,192,90272,5,0,0:0:0:0:
256,192,90411,5,8,0:0:0:0:
256,192,90550,5,8,0:0:0:0:
256,192,90689,5,8,0:0:0:0:
256,192,90828,5,0,0:0:0:0:
256,192,90967,5,8,0:0:0:0:
256,192,91106,5,8,0:0:0:0:
256,192,91245,5,4,0:0:0:0:
256,192,93328,5,8,0:0:0:0:
256,192,93432,5,8,0:0:0:0:
256,192,93536,5,0,0:0:0:0:
256,192,93640,5,0,0:0:0:0:
256,192,93745,5,8,0:0:0:0:
256,192,94995,5,8,0:0:0:0:
256,192,95064,5,0,0:0:0:0:
256,192,95133,5,0,0:0:0:0:
256,192,95203,5,0,0:0:0:0:
256,192,95272,5,0,0:0:0:0:
256,192,95342,5,0,0:0:0:0:
256,192,95411,5,8,0:0:0:0:
256,192,95567,5,0,0:0:0:0:
256,192,95620,1,8,0:0:0:0:
256,192,95672,1,0,0:0:0:0:
256,192,95724,1,8,0:0:0:0:
256,192,95776,1,8,0:0:0:0:
256,192,95828,1,0,0:0:0:0:
256,192,96036,5,0,0:0:0:0:
256,192,96245,5,8,0:0:0:0:
256,192,96349,5,8,0:0:0:0:
256,192,96453,5,0,0:0:0:0:
256,192,96557,5,0,0:0:0:0:
256,192,96661,5,8,0:0:0:0:
256,192,96765,5,8,0:0:0:0:
256,192,96870,5,8,0:0:0:0:
256,192,96974,5,8,0:0:0:0:
256,192,97078,5,0,0:0:0:0:
256,192,97182,5,0,0:0:0:0:
256,192,97286,5,8,0:0:0:0:
256,192,97390,5,0,0:0:0:0:
256,192,97495,5,8,0:0:0:0:
256,192,97599,5,8,0:0:0:0:
256,192,97703,5,8,0:0:0:0:
256,192,97807,5,8,0:0:0:0:
256,192,97911,5,0,0:0:0:0:
256,192,98015,5,0,0:0:0:0:
256,192,98120,5,8,0:0:0:0:
256,192,98224,5,0,0:0:0:0:
256,192,98328,5,8,0:0:0:0:
256,192,98432,5,8,0:0:0:0:
256,192,98536,5,0,0:0:0:0:
256,192,98640,5,0,0:0:0:0:
256,192,98745,5,8,0:0:0:0:
256,192,98849,5,8,0:0:0:0:
256,192,98953,5,8,0:0:0:0:
256,192,99057,5,8,0:0:0:0:
256,192,99161,5,4,0:0:0:0:
256,192,99370,5,0,0:0:0:0:
256,192,99474,5,0,0:0:0:0:
256,192,99578,5,8,0:0:0:0:
256,192,99682,5,8,0:0:0:0:
256,192,99786,5,0,0:0:0:0:
256,192,99890,5,0,0:0:0:0:
256,192,99995,5,8,0:0:0:0:
256,192,100099,5,8,0:0:0:0:
256,192,100203,5,0,0:0:0:0:
256,192,100307,5,8,0:0:0:0:
256,192,100411,5,8,0:0:0:0:
256,192,100515,5,0,0:0:0:0:
256,192,100620,5,8,0:0:0:0:
256,192,100724,5,0,0:0:0:0:
256,192,100828,5,8,0:0:0:0:
256,192,100932,5,8,0:0:0:0:
256,192,101036,5,0,0:0:0:0:
256,192,101140,5,0,0:0:0:0:
256,192,101245,5,12,0:0:0:0:
256,192,101661,5,4,0:0:0:0:
256,192,102078,5,0,0:0:0:0:
256,192,102130,5,0,0:0:0:0:
256,192,102182,5,0,0:0:0:0:
256,192,102234,5,0,0:0:0:0:
256,192,102286,5,0,0:0:0:0:
256,192,102338,5,0,0:0:0:0:
256,192,102390,5,0,0:0:0:0:
256,192,102442,5,0,0:0:0:0:
256,192,102495,5,8,0:0:0:0:
256,192,102599,5,8,0:0:0:0:
256,192,102703,5,8,0:0:0:0:
256,192,102807,5,8,0:0:0:0:
256,192,102911,5,0,0:0:0:0:
256,192,103015,5,0,0:0:0:0:
256,192,103120,5,8,0:0:0:0:
256,192,103224,5,8,0:0:0:0:
256,192,103328,5,0,0:0:0:0:
256,192,103432,5,8,0:0:0:0:
256,192,103536,5,0,0:0:0:0:
256,192,103640,5,8,0:0:0:0:
256,192,103745,5,0,0:0:0:0:
256,192,103849,5,0,0:0:0:0:
256,192,103953,5,0,0:0:0:0:
256,192,104057,5,0,0:0:0:0:
256,192,104161,5,12,0:0:0:0:
256,192,104578,5,8,0:0:0:0:
256,192,104630,5,0,0:0:0:0:
256,192,104682,5,0,0:0:0:0:
256,192,104734,5,0,0:0:0:0:
256,192,104786,5,8,0:0:0:0:
256,192,104890,5,0,0:0:0:0:
256,192,104995,5,8,0:0:0:0:
256,192,105047,5,8,0:0:0:0:
256,192,105099,1,8,0:0:0:0:
256,192,105151,1,8,0:0:0:0:
256,192,105203,5,0,0:0:0:0:
256,192,105307,5,0,0:0:0:0:
256,192,105411,5,8,0:0:0:0:
256,192,105515,5,0,0:0:0:0:
256,192,105620,5,12,0:0:0:0:
256,192,105828,5,12,0:0:0:0:
256,192,106036,5,12,0:0:0:0:
256,192,106245,5,0,0:0:0:0:
256,192,106349,5,0,0:0:0:0:
256,192,106453,5,8,0:0:0:0:
256,192,106557,5,0,0:0:0:0:
256,192,106661,5,8,0:0:0:0:
256,192,107078,5,0,0:0:0:0:
256,192,107130,5,0,0:0:0:0:
256,192,107182,5,8,0:0:0:0:
256,192,107234,5,0,0:0:0:0:
256,192,107286,5,8,0:0:0:0:
256,192,107390,5,0,0:0:0:0:
256,192,107495,5,8,0:0:0:0:
256,192,107599,5,0,0:0:0:0:
256,192,107703,5,0,0:0:0:0:
256,192,107807,5,8,0:0:0:0:
256,192,107911,5,8,0:0:0:0:
256,192,108328,5,0,0:0:0:0:
256,192,108432,5,8,0:0:0:0:
256,192,108536,5,8,0:0:0:0:
256,192,108640,5,8,0:0:0:0:
256,192,108745,5,0,0:0:0:0:
256,192,108849,5,0,0:0:0:0:
256,192,108953,5,8,0:0:0:0:
256,192,109057,5,0,0:0:0:0:
256,192,109161,5,8,0:0:0:0:
256,192,109578,5,0,0:0:0:0:
256,192,109630,5,0,0:0:0:0:
256,192,109682,5,0,0:0:0:0:
256,192,109734,5,0,0:0:0:0:
256,192,109786,5,8,0:0:0:0:
256,192,109838,5,8,0:0:0:0:
256,192,109890,5,0,0:0:0:0:
256,192,109942,5,0,0:0:0:0:
256,192,109995,5,8,0:0:0:0:
256,192,110099,5,0,0:0:0:0:
256,192,110203,5,8,0:0:0:0:
256,192,110307,5,0,0:0:0:0:
256,192,110411,5,8,0:0:0:0:
256,192,110620,5,0,0:0:0:0:
256,192,110672,5,0,0:0:0:0:
256,192,110724,5,0,0:0:0:0:
256,192,110828,5,8,0:0:0:0:
256,192,110932,5,8,0:0:0:0:
256,192,111036,5,0,0:0:0:0:
256,192,111140,5,0,0:0:0:0:
256,192,111245,5,12,0:0:0:0:
256,192,111661,5,0,0:0:0:0:
256,192,111731,5,0,0:0:0:0:
256,192,111800,5,0,0:0:0:0:
256,192,111870,5,8,0:0:0:0:
256,192,111939,5,0,0:0:0:0:
256,192,112008,5,0,0:0:0:0:
256,192,112078,5,8,0:0:0:0:
256,192,112182,5,8,0:0:0:0:
256,192,112286,5,0,0:0:0:0:
256,192,112390,5,0,0:0:0:0:
256,192,112495,5,8,0:0:0:0:
256,192,112599,5,0,0:0:0:0:
256,192,112703,5,8,0:0:0:0:
256,192,112807,5,8,0:0:0:0:
256,192,112911,5,0,0:0:0:0:
256,192,113120,5,8,0:0:0:0:
256,192,113172,5,8,0:0:0:0:
256,192,113224,5,8,0:0:0:0:
256,192,113276,5,8,0:0:0:0:
256,192,113328,5,0,0:0:0:0:
256,192,113432,5,8,0:0:0:0:
256,192,113536,5,0,0:0:0:0:
256,192,113640,5,0,0:0:0:0:
256,192,113745,5,8,0:0:0:0:
256,192,113814,5,0,0:0:0:0:
256,192,113883,5,0,0:0:0:0:
256,192,113953,5,8,0:0:0:0:
256,192,114022,5,0,0:0:0:0:
256,192,114092,5,0,0:0:0:0:
256,192,114161,5,12,0:0:0:0:
256,192,114370,5,8,0:0:0:0:
256,192,114474,5,8,0:0:0:0:
256,192,114526,5,8,0:0:0:0:
256,192,114578,5,0,0:0:0:0:
256,192,114786,5,0,0:0:0:0:
256,192,114995,5,8,0:0:0:0:
256,192,115064,5,8,0:0:0:0:
256,192,115133,5,8,0:0:0:0:
256,192,115203,5,0,0:0:0:0:
256,192,115272,5,0,0:0:0:0:
256,192,115342,5,0,0:0:0:0:
256,192,115411,5,8,0:0:0:0:
256,192,115481,5,0,0:0:0:0:
256,192,115550,5,0,0:0:0:0:
256,192,115620,5,8,0:0:0:0:
256,192,115689,5,0,0:0:0:0:
256,192,115758,5,0,0:0:0:0:
256,192,115828,5,8,0:0:0:0:
256,192,116036,5,8,0:0:0:0:
256,192,116245,5,4,0:0:0:0:
256,192,116557,5,0,0:0:0:0:
256,192,116870,5,8,0:0:0:0:
256,192,116974,5,8,0:0:0:0:
256,192,117078,5,8,0:0:0:0:
256,192,117286,5,0,0:0:0:0:
256,192,117390,5,0,0:0:0:0:
256,192,117495,5,8,0:0:0:0:
256,192,117599,5,0,0:0:0:0:
256,192,117807,5,0,0:0:0:0:
256,192,118120,5,0,0:0:0:0:
256,192,118189,5,0,0:0:0:0:
256,192,118258,5,0,0:0:0:0:
256,192,118328,5,8,0:0:0:0:
256,192,118536,5,0,0:0:0:0:
256,192,118640,5,0,0:0:0:0:
256,192,118745,5,8,0:0:0:0:
256,192,118849,5,0,0:0:0:0:
256,192,118953,5,8,0:0:0:0:
256,192,119057,5,0,0:0:0:0:
256,192,119370,5,8,0:0:0:0:
256,192,119439,5,0,0:0:0:0:
256,192,119508,5,0,0:0:0:0:
256,192,119578,5,8,0:0:0:0:
256,192,119786,5,0,0:0:0:0:
256,192,119995,5,4,0:0:0:0:
256,192,120203,1,8,0:0:0:0:
256,192,120411,5,8,0:0:0:0:
256,192,120515,5,0,0:0:0:0:
256,192,120724,5,0,0:0:0:0:
256,192,120828,5,8,0:0:0:0:
256,192,120932,5,8,0:0:0:0:
256,192,121036,5,0,0:0:0:0:
256,192,121140,5,0,0:0:0:0:
256,192,121245,5,8,0:0:0:0:
256,192,121349,5,0,0:0:0:0:
256,192,121453,5,0,0:0:0:0:
256,192,121557,5,0,0:0:0:0:
256,192,121765,5,0,0:0:0:0:
256,192,121870,5,0,0:0:0:0:
256,192,121974,5,0,0:0:0:0:
256,192,122078,5,8,0:0:0:0:
256,192,122286,5,0,0:0:0:0:
256,192,122356,5,0,0:0:0:0:
256,192,122425,5,0,0:0:0:0:
256,192,122495,5,8,0:0:0:0:
256,192,122599,5,8,0:0:0:0:
256,192,122807,5,8,0:0:0:0:
256,192,122911,5,12,0:0:0:0:
256,192,123745,5,0,0:0:0:0:
256,192,124057,5,0,0:0:0:0:
256,192,124161,5,8,0:0:0:0:
256,192,124265,5,0,0:0:0:0:
256,192,124370,5,0,0:0:0:0:
256,192,124474,5,8,0:0:0:0:
256,192,124578,5,0,0:0:0:0:
256,192,124682,5,8,0:0:0:0:
256,192,124786,5,8,0:0:0:0:
256,192,124890,5,0,0:0:0:0:
256,192,125099,5,8,0:0:0:0:
256,192,125203,5,0,0:0:0:0:
256,192,125255,5,0,0:0:0:0:
256,192,125307,5,0,0:0:0:0:
256,192,125359,5,0,0:0:0:0:
256,192,125411,5,8,0:0:0:0:
256,192,125515,5,0,0:0:0:0:
256,192,125620,5,8,0:0:0:0:
256,192,125724,5,8,0:0:0:0:
256,192,125932,5,0,0:0:0:0:
256,192,126036,5,8,0:0:0:0:
256,192,126140,5,8,0:0:0:0:
256,192,126245,5,0,0:0:0:0:
256,192,126349,5,0,0:0:0:0:
256,192,126453,5,0,0:0:0:0:
256,192,126557,5,8,0:0:0:0:
256,192,126765,5,8,0:0:0:0:
256,192,126974,5,0,0:0:0:0:
256,192,127078,5,8,0:0:0:0:
256,192,127286,5,8,0:0:0:0:
256,192,127390,5,0,0:0:0:0:
256,192,127599,5,0,0:0:0:0:
256,192,127703,5,0,0:0:0:0:
256,192,127807,5,0,0:0:0:0:
256,192,127911,5,8,0:0:0:0:
256,192,128015,5,0,0:0:0:0:
256,192,128120,5,0,0:0:0:0:
256,192,128224,5,8,0:0:0:0:
256,192,128328,5,8,0:0:0:0:
256,192,128432,5,8,0:0:0:0:
256,192,128536,5,0,0:0:0:0:
256,192,128588,5,0,0:0:0:0:
256,192,128640,5,0,0:0:0:0:
256,192,128692,5,0,0:0:0:0:
256,192,128745,5,8,0:0:0:0:
256,192,128814,5,0,0:0:0:0:
256,192,128883,5,0,0:0:0:0:
256,192,128953,5,8,0:0:0:0:
256,192,129022,5,0,0:0:0:0:
256,192,129092,5,0,0:0:0:0:
256,192,129161,5,8,0:0:0:0:
256,192,129213,5,8,0:0:0:0:
256,192,129265,5,8,0:0:0:0:
256,192,129317,5,8,0:0:0:0:
256,192,129370,5,0,0:0:0:0:
256,192,129422,5,0,0:0:0:0:
256,192,129474,5,0,0:0:0:0:
256,192,129526,5,0,0:0:0:0:
256,192,129578,5,8,0:0:0:0:
256,192,129682,5,0,0:0:0:0:
256,192,129786,5,0,0:0:0:0:
256,192,129890,5,8,0:0:0:0:
256,192,129994,5,8,0:0:0:0:
256,192,130098,5,0,0:0:0:0:
256,192,130203,5,0,0:0:0:0:
256,192,130307,5,8,0:0:0:0:
256,192,130411,5,0,0:0:0:0:
256,192,130463,5,0,0:0:0:0:
256,192,130515,5,8,0:0:0:0:
256,192,130619,5,8,0:0:0:0:
256,192,130723,5,0,0:0:0:0:
256,192,130828,5,8,0:0:0:0:
256,192,130880,5,8,0:0:0:0:
256,192,130932,5,0,0:0:0:0:
256,192,131036,5,8,0:0:0:0:
256,192,131140,5,0,0:0:0:0:
256,192,131244,5,8,0:0:0:0:
256,192,131348,5,8,0:0:0:0:
256,192,131453,5,0,0:0:0:0:
256,192,131557,5,8,0:0:0:0:
256,192,131661,5,0,0:0:0:0:
256,192,131765,5,0,0:0:0:0:
256,192,131869,5,8,0:0:0:0:
256,192,131973,5,8,0:0:0:0:
256,192,132078,5,0,0:0:0:0:
256,192,132182,5,8,0:0:0:0:
256,192,132286,5,0,0:0:0:0:
256,192,132390,5,0,0:0:0:0:
256,192,132494,5,8,0:0:0:0:
256,192,132546,5,8,0:0:0:0:
256,192,132598,5,8,0:0:0:0:
256,192,132650,5,8,0:0:0:0:
256,192,132703,5,0,0:0:0:0:
256,192,132755,5,0,0:0:0:0:
256,192,132807,5,0,0:0:0:0:
256,192,132859,5,0,0:0:0:0:
256,192,132911,5,8,0:0:0:0:
256,192,133015,5,8,0:0:0:0:
256,192,133119,5,8,0:0:0:0:
256,192,133223,5,0,0:0:0:0:
256,192,133328,5,0,0:0:0:0:
256,192,133432,5,0,0:0:0:0:
256,192,133536,5,8,0:0:0:0:
256,192,133640,5,0,0:0:0:0:
256,192,133744,5,0,0:0:0:0:
256,192,133848,5,8,0:0:0:0:
256,192,133953,5,0,0:0:0:0:
256,192,134057,5,8,0:0:0:0:
256,192,134161,5,0,0:0:0:0:
256,192,134265,5,8,0:0:0:0:
256,192,134369,5,8,0:0:0:0:
256,192,134473,5,8,0:0:0:0:
256,192,134578,5,0,0:0:0:0:
256,192,134630,5,0,0:0:0:0:
256,192,134682,5,0,0:0:0:0:
256,192,134734,5,0,0:0:0:0:
256,192,134786,5,0,0:0:0:0:
256,192,134838,5,0,0:0:0:0:
256,192,134890,5,0,0:0:0:0:
256,192,134942,5,0,0:0:0:0:
256,192,134994,5,8,0:0:0:0:
256,192,135098,5,0,0:0:0:0:
256,192,135203,5,8,0:0:0:0:
256,192,135307,5,8,0:0:0:0:
256,192,135411,5,0,0:0:0:0:
256,192,135515,5,8,0:0:0:0:
256,192,135619,5,0,0:0:0:0:
256,192,135723,5,0,0:0:0:0:
256,192,135828,5,8,0:0:0:0:
256,192,135932,5,8,0:0:0:0:
256,192,136036,5,0,0:0:0:0:
256,192,136140,5,0,0:0:0:0:
256,192,136192,5,0,0:0:0:0:
256,192,136244,5,8,0:0:0:0:
256,192,136348,5,0,0:0:0:0:
256,192,136452,5,0,0:0:0:0:
256,192,136556,5,8,0:0:0:0:
256,192,136660,5,0,0:0:0:0:
256,192,136764,5,0,0:0:0:0:
256,192,136869,5,8,0:0:0:0:
256,192,136973,5,8,0:0:0:0:
256,192,137077,5,0,0:0:0:0:
256,192,137181,5,8,0:0:0:0:
256,192,137285,5,0,0:0:0:0:
256,192,137389,5,0,0:0:0:0:
256,192,137494,5,8,0:0:0:0:
256,192,137598,5,8,0:0:0:0:
256,192,137702,5,8,0:0:0:0:
256,192,137806,5,0,0:0:0:0:
256,192,137910,5,0,0:0:0:0:
256,192,138014,5,0,0:0:0:0:
256,192,138119,5,8,0:0:0:0:
256,192,138223,5,0,0:0:0:0:
256,192,138327,5,8,0:0:0:0:
256,192,138431,5,8,0:0:0:0:
256,192,138535,5,0,0:0:0:0:
256,192,138639,5,0,0:0:0:0:
256,192,138744,5,8,0:0:0:0:
256,192,138848,5,0,0:0:0:0:
256,192,138952,5,8,0:0:0:0:
256,192,139056,5,8,0:0:0:0:
256,192,139160,5,0,0:0:0:0:
256,192,139264,5,0,0:0:0:0:
256,192,139369,5,8,0:0:0:0:
256,192,139473,5,8,0:0:0:0:
256,192,139577,5,0,0:0:0:0:
256,192,139681,5,0,0:0:0:0:
256,192,139785,5,0,0:0:0:0:
256,192,139889,5,8,0:0:0:0:
256,192,139994,5,0,0:0:0:0:
256,192,140202,5,8,0:0:0:0:
256,192,140254,5,0,0:0:0:0:
256,192,140306,5,0,0:0:0:0:
256,192,140358,5,0,0:0:0:0:
256,192,140410,5,8,0:0:0:0:
256,192,140514,5,0,0:0:0:0:
256,192,140619,5,8,0:0:0:0:
256,192,140827,5,0,0:0:0:0:
256,192,140879,5,0,0:0:0:0:
256,192,140931,5,8,0:0:0:0:
256,192,140983,5,0,0:0:0:0:
256,192,141035,5,8,0:0:0:0:
256,192,141139,5,0,0:0:0:0:
256,192,141244,5,8,0:0:0:0:
256,192,141452,5,0,0:0:0:0:
256,192,141504,5,8,0:0:0:0:
256,192,141556,5,0,0:0:0:0:
256,192,141608,5,0,0:0:0:0:
256,192,141660,5,8,0:0:0:0:
256,192,141764,5,0,0:0:0:0:
256,192,141869,5,8,0:0:0:0:
256,192,142077,5,8,0:0:0:0:
256,192,142181,5,0,0:0:0:0:
256,192,142285,5,8,0:0:0:0:
256,192,142389,5,8,0:0:0:0:
256,192,142494,5,4,0:0:0:0:
256,192,142910,5,8,0:0:0:0:
256,192,142979,5,8,0:0:0:0:
256,192,143048,5,8,0:0:0:0:
256,192,143118,5,0,0:0:0:0:
256,192,143187,5,0,0:0:0:0:
256,192,143257,5,0,0:0:0:0:
256,192,143326,5,8,0:0:0:0:
256,192,143430,5,8,0:0:0:0:
256,192,143743,5,8,0:0:0:0:
256,192,143812,5,0,0:0:0:0:
256,192,143882,5,0,0:0:0:0:
256,192,143951,5,8,0:0:0:0:
256,192,144021,5,0,0:0:0:0:
256,192,144090,5,0,0:0:0:0:
256,192,144160,5,8,0:0:0:0:
256,192,144264,5,0,0:0:0:0:
256,192,144576,5,8,0:0:0:0:
256,192,144646,5,0,0:0:0:0:
256,192,144715,5,0,0:0:0:0:
256,192,144785,5,8,0:0:0:0:
256,192,144854,5,8,0:0:0:0:
256,192,144923,5,0,0:0:0:0:
256,192,144993,5,8,0:0:0:0:
256,192,145062,5,8,0:0:0:0:
256,192,145132,5,8,0:0:0:0:
256,192,145201,5,0,0:0:0:0:
256,192,145271,5,0,0:0:0:0:
256,192,145340,5,0,0:0:0:0:
256,192,145410,5,8,0:0:0:0:
256,192,145479,5,8,0:0:0:0:
256,192,145548,5,8,0:0:0:0:
256,192,145618,5,8,0:0:0:0:
256,192,145687,5,0,0:0:0:0:
256,192,145757,5,0,0:0:0:0:
256,192,145826,5,8,0:0:0:0:
256,192,145930,5,0,0:0:0:0:
256,192,146243,5,4,0:0:0:0:
256,192,146451,5,0,0:0:0:0:
256,192,146503,5,0,0:0:0:0:
256,192,146555,5,8,0:0:0:0:
256,192,146660,5,0,0:0:0:0:
256,192,146764,5,0,0:0:0:0:
256,192,146868,5,8,0:0:0:0:
256,192,146920,5,0,0:0:0:0:
256,192,146972,5,0,0:0:0:0:
256,192,147024,5,0,0:0:0:0:
256,192,147076,5,8,0:0:0:0:
256,192,147180,5,8,0:0:0:0:
256,192,147285,5,0,0:0:0:0:
256,192,147337,5,8,0:0:0:0:
256,192,147389,5,0,0:0:0:0:
256,192,147441,5,0,0:0:0:0:
256,192,147493,5,8,0:0:0:0:
256,192,147597,5,0,0:0:0:0:
256,192,147701,5,8,0:0:0:0:
256,192,147805,5,8,0:0:0:0:
256,192,147910,5,4,0:0:0:0:
256,192,148048,5,0,0:0:0:0:
256,192,148118,5,0,0:0:0:0:
256,192,148187,5,0,0:0:0:0:
256,192,148326,5,8,0:0:0:0:
256,192,148465,5,8,0:0:0:0:
256,192,148535,5,8,0:0:0:0:
256,192,148604,5,0,0:0:0:0:
256,192,148743,5,8,0:0:0:0:
256,192,148882,5,8,0:0:0:0:
256,192,148951,5,8,0:0:0:0:
256,192,149021,5,0,0:0:0:0:
256,192,149090,5,0,0:0:0:0:
256,192,149160,5,8,0:0:0:0:
256,192,149298,5,8,0:0:0:0:
256,192,149368,5,0,0:0:0:0:
256,192,149437,5,8,0:0:0:0:
256,192,149576,5,4,0:0:0:0:
256,192,149785,5,0,0:0:0:0:
256,192,149837,5,0,0:0:0:0:
256,192,149889,5,0,0:0:0:0:
256,192,149941,5,0,0:0:0:0:
256,192,149993,5,8,0:0:0:0:
256,192,150097,5,0,0:0:0:0:
256,192,150201,5,8,0:0:0:0:
256,192,150410,5,8,0:0:0:0:
256,192,150462,5,8,0:0:0:0:
256,192,150514,5,8,0:0:0:0:
256,192,150566,5,8,0:0:0:0:
256,192,150618,5,0,0:0:0:0:
256,192,150722,5,0,0:0:0:0:
256,192,150826,5,8,0:0:0:0:
256,192,151035,5,0,0:0:0:0:
256,192,151087,5,8,0:0:0:0:
256,192,151139,5,0,0:0:0:0:
256,192,151191,5,0,0:0:0:0:
256,192,151243,5,8,0:0:0:0:
256,192,151347,5,8,0:0:0:0:
256,192,151451,5,0,0:0:0:0:
256,192,151660,5,0,0:0:0:0:
256,192,151712,5,0,0:0:0:0:
256,192,151764,5,8,0:0:0:0:
256,192,151816,5,0,0:0:0:0:
256,192,151868,5,0,0:0:0:0:
256,192,151972,5,0,0:0:0:0:
256,192,152076,5,8,0:0:0:0:
256,192,152285,5,0,0:0:0:0:
256,192,152337,5,0,0:0:0:0:
256,192,152389,5,0,0:0:0:0:
256,192,152441,5,0,0:0:0:0:
256,192,152493,5,0,0:0:0:0:
256,192,152597,5,0,0:0:0:0:
256,192,152701,5,8,0:0:0:0:
256,192,152805,5,0,0:0:0:0:
256,192,152909,5,8,0:0:0:0:
256,192,153014,5,8,0:0:0:0:
256,192,153118,5,0,0:0:0:0:
256,192,153222,5,0,0:0:0:0:
256,192,153326,5,8,0:0:0:0:
256,192,153534,5,0,0:0:0:0:
256,192,153587,5,0,0:0:0:0:
256,192,153639,5,0,0:0:0:0:
256,192,153691,5,0,0:0:0:0:
256,192,153743,5,8,0:0:0:0:
256,192,153847,5,0,0:0:0:0:
256,192,153951,5,12,0:0:0:0:
256,192,154159,5,0,0:0:0:0:
256,192,154212,5,0,0:0:0:0:
256,192,154264,5,8,0:0:0:0:
256,192,154316,5,8,0:0:0:0:
256,192,154368,5,0,0:0:0:0:
256,192,154472,5,0,0:0:0:0:
256,192,154576,5,8,0:0:0:0:
256,192,154646,5,8,0:0:0:0:
256,192,154715,5,8,0:0:0:0:
256,192,154784,5,0,0:0:0:0:
256,192,154837,5,0,0:0:0:0:
256,192,154889,5,0,0:0:0:0:
256,192,154941,5,0,0:0:0:0:
256,192,154993,5,8,0:0:0:0:
256,192,155097,5,8,0:0:0:0:
256,192,155201,5,4,0:0:0:0:
256,192,155409,5,8,0:0:0:0:
256,192,155514,5,8,0:0:0:0:
256,192,155618,5,8,0:0:0:0:
256,192,155722,5,8,0:0:0:0:
256,192,155826,5,4,0:0:0:0:
256,192,156243,5,0,0:0:0:0:
256,192,156312,5,0,0:0:0:0:
256,192,156382,5,0,0:0:0:0:
256,192,156451,5,8,0:0:0:0:
256,192,156521,5,0,0:0:0:0:
256,192,156590,5,0,0:0:0:0:
256,192,156659,5,8,0:0:0:0:
256,192,156729,5,8,0:0:0:0:
256,192,156798,5,0,0:0:0:0:
256,192,156868,5,8,0:0:0:0:
256,192,156937,5,8,0:0:0:0:
256,192,157007,5,0,0:0:0:0:
256,192,157076,5,8,0:0:0:0:
256,192,157146,5,0,0:0:0:0:
256,192,157215,5,0,0:0:0:0:
256,192,157284,5,8,0:0:0:0:
256,192,157354,5,8,0:0:0:0:
256,192,157423,5,0,0:0:0:0:
256,192,157493,5,8,0:0:0:0:
256,192,157562,5,8,0:0:0:0:
256,192,157632,5,0,0:0:0:0:
256,192,157701,5,8,0:0:0:0:
256,192,157771,5,0,0:0:0:0:
256,192,157840,5,0,0:0:0:0:
256,192,157909,5,8,0:0:0:0:
256,192,157979,5,8,0:0:0:0:
256,192,158048,5,8,0:0:0:0:
256,192,158118,5,0,0:0:0:0:
256,192,158187,5,0,0:0:0:0:
256,192,158257,5,0,0:0:0:0:
256,192,158326,5,8,0:0:0:0:
256,192,158396,5,0,0:0:0:0:
256,192,158465,5,0,0:0:0:0:
256,192,158534,5,8,0:0:0:0:
256,192,158587,5,8,0:0:0:0:
256,192,158639,5,0,0:0:0:0:
256,192,158691,5,0,0:0:0:0:
256,192,158743,5,8,0:0:0:0:
256,192,158951,5,0,0:0:0:0:
256,192,159055,5,0,0:0:0:0:
256,192,159159,5,0,0:0:0:0:
256,192,159264,5,8,0:0:0:0:
256,192,159368,5,0,0:0:0:0:
256,192,159472,5,0,0:0:0:0:
256,192,159576,5,8,0:0:0:0:
256,192,159680,5,8,0:0:0:0:
256,192,159784,5,8,0:0:0:0:
256,192,159889,5,0,0:0:0:0:
256,192,159993,5,8,0:0:0:0:
256,192,160097,5,8,0:0:0:0:
256,192,160201,5,0,0:0:0:0:
256,192,160305,5,0,0:0:0:0:
256,192,160409,5,8,0:0:0:0:
256,192,160479,5,8,0:0:0:0:
256,192,160548,5,8,0:0:0:0:
256,192,160618,5,0,0:0:0:0:
256,192,160687,5,0,0:0:0:0:
256,192,160757,5,0,0:0:0:0:
256,192,160826,5,8,0:0:0:0:
256,192,160930,5,8,0:0:0:0:
256,192,161034,5,0,0:0:0:0:
256,192,161139,5,0,0:0:0:0:
256,192,161243,5,0,0:0:0:0:
256,192,161347,5,8,0:0:0:0:
256,192,161451,5,8,0:0:0:0:
256,192,161555,5,8,0:0:0:0:
256,192,161659,5,0,0:0:0:0:
256,192,161764,5,8,0:0:0:0:
256,192,161868,5,8,0:0:0:0:
256,192,161920,5,0,0:0:0:0:
256,192,161972,5,0,0:0:0:0:
256,192,162024,5,0,0:0:0:0:
256,192,162076,5,8,0:0:0:0:
256,192,162180,5,0,0:0:0:0:
256,192,162284,5,8,0:0:0:0:
256,192,162337,5,8,0:0:0:0:
256,192,162389,5,8,0:0:0:0:
256,192,162441,5,8,0:0:0:0:
256,192,162493,5,0,0:0:0:0:
256,192,162597,5,8,0:0:0:0:
256,192,162701,5,8,0:0:0:0:
256,192,162805,5,0,0:0:0:0:
256,192,162909,5,8,0:0:0:0:
256,192,163014,5,0,0:0:0:0:
256,192,163118,5,0,0:0:0:0:
256,192,163222,5,0,0:0:0:0:
256,192,163326,5,8,0:0:0:0:
256,192,163430,5,8,0:0:0:0:
256,192,163534,5,0,0:0:0:0:
256,192,163639,5,0,0:0:0:0:
256,192,163743,5,8,0:0:0:0:
256,192,163847,5,0,0:0:0:0:
256,192,163951,5,0,0:0:0:0:
256,192,164055,5,0,0:0:0:0:
256,192,164159,5,8,0:0:0:0:
256,192,164264,5,8,0:0:0:0:
256,192,164368,5,0,0:0:0:0:
256,192,164472,5,0,0:0:0:0:
256,192,164576,5,8,0:0:0:0:
256,192,164680,5,8,0:0:0:0:
256,192,164784,5,8,0:0:0:0:
256,192,164889,5,8,0:0:0:0:
256,192,164993,5,0,0:0:0:0:
256,192,165097,5,0,0:0:0:0:
256,192,165201,5,0,0:0:0:0:
256,192,165305,5,0,0:0:0:0:
256,192,165409,5,8,0:0:0:0:
256,192,165514,5,0,0:0:0:0:
256,192,165618,5,0,0:0:0:0:
256,192,165722,5,0,0:0:0:0:
256,192,165826,5,8,0:0:0:0:
256,192,165930,5,8,0:0:0:0:
256,192,166034,5,8,0:0:0:0:
256,192,166139,5,0,0:0:0:0:
256,192,166243,5,8,0:0:0:0:
256,192,166347,5,8,0:0:0:0:
256,192,166451,5,8,0:0:0:0:
256,192,166555,5,4,0:0:0:0:
256,192,166868,5,0,0:0:0:0:
256,192,166972,5,0,0:0:0:0:
256,192,167076,5,0,0:0:0:0:
256,192,167180,5,12,0:0:0:0:
256,192,167493,5,0,0:0:0:0:
256,192,167545,5,0,0:0:0:0:
256,192,167597,5,0,0:0:0:0:
256,192,167701,5,0,0:0:0:0:
256,192,167805,5,12,0:0:0:0:
256,192,168118,5,0,0:0:0:0:
256,192,168170,5,0,0:0:0:0:
256,192,168222,5,8,0:0:0:0:
256,192,168274,5,8,0:0:0:0:
256,192,168326,5,0,0:0:0:0:
256,192,168430,5,0,0:0:0:0:
256,192,168534,5,8,0:0:0:0:
256,192,168638,5,0,0:0:0:0:
256,192,168743,5,12,0:0:0:0:
256,192,168847,5,0,0:0:0:0:
256,192,168951,5,0,0:0:0:0:
256,192,169055,5,12,0:0:0:0:
256,192,169159,5,0,0:0:0:0:
256,192,169263,5,0,0:0:0:0:
256,192,169368,5,8,0:0:0:0:
256,192,169472,5,8,0:0:0:0:
256,192,169576,5,0,0:0:0:0:
256,192,169645,5,0,0:0:0:0:
256,192,169715,5,0,0:0:0:0:
256,192,169784,5,0,0:0:0:0:
256,192,169854,5,0,0:0:0:0:
256,192,169923,5,0,0:0:0:0:
256,192,169993,5,8,0:0:0:0:
256,192,170062,5,8,0:0:0:0:
256,192,170131,5,0,0:0:0:0:
256,192,170201,5,8,0:0:0:0:
256,192,170270,5,8,0:0:0:0:
256,192,170340,5,8,0:0:0:0:
256,192,170409,5,0,0:0:0:0:
256,192,170479,5,0,0:0:0:0:
256,192,170548,5,0,0:0:0:0:
256,192,170618,5,0,0:0:0:0:
256,192,170687,5,0,0:0:0:0:
256,192,170756,5,0,0:0:0:0:
256,192,170826,5,8,0:0:0:0:
256,192,170895,5,0,0:0:0:0:
256,192,170965,5,0,0:0:0:0:
256,192,171034,5,8,0:0:0:0:
256,192,171104,5,0,0:0:0:0:
256,192,171173,5,0,0:0:0:0:
256,192,171243,5,8,0:0:0:0:
256,192,171312,5,8,0:0:0:0:
256,192,171381,5,8,0:0:0:0:
256,192,171451,5,8,0:0:0:0:
256,192,171520,5,0,0:0:0:0:
256,192,171590,5,0,0:0:0:0:
256,192,171659,5,8,0:0:0:0:
256,192,171729,5,0,0:0:0:0:
256,192,171798,5,0,0:0:0:0:
256,192,171868,5,8,0:0:0:0:
256,192,171937,5,8,0:0:0:0:
256,192,172006,5,8,0:0:0:0:
256,192,172076,5,0,0:0:0:0:
256,192,172145,5,0,0:0:0:0:
256,192,172215,5,0,0:0:0:0:
256,192,172284,5,8,0:0:0:0:
256,192,172354,5,8,0:0:0:0:
256,192,172423,5,0,0:0:0:0:
256,192,172493,5,8,0:0:0:0:
256,192,172562,5,0,0:0:0:0:
256,192,172631,5,0,0:0:0:0:
256,192,172701,5,8,0:0:0:0:
256,192,172770,5,8,0:0:0:0:
256,192,172840,5,8,0:0:0:0:
256,192,172909,5,0,0:0:0:0:
256,192,173013,5,0,0:0:0:0:
256,192,173117,5,0,0:0:0:0:
256,192,173221,5,12,0:0:0:0:
256,192,173534,5,0,0:0:0:0:
256,192,173638,5,0,0:0:0:0:
256,192,173742,5,0,0:0:0:0:
256,192,173846,5,12,0:0:0:0:
256,192,174159,5,8,0:0:0:0:
256,192,174211,5,8,0:0:0:0:
256,192,174263,5,8,0:0:0:0:
256,192,174367,5,0,0:0:0:0:
256,192,174471,5,12,0:0:0:0:
256,192,174784,5,0,0:0:0:0:
256,192,174853,5,0,0:0:0:0:
256,192,174922,5,0,0:0:0:0:
256,192,174992,5,8,0:0:0:0:
256,192,175096,5,8,0:0:0:0:
256,192,175200,5,0,0:0:0:0:
256,192,175304,5,0,0:0:0:0:
256,192,175409,5,12,0:0:0:0:
256,192,175513,5,0,0:0:0:0:
256,192,175617,5,0,0:0:0:0:
256,192,175721,5,12,0:0:0:0:
256,192,175825,5,0,0:0:0:0:
256,192,175929,5,0,0:0:0:0:
256,192,176034,5,8,0:0:0:0:
256,192,176086,5,8,0:0:0:0:
256,192,176138,5,8,0:0:0:0:
256,192,176190,5,8,0:0:0:0:
256,192,176242,5,0,0:0:0:0:
256,192,176294,5,0,0:0:0:0:
256,192,176346,5,0,0:0:0:0:
256,192,176398,5,0,0:0:0:0:
256,192,176450,5,12,0:0:0:0:
256,192,176554,5,0,0:0:0:0:
256,192,176659,5,0,0:0:0:0:
256,192,176763,5,8,0:0:0:0:
256,192,176867,5,0,0:0:0:0:
256,192,176971,5,8,0:0:0:0:
256,192,177284,5,8,0:0:0:0:
256,192,177353,5,8,0:0:0:0:
256,192,177422,5,0,0:0:0:0:
256,192,177492,5,8,0:0:0:0:
256,192,177561,5,8,0:0:0:0:
256,192,177631,5,0,0:0:0:0:
256,192,177700,5,8,0:0:0:0:
256,192,177804,5,8,0:0:0:0:
256,192,177909,5,0,0:0:0:0:
256,192,178013,5,8,0:0:0:0:
256,192,178117,5,0,0:0:0:0:
256,192,178950,5,4,0:0:0:0:
256,192,179054,5,8,0:0:0:0:
256,192,179159,5,0,0:0:0:0:
256,192,179263,5,0,0:0:0:0:
256,192,179367,5,8,0:0:0:0:
256,192,179471,5,8,0:0:0:0:
256,192,179575,5,0,0:0:0:0:
256,192,179679,5,0,0:0:0:0:
256,192,179784,5,8,0:0:0:0:
256,192,179836,5,8,0:0:0:0:
256,192,179888,5,8,0:0:0:0:
256,192,179992,5,0,0:0:0:0:
256,192,180096,5,8,0:0:0:0:
256,192,180200,5,8,0:0:0:0:
256,192,180304,5,0,0:0:0:0:
256,192,180409,5,8,0:0:0:0:
256,192,180513,5,0,0:0:0:0:
256,192,180617,5,8,0:0:0:0:
256,192,180721,5,8,0:0:0:0:
256,192,180825,5,0,0:0:0:0:
256,192,180929,5,0,0:0:0:0:
256,192,181034,5,8,0:0:0:0:
256,192,181086,5,0,0:0:0:0:
256,192,181138,5,0,0:0:0:0:
256,192,181190,5,0,0:0:0:0:
256,192,181242,5,8,0:0:0:0:
256,192,181450,5,8,0:0:0:0:
256,192,181554,5,8,0:0:0:0:
256,192,181659,5,0,0:0:0:0:
256,192,181763,5,8,0:0:0:0:
256,192,181867,5,8,0:0:0:0:
256,192,181971,5,0,0:0:0:0:
256,192,182075,5,0,0:0:0:0:
256,192,182179,5,0,0:0:0:0:
256,192,182284,5,8,0:0:0:0:
256,192,182336,5,8,0:0:0:0:
256,192,182388,5,0,0:0:0:0:
256,192,182492,5,8,0:0:0:0:
256,192,182596,5,0,0:0:0:0:
256,192,182700,5,8,0:0:0:0:
256,192,182752,5,8,0:0:0:0:
256,192,182804,5,8,0:0:0:0:
256,192,182909,5,0,0:0:0:0:
256,192,183013,5,0,0:0:0:0:
256,192,183117,5,8,0:0:0:0:
256,192,183221,5,8,0:0:0:0:
256,192,183325,5,8,0:0:0:0:
256,192,183429,5,0,0:0:0:0:
256,192,183534,5,8,0:0:0:0:
256,192,183638,5,8,0:0:0:0:
256,192,183742,5,8,0:0:0:0:
256,192,183846,5,8,0:0:0:0:
256,192,183950,5,0,0:0:0:0:
256,192,184054,5,8,0:0:0:0:
256,192,184159,5,0,0:0:0:0:
256,192,184211,5,0,0:0:0:0:
256,192,184263,5,0,0:0:0:0:
256,192,184315,5,0,0:0:0:0:
256,192,184367,5,8,0:0:0:0:
256,192,184471,5,8,0:0:0:0:
256,192,184575,5,0,0:0:0:0:
256,192,184679,5,0,0:0:0:0:
256,192,184784,5,8,0:0:0:0:
256,192,184888,5,8,0:0:0:0:
256,192,184992,5,8,0:0:0:0:
256,192,185096,5,0,0:0:0:0:
256,192,185200,5,8,0:0:0:0:
256,192,185304,5,8,0:0:0:0:
256,192,185409,5,8,0:0:0:0:
256,192,185513,5,0,0:0:0:0:
256,192,185617,5,8,0:0:0:0:
256,192,185721,5,8,0:0:0:0:
256,192,185825,5,8,0:0:0:0:
256,192,185929,5,8,0:0:0:0:
256,192,186034,5,0,0:0:0:0:
256,192,186138,5,0,0:0:0:0:
256,192,186242,5,8,0:0:0:0:
256,192,186346,5,0,0:0:0:0:
256,192,186450,5,8,0:0:0:0:
256,192,186554,5,8,0:0:0:0:
256,192,186659,5,0,0:0:0:0:
256,192,186763,5,0,0:0:0:0:
256,192,186867,5,8,0:0:0:0:
256,192,186971,5,8,0:0:0:0:
256,192,187075,5,8,0:0:0:0:
256,192,187179,5,0,0:0:0:0:
256,192,187283,5,8,0:0:0:0:
256,192,187336,5,8,0:0:0:0:
256,192,187388,5,8,0:0:0:0:
256,192,187440,5,8,0:0:0:0:
256,192,187492,5,0,0:0:0:0:
256,192,187544,5,0,0:0:0:0:
256,192,187596,5,0,0:0:0:0:
256,192,187648,5,0,0:0:0:0:
256,192,187700,5,8,0:0:0:0:
256,192,187804,5,8,0:0:0:0:
256,192,187908,5,0,0:0:0:0:
256,192,188013,5,0,0:0:0:0:
256,192,188117,5,8,0:0:0:0:
256,192,188186,5,0,0:0:0:0:
256,192,188256,5,0,0:0:0:0:
256,192,188325,5,8,0:0:0:0:
256,192,188395,5,8,0:0:0:0:
256,192,188464,5,0,0:0:0:0:
256,192,188533,5,8,0:0:0:0:
256,192,188603,5,8,0:0:0:0:
256,192,188672,5,0,0:0:0:0:
256,192,188742,5,8,0:0:0:0:
256,192,188811,5,0,0:0:0:0:
256,192,188881,5,0,0:0:0:0:
256,192,188950,5,8,0:0:0:0:
256,192,189020,5,0,0:0:0:0:
256,192,189089,5,0,0:0:0:0:
256,192,189158,5,8,0:0:0:0:
256,192,189228,5,8,0:0:0:0:
256,192,189297,5,0,0:0:0:0:
256,192,189367,5,8,0:0:0:0:
256,192,189436,5,0,0:0:0:0:
256,192,189506,5,0,0:0:0:0:
256,192,189575,5,8,0:0:0:0:
256,192,189645,5,8,0:0:0:0:
256,192,189714,5,8,0:0:0:0:
256,192,189783,5,0,0:0:0:0:
256,192,189922,5,0,0:0:0:0:
256,192,189992,5,0,0:0:0:0:
256,192,190061,5,0,0:0:0:0:
256,192,190131,5,0,0:0:0:0:
256,192,190200,5,8,0:0:0:0:
256,192,190304,5,8,0:0:0:0:
256,192,190408,5,0,0:0:0:0:
256,192,190513,5,0,0:0:0:0:
256,192,190617,5,8,0:0:0:0:
256,192,190686,5,8,0:0:0:0:
256,192,190756,5,8,0:0:0:0:
256,192,190825,5,0,0:0:0:0:
256,192,190895,5,0,0:0:0:0:
256,192,190964,5,0,0:0:0:0:
256,192,191033,5,8,0:0:0:0:
256,192,191138,5,8,0:0:0:0:
256,192,191242,5,8,0:0:0:0:
256,192,191346,5,8,0:0:0:0:
256,192,191450,5,0,0:0:0:0:
256,192,191554,5,8,0:0:0:0:
256,192,191658,5,0,0:0:0:0:
256,192,191763,5,8,0:0:0:0:
256,192,191867,5,0,0:0:0:0:
256,192,191971,5,0,0:0:0:0:
256,192,192075,5,8,0:0:0:0:
256,192,192179,5,8,0:0:0:0:
256,192,192283,5,0,0:0:0:0:
256,192,192336,1,0,0:0:0:0:
256,192,192388,5,8,0:0:0:0:
256,192,192492,5,8,0:0:0:0:
256,192,192596,5,0,0:0:0:0:
256,192,192700,5,8,0:0:0:0:
256,192,192752,5,8,0:0:0:0:
256,192,192804,5,8,0:0:0:0:
256,192,192908,5,0,0:0:0:0:
256,192,193013,5,0,0:0:0:0:
256,192,193117,5,8,0:0:0:0:
256,192,193221,5,8,0:0:0:0:
256,192,193325,5,8,0:0:0:0:
256,192,193429,5,0,0:0:0:0:
256,192,193533,5,8,0:0:0:0:
256,192,193638,5,0,0:0:0:0:
256,192,193742,5,8,0:0:0:0:
256,192,193846,5,8,0:0:0:0:
256,192,193950,5,0,0:0:0:0:
256,192,194054,5,8,0:0:0:0:
256,192,194158,5,0,0:0:0:0:
256,192,194263,5,0,0:0:0:0:
256,192,194367,5,8,0:0:0:0:
256,192,194471,5,8,0:0:0:0:
256,192,194575,5,0,0:0:0:0:
256,192,194679,5,0,0:0:0:0:
256,192,194783,5,8,0:0:0:0:
256,192,194888,5,8,0:0:0:0:
256,192,194992,5,8,0:0:0:0:
256,192,195096,5,0,0:0:0:0:
256,192,195200,5,8,0:0:0:0:
256,192,195304,5,8,0:0:0:0:
256,192,195408,5,0,0:0:0:0:
256,192,195513,5,0,0:0:0:0:
256,192,195617,5,8,0:0:0:0:
256,192,195721,5,8,0:0:0:0:
256,192,195825,5,0,0:0:0:0:
256,192,195877,5,0,0:0:0:0:
256,192,195929,5,0,0:0:0:0:
256,192,196033,5,8,0:0:0:0:
256,192,196138,5,8,0:0:0:0:
256,192,196242,5,0,0:0:0:0:
256,192,196346,5,8,0:0:0:0:
256,192,196450,5,8,0:0:0:0:
256,192,196554,5,8,0:0:0:0:
256,192,196658,5,0,0:0:0:0:
256,192,196763,5,0,0:0:0:0:
256,192,196867,5,8,0:0:0:0:
256,192,196971,5,0,0:0:0:0:
256,192,197075,5,8,0:0:0:0:
256,192,197179,5,0,0:0:0:0:
256,192,197283,5,8,0:0:0:0:
256,192,197388,5,8,0:0:0:0:
256,192,197492,5,0,0:0:0:0:
256,192,197596,5,0,0:0:0:0:
256,192,197700,5,0,0:0:0:0:
256,192,197804,5,0,0:0:0:0:
256,192,197908,5,0,0:0:0:0:
256,192,198013,5,0,0:0:0:0:
256,192,198117,5,8,0:0:0:0:
256,192,198221,5,8,0:0:0:0:
256,192,198325,5,8,0:0:0:0:
256,192,198429,5,0,0:0:0:0:
256,192,198533,5,8,0:0:0:0:
256,192,198638,5,0,0:0:0:0:
256,192,198742,5,8,0:0:0:0:
256,192,198846,5,0,0:0:0:0:
256,192,198950,5,8,0:0:0:0:
256,192,199054,5,8,0:0:0:0:
256,192,199158,5,8,0:0:0:0:
256,192,199263,5,8,0:0:0:0:
256,192,199367,5,0,0:0:0:0:
256,192,199471,5,0,0:0:0:0:
256,192,199575,5,8,0:0:0:0:
256,192,199679,5,8,0:0:0:0:
256,192,199783,5,0,0:0:0:0:
256,192,199853,5,0,0:0:0:0:
256,192,199922,5,0,0:0:0:0:
256,192,199992,5,8,0:0:0:0:
256,192,200061,5,0,0:0:0:0:
256,192,200131,5,0,0:0:0:0:
256,192,200200,5,8,0:0:0:0:
256,192,200270,5,8,0:0:0:0:
256,192,200339,5,8,0:0:0:0:
256,192,200408,5,0,0:0:0:0:
256,192,200478,5,0,0:0:0:0:
256,192,200547,5,0,0:0:0:0:
256,192,200617,5,8,0:0:0:0:
256,192,200721,5,8,0:0:0:0:
256,192,200825,5,8,0:0:0:0:
256,192,200929,5,8,0:0:0:0:
256,192,201033,5,0,0:0:0:0:
256,192,201138,5,0,0:0:0:0:
256,192,201242,5,8,0:0:0:0:
256,192,201346,5,0,0:0:0:0:
256,192,201450,5,8,0:0:0:0:
256,192,201554,5,8,0:0:0:0:
256,192,201658,5,8,0:0:0:0:
256,192,201763,5,8,0:0:0:0:
256,192,201867,5,0,0:0:0:0:
256,192,201971,5,0,0:0:0:0:
256,192,202075,5,8,0:0:0:0:
256,192,202179,5,0,0:0:0:0:
256,192,202283,5,8,0:0:0:0:
256,192,202388,5,8,0:0:0:0:
256,192,202492,5,8,0:0:0:0:
256,192,202596,5,0,0:0:0:0:
256,192,202700,5,8,0:0:0:0:
256,192,202804,5,8,0:0:0:0:
256,192,202908,5,0,0:0:0:0:
256,192,203013,5,0,0:0:0:0:
256,192,203117,5,8,0:0:0:0:
256,192,203186,5,8,0:0:0:0:
256,192,203256,5,0,0:0:0:0:
256,192,203325,5,0,0:0:0:0:
256,192,203395,5,0,0:0:0:0:
256,192,203464,5,0,0:0:0:0:
256,192,203533,5,8,0:0:0:0:
256,192,203603,5,8,0:0:0:0:
256,192,203672,5,8,0:0:0:0:
256,192,203742,5,0,0:0:0:0:
256,192,203811,5,0,0:0:0:0:
256,192,203881,5,0,0:0:0:0:
256,192,203950,5,8,0:0:0:0:
256,192,204054,5,8,0:0:0:0:
256,192,204158,5,8,0:0:0:0:
256,192,204263,5,8,0:0:0:0:
256,192,204367,5,0,0:0:0:0:
256,192,204575,5,0,0:0:0:0:
256,192,204783,5,8,0:0:0:0:
256,192,204888,5,0,0:0:0:0:
256,192,204992,5,0,0:0:0:0:
256,192,205200,5,8,0:0:0:0:
256,192,205304,5,8,0:0:0:0:
256,192,205408,5,0,0:0:0:0:
256,192,205617,5,8,0:0:0:0:
256,192,205721,5,8,0:0:0:0:
256,192,205825,5,0,0:0:0:0:
256,192,205929,5,8,0:0:0:0:
256,192,206033,5,8,0:0:0:0:
256,192,206138,5,0,0:0:0:0:
256,192,206242,5,0,0:0:0:0:
256,192,206346,5,0,0:0:0:0:
256,192,206450,5,8,0:0:0:0:
256,192,206520,5,8,0:0:0:0:
256,192,206589,5,0,0:0:0:0:
256,192,206658,5,8,0:0:0:0:
256,192,206728,5,0,0:0:0:0:
256,192,206797,5,0,0:0:0:0:
256,192,206867,5,8,0:0:0:0:
256,192,206936,5,8,0:0:0:0:
256,192,207006,5,8,0:0:0:0:
256,192,207075,5,0,0:0:0:0:
256,192,207145,5,0,0:0:0:0:
256,192,207214,5,0,0:0:0:0:
256,192,207283,5,8,0:0:0:0:
256,192,207353,5,8,0:0:0:0:
256,192,207422,5,8,0:0:0:0:
256,192,207492,5,8,0:0:0:0:
256,192,207561,5,0,0:0:0:0:
256,192,207631,5,0,0:0:0:0:
256,192,207700,5,8,0:0:0:0:
256,192,207770,5,0,0:0:0:0:
256,192,207839,5,0,0:0:0:0:
256,192,207908,5,8,0:0:0:0:
256,192,208013,5,0,0:0:0:0:
256,192,208117,5,8,0:0:0:0:
256,192,208221,5,8,0:0:0:0:
256,192,208325,5,8,0:0:0:0:
256,192,208429,5,0,0:0:0:0:
256,192,208533,5,8,0:0:0:0:
256,192,208638,5,8,0:0:0:0:
256,192,208742,5,0,0:0:0:0:
256,192,208846,5,0,0:0:0:0:
256,192,208950,5,8,0:0:0:0:
256,192,209054,5,8,0:0:0:0:
256,192,209158,5,0,0:0:0:0:
256,192,209263,5,0,0:0:0:0:
256,192,209367,5,8,0:0:0:0:
256,192,209471,5,8,0:0:0:0:
256,192,209575,5,0,0:0:0:0:
256,192,209679,5,0,0:0:0:0:
256,192,209783,5,8,0:0:0:0:
256,192,209888,5,0,0:0:0:0:
256,192,209992,5,0,0:0:0:0:
256,192,210096,5,8,0:0:0:0:
256,192,210200,5,8,0:0:0:0:
256,192,210304,5,8,0:0:0:0:
256,192,210408,5,0,0:0:0:0:
256,192,210513,5,0,0:0:0:0:
256,192,210617,5,8,0:0:0:0:
256,192,210669,1,8,0:0:0:0:
256,192,210721,5,8,0:0:0:0:
256,192,210773,1,8,0:0:0:0:
256,192,210825,5,0,0:0:0:0:
256,192,210877,5,0,0:0:0:0:
256,192,210929,5,0,0:0:0:0:
256,192,210981,5,0,0:0:0:0:
256,192,211033,5,8,0:0:0:0:
256,192,211103,5,0,0:0:0:0:
256,192,211172,5,0,0:0:0:0:
256,192,211242,5,8,0:0:0:0:
256,192,211311,5,0,0:0:0:0:
256,192,211381,5,0,0:0:0:0:
256,192,211450,5,8,0:0:0:0:
256,192,211554,5,0,0:0:0:0:
256,192,211658,5,8,0:0:0:0:
256,192,211763,5,0,0:0:0:0:
256,192,211867,5,8,0:0:0:0:
256,192,211971,5,8,0:0:0:0:
256,192,212075,5,8,0:0:0:0:
256,192,212179,5,0,0:0:0:0:
256,192,212283,5,8,0:0:0:0:
256,192,212388,5,8,0:0:0:0:
256,192,212492,5,0,0:0:0:0:
256,192,212596,5,8,0:0:0:0:
256,192,212700,5,0,0:0:0:0:
256,192,212804,5,0,0:0:0:0:
256,192,212908,5,8,0:0:0:0:
256,192,213013,5,0,0:0:0:0:
256,192,213117,5,8,0:0:0:0:
256,192,213221,5,0,0:0:0:0:
256,192,213325,5,0,0:0:0:0:
256,192,213429,5,0,0:0:0:0:
256,192,213533,5,8,0:0:0:0:
256,192,213638,5,8,0:0:0:0:
256,192,213742,5,0,0:0:0:0:
256,192,213846,5,0,0:0:0:0:
256,192,213950,5,8,0:0:0:0:
256,192,214002,5,8,0:0:0:0:
256,192,214054,5,8,0:0:0:0:
256,192,214106,5,8,0:0:0:0:
256,192,214158,5,0,0:0:0:0:
256,192,214263,5,0,0:0:0:0:
256,192,214315,5,0,0:0:0:0:
256,192,214367,5,8,0:0:0:0:
256,192,214471,5,8,0:0:0:0:
256,192,214575,5,0,0:0:0:0:
256,192,214679,5,0,0:0:0:0:
256,192,214783,5,8,0:0:0:0:
256,192,214853,5,0,0:0:0:0:
256,192,214922,5,0,0:0:0:0:
256,192,214992,5,8,0:0:0:0:
256,192,215061,5,0,0:0:0:0:
256,192,215131,5,0,0:0:0:0:
256,192,215200,5,8,0:0:0:0:
256,192,215270,5,8,0:0:0:0:
256,192,215339,5,0,0:0:0:0:
256,192,215408,5,8,0:0:0:0:
256,192,215478,5,8,0:0:0:0:
256,192,215547,5,8,0:0:0:0:
256,192,215617,5,0,0:0:0:0:
256,192,215686,5,0,0:0:0:0:
256,192,215756,5,0,0:0:0:0:
256,192,215825,5,8,0:0:0:0:
256,192,215895,5,0,0:0:0:0:
256,192,215964,5,0,0:0:0:0:
256,192,216033,5,8,0:0:0:0:
256,192,216103,5,0,0:0:0:0:
256,192,216172,5,0,0:0:0:0:
256,192,216242,5,8,0:0:0:0:
256,192,216311,5,8,0:0:0:0:
256,192,216381,5,0,0:0:0:0:
256,192,216450,5,8,0:0:0:0:
256,192,216658,5,0,0:0:0:0:
256,192,216711,5,0,0:0:0:0:
256,192,216763,5,0,0:0:0:0:
256,192,216815,5,0,0:0:0:0:
256,192,216867,5,8,0:0:0:0:
256,192,216971,5,0,0:0:0:0:
256,192,217075,5,8,0:0:0:0:
256,192,217179,5,0,0:0:0:0:
256,192,217283,5,8,0:0:0:0:
256,192,217353,5,0,0:0:0:0:
256,192,217422,5,0,0:0:0:0:
256,192,217492,5,8,0:0:0:0:
256,192,217561,5,0,0:0:0:0:
256,192,217631,5,0,0:0:0:0:
256,192,217700,5,8,0:0:0:0:
256,192,217804,5,8,0:0:0:0:
256,192,217908,5,0,0:0:0:0:
256,192,218013,5,8,0:0:0:0:
256,192,218117,5,12,0:0:0:0:
256,192,218221,5,0,0:0:0:0:
256,192,218325,5,0,0:0:0:0:
256,192,218429,5,0,0:0:0:0:
256,192,218533,5,8,0:0:0:0:
256,192,218638,5,0,0:0:0:0:
256,192,218742,5,0,0:0:0:0:
256,192,218846,5,0,0:0:0:0:
256,192,218950,5,8,0:0:0:0:
256,192,219054,5,0,0:0:0:0:
256,192,219158,5,0,0:0:0:0:
256,192,219263,5,8,0:0:0:0:
256,192,219367,5,0,0:0:0:0:
256,192,219471,5,0,0:0:0:0:
256,192,219575,5,8,0:0:0:0:
256,192,219627,5,0,0:0:0:0:
256,192,219679,5,0,0:0:0:0:
256,192,219731,5,0,0:0:0:0:
256,192,219783,5,8,0:0:0:0:
256,192,219888,5,8,0:0:0:0:
256,192,219992,5,0,0:0:0:0:
256,192,220096,5,0,0:0:0:0:
256,192,220200,5,8,0:0:0:0:
256,192,220304,5,0,0:0:0:0:
256,192,220408,5,8,0:0:0:0:
256,192,220513,5,0,0:0:0:0:
256,192,220617,5,12,0:0:0:0:
256,192,220721,5,0,0:0:0:0:
256,192,220825,5,0,0:0:0:0:
256,192,220929,5,8,0:0:0:0:
256,192,221033,5,0,0:0:0:0:
256,192,221138,5,0,0:0:0:0:
256,192,221242,5,8,0:0:0:0:
256,192,221346,5,0,0:0:0:0:
256,192,221450,5,8,0:0:0:0:
256,192,221554,5,8,0:0:0:0:
256,192,221658,5,0,0:0:0:0:
256,192,221763,5,8,0:0:0:0:
256,192,221867,5,8,0:0:0:0:
256,192,221971,5,0,0:0:0:0:
256,192,222075,5,8,0:0:0:0:
256,192,222179,5,0,0:0:0:0:
256,192,222283,5,8,0:0:0:0:
256,192,222388,5,8,0:0:0:0:
256,192,222492,5,0,0:0:0:0:
256,192,222596,5,0,0:0:0:0:
256,192,222700,5,0,0:0:0:0:
256,192,222804,5,0,0:0:0:0:
256,192,222908,5,8,0:0:0:0:
256,192,223013,5,0,0:0:0:0:
256,192,223117,5,8,0:0:0:0:
256,192,223221,5,8,0:0:0:0:
256,192,223325,5,8,0:0:0:0:
256,192,223429,5,0,0:0:0:0:
256,192,223533,5,0,0:0:0:0:
256,192,223638,5,0,0:0:0:0:
256,192,223742,5,8,0:0:0:0:
256,192,223846,5,0,0:0:0:0:
256,192,223950,5,8,0:0:0:0:
256,192,224054,5,0,0:0:0:0:
256,192,224158,5,8,0:0:0:0:
256,192,224211,5,8,0:0:0:0:
256,192,224263,5,0,0:0:0:0:
256,192,224315,5,0,0:0:0:0:
256,192,224367,5,0,0:0:0:0:
256,192,224471,5,0,0:0:0:0:
256,192,224575,5,8,0:0:0:0:
256,192,224679,5,0,0:0:0:0:
256,192,224783,5,8,0:0:0:0:
256,192,224888,5,8,0:0:0:0:
256,192,224992,5,8,0:0:0:0:
256,192,225096,5,0,0:0:0:0:
256,192,225200,5,8,0:0:0:0:
256,192,225304,5,8,0:0:0:0:
256,192,225408,5,8,0:0:0:0:
256,192,225513,5,0,0:0:0:0:
256,192,225617,5,8,0:0:0:0:
256,192,225721,5,8,0:0:0:0:
256,192,225825,5,8,0:0:0:0:
256,192,225929,5,8,0:0:0:0:
256,192,226033,5,0,0:0:0:0:
256,192,226138,5,0,0:0:0:0:
256,192,226242,5,8,0:0:0:0:
256,192,226346,5,8,0:0:0:0:
256,192,226450,5,0,0:0:0:0:
256,192,226554,5,8,0:0:0:0:
256,192,226658,5,8,0:0:0:0:
256,192,226763,5,0,0:0:0:0:
256,192,226867,5,8,0:0:0:0:
256,192,226971,5,8,0:0:0:0:
256,192,227075,5,8,0:0:0:0:
256,192,227179,5,0,0:0:0:0:
256,192,227231,5,0,0:0:0:0:
256,192,227283,5,8,0:0:0:0:
256,192,227388,5,0,0:0:0:0:
256,192,227492,5,8,0:0:0:0:
256,192,227561,5,8,0:0:0:0:
256,192,227631,5,8,0:0:0:0:
256,192,227700,5,0,0:0:0:0:
256,192,227804,5,0,0:0:0:0:
256,192,227908,5,8,0:0:0:0:
256,192,228013,5,8,0:0:0:0:
256,192,228117,5,0,0:0:0:0:
256,192,228186,5,0,0:0:0:0:
256,192,228256,5,8,0:0:0:0:
256,192,228325,5,8,0:0:0:0:
256,192,228395,5,0,0:0:0:0:
256,192,228464,5,0,0:0:0:0:
256,192,228533,5,8,0:0:0:0:
256,192,228672,5,8,0:0:0:0:
256,192,228811,5,8,0:0:0:0:
256,192,228950,5,8,0:0:0:0:
256,192,229020,5,0,0:0:0:0:
256,192,229089,5,8,0:0:0:0:
256,192,229158,1,8,0:0:0:0:
256,192,229228,5,0,0:0:0:0:
256,192,229297,5,0,0:0:0:0:
256,192,229367,5,8,0:0:0:0:
256,192,229436,5,0,0:0:0:0:
256,192,229506,5,8,0:0:0:0:
256,192,229575,5,8,0:0:0:0:
256,192,229645,5,0,0:0:0:0:
256,192,229783,5,0,0:0:0:0:
256,192,229853,5,8,0:0:0:0:
256,192,229922,5,0,0:0:0:0:
256,192,229992,5,0,0:0:0:0:
256,192,230061,5,8,0:0:0:0:
256,192,230131,5,0,0:0:0:0:
256,192,230200,5,8,0:0:0:0:
256,192,230270,5,8,0:0:0:0:
256,192,230339,5,0,0:0:0:0:
256,192,230408,5,8,0:0:0:0:
256,192,230478,5,0,0:0:0:0:
256,192,230547,5,0,0:0:0:0:
256,192,230617,5,8,0:0:0:0:
256,192,230756,5,8,0:0:0:0:
256,192,230825,5,8,0:0:0:0:
256,192,230895,5,8,0:0:0:0:
256,192,231033,5,8,0:0:0:0:
256,192,231172,5,8,0:0:0:0:
256,192,231311,5,8,0:0:0:0:
256,192,231450,5,4,0:0:0:0:
256,192,231866,5,8,0:0:0:0:
256,192,231936,5,0,0:0:0:0:
256,192,232005,5,8,0:0:0:0:
256,192,232075,5,0,0:0:0:0:
256,192,232144,5,8,0:0:0:0:
256,192,232213,5,0,0:0:0:0:
256,192,232283,5,8,0:0:0:0:
256,192,232352,5,8,0:0:0:0:
256,192,232422,5,8,0:0:0:0:
256,192,232491,5,8,0:0:0:0:
256,192,232561,5,0,0:0:0:0:
256,192,232630,5,0,0:0:0:0:
256,192,232700,5,8,0:0:0:0:
256,192,232769,5,8,0:0:0:0:
256,192,232838,5,8,0:0:0:0:
256,192,232908,5,8,0:0:0:0:
256,192,232977,5,8,0:0:0:0:
256,192,233047,5,8,0:0:0:0:
256,192,233116,5,0,0:0:0:0:
256,192,233186,5,0,0:0:0:0:
256,192,233255,5,8,0:0:0:0:
256,192,233325,5,0,0:0:0:0:
256,192,233394,5,8,0:0:0:0:
256,192,233463,5,8,0:0:0:0:
256,192,233533,5,0,0:0:0:0:
256,192,233602,5,0,0:0:0:0:
256,192,233672,5,8,0:0:0:0:
256,192,233741,5,8,0:0:0:0:
256,192,233811,5,8,0:0:0:0:
256,192,233880,5,0,0:0:0:0:
256,192,233950,5,8,0:0:0:0:
256,192,234019,5,8,0:0:0:0:
256,192,234088,5,8,0:0:0:0:
256,192,234158,5,8,0:0:0:0:
256,192,234227,5,8,0:0:0:0:
256,192,234297,5,8,0:0:0:0:
256,192,234366,5,0,0:0:0:0:
256,192,234436,5,0,0:0:0:0:
256,192,234505,5,8,0:0:0:0:
256,192,234575,5,0,0:0:0:0:
256,192,234644,5,8,0:0:0:0:
256,192,234713,5,0,0:0:0:0:
256,192,234783,5,8,0:0:0:0:
256,192,234852,5,8,0:0:0:0:
256,192,234922,5,0,0:0:0:0:
256,192,234991,5,0,0:0:0:0:
256,192,235061,5,8,0:0:0:0:
256,192,235130,5,8,0:0:0:0:
256,192,235200,5,0,0:0:0:0:
256,192,235269,5,0,0:0:0:0:
256,192,235338,5,0,0:0:0:0:
256,192,235408,5,0,0:0:0:0:
256,192,235477,5,0,0:0:0:0:
256,192,235547,5,0,0:0:0:0:
256,192,235616,5,8,0:0:0:0:
256,192,235686,5,8,0:0:0:0:
256,192,235755,5,0,0:0:0:0:
256,192,235825,5,0,0:0:0:0:
256,192,235894,5,0,0:0:0:0:
256,192,235963,5,0,0:0:0:0:
256,192,236033,5,8,0:0:0:0:
256,192,236102,5,8,0:0:0:0:
256,192,236172,5,8,0:0:0:0:
256,192,236241,5,8,0:0:0:0:
256,192,236311,5,0,0:0:0:0:
256,192,236380,5,0,0:0:0:0:
256,192,236450,5,8,0:0:0:0:
256,192,236519,5,8,0:0:0:0:
256,192,236588,5,8,0:0:0:0:
256,192,236658,5,8,0:0:0:0:
256,192,236727,5,8,0:0:0:0:
256,192,236797,5,8,0:0:0:0:
256,192,236866,5,0,0:0:0:0:
256,192,236936,5,0,0:0:0:0:
256,192,237005,5,8,0:0:0:0:
256,192,237075,5,0,0:0:0:0:
256,192,237144,5,8,0:0:0:0:
256,192,237213,5,0,0:0:0:0:
256,192,237283,5,8,0:0:0:0:
256,192,237352,5,8,0:0:0:0:
256,192,237422,5,8,0:0:0:0:
256,192,237491,5,8,0:0:0:0:
256,192,237561,5,0,0:0:0:0:
256,192,237630,5,0,0:0:0:0:
256,192,237700,5,8,0:0:0:0:
256,192,237769,5,8,0:0:0:0:
256,192,237838,5,8,0:0:0:0:
256,192,237908,5,8,0:0:0:0:
256,192,237977,5,0,0:0:0:0:
256,192,238047,5,0,0:0:0:0:
256,192,238116,5,8,0:0:0:0:
256,192,238186,5,0,0:0:0:0:
256,192,238255,5,8,0:0:0:0:
256,192,238325,5,0,0:0:0:0:
256,192,238394,5,0,0:0:0:0:
256,192,238463,5,0,0:0:0:0:
256,192,238533,5,8,0:0:0:0:
256,192,238602,5,8,0:0:0:0:
256,192,238672,5,8,0:0:0:0:
256,192,238741,5,8,0:0:0:0:
256,192,238811,5,0,0:0:0:0:
256,192,238880,5,0,0:0:0:0:
256,192,238950,5,8,0:0:0:0:
256,192,239019,5,8,0:0:0:0:
256,192,239088,5,8,0:0:0:0:
256,192,239158,5,8,0:0:0:0:
256,192,239227,5,8,0:0:0:0:
256,192,239297,5,8,0:0:0:0:
256,192,239366,5,0,0:0:0:0:
256,192,239436,5,0,0:0:0:0:
256,192,239505,5,0,0:0:0:0:
256,192,239575,5,0,0:0:0:0:
256,192,239644,5,0,0:0:0:0:
256,192,239713,5,0,0:0:0:0:
256,192,239783,5,8,0:0:0:0:
256,192,239852,5,0,0:0:0:0:
256,192,239922,5,8,0:0:0:0:
256,192,239991,5,8,0:0:0:0:
256,192,240061,5,0,0:0:0:0:
256,192,240130,5,0,0:0:0:0:
256,192,240200,5,8,0:0:0:0:
256,192,240269,5,8,0:0:0:0:
256,192,240338,5,0,0:0:0:0:
256,192,240408,5,0,0:0:0:0:
256,192,240477,5,8,0:0:0:0:
256,192,240547,5,8,0:0:0:0:
256,192,240616,5,8,0:0:0:0:
256,192,240686,5,8,0:0:0:0:
256,192,240755,5,0,0:0:0:0:
256,192,240825,5,8,0:0:0:0:
256,192,240894,5,0,0:0:0:0:
256,192,240963,5,0,0:0:0:0:
256,192,241033,5,8,0:0:0:0:
256,192,241102,5,8,0:0:0:0:
256,192,241172,5,8,0:0:0:0:
256,192,241241,5,8,0:0:0:0:
256,192,241311,5,8,0:0:0:0:
256,192,241380,5,8,0:0:0:0:
256,192,241450,5,4,0:0:0:0:
256,192,241866,5,8,0:0:0:0:
256,192,241936,5,0,0:0:0:0:
256,192,242005,5,0,0:0:0:0:
256,192,242075,5,8,0:0:0:0:
256,192,242144,5,0,0:0:0:0:
256,192,242213,5,0,0:0:0:0:
256,192,242283,5,8,0:0:0:0:
256,192,242352,5,8,0:0:0:0:
256,192,242422,5,8,0:0:0:0:
256,192,242491,5,8,0:0:0:0:
256,192,242561,5,8,0:0:0:0:
256,192,242630,5,8,0:0:0:0:
256,192,242700,5,0,0:0:0:0:
256,192,242769,5,0,0:0:0:0:
256,192,242838,5,8,0:0:0:0:
256,192,242908,5,0,0:0:0:0:
256,192,242977,5,8,0:0:0:0:
256,192,243047,5,0,0:0:0:0:
256,192,243116,5,8,0:0:0:0:
256,192,243186,5,8,0:0:0:0:
256,192,243255,5,0,0:0:0:0:
256,192,243325,5,0,0:0:0:0:
256,192,243394,5,0,0:0:0:0:
256,192,243463,5,0,0:0:0:0:
256,192,243533,5,8,0:0:0:0:
256,192,243602,5,0,0:0:0:0:
256,192,243672,5,0,0:0:0:0:
256,192,243741,5,8,0:0:0:0:
256,192,243811,5,0,0:0:0:0:
256,192,243880,5,0,0:0:0:0:
256,192,243950,5,8,0:0:0:0:
256,192,244019,5,8,0:0:0:0:
256,192,244088,5,8,0:0:0:0:
256,192,244158,5,0,0:0:0:0:
256,192,244227,5,8,0:0:0:0:
256,192,244297,5,0,0:0:0:0:
256,192,244366,5,8,0:0:0:0:
256,192,244436,5,0,0:0:0:0:
256,192,244505,5,0,0:0:0:0:
256,192,244575,5,8,0:0:0:0:
256,192,244644,5,0,0:0:0:0:
256,192,244713,5,0,0:0:0:0:
256,192,244783,5,8,0:0:0:0:
256,192,244852,5,8,0:0:0:0:
256,192,244922,5,8,0:0:0:0:
256,192,244991,5,8,0:0:0:0:
256,192,245061,5,0,0:0:0:0:
256,192,245130,5,0,0:0:0:0:
256,192,245200,5,8,0:0:0:0:
256,192,245269,5,8,0:0:0:0:
256,192,245338,5,0,0:0:0:0:
256,192,245408,5,0,0:0:0:0:
256,192,245477,5,0,0:0:0:0:
256,192,245547,5,0,0:0:0:0:
256,192,245616,5,8,0:0:0:0:
256,192,245686,5,0,0:0:0:0:
256,192,245755,5,8,0:0:0:0:
256,192,245825,5,0,0:0:0:0:
256,192,245894,5,8,0:0:0:0:
256,192,245963,5,0,0:0:0:0:
256,192,246033,5,8,0:0:0:0:
256,192,246102,5,8,0:0:0:0:
256,192,246172,5,0,0:0:0:0:
256,192,246241,5,8,0:0:0:0:
256,192,246311,5,0,0:0:0:0:
256,192,246380,5,0,0:0:0:0:
256,192,246450,5,8,0:0:0:0:
256,192,246519,5,8,0:0:0:0:
256,192,246588,5,8,0:0:0:0:
256,192,246658,5,0,0:0:0:0:
256,192,246727,5,0,0:0:0:0:
256,192,246797,5,0,0:0:0:0:
256,192,246866,5,8,0:0:0:0:
256,192,246936,5,8,0:0:0:0:
256,192,247005,5,8,0:0:0:0:
256,192,247075,5,0,0:0:0:0:
256,192,247144,5,0,0:0:0:0:
256,192,247213,5,0,0:0:0:0:
256,192,247283,5,8,0:0:0:0:
256,192,247352,5,8,0:0:0:0:
256,192,247422,5,8,0:0:0:0:
256,192,247491,5,8,0:0:0:0:
256,192,247561,5,0,0:0:0:0:
256,192,247630,5,0,0:0:0:0:
256,192,247700,5,8,0:0:0:0:
256,192,247769,5,8,0:0:0:0:
256,192,247838,5,8,0:0:0:0:
256,192,247908,5,8,0:0:0:0:
256,192,247977,5,0,0:0:0:0:
256,192,248047,5,0,0:0:0:0:
256,192,248116,5,8,0:0:0:0:
256,192,248186,5,0,0:0:0:0:
256,192,248255,5,8,0:0:0:0:
256,192,248325,5,0,0:0:0:0:
256,192,248394,5,8,0:0:0:0:
256,192,248463,5,0,0:0:0:0:
256,192,248533,5,8,0:0:0:0:
256,192,248602,5,8,0:0:0:0:
256,192,248672,5,0,0:0:0:0:
256,192,248741,5,8,0:0:0:0:
256,192,248811,5,0,0:0:0:0:
256,192,248880,5,0,0:0:0:0:
256,192,248950,5,8,0:0:0:0:
256,192,249019,5,8,0:0:0:0:
256,192,249088,5,8,0:0:0:0:
256,192,249158,5,8,0:0:0:0:
256,192,249227,5,0,0:0:0:0:
256,192,249297,5,0,0:0:0:0:
256,192,249366,5,8,0:0:0:0:
256,192,249436,5,0,0:0:0:0:
256,192,249505,5,0,0:0:0:0:
256,192,249575,5,8,0:0:0:0:
256,192,249644,5,8,0:0:0:0:
256,192,249713,5,8,0:0:0:0:
256,192,249783,5,0,0:0:0:0:
256,192,249852,5,0,0:0:0:0:
256,192,249922,5,0,0:0:0:0:
256,192,249991,5,8,0:0:0:0:
256,192,250061,5,0,0:0:0:0:
256,192,250130,5,0,0:0:0:0:
256,192,250200,5,8,0:0:0:0:
256,192,250269,5,8,0:0:0:0:
256,192,250338,5,8,0:0:0:0:
256,192,250408,5,8,0:0:0:0:
256,192,250477,5,8,0:0:0:0:
256,192,250547,5,8,0:0:0:0:
256,192,250616,5,0,0:0:0:0:
256,192,250686,5,0,0:0:0:0:
256,192,250755,5,0,0:0:0:0:
256,192,250825,5,0,0:0:0:0:
256,192,250894,5,0,0:0:0:0:
256,192,250963,5,0,0:0:0:0:
256,192,251033,5,8,0:0:0:0:
256,192,251102,5,8,0:0:0:0:
256,192,251172,5,0,0:0:0:0:
256,192,251241,5,0,0:0:0:0:
256,192,251311,5,8,0:0:0:0:
256,192,251380,5,8,0:0:0:0:
256,192,251450,5,0,0:0:0:0:
256,192,252908,5,0,0:0:0:0:
256,192,252960,5,0,0:0:0:0:
256,192,253012,5,0,0:0:0:0:
256,192,253064,5,0,0:0:0:0:
256,192,253116,5,8,0:0:0:0:
256,192,253325,5,8,0:0:0:0:
256,192,253533,5,8,0:0:0:0:
256,192,253741,5,8,0:0:0:0:
256,192,253950,5,0,0:0:0:0:
256,192,254019,5,0,0:0:0:0:
256,192,254088,5,0,0:0:0:0:
256,192,254158,5,8,0:0:0:0:
256,192,254227,5,0,0:0:0:0:
256,192,254297,5,0,0:0:0:0:
256,192,254366,5,8,0:0:0:0:
256,192,254436,5,0,0:0:0:0:
256,192,254505,5,0,0:0:0:0:
256,192,254575,5,8,0:0:0:0:
256,192,254644,5,8,0:0:0:0:
256,192,254713,5,8,0:0:0:0:
256,192,254783,5,0,0:0:0:0:
256,192,254852,5,0,0:0:0:0:
256,192,254922,5,0,0:0:0:0:
256,192,254991,5,8,0:0:0:0:
256,192,255061,5,0,0:0:0:0:
256,192,255130,5,0,0:0:0:0:
256,192,255200,5,8,0:0:0:0:
256,192,255269,5,8,0:0:0:0:
256,192,255338,5,8,0:0:0:0:
256,192,255408,5,0,0:0:0:0:
256,192,255477,5,8,0:0:0:0:
256,192,255547,5,8,0:0:0:0:
256,192,255616,5,0,0:0:0:0:
256,192,255686,5,0,0:0:0:0:
256,192,255755,5,8,0:0:0:0:
256,192,255825,5,0,0:0:0:0:
256,192,255894,5,0,0:0:0:0:
256,192,255963,5,0,0:0:0:0:
256,192,256033,5,8,0:0:0:0:
256,192,256102,5,0,0:0:0:0:
256,192,256172,5,8,0:0:0:0:
256,192,256241,5,0,0:0:0:0:
256,192,256311,5,8,0:0:0:0:
256,192,256380,5,0,0:0:0:0:
256,192,256450,5,12,0:0:0:0:
256,192,256866,5,8,0:0:0:0:
256,192,256936,5,0,0:0:0:0:
256,192,257005,5,8,0:0:0:0:
256,192,257075,5,0,0:0:0:0:
256,192,257144,5,8,0:0:0:0:
256,192,257213,5,0,0:0:0:0:
256,192,257283,5,8,0:0:0:0:
256,192,257352,5,8,0:0:0:0:
256,192,257422,5,8,0:0:0:0:
256,192,257491,5,8,0:0:0:0:
256,192,257561,5,0,0:0:0:0:
256,192,257630,5,0,0:0:0:0:
256,192,257700,5,8,0:0:0:0:
256,192,257769,5,0,0:0:0:0:
256,192,257838,5,8,0:0:0:0:
256,192,257908,5,8,0:0:0:0:
256,192,257977,5,0,0:0:0:0:
256,192,258047,5,0,0:0:0:0:
256,192,258116,5,8,0:0:0:0:
256,192,258186,5,8,0:0:0:0:
256,192,258255,5,8,0:0:0:0:
256,192,258325,5,0,0:0:0:0:
256,192,258394,5,0,0:0:0:0:
256,192,258463,5,0,0:0:0:0:
256,192,258533,5,8,0:0:0:0:
256,192,258602,5,0,0:0:0:0:
256,192,258672,5,8,0:0:0:0:
256,192,258741,5,0,0:0:0:0:
256,192,258811,5,8,0:0:0:0:
256,192,258880,5,0,0:0:0:0:
256,192,258950,5,8,0:0:0:0:
256,192,259019,5,8,0:0:0:0:
256,192,259088,5,0,0:0:0:0:
256,192,259158,5,8,0:0:0:0:
256,192,259227,5,0,0:0:0:0:
256,192,259297,5,0,0:0:0:0:
256,192,259366,5,8,0:0:0:0:
256,192,259436,5,8,0:0:0:0:
256,192,259505,5,0,0:0:0:0:
256,192,259575,5,0,0:0:0:0:
256,192,259644,5,8,0:0:0:0:
256,192,259713,5,0,0:0:0:0:
256,192,259783,5,8,0:0:0:0:
256,192,259852,5,0,0:0:0:0:
256,192,259922,5,0,0:0:0:0:
256,192,259991,5,0,0:0:0:0:
256,192,260061,5,0,0:0:0:0:
256,192,260130,5,0,0:0:0:0:
256,192,260200,5,8,0:0:0:0:
256,192,260269,5,8,0:0:0:0:
256,192,260338,5,8,0:0:0:0:
256,192,260408,5,8,0:0:0:0:
256,192,260477,5,8,0:0:0:0:
256,192,260547,5,8,0:0:0:0:
256,192,260616,5,0,0:0:0:0:
256,192,260686,5,0,0:0:0:0:
256,192,260755,5,0,0:0:0:0:
256,192,260825,5,0,0:0:0:0:
256,192,260894,5,8,0:0:0:0:
256,192,260963,5,8,0:0:0:0:
256,192,261033,5,0,0:0:0:0:
256,192,261450,5,0,0:0:0:0:
256,192,261519,5,0,0:0:0:0:
256,192,261588,5,0,0:0:0:0:
256,192,261658,5,0,0:0:0:0:
256,192,261727,5,0,0:0:0:0:
256,192,261797,5,0,0:0:0:0:
256,192,261866,5,8,0:0:0:0:
256,192,261936,5,0,0:0:0:0:
256,192,262005,5,0,0:0:0:0:
256,192,262075,5,0,0:0:0:0:
256,192,262144,5,0,0:0:0:0:
256,192,262213,5,0,0:0:0:0:
256,192,262283,5,8,0:0:0:0:
256,192,262352,5,8,0:0:0:0:
256,192,262422,5,0,0:0:0:0:
256,192,262491,5,0,0:0:0:0:
256,192,262561,5,0,0:0:0:0:
256,192,262630,5,0,0:0:0:0:
256,192,262700,5,8,0:0:0:0:
256,192,262769,5,8,0:0:0:0:
256,192,262838,5,8,0:0:0:0:
256,192,262908,5,8,0:0:0:0:
256,192,262977,5,0,0:0:0:0:
256,192,263047,5,0,0:0:0:0:
256,192,263116,5,8,0:0:0:0:
256,192,263186,5,8,0:0:0:0:
256,192,263255,5,8,0:0:0:0:
256,192,263325,5,8,0:0:0:0:
256,192,263394,5,0,0:0:0:0:
256,192,263463,5,0,0:0:0:0:
256,192,263533,5,8,0:0:0:0:
256,192,263602,5,8,0:0:0:0:
256,192,263672,5,8,0:0:0:0:
256,192,263741,5,8,0:0:0:0:
256,192,263811,5,0,0:0:0:0:
256,192,263880,5,0,0:0:0:0:
256,192,263950,5,8,0:0:0:0:
256,192,264019,5,8,0:0:0:0:
256,192,264088,5,8,0:0:0:0:
256,192,264158,5,8,0:0:0:0:
256,192,264227,5,8,0:0:0:0:
256,192,264297,5,8,0:0:0:0:
256,192,264366,5,0,0:0:0:0:
256,192,264436,5,0,0:0:0:0:
256,192,264505,5,0,0:0:0:0:
256,192,264575,5,0,0:0:0:0:
256,192,264644,5,0,0:0:0:0:
256,192,264713,5,0,0:0:0:0:
256,192,264783,5,8,0:0:0:0:
256,192,264852,5,0,0:0:0:0:
256,192,264922,5,0,0:0:0:0:
256,192,264991,5,0,0:0:0:0:
256,192,265061,5,0,0:0:0:0:
256,192,265130,5,0,0:0:0:0:
256,192,265200,5,8,0:0:0:0:
256,192,265269,5,8,0:0:0:0:
256,192,265338,5,8,0:0:0:0:
256,192,265408,5,8,0:0:0:0:
256,192,265477,5,0,0:0:0:0:
256,192,265547,5,0,0:0:0:0:
256,192,265616,5,8,0:0:0:0:
256,192,265686,5,8,0:0:0:0:
256,192,265755,5,8,0:0:0:0:
256,192,265825,5,8,0:0:0:0:
256,192,265894,5,0,0:0:0:0:
256,192,265963,5,0,0:0:0:0:
256,192,266033,5,8,0:0:0:0:
256,192,266102,5,8,0:0:0:0:
256,192,266172,5,8,0:0:0:0:
256,192,266241,5,8,0:0:0:0:
256,192,266311,5,8,0:0:0:0:
256,192,266380,5,8,0:0:0:0:
256,192,266450,5,0,0:0:0:0:
256,192,266588,5,8,0:0:0:0:
256,192,266727,5,0,0:0:0:0:
256,192,266866,5,8,0:0:0:0:
256,192,267005,5,0,0:0:0:0:
256,192,267144,5,8,0:0:0:0:
256,192,267283,5,0,0:0:0:0:
256,192,267422,5,8,0:0:0:0:
256,192,267561,5,0,0:0:0:0:
256,192,267700,5,12,0:0:0:0:
256,192,267838,5,8,0:0:0:0:
256,192,267977,5,0,0:0:0:0:
256,192,268116,5,0,0:0:0:0:
256,192,268186,5,0,0:0:0:0:
256,192,268255,5,0,0:0:0:0:
256,192,268325,5,8,0:0:0:0:
256,192,268394,5,0,0:0:0:0:
256,192,268463,5,0,0:0:0:0:
256,192,268533,5,8,0:0:0:0:
256,192,268637,5,0,0:0:0:0:
256,192,268741,5,0,0:0:0:0:
256,192,268845,5,8,0:0:0:0:
256,192,268950,5,4,0:0:0:0:
256,192,269575,5,0,0:0:0:0:
256,192,269991,5,0,0:0:0:0:
256,192,270200,5,0,0:0:0:0:
256,192,270408,5,0,0:0:0:0:
256,192,270825,5,0,0:0:0:0:
256,192,270877,5,0,0:0:0:0:
256,192,270929,5,0,0:0:0:0:
256,192,270981,5,0,0:0:0:0:
256,192,271033,5,8,0:0:0:0:
256,192,271137,5,8,0:0:0:0:
256,192,271241,5,8,0:0:0:0:
256,192,271345,5,8,0:0:0:0:
256,192,289991,5,0,0:0:0:0:
256,192,290043,5,0,0:0:0:0:
256,192,290095,5,0,0:0:0:0:
256,192,290200,5,8,0:0:0:0:
256,192,290408,5,8,0:0:0:0:
256,192,290616,5,8,0:0:0:0:
256,192,290825,5,8,0:0:0:0:
256,192,291033,5,8,0:0:0:0:
256,192,291241,5,8,0:0:0:0:
256,192,291450,5,12,0:0:0:0:
256,192,291658,5,0,0:0:0:0:
256,192,291866,5,0,0:0:0:0:
256,192,292075,5,8,0:0:0:0:
256,192,292700,5,12,0:0:0:0:
256,192,292908,5,8,0:0:0:0:
256,192,293116,5,8,0:0:0:0:
256,192,293325,5,0,0:0:0:0:
256,192,293950,5,4,0:0:0:0:
256,192,294158,5,8,0:0:0:0:
256,192,294366,5,8,0:0:0:0:
256,192,294575,5,0,0:0:0:0:
256,192,294991,5,0,0:0:0:0:
256,192,295043,5,0,0:0:0:0:
256,192,295095,5,0,0:0:0:0:
256,192,295147,5,0,0:0:0:0:
256,192,295200,5,8,0:0:0:0:
256,192,295408,5,0,0:0:0:0:
256,192,295616,5,8,0:0:0:0:
256,192,295825,5,0,0:0:0:0:
256,192,296450,5,12,0:0:0:0:
256,192,296658,5,0,0:0:0:0:
256,192,296762,5,0,0:0:0:0:
256,192,296866,5,8,0:0:0:0:
256,192,297283,5,0,0:0:0:0:
256,192,297491,5,0,0:0:0:0:
256,192,297700,5,8,0:0:0:0:
256,192,297804,5,0,0:0:0:0:
256,192,297908,5,0,0:0:0:0:
256,192,298012,5,0,0:0:0:0:
256,192,298116,5,8,0:0:0:0:
256,192,298220,5,0,0:0:0:0:
256,192,298325,5,8,0:0:0:0:
256,192,298429,5,8,0:0:0:0:
256,192,298533,5,0,0:0:0:0:
256,192,298741,5,0,0:0:0:0:
256,192,298950,5,8,0:0:0:0:
256,192,299054,5,0,0:0:0:0:
256,192,299158,5,0,0:0:0:0:
256,192,299262,5,0,0:0:0:0:
256,192,299366,5,8,0:0:0:0:
256,192,299783,5,0,0:0:0:0:
256,192,299991,5,0,0:0:0:0:
256,192,300043,5,0,0:0:0:0:
256,192,300095,5,0,0:0:0:0:
256,192,300147,5,0,0:0:0:0:
256,192,300200,5,8,0:0:0:0:
256,192,300408,5,8,0:0:0:0:
256,192,300616,5,8,0:0:0:0:
256,192,300825,5,8,0:0:0:0:
256,192,301033,5,0,0:0:0:0:
256,192,301241,5,0,0:0:0:0:
256,192,301450,5,12,0:0:0:0:
256,192,301658,5,0,0:0:0:0:
256,192,301866,5,0,0:0:0:0:
256,192,302075,5,8,0:0:0:0:
256,192,302700,5,12,0:0:0:0:
256,192,302908,5,8,0:0:0:0:
256,192,303116,5,8,0:0:0:0:
256,192,303325,5,0,0:0:0:0:
256,192,303950,5,4,0:0:0:0:
256,192,304158,5,8,0:0:0:0:
256,192,304366,5,8,0:0:0:0:
256,192,304575,5,0,0:0:0:0:
256,192,304991,5,0,0:0:0:0:
256,192,305043,5,0,0:0:0:0:
256,192,305095,5,0,0:0:0:0:
256,192,305147,5,0,0:0:0:0:
256,192,305200,5,8,0:0:0:0:
256,192,305408,5,8,0:0:0:0:
256,192,305616,5,0,0:0:0:0:
256,192,305825,5,0,0:0:0:0:
256,192,306033,5,0,0:0:0:0:
256,192,306137,5,0,0:0:0:0:
256,192,306241,5,8,0:0:0:0:
256,192,306345,5,0,0:0:0:0:
256,192,306450,5,8,0:0:0:0:
256,192,306554,5,8,0:0:0:0:
256,192,306658,5,8,0:0:0:0:
256,192,306762,5,8,0:0:0:0:
256,192,306866,5,0,0:0:0:0:
256,192,307283,5,0,0:0:0:0:
256,192,307491,5,0,0:0:0:0:
256,192,307700,5,8,0:0:0:0:
256,192,307804,5,0,0:0:0:0:
256,192,307908,5,0,0:0:0:0:
256,192,308012,5,0,0:0:0:0:
256,192,308116,5,8,0:0:0:0:
256,192,308220,5,8,0:0:0:0:
256,192,308325,5,0,0:0:0:0:
256,192,308533,5,8,0:0:0:0:
256,192,308741,5,0,0:0:0:0:
256,192,308950,5,8,0:0:0:0:
256,192,309054,5,0,0:0:0:0:
256,192,309158,5,0,0:0:0:0:
256,192,309262,5,0,0:0:0:0:
256,192,309366,5,0,0:0:0:0:
256,192,309783,5,0,0:0:0:0:
256,192,309852,5,0,0:0:0:0:
256,192,309922,5,0,0:0:0:0:
256,192,309991,5,0,0:0:0:0:
256,192,310061,5,0,0:0:0:0:
256,192,310130,5,0,0:0:0:0:
256,192,310200,5,8,0:0:0:0:
256,192,310304,5,8,0:0:0:0:
256,192,310408,5,0,0:0:0:0:
256,192,310512,5,0,0:0:0:0:
256,192,310616,5,8,0:0:0:0:
256,192,310720,5,0,0:0:0:0:
256,192,310825,5,8,0:0:0:0:
256,192,311033,5,4,0:0:0:0:
256,192,311241,5,4,0:0:0:0:
256,192,311450,5,12,0:0:0:0:
256,192,311658,5,0,0:0:0:0:
256,192,311866,5,0,0:0:0:0:
256,192,312075,5,8,0:0:0:0:
256,192,312491,5,0,0:0:0:0:
256,192,312543,5,0,0:0:0:0:
256,192,312595,5,0,0:0:0:0:
256,192,312647,5,0,0:0:0:0:
256,192,312700,5,8,0:0:0:0:
256,192,312908,5,0,0:0:0:0:
256,192,313116,5,8,0:0:0:0:
256,192,313325,5,0,0:0:0:0:
256,192,313741,5,0,0:0:0:0:
256,192,313793,5,0,0:0:0:0:
256,192,313845,5,0,0:0:0:0:
256,192,313897,5,0,0:0:0:0:
256,192,313950,5,8,0:0:0:0:
256,192,314158,5,8,0:0:0:0:
256,192,314366,5,8,0:0:0:0:
256,192,314575,5,0,0:0:0:0:
256,192,314991,5,0,0:0:0:0:
256,192,315043,5,8,0:0:0:0:
256,192,315095,5,0,0:0:0:0:
256,192,315147,5,0,0:0:0:0:
256,192,315200,5,8,0:0:0:0:
256,192,315408,5,8,0:0:0:0:
256,192,315616,5,0,0:0:0:0:
256,192,315825,5,8,0:0:0:0:
256,192,316033,5,0,0:0:0:0:
256,192,316137,5,0,0:0:0:0:
256,192,316241,5,8,0:0:0:0:
256,192,316345,5,0,0:0:0:0:
256,192,316450,5,8,0:0:0:0:
256,192,316554,5,0,0:0:0:0:
256,192,316658,5,8,0:0:0:0:
256,192,316762,5,8,0:0:0:0:
256,192,316866,5,0,0:0:0:0:
256,192,317283,5,0,0:0:0:0:
256,192,317491,5,0,0:0:0:0:
256,192,317700,5,8,0:0:0:0:
256,192,317804,5,0,0:0:0:0:
256,192,317908,5,0,0:0:0:0:
256,192,318012,5,0,0:0:0:0:
256,192,318116,5,8,0:0:0:0:
256,192,318220,5,8,0:0:0:0:
256,192,318325,5,8,0:0:0:0:
256,192,318429,5,8,0:0:0:0:
256,192,318533,5,0,0:0:0:0:
256,192,318637,5,0,0:0:0:0:
256,192,318741,5,0,0:0:0:0:
256,192,318845,5,0,0:0:0:0:
256,192,318950,5,8,0:0:0:0:
256,192,319054,5,8,0:0:0:0:
256,192,319158,5,0,0:0:0:0:
256,192,319366,5,8,0:0:0:0:
256,192,319783,5,0,0:0:0:0:
256,192,319852,5,0,0:0:0:0:
256,192,319922,5,0,0:0:0:0:
256,192,319991,5,8,0:0:0:0:
256,192,320061,5,0,0:0:0:0:
256,192,320130,5,0,0:0:0:0:
256,192,320200,5,8,0:0:0:0:
256,192,320304,5,8,0:0:0:0:
256,192,320408,5,0,0:0:0:0:
256,192,320616,5,8,0:0:0:0:
256,192,320825,5,0,0:0:0:0:
256,192,321033,5,8,0:0:0:0:
256,192,321137,5,8,0:0:0:0:
256,192,321241,5,0,0:0:0:0:
256,192,321345,5,0,0:0:0:0:
256,192,321450,5,8,0:0:0:0:
256,192,321502,5,0,0:0:0:0:
256,192,321554,5,0,0:0:0:0:
256,192,321606,5,0,0:0:0:0:
256,192,321658,5,8,0:0:0:0:
256,192,321762,5,8,0:0:0:0:
256,192,321866,5,0,0:0:0:0:
256,192,321970,5,0,0:0:0:0:
256,192,322075,5,8,0:0:0:0:
256,192,322179,5,8,0:0:0:0:
256,192,322283,5,0,0:0:0:0:
256,192,322387,5,8,0:0:0:0:
256,192,322491,5,0,0:0:0:0:
256,192,322543,5,0,0:0:0:0:
256,192,322595,5,0,0:0:0:0:
256,192,322647,5,0,0:0:0:0:
256,192,322700,5,8,0:0:0:0:
256,192,322804,5,8,0:0:0:0:
256,192,322908,5,0,0:0:0:0:
256,192,323012,5,8,0:0:0:0:
256,192,323116,5,0,0:0:0:0:
256,192,323220,5,0,0:0:0:0:
256,192,323325,5,8,0:0:0:0:
256,192,323429,5,0,0:0:0:0:
256,192,323533,5,8,0:0:0:0:
256,192,323585,5,8,0:0:0:0:
256,192,323637,5,8,0:0:0:0:
256,192,323689,5,8,0:0:0:0:
256,192,323741,5,0,0:0:0:0:
256,192,323845,5,0,0:0:0:0:
256,192,323950,5,8,0:0:0:0:
256,192,324054,5,0,0:0:0:0:
256,192,324158,5,8,0:0:0:0:
256,192,324262,5,0,0:0:0:0:
256,192,324366,5,8,0:0:0:0:
256,192,324470,5,8,0:0:0:0:
256,192,324575,5,0,0:0:0:0:
256,192,324991,5,0,0:0:0:0:
256,192,325043,5,0,0:0:0:0:
256,192,325095,5,0,0:0:0:0:
256,192,325147,5,0,0:0:0:0:
256,192,325200,5,8,0:0:0:0:
256,192,325408,5,0,0:0:0:0:
256,192,325512,5,0,0:0:0:0:
256,192,325616,5,0,0:0:0:0:
256,192,325720,5,0,0:0:0:0:
256,192,325825,5,12,0:0:0:0:
256,192,326450,5,8,0:0:0:0:
256,192,326519,5,8,0:0:0:0:
256,192,326588,5,8,0:0:0:0:
256,192,326658,5,8,0:0:0:0:
256,192,326727,5,0,0:0:0:0:
256,192,326797,5,0,0:0:0:0:
256,192,326866,5,8,0:0:0:0:
256,192,326936,5,8,0:0:0:0:
256,192,327005,5,8,0:0:0:0:
256,192,327075,5,8,0:0:0:0:
256,192,327144,5,8,0:0:0:0:
256,192,327213,5,8,0:0:0:0:
256,192,327283,5,0,0:0:0:0:
256,192,327352,5,0,0:0:0:0:
256,192,327422,5,0,0:0:0:0:
256,192,327491,5,0,0:0:0:0:
256,192,327561,5,0,0:0:0:0:
256,192,327630,5,0,0:0:0:0:
256,192,327700,5,8,0:0:0:0:
256,192,327769,5,0,0:0:0:0:
256,192,327838,5,8,0:0:0:0:
256,192,327908,5,8,0:0:0:0:
256,192,327977,5,0,0:0:0:0:
256,192,328047,5,0,0:0:0:0:
256,192,328116,5,8,0:0:0:0:
256,192,328186,5,8,0:0:0:0:
256,192,328255,5,8,0:0:0:0:
256,192,328325,5,8,0:0:0:0:
256,192,328394,5,0,0:0:0:0:
256,192,328463,5,0,0:0:0:0:
256,192,328533,5,8,0:0:0:0:
256,192,328602,5,8,0:0:0:0:
256,192,328672,5,0,0:0:0:0:
256,192,328741,5,8,0:0:0:0:
256,192,328811,5,0,0:0:0:0:
256,192,328880,5,0,0:0:0:0:
256,192,328950,5,8,0:0:0:0:
256,192,329158,5,0,0:0:0:0:
256,192,329366,5,0,0:0:0:0:
256,192,329575,5,8,0:0:0:0:
256,192,329783,5,0,0:0:0:0:
256,192,329852,5,0,0:0:0:0:
256,192,329922,5,0,0:0:0:0:
256,192,329991,5,0,0:0:0:0:
256,192,330061,5,0,0:0:0:0:
256,192,330130,5,0,0:0:0:0:
256,192,330200,5,8,0:0:0:0:
256,192,330269,5,8,0:0:0:0:
256,192,330338,5,0,0:0:0:0:
256,192,330408,5,0,0:0:0:0:
256,192,330477,5,0,0:0:0:0:
256,192,330547,5,0,0:0:0:0:
256,192,330616,5,8,0:0:0:0:
256,192,330686,5,8,0:0:0:0:
256,192,330755,5,0,0:0:0:0:
256,192,330825,5,0,0:0:0:0:
256,192,330894,5,8,0:0:0:0:
256,192,330963,5,8,0:0:0:0:
256,192,331033,5,8,0:0:0:0:
256,192,331102,5,8,0:0:0:0:
256,192,331172,5,0,0:0:0:0:
256,192,331241,5,0,0:0:0:0:
256,192,331311,5,8,0:0:0:0:
256,192,331380,5,8,0:0:0:0:
256,192,331450,5,4,0:0:0:0:
256,192,331658,5,4,0:0:0:0:
256,192,331866,5,4,0:0:0:0:
256,192,332075,5,12,0:0:0:0:
