osu file format v14

[General]
AudioFilename: audio.mp3
AudioLeadIn: 0
PreviewTime: 17
Countdown: 1
SampleSet: Normal
StackLeniency: 0.7
Mode: 0
LetterboxInBreaks: 0
WidescreenStoryboard: 1

[Editor]
DistanceSpacing: 0.9
BeatDivisor: 8
GridSize: 8
TimelineZoom: 1.1

[Metadata]
Title:Where Do i Belong
TitleUnicode:Where Do i Belong
Artist:Infected Mushroom
ArtistUnicode:Infected Mushroom
Creator:Firkant
Version:Insane
Source:
Tags:EDM Electronic
BeatmapID:1990687
BeatmapSetID:935551

[Difficulty]
HPDrainRate:4
CircleSize:5
OverallDifficulty:4
ApproachRate:6
SliderMultiplier:1.5
SliderTickRate:1

[Events]
//Background and Video events
//Break Periods
2,45869,56226
2,114440,121941
2,137565,147655
2,171761,179083
//Storyboard Layer 0 (Background)
//Storyboard Layer 1 (Fail)
//Storyboard Layer 2 (Pass)
//Storyboard Layer 3 (Foreground)
//Storyboard Sound Samples

[TimingPoints]
134,357.142857142857,4,1,0,100,1,0

[HitObjects]
80,88,134,6,0,B|88:88|96:88|104:88|112:88|120:88|112:96|104:104|96:112|88:120|80:128|88:128|96:128|104:128|112:128|120:128|128:128|136:128|144:128,1,112.5
139,128,491,2,0,L|256:128,1,112.5
264,128,848,1,0,0:0:0:0:
408,144,1205,2,0,L|440:216,1,75
440,272,1562,2,0,L|416:304,8,37.5
352,344,2633,6,0,P|264:336|224:296,1,112.5
232,312,2991,2,0,P|192:264|184:216,1,112.5
184,192,3348,2,0,P|184:152|160:128,1,75
96,144,3705,2,0,P|64:112|72:72,1,75
120,40,4062,2,0,P|168:24|200:40,1,75
240,72,4419,1,0,0:0:0:0:
304,80,4598,2,0,B|296:40|320:48|336:80|312:104|296:96,1,75
108,129,5312,6,0,P|81:155|87:187,3,56.25
57,217,5847,1,0,0:0:0:0:
124,260,6205,2,0,L|148:348,1,75
208,313,6562,2,0,L|176:217,1,75
177,174,6919,2,0,P|217:134|257:142,1,75
285,174,7276,2,0,P|325:158|341:110,3,75
407,135,7991,2,0,P|431:183|423:215,1,75
431,269,8348,2,0,P|407:317|359:285,1,112.5
339,272,8705,2,0,B|315:240|275:200|219:192|171:200|115:240|99:280|115:312|123:328|139:360|155:376|203:384|235:376|307:400|355:384|395:344|307:328|283:304|267:296|251:296|235:296|219:296|195:296,1,600
128,200,10491,6,0,L|120:184,6,18.75
92,79,11562,2,0,P|132:63|172:79,1,75
224,64,11919,2,0,P|264:48|304:64,1,75
321,117,12276,1,0,0:0:0:0:
376,56,12633,2,0,P|432:72|432:112,1,75
441,149,12991,2,0,P|457:205|441:229,4,75
377,267,14062,2,0,P|321:235|369:227,1,150
264,72,14776,6,0,L|288:72,4,18.75
328,104,15133,1,0,0:0:0:0:
444,173,15491,2,0,L|388:229,1,75
338,268,15848,1,0,0:0:0:0:
270,272,16026,2,0,B|262:232|286:240|302:272|278:296|262:288,1,75
127,147,16741,6,0,P|100:173|106:205,3,56.25
76,235,17276,1,0,0:0:0:0:
90,301,17544,1,0,0:0:0:0:
90,301,17633,2,0,P|109:332|157:340,1,75
191,292,17991,1,0,0:0:0:0:
256,336,18348,2,0,P|312:320|320:288,1,75
271,259,18705,2,0,P|255:203|271:179,4,75
394,205,19776,6,0,P|432:185|432:145,1,75
384,112,20133,2,0,L|360:80,3,37.5
336,144,20491,2,0,L|312:112,3,37.5
288,176,20848,2,0,L|264:144,3,37.5
240,208,21205,2,0,L|216:176,3,37.5
192,240,21562,2,0,L|168:208,3,37.5
144,272,21919,2,0,P|104:232|104:202,1,75
333,81,22991,2,0,P|317:129|285:145,1,75
253,97,23348,2,0,P|213:129|221:161,1,75
262,195,23705,1,0,0:0:0:0:
238,257,23883,2,0,P|204:277|163:271,1,75
104,254,24241,1,0,0:0:0:0:
52,210,24419,1,0,0:0:0:0:
29,146,24598,1,0,0:0:0:0:
57,84,24776,1,0,0:0:0:0:
108,40,24955,1,0,0:0:0:0:
173,26,25133,6,0,B|254:19|321:27|387:87,1,225
434,129,25848,2,0,P|436:143|424:163,2,37.5
398,186,26205,2,0,P|358:218|366:250,1,75
417,271,26562,2,0,P|415:298|399:316,2,37.5
373,322,26919,2,0,P|325:306|309:274,1,75
292,222,27276,1,0,0:0:0:0:
249,169,27455,1,0,0:0:0:0:
187,142,27633,1,0,0:0:0:0:
119,139,27812,1,0,0:0:0:0:
51,141,27991,2,0,P|67:189|99:205,1,75
153,202,28348,2,0,P|193:234|185:266,1,75
257,235,28705,6,0,B|323:243|348:172|342:139|354:131|373:120|392:116|407:116|428:123|446:137|449:160|448:186|440:218|426:247|429:233,1,300
431,278,29598,1,0,0:0:0:0:
385,327,29776,1,0,0:0:0:0:
320,347,29955,1,0,0:0:0:0:
252,348,30133,2,0,B|185:299|145:292|129:277|121:251|124:236|133:227|141:222|167:211|187:208|217:211|235:215|250:218|269:222|276:202|280:189|281:177|280:162|272:137|250:124|239:118|229:111|217:108|192:105|177:113|151:119|132:128|109:143,1,487.5
432,64,31562,5,0,0:0:0:0:
376,152,31741,1,0,0:0:0:0:
320,64,31919,1,0,0:0:0:0:
288,224,32276,5,0,0:0:0:0:
232,304,32455,1,0,0:0:0:0:
176,224,32633,1,0,0:0:0:0:
200,120,32991,6,0,P|168:72|136:80,1,75
80,96,33348,2,0,L|96:96,7,12.5
80,168,34241,2,0,L|96:168,7,12.5
144,160,34776,6,0,P|160:112|192:96,1,75
224,144,35133,2,0,P|264:112|256:80,1,75
312,48,35490,2,0,P|376:32|392:40,1,75
364,101,35847,6,0,P|412:117|428:149,1,75
380,181,36204,2,0,P|412:221|444:213,1,75
476,269,36561,2,0,P|492:333|484:349,1,75
418,348,36919,2,0,P|402:300|320:320,1,150
248,312,37455,5,0,0:0:0:0:
192,280,37633,1,0,0:0:0:0:
168,224,37812,1,0,0:0:0:0:
176,168,37991,1,0,0:0:0:0:
208,120,38169,1,0,0:0:0:0:
264,104,38348,1,0,0:0:0:0:
320,112,38526,1,0,0:0:0:0:
368,144,38705,1,0,0:0:0:0:
368,144,39241,6,0,B|320:96|256:88|176:88|152:160|144:224|200:272|184:288|208:288,1,337.5
89,287,40312,2,0,P|87:301|99:321,2,37.5
72,221,40669,2,0,P|73:181|93:152,1,75
85,85,41026,2,0,P|58:87|40:103,2,37.5
152,85,41383,2,0,P|200:101|216:133,1,75
165,168,41741,2,0,P|197:208|229:200,1,75
264,159,42098,2,0,P|280:223|272:239,1,75
72,184,42812,5,0,0:0:0:0:
80,248,42991,2,0,B|120:336|186:362|274:325,1,225
324,302,43705,1,0,0:0:0:0:
416,208,44062,1,0,0:0:0:0:
432,136,44241,2,0,B|392:48|326:22|238:59,1,225
188,82,44955,1,0,0:0:0:0:
133,121,45133,1,0,0:0:0:0:
135,256,45491,1,0,0:0:0:0:
185,299,45669,1,0,0:0:0:0:
80,88,57276,6,0,B|88:88|96:88|104:88|112:88|120:88|112:96|104:104|96:112|88:120|80:128|88:128|144:128|144:128|112:128|120:128|128:128|136:128|144:128,1,150
384,344,58705,2,0,B|392:344|400:344|408:344|416:344|424:344|416:336|408:328|400:320|392:312|384:304|392:304|400:304|408:304|416:304|424:304|432:304|440:304|448:304,1,112.5
400,112,61741,2,0,P|416:128|416:144,12,37.5
416,192,62991,2,0,P|416:240|384:256,1,75
256,192,63348,12,0,67991,0:0:0:0:
96,80,68705,6,0,P|144:56|192:88,1,112.5
144,128,69241,2,0,B|184:160|232:152|256:128,1,112.5
352,72,69776,1,0,0:0:0:0:
392,208,70133,6,0,P|344:184|296:216,1,112.5
344,256,70669,2,0,B|304:288|256:280|232:256,1,112.5
136,200,71204,1,0,0:0:0:0:
96,312,71562,6,0,P|144:336|192:304,1,112.5
144,264,72098,2,0,B|184:232|232:240|256:264,1,112.5
352,320,72633,1,0,0:0:0:0:
392,184,72990,6,0,P|344:208|296:176,1,112.5
344,136,73526,2,0,B|304:104|256:112|232:136,1,112.5
136,192,74061,1,0,0:0:0:0:
96,304,74419,6,0,P|144:328|192:296,1,112.5
144,256,74955,2,0,B|184:224|232:232|256:256,1,112.5
352,312,75490,1,0,0:0:0:0:
392,176,75847,6,0,P|344:200|296:168,1,112.5
344,128,76383,2,0,B|304:96|256:104|232:128,1,112.5
136,184,76918,1,0,0:0:0:0:
96,72,77276,6,0,P|144:48|192:80,1,112.5
144,120,77812,2,0,B|184:152|232:144|256:120,1,112.5
352,64,78347,1,0,0:0:0:0:
392,200,78704,6,0,P|344:176|296:208,1,112.5
344,248,79240,2,0,B|304:280|256:272|232:248,1,112.5
160,208,79776,2,0,B|152:168|176:176|192:208|168:232|152:224,1,75
120,288,80133,2,0,P|80:264|80:232,2,75
192,288,80669,5,0,0:0:0:0:
256,288,80848,2,0,P|304:288|328:240,1,75
344,216,81205,2,0,P|336:152|312:144,2,75
272,208,81741,1,0,0:0:0:0:
210,179,81919,1,0,0:0:0:0:
195,113,82098,1,0,0:0:0:0:
240,80,82276,1,0,0:0:0:0:
312,96,82633,6,0,B|288:136|304:144|320:136|336:112|328:88,1,75
432,104,82991,2,0,P|408:64|376:64,2,75
432,176,83527,1,0,0:0:0:0:
432,240,83706,2,0,P|432:288|384:312,1,75
360,328,84063,2,0,P|296:320|288:296,2,75
352,256,84599,1,0,0:0:0:0:
344,189,84776,2,0,P|346:152|239:194,1,225
160,248,85491,6,0,B|136:280|120:248|120:216|160:224|184:248,1,75
88,136,85848,2,0,P|48:160|48:192,2,75
160,136,86384,1,0,0:0:0:0:
224,136,86563,2,0,P|272:136|296:184,1,75
312,208,86920,2,0,P|304:272|280:280,2,75
240,216,87456,1,0,0:0:0:0:
173,221,87633,1,0,0:0:0:0:
114,254,87812,1,0,0:0:0:0:
73,308,87991,2,0,P|99:326|150:336,1,75
240,304,88348,2,0,B|264:272|280:304|280:336|240:328|216:304,1,75
256,192,88705,12,0,91205,0:0:0:0:
104,112,91562,6,0,P|72:192|72:216,1,75
72,256,91919,1,0,0:0:0:0:
184,336,92276,1,0,0:0:0:0:
208,200,92633,1,0,0:0:0:0:
224,64,92991,2,0,L|240:64,9,9.375
280,96,93348,5,0,0:0:0:0:
392,176,93705,1,0,0:0:0:0:
416,40,94062,1,0,0:0:0:0:
304,112,94419,1,0,0:0:0:0:
192,32,94776,5,0,0:0:0:0:
168,168,95133,1,0,0:0:0:0:
288,232,95491,1,0,0:0:0:0:
400,312,95848,1,0,0:0:0:0:
424,176,96205,5,0,0:0:0:0:
344,64,96562,1,0,0:0:0:0:
208,40,96919,1,0,0:0:0:0:
88,104,97276,2,0,L|104:104,9,9.375
72,160,97633,6,0,P|48:240|72:264,1,112.5
80,280,97991,1,0,0:0:0:0:
208,320,98348,2,0,P|288:344|312:320,1,112.5
328,312,98706,1,0,0:0:0:0:
424,216,99062,2,0,P|448:136|424:112,1,112.5
416,96,99420,1,0,0:0:0:0:
296,40,99776,6,0,P|216:16|192:40,1,112.5
176,48,100134,1,0,0:0:0:0:
80,144,100491,2,0,P|56:224|80:248,1,112.5
88,264,100849,1,0,0:0:0:0:
208,320,101205,6,0,P|288:344|312:320,1,112.5
328,312,101563,1,0,0:0:0:0:
448,248,101919,1,0,0:0:0:0:
448,112,102276,1,0,0:0:0:0:
368,216,102633,5,0,0:0:0:0:
320,88,102991,1,0,0:0:0:0:
216,176,103348,1,0,0:0:0:0:
136,72,103705,1,0,0:0:0:0:
80,192,104062,5,0,0:0:0:0:
104,328,104419,2,0,L|120:328,9,9.375
176,328,104776,2,0,P|256:352|280:328,1,112.5
296,320,105134,1,0,0:0:0:0:
384,240,105491,6,0,P|408:160|384:136,1,112.5
376,120,105849,1,0,0:0:0:0:
256,56,106205,2,0,P|176:32|152:56,1,112.5
136,64,106563,1,0,0:0:0:0:
88,192,106919,6,0,P|64:272|88:296,1,112.5
96,312,107277,1,0,0:0:0:0:
200,320,107544,2,0,P|216:304|216:288,12,37.5
216,240,108794,6,0,P|216:192|184:176,1,75
168,160,109062,1,0,0:0:0:0:
56,88,109419,1,0,0:0:0:0:
192,88,109776,1,0,0:0:0:0:
80,160,110133,5,0,0:0:0:0:
120,32,110491,1,0,0:0:0:0:
256,32,110848,1,0,0:0:0:0:
344,128,111205,2,0,P|368:208|344:232,1,112.5
336,248,111563,1,0,0:0:0:0:
256,336,111920,6,0,P|176:360|152:336,1,112.5
136,328,112278,1,0,0:0:0:0:
72,208,112634,2,0,P|48:128|72:104,1,112.5
80,88,112992,1,0,0:0:0:0:
208,56,113348,2,0,B|224:152|320:128|352:40|440:40|496:72|488:176|480:176,1,375
136,72,122991,5,0,0:0:0:0:
384,72,123348,1,0,0:0:0:0:
136,136,123705,1,0,0:0:0:0:
384,136,124062,1,0,0:0:0:0:
136,200,124419,5,0,0:0:0:0:
384,200,124776,1,0,0:0:0:0:
136,264,125133,1,0,0:0:0:0:
384,264,125491,1,0,0:0:0:0:
256,336,125848,6,0,L|256:88,1,225
256,56,126562,2,0,P|208:32|160:56,1,75
120,64,126919,1,0,0:0:0:0:
64,120,127098,1,0,0:0:0:0:
56,200,127276,6,0,P|64:280|176:360,1,225
240,352,127991,1,0,0:0:0:0:
376,328,128348,1,0,0:0:0:0:
440,328,128526,6,0,B|488:256|488:128|480:104,1,225
416,88,129241,1,0,0:0:0:0:
352,64,129419,2,0,P|288:56|264:80,1,75
232,96,129776,2,0,P|192:80|152:96,1,75
168,152,130133,2,0,P|128:168|96:136,1,75
96,88,130491,2,0,B|48:104|32:144|32:184|32:224|56:248|80:280,1,225
168,336,131562,6,0,P|201:350|237:340,1,75
287,303,131919,2,0,P|320:318|356:310,1,75
352,247,132276,2,0,P|384:230|416:246,1,75
416,312,132633,2,0,P|449:326|485:316,1,75
480,248,132991,2,0,B|528:232|544:192|544:152|544:112|520:88|497:58,1,225
78,334,134241,6,0,B|77:309|76:293|77:275|77:260|76:244|77:226|77:197|77:179|77:164|78:147|78:130|77:110|77:97|77:82|77:69|76:55|81:45|83:26|82:-15|84:25|86:48|103:83|112:113|116:140|119:168|115:188|119:206|121:224|123:248|130:268|131:282|141:256|149:231|161:203|184:185|198:162|232:144|261:138|278:140|304:138|326:141|349:153|375:168|392:185|399:203|406:221|421:231|421:231|427:210|427:199|432:179|438:120|446:83|447:73|450:55|451:51|451:51|452:27|452:27|457:50|464:72|470:95|472:117|474:135|481:196|482:233|486:256|489:304|489:317|491:349|491:350,1,1312.5
80,88,148705,6,0,B|88:88|96:88|104:88|112:88|120:88|112:96|104:104|96:112|88:120|80:128|88:128|144:128|144:128|112:128|120:128|128:128|136:128|144:128,1,150
384,344,150134,6,0,B|392:344|400:344|408:344|416:344|424:344|416:336|408:328|400:320|392:312|384:304|392:304|400:304|408:304|416:304|424:304|432:304|440:304|448:304,1,112.5
143,329,153170,2,0,P|159:313|159:297,12,37.5
159,249,154420,2,0,P|159:201|127:185,1,75
256,192,154776,12,0,156919,0:0:0:0:
128,271,157276,5,0,0:0:0:0:
376,271,157633,1,0,0:0:0:0:
128,207,157990,1,0,0:0:0:0:
376,207,158347,1,0,0:0:0:0:
128,143,158704,5,0,0:0:0:0:
376,143,159061,1,0,0:0:0:0:
128,79,159418,1,0,0:0:0:0:
376,79,159776,1,0,0:0:0:0:
241,74,160133,6,0,B|244:137|230:168|199:192|175:208,1,150
49,175,160848,1,0,0:0:0:0:
75,307,161205,1,0,0:0:0:0:
204,345,161562,1,0,0:0:0:0:
241,74,162276,6,0,B|244:137|230:168|199:192|175:208,1,150
49,175,162991,1,0,0:0:0:0:
277,318,163705,1,0,0:0:0:0:
355,208,164062,1,0,0:0:0:0:
321,77,164419,1,0,0:0:0:0:
210,72,165133,6,0,B|147:69|116:83|92:114|76:138,1,150
109,264,165848,1,0,0:0:0:0:
363,175,166562,5,0,0:0:0:0:
297,293,166919,1,0,0:0:0:0:
168,334,167276,1,0,0:0:0:0:
274,85,167991,6,0,B|319:75|368:96|392:127|408:151,1,150
375,277,168706,1,0,0:0:0:0:
112,337,169419,5,0,0:0:0:0:
59,212,169776,1,0,0:0:0:0:
95,82,170133,2,0,B|250:47|351:90|403:191|393:270|367:352|175:356|141:334,1,600
256,192,180133,12,0,182276,0:0:0:0:
82,187,182991,5,0,0:0:0:0:
126,136,183170,1,0,0:0:0:0:
183,101,183348,1,0,0:0:0:0:
249,89,183527,1,0,0:0:0:0:
316,93,183705,2,0,P|313:116|279:155,2,75
383,97,184241,1,0,0:0:0:0:
421,152,184419,1,0,0:0:0:0:
418,219,184598,1,0,0:0:0:0:
384,277,184776,1,0,0:0:0:0:
328,315,184955,1,0,0:0:0:0:
260,315,185133,6,0,B|190:301|150:250|143:182|144:141,1,225
172,83,185848,1,0,0:0:0:0:
212,136,186026,1,0,0:0:0:0:
237,73,186205,2,0,P|268:86|285:123,1,75
321,178,186562,5,0,0:0:0:0:
350,116,186741,1,0,0:0:0:0:
386,172,186919,2,0,P|422:154|413:114,1,75
471,78,187276,2,0,P|489:115|495:191,1,112.5
492,219,187633,2,0,L|474:295,1,75
467,343,187991,1,0,0:0:0:0:
167,346,188705,6,0,B|124:334|99:319|94:313|98:293|106:283|128:272|156:265|205:262|222:262|233:248|209:222|134:222|96:221|85:208,1,300
107,147,189598,5,0,0:0:0:0:
151,95,189777,1,0,0:0:0:0:
192,148,189955,1,0,0:0:0:0:
236,97,190134,1,0,0:0:0:0:
279,149,190313,1,0,0:0:0:0:
324,99,190491,1,0,0:0:0:0:
371,146,190669,1,0,0:0:0:0:
415,196,190848,6,0,B|383:274|346:292|296:292|249:266,1,187.5
256,192,191562,12,0,194062,0:0:0:0:
360,157,194419,6,0,L|407:202,2,37.5
310,203,194777,2,0,L|357:248,2,37.5
259,247,195134,2,0,L|306:292,2,37.5
209,293,195491,1,0,0:0:0:0:
164,242,195669,1,0,0:0:0:0:
215,198,195848,2,0,L|168:153,2,37.5
265,152,196206,2,0,L|218:107,2,37.5
316,108,196563,2,0,L|269:63,2,37.5
379,87,196919,2,0,B|371:47|395:55|411:87|387:111|371:103,1,75
358,165,197276,6,0,P|394:191|353:163,1,637.5
68,300,199241,6,0,P|42:242|54:184,1,112.5
55,161,199598,1,0,0:0:0:0:
90,103,199776,1,0,0:0:0:0:
151,73,199955,1,0,0:0:0:0:
166,139,200133,2,0,L|119:184,2,37.5
216,185,200491,2,0,L|169:230,2,37.5
267,229,200848,2,0,L|220:274,2,37.5
318,272,201205,2,0,L|271:317,2,37.5
349,331,201562,6,0,B|449:272|469:165|440:78|406:43,1,300
199,122,202633,2,0,B|189:75|213:83|229:115|205:139|189:131,1,75
151,55,202991,2,0,P|121:78|174:43,1,1125
