osu file format v14

[General]
AudioFilename: audio.mp3
AudioLeadIn: 0
PreviewTime: 14849
Countdown: 0
SampleSet: Soft
StackLeniency: 0.7
Mode: 0
LetterboxInBreaks: 0
WidescreenStoryboard: 0

[Editor]
DistanceSpacing: 1.7
BeatDivisor: 4
GridSize: 4
TimelineZoom: 1

[Metadata]
Title:The Rat
TitleUnicode:The Rat
Artist:Infected Mushroom
ArtistUnicode:Infected Mushroom
Creator:SuperMIC
Version:Exterminator
Source:
Tags:
BeatmapID:916622
BeatmapSetID:424292

[Difficulty]
HPDrainRate:6
CircleSize:4
OverallDifficulty:8.3
ApproachRate:9
SliderMultiplier:2.1
SliderTickRate:2

[Events]
//Background and Video events
0,0,"RatBG.jpg",0,0
//Break Periods
2,59356,65941
2,162741,176710
//Storyboard Layer 0 (Background)
//Storyboard Layer 1 (Fail)
//Storyboard Layer 2 (Pass)
//Storyboard Layer 3 (Foreground)
//Storyboard Sound Samples

[TimingPoints]
80,461.538461538462,4,2,0,40,1,0
27772,-133.333333333333,4,2,0,20,0,0
29618,-100,4,2,0,40,0,0
44387,-100,4,2,0,50,0,0
57772,-100,4,2,0,40,0,0
58233,-100,4,2,0,30,0,0
58695,-100,4,2,0,20,0,0
66541,-100,4,2,0,40,0,0
73926,-83.3333333333333,4,2,1,60,0,1
103387,-83.3333333333333,4,2,1,60,0,0
103464,-83.3333333333333,4,2,1,60,0,1
118233,-83.3333333333333,4,2,1,70,0,1
132926,-83.3333333333333,4,2,1,70,0,0
133003,-83.3333333333333,4,2,1,70,0,1
147772,-133.333333333333,4,2,1,45,0,0
162541,-133.333333333333,4,2,1,30,0,0
177310,-133.333333333333,4,2,1,15,0,0
181003,-133.333333333333,4,2,1,20,0,0
184695,-133.333333333333,4,2,1,25,0,0
188387,-133.333333333333,4,2,1,30,0,0
192080,-100,4,2,1,40,0,0
195772,-83.3333333333333,4,2,1,40,0,0
199464,-83.3333333333333,4,2,1,45,0,0
203156,-83.3333333333333,4,2,1,50,0,0
204080,-83.3333333333333,4,2,1,55,0,0
205003,-83.3333333333333,4,2,1,60,0,0
206849,-71.4285714285714,4,2,1,80,0,1
221156,-71.4285714285714,4,2,1,80,0,0
221618,-71.4285714285714,4,2,1,80,0,1
235926,-133.333333333333,4,2,1,80,0,0
236156,-133.333333333333,4,2,1,45,0,0
236387,-76.9230769230769,4,2,1,80,0,1
251156,-83.3333333333333,4,2,1,60,0,0
257618,-83.3333333333333,4,2,1,70,0,0
258541,-83.3333333333333,4,2,1,60,0,0
265926,-100,4,2,1,50,0,0
277003,-100,4,2,1,45,0,0
278849,-100,4,2,1,40,0,0
280464,-100,4,2,1,20,0,0
280695,-100,4,2,1,35,0,0
280733,-100,4,2,1,15,0,0
281156,-100,4,2,1,35,0,0
281387,-100,4,2,1,15,0,0
281618,-100,4,2,1,35,0,0
282003,-100,4,2,1,15,0,0
282080,-100,4,2,1,35,0,0
283233,-100,4,2,1,15,0,0
283464,-100,4,2,1,35,0,0
283541,-100,4,2,1,15,0,0
283849,-100,4,2,1,35,0,0
284618,-100,4,2,1,15,0,0
284849,-100,4,2,1,35,0,0
285003,-100,4,2,1,15,0,0
285310,-100,4,2,1,35,0,0
286464,-100,4,2,1,15,0,0
286695,-100,4,2,1,35,0,0
286926,-100,4,2,1,15,0,0
287156,-100,4,2,1,35,0,0
287849,-100,4,2,1,15,0,0
288080,-133.333333333333,4,2,1,10,0,0
295464,-133.333333333333,4,2,1,30,0,0
295695,-133.333333333333,4,2,1,15,0,0
302387,-133.333333333333,4,2,1,40,0,0
302849,-100,4,2,1,50,0,0
310233,-83.3333333333333,4,2,1,50,0,0
315772,-83.3333333333333,4,2,1,65,0,0
317156,-66.6666666666667,4,2,1,65,0,0
317618,-76.9230769230769,4,2,1,70,0,1
324541,-66.6666666666667,4,2,1,70,0,1
325003,-76.9230769230769,4,2,1,70,0,1
330541,-125,4,3,1,30,0,1
331003,-111.111111111111,4,3,1,40,0,1
331464,-100,4,3,1,50,0,1
331926,-90.9090909090909,4,3,1,60,0,1
332387,-76.9230769230769,4,2,1,70,0,1
339310,-66.6666666666667,4,2,1,70,0,1
339772,-76.9230769230769,4,2,1,70,0,1
345387,-76.9230769230769,4,2,1,50,0,1
346003,-76.9230769230769,4,2,1,25,0,1
346233,-133.333333333333,4,2,1,40,0,1
346310,-133.333333333333,4,2,1,10,0,1
346926,-133.333333333333,4,2,1,5,0,1
347156,-76.9230769230769,4,2,1,70,0,1
354080,-66.6666666666667,4,2,1,70,0,1
354541,-76.9230769230769,4,2,1,70,0,1
360080,-100,4,2,1,60,0,0
361522,-100,4,2,1,25,0,0
361926,-100,4,2,1,55,0,0

[Colours]
Combo1 : 0,0,159
Combo2 : 159,0,116
Combo3 : 80,0,159
Combo4 : 151,9,30

[HitObjects]
136,328,14849,6,0,P|96:296|84:244,1,105,4|2,1:0|2:2,0:0:0:0:
88,208,15195,1,0,1:0:0:0:
104,176,15310,1,8,1:0:0:0:
256,64,15541,2,0,L|268:176,1,105,0|0,1:0|2:0,0:0:0:0:
356,224,15887,2,0,L|344:112,1,105,0|0,1:0|2:0,0:0:0:0:
332,32,16233,1,8,1:0:0:0:
452,216,16464,1,0,1:0:0:0:
452,216,16695,6,0,P|420:300|360:328,1,157.5,0|0,1:0|1:0,0:0:0:0:
324,332,17156,1,8,1:0:0:0:
112,352,17387,2,0,P|100:300|120:252,1,105,0|0,1:0|0:0,0:0:0:0:
76,124,17733,2,0,P|127:139|158:180,1,105,0|0,1:0|0:0,0:0:0:0:
292,204,18080,2,0,P|252:240|201:247,1,105,8|0,1:0|1:0,0:0:0:0:
392,64,18541,6,0,L|400:172,1,105,0|2,1:0|0:0,0:0:0:0:
408,260,18887,1,0,1:0:0:0:
408,260,19003,1,8,1:0:0:0:
216,340,19233,2,0,P|188:296|136:280,1,105,0|0,1:0|0:0,0:0:0:0:
24,308,19580,2,0,P|20:252|48:204,1,105,0|0,1:0|0:0,0:0:0:0:
136,156,19926,1,8,1:0:0:0:
216,340,20156,1,0,1:0:0:0:
232,72,20387,6,0,L|392:76,1,157.5,0|0,1:0|1:0,0:0:0:0:
428,76,20849,1,8,1:0:0:0:
500,276,21080,2,0,P|448:280|396:264,1,105,0|0,1:0|0:0,0:0:0:0:
320,216,21426,1,0,1:0:0:0:
320,216,21541,1,0,0:0:0:0:
124,300,21772,2,0,L|136:360,1,52.5,8|0,1:0|0:0,0:0:0:0:
96,168,22003,1,2,1:3:0:0:
96,168,22233,6,0,P|112:116|152:80,1,105,0|2,1:0|0:0,0:0:0:0:
236,52,22580,1,0,1:0:0:0:
236,52,22695,1,8,1:0:0:0:
340,236,22926,2,0,L|356:132,1,105,0|0,1:0|0:0,0:0:0:0:
416,276,23272,2,0,L|432:172,1,105,0|0,1:0|0:0,0:0:0:0:
492,312,23618,1,8,1:0:0:0:
288,372,23849,1,0,1:0:0:0:
84,320,24080,5,0,1:0:0:0:
68,288,24195,1,0,0:0:0:0:
60,252,24310,1,2,0:0:0:0:
64,216,24426,1,0,1:0:0:0:
76,180,24541,1,8,1:0:0:0:
244,52,24772,2,0,P|276:84|292:144,1,105,0|0,1:0|0:0,0:0:0:0:
316,280,25118,2,0,P|328:229|364:191,1,105,0|0,1:0|0:0,0:0:0:0:
468,156,25464,1,8,1:0:0:0:
380,356,25695,1,0,1:0:0:0:
380,356,25926,6,0,P|284:376|240:344,1,157.5,0|0,1:0|0:0,0:0:0:0:
224,312,26387,1,8,1:0:0:0:
228,100,26618,1,0,1:0:0:0:
40,204,26849,1,0,0:0:0:0:
40,204,26964,1,0,1:0:0:0:
40,204,27080,1,0,0:0:0:0:
304,208,27310,1,8,1:0:0:0:
64,316,27541,1,0,1:0:0:0:
340,316,27772,6,0,P|376:296|408:228,1,118.125004506111,2|0,0:0|0:0,0:0:0:0:
416,188,28233,1,0,0:0:0:0:
412,148,28349,1,0,0:0:0:0:
396,112,28464,1,2,0:0:0:0:
368,84,28580,1,0,0:0:0:0:
332,72,28695,1,0,0:0:0:0:
140,196,28926,2,0,P|136:152|144:112,1,78.7500030040742,2|0,0:0|0:0,0:0:0:0:
252,328,29387,1,0,0:0:0:0:
252,328,29618,6,0,P|304:332|352:304,1,105,4|2,1:0|0:0,0:0:0:0:
388,224,29926,1,0,1:0:0:0:
388,224,30080,1,8,1:0:0:0:
296,32,30310,2,0,L|184:40,1,105,0|0,1:0|0:0,0:0:0:0:
68,128,30656,2,0,L|172:120,1,105,0|0,1:0|0:0,0:0:0:0:
304,136,31003,1,8,1:0:0:0:
240,344,31233,1,0,1:0:0:0:
44,276,31464,6,0,P|108:232|192:236,1,157.5,0|0,1:0|1:0,0:0:0:0:
220,248,31926,1,8,1:0:0:0:
416,316,32156,2,0,P|352:360|268:356,1,157.5,0|0,1:0|1:0,0:0:0:0:
240,344,32618,1,0,0:0:0:0:
304,88,32849,2,0,P|324:140|320:196,1,105,8|0,1:0|1:0,0:0:0:0:
108,36,33310,6,0,P|92:84|96:144,1,105,0|2,1:0|0:0,0:0:0:0:
116,228,33656,1,0,1:0:0:0:
116,228,33772,1,8,1:0:0:0:
288,352,34003,2,0,P|336:328|356:272,1,105,0|0,1:0|0:0,0:0:0:0:
260,168,34349,2,0,P|252:216|272:268,1,105,0|0,1:0|0:0,0:0:0:0:
408,360,34695,1,8,1:0:0:0:
420,148,34926,1,0,1:0:0:0:
508,340,35156,6,0,P|464:272|392:256,1,157.5,0|0,1:0|1:0,0:0:0:0:
356,264,35618,1,8,1:0:0:0:
156,332,35849,2,0,L|148:388,1,52.5,0|0,1:0|0:0,0:0:0:0:
60,276,36080,2,0,L|52:220,1,52.5,0|0,0:0|1:0,0:0:0:0:
92,124,36310,1,0,0:0:0:0:
292,52,36541,1,8,1:0:0:0:
444,200,36772,1,0,1:0:0:0:
444,200,37003,6,0,L|440:304,1,105,0|2,1:0|0:0,0:0:0:0:
368,368,37349,1,0,1:0:0:0:
368,368,37464,1,8,1:0:0:0:
288,172,37695,2,0,P|260:124|208:104,1,105,0|0,1:0|0:0,0:0:0:0:
72,220,38041,2,0,P|100:172|152:152,1,105,0|0,1:0|0:0,0:0:0:0:
232,256,38387,1,8,1:0:0:0:
52,368,38618,1,0,1:0:0:0:
284,376,38849,6,0,P|352:348|436:364,1,157.5,0|0,1:0|1:0,0:0:0:0:
464,376,39310,1,8,1:0:0:0:
480,112,39541,2,0,L|476:224,1,105,0|0,1:0|0:0,0:0:0:0:
476,252,39887,1,0,1:0:0:0:
268,264,40118,1,0,0:0:0:0:
268,264,40233,2,0,P|276:208|268:156,1,105,8|0,1:0|1:0,0:0:0:0:
76,56,40695,5,0,1:0:0:0:
56,84,40810,1,0,0:0:0:0:
44,120,40926,1,2,0:0:0:0:
44,156,41041,1,0,1:0:0:0:
56,192,41156,1,8,1:0:0:0:
208,336,41387,2,0,P|256:312|308:320,1,105,0|0,1:0|0:0,0:0:0:0:
428,348,41733,2,0,P|472:320|484:260,1,105,0|0,1:0|0:0,0:0:0:0:
472,160,42080,1,8,1:0:0:0:
264,52,42310,1,0,1:0:0:0:
264,52,42541,6,0,P|252:104|224:148,1,105,0|2,1:0|0:0,0:0:0:0:
136,176,42887,1,0,1:0:0:0:
136,176,43003,2,0,P|108:220|96:271,1,105,8|0,1:0|1:0,0:0:0:0:
288,360,43464,1,0,0:0:0:0:
288,360,43580,1,0,1:0:0:0:
288,360,43695,1,0,0:0:0:0:
448,220,43926,1,8,1:0:0:0:
336,40,44156,1,0,1:0:0:0:
376,304,44387,6,0,B|340:252|284:252|284:252|248:216,1,157.5,4|0,1:0|1:0,0:0:0:0:
228,192,44849,1,8,1:0:0:0:
120,12,45080,2,0,P|88:56|88:112,1,105,0|0,1:0|0:0,0:0:0:0:
116,240,45426,2,0,P|148:196|148:140,1,105,0|0,1:0|0:0,0:0:0:0:
36,264,45772,1,8,1:0:0:0:
256,348,46003,1,0,1:0:0:0:
256,348,46233,6,0,P|296:308|344:304,1,105,0|2,1:0|0:0,0:0:0:0:
432,328,46580,1,0,1:0:0:0:
432,328,46695,1,8,1:0:0:0:
464,112,46926,2,0,L|352:136,1,105,0|0,1:0|0:0,0:0:0:0:
256,36,47272,2,0,L|364:48,1,105,0|0,1:0|0:0,0:0:0:0:
224,124,47618,1,8,1:0:0:0:
384,272,47849,1,0,1:0:0:0:
176,336,48080,6,0,B|140:268|140:268|72:224,1,157.5,0|0,1:0|1:0,0:0:0:0:
40,208,48541,1,8,1:0:0:0:
152,28,48772,2,0,P|200:48|260:44,1,105,0|0,1:0|0:0,0:0:0:0:
384,16,49118,2,0,P|384:76|360:120,1,105,0|0,1:0|0:0,0:0:0:0:
260,176,49464,1,8,1:0:0:0:
52,124,49695,1,0,1:0:0:0:
68,336,49926,6,0,P|116:356|168:344,1,105,0|2,1:0|0:0,0:0:0:0:
236,284,50272,1,0,1:0:0:0:
236,284,50387,1,8,1:0:0:0:
436,348,50618,1,0,1:0:0:0:
472,136,50849,2,0,L|484:64,2,52.5,0|0|0,0:0|1:0|0:0,0:0:0:0:
336,304,51310,2,0,P|324:248|296:192,1,105,8|0,1:0|1:0,0:0:0:0:
128,36,51772,6,0,P|96:84|88:184,1,157.5,0|0,1:0|1:0,0:0:0:0:
96,216,52233,1,8,1:0:0:0:
260,344,52464,2,0,P|304:312|320:256,1,105,0|0,1:0|0:0,0:0:0:0:
236,120,52810,2,0,P|224:176|240:224,1,105,0|0,1:0|0:0,0:0:0:0:
392,208,53156,1,8,1:0:0:0:
272,32,53387,1,0,0:0:0:0:
68,88,53618,5,0,1:0:0:0:
72,124,53733,1,0,0:0:0:0:
76,160,53849,1,2,0:0:0:0:
80,196,53964,1,0,1:0:0:0:
84,232,54080,1,8,1:0:0:0:
236,372,54310,1,0,1:0:0:0:
304,172,54541,1,0,0:0:0:0:
304,172,54656,1,0,1:0:0:0:
304,172,54772,1,0,0:0:0:0:
476,328,55003,2,0,P|492:280|480:224,1,105,8|0,1:0|1:0,0:0:0:0:
308,72,55464,6,0,P|292:120|304:176,1,105,0|2,1:0|0:0,0:0:0:0:
364,240,55810,1,0,1:0:0:0:
364,240,55926,1,8,1:0:0:0:
192,352,56156,2,0,P|160:304|108:288,1,105,0|0,1:0|0:0,0:0:0:0:
20,212,56503,2,0,P|52:164|104:148,1,105,0|0,1:0|0:0,0:0:0:0:
184,60,56849,1,8,1:0:0:0:
280,256,57080,1,0,0:0:0:0:
448,60,57310,5,2,0:0:0:0:
292,84,57541,1,0,0:0:0:0:
432,132,57772,1,2,0:0:0:0:
296,156,58003,1,0,0:0:0:0:
412,204,58233,1,2,0:0:0:0:
300,232,58464,1,0,0:0:0:0:
396,276,58695,1,2,0:0:0:0:
308,304,58926,1,0,0:0:0:0:
380,348,59156,5,0,3:0:0:0:
416,100,66541,6,0,P|364:116|304:108,1,105,4|0,0:3|0:0,0:0:0:0:
148,88,67003,2,0,L|136:140,1,52.5,8|0,0:0|0:0,0:0:0:0:
72,212,67233,2,0,L|56:156,1,52.5,2|0,0:0|0:0,0:0:0:0:
168,228,67464,1,2,0:3:0:0:
314,111,67695,1,0,0:0:0:0:
304,244,67926,1,8,0:0:0:0:
216,32,68156,1,2,0:0:0:0:
104,300,68387,1,4,0:3:0:0:
104,300,69080,6,0,L|120:356,1,52.5,2|0,0:0|0:0,0:0:0:0:
208,380,69310,1,8,0:0:0:0:
240,364,69426,1,0,0:0:0:0:
260,332,69541,1,0,0:0:0:0:
248,88,69772,1,2,0:0:0:0:
228,132,69887,1,0,0:0:0:0:
232,180,70003,1,2,0:0:0:0:
420,252,70233,6,0,P|432:196|416:144,1,105,4|0,3:0|0:0,0:0:0:0:
176,76,70695,2,0,L|124:88,1,52.5,8|0,0:0|0:0,0:0:0:0:
36,164,70926,2,0,L|88:176,1,52.5,2|0,0:0|0:0,0:0:0:0:
124,276,71156,1,2,3:0:0:0:
304,168,71387,1,0,0:0:0:0:
404,356,71618,1,8,0:0:0:0:
312,144,71849,1,2,0:0:0:0:
68,56,72080,6,0,L|108:60,1,35,0|0,1:0|0:0,0:0:0:0:
360,72,72310,2,0,L|320:76,1,35,8|0,3:0|0:0,0:0:0:0:
56,136,72541,6,0,L|96:140,1,35,0|0,1:0|0:0,0:0:0:0:
376,152,72772,2,0,L|336:156,1,35,8|0,3:0|0:0,0:0:0:0:
44,216,73003,6,0,L|84:220,1,35,0|0,1:0|0:0,0:0:0:0:
404,228,73233,2,0,L|364:232,1,35,8|0,3:0|0:0,0:0:0:0:
100,324,73464,5,0,1:0:0:0:
124,328,73541,1,0,3:0:0:0:
148,332,73618,1,0,3:0:0:0:
172,336,73695,1,2,3:2:0:0:
196,340,73772,1,0,3:0:0:0:
220,344,73849,1,0,3:0:0:0:
244,348,73926,6,0,P|304:344|360:300,1,125.999996154785,4|0,1:0|0:0,0:0:0:0:
328,44,74387,2,0,P|344:84|336:132,1,83.9999974365235,8|0,1:0|0:0,0:0:0:0:
236,232,74618,2,0,P|220:192|228:144,1,83.9999974365235,2|0,0:0|0:0,0:0:0:0:
144,40,74849,1,0,1:0:0:0:
168,288,75080,1,0,0:0:0:0:
64,60,75310,1,8,1:0:0:0:
168,288,75541,2,0,P|212:276|236:248,1,83.9999974365235,2|0,0:0|0:0,0:0:0:0:
272,128,75772,6,0,P|312:84|376:84,1,125.999996154785,0|0,1:0|0:0,0:0:0:0:
492,284,76233,2,0,P|480:328|440:356,1,83.9999974365235,8|0,1:0|0:0,0:0:0:0:
280,276,76464,2,0,P|319:263|359:275,1,83.9999974365235,2|0,0:0|0:0,0:0:0:0:
188,364,76695,2,0,L|172:276,1,83.9999974365235,0|0,1:0|0:0,0:0:0:0:
152,188,76926,1,2,0:0:0:0:
311,8,77156,2,0,L|327:96,1,83.9999974365235,8|0,1:0|0:0,0:0:0:0:
351,200,77387,1,2,0:3:0:0:
160,376,77618,5,0,1:0:0:0:
112,124,77849,1,0,0:0:0:0:
64,376,78080,2,0,P|72:332|96:300,1,83.9999974365235,8|0,1:0|0:0,0:0:0:0:
204,168,78310,2,0,P|208:216|196:256,1,83.9999974365235,2|0,0:0|0:0,0:0:0:0:
256,348,78541,1,0,1:0:0:0:
504,304,78772,1,0,0:0:0:0:
448,56,79003,2,0,L|420:148,1,83.9999974365235,8|0,1:0|0:0,0:0:0:0:
352,280,79233,2,0,L|327:199,1,83.9999974365235,2|0,0:0|0:0,0:0:0:0:
276,48,79464,6,0,P|240:32|192:36,1,83.9999974365235,0|0,1:0|0:0,0:0:0:0:
112,64,79695,1,2,0:0:0:0:
40,272,79926,1,8,1:0:0:0:
252,204,80156,2,0,P|256:248|240:284,1,83.9999974365235,2|0,0:3|0:0,0:0:0:0:
84,344,80387,2,0,P|120:312|164:300,1,83.9999974365235,0|0,1:0|0:0,0:0:0:0:
304,340,80618,2,0,P|352:340|392:308,1,83.9999974365235,2|0,0:0|0:0,0:0:0:0:
312,72,80849,2,0,L|319:155,1,83.9999974365235,8|0,1:0|0:0,0:0:0:0:
392,232,81080,1,2,0:3:0:0:
153,301,81310,6,0,L|121:165,1,125.999996154785,0|0,1:0|0:0,0:0:0:0:
312,72,81772,1,8,1:0:0:0:
408,172,81926,2,0,L|452:164,1,41.9999987182618,0|2,0:0|0:0,0:0:0:0:
368,304,82156,1,0,0:0:0:0:
368,304,82233,2,0,P|300:316|248:340,1,125.999996154785,0|0,1:0|0:0,0:0:0:0:
40,180,82695,1,8,1:0:0:0:
264,40,82926,1,2,0:0:0:0:
368,304,83156,6,0,P|364:244|392:184,1,125.999996154785,0|0,1:0|0:0,0:0:0:0:
484,40,83618,1,8,1:0:0:0:
488,268,83849,1,2,0:0:0:0:
320,240,84003,1,0,0:0:0:0:
288,232,84080,2,0,P|248:232|208:252,1,83.9999974365235,0|0,1:0|0:0,0:0:0:0:
140,356,84310,2,0,P|104:332|84:292,1,83.9999974365235,2|0,0:0|0:0,0:0:0:0:
92,116,84541,2,0,P|104:156|104:204,1,83.9999974365235,8|0,1:0|0:0,0:0:0:0:
8,236,84772,1,2,0:3:0:0:
284,132,85003,6,0,L|296:4,2,125.999996154785,0|0|8,1:0|0:0|1:0,0:0:0:0:
356,252,85618,1,0,0:0:0:0:
356,252,85695,2,0,P|316:268|288:296,1,83.9999974365235,2|0,0:0|0:0,0:0:0:0:
225,375,85926,1,0,1:0:0:0:
3,168,86156,1,0,0:0:0:0:
12,384,86387,1,8,1:0:0:0:
217,161,86618,1,2,0:0:0:0:
472,328,86849,6,0,L|464:280,1,41.9999987182618,0|0,1:0|0:0,0:0:0:0:
376,104,87080,2,0,L|382:145,1,41.9999987182618,2|0,0:0|0:0,0:0:0:0:
464,336,87310,6,0,L|456:288,1,41.9999987182618,8|0,1:0|0:0,0:0:0:0:
368,112,87541,2,0,L|374:153,1,41.9999987182618,2|0,0:0|0:0,0:0:0:0:
456,344,87772,6,0,L|448:296,1,41.9999987182618,0|0,1:0|0:0,0:0:0:0:
360,120,88003,2,0,L|366:161,1,41.9999987182618,2|0,0:0|0:0,0:0:0:0:
344,364,88233,5,8,1:0:0:0:
316,372,88310,1,0,3:0:0:0:
288,372,88387,1,0,3:0:0:0:
260,360,88464,1,2,3:2:0:0:
240,336,88541,1,0,3:0:0:0:
232,308,88618,1,0,3:0:0:0:
236,276,88695,6,0,P|244:220|216:148,1,125.999996154785,4|0,1:0|0:0,0:0:0:0:
48,24,89156,2,0,P|28:68|32:104,1,83.9999974365235,8|0,1:0|0:0,0:0:0:0:
108,272,89387,2,0,P|116:231|108:190,1,83.9999974365235,2|0,0:0|0:0,0:0:0:0:
4,344,89618,1,0,1:0:0:0:
248,364,89849,1,0,0:0:0:0:
24,356,90080,1,8,1:0:0:0:
268,376,90310,1,2,0:0:0:0:
400,172,90541,6,0,B|402:114|402:114|408:105|408:105|410:48,2,125.999996154785,0|0|8,1:0|0:0|1:0,0:0:0:0:
268,376,91233,1,2,0:0:0:0:
132,280,91387,1,0,0:0:0:0:
120,248,91464,2,0,P|112:200|120:156,1,83.9999974365235,0|0,1:0|0:0,0:0:0:0:
228,24,91695,2,0,P|236:72|228:116,1,83.9999974365235,2|0,0:0|0:0,0:0:0:0:
308,272,91926,2,0,P|300:228|308:184,1,83.9999974365235,8|0,1:0|0:0,0:0:0:0:
368,72,92156,1,2,3:0:0:0:
332,344,92387,5,0,1:0:0:0:
80,380,92618,1,0,0:0:0:0:
308,272,92849,1,8,1:0:0:0:
144,228,93003,1,0,0:0:0:0:
116,212,93080,1,2,0:0:0:0:
148,96,93233,1,0,0:0:0:0:
140,60,93310,2,0,P|192:28|256:36,1,125.999996154785,0|0,1:0|0:0,0:0:0:0:
488,252,93772,2,0,P|456:276|408:276,1,83.9999974365235,8|0,1:0|0:0,0:0:0:0:
304,260,94003,1,2,0:0:0:0:
400,24,94233,6,0,B|424:80|424:80|420:144,1,125.999996154785,0|0,1:0|0:0,0:0:0:0:
240,336,94695,2,0,B|216:280|216:280|220:216,1,125.999996154785,8|2,1:0|0:0,0:0:0:0:
240,72,95080,1,0,0:0:0:0:
208,60,95156,1,0,1:0:0:0:
64,140,95310,1,0,0:0:0:0:
100,124,95387,2,0,B|120:160|120:160|116:204,1,83.9999974365235,2|0,0:0|0:0,0:0:0:0:
64,292,95618,2,0,P|80:336|112:360,1,83.9999974365235,8|0,1:0|0:0,0:0:0:0:
216,372,95849,1,2,3:0:0:0:
240,72,96080,6,0,L|252:208,1,125.999996154785,0|0,1:0|0:0,0:0:0:0:
452,344,96541,2,0,L|440:248,1,83.9999974365235,8|0,1:0|0:0,0:0:0:0:
340,156,96772,2,0,L|350:239,1,83.9999974365235,2|0,0:0|0:0,0:0:0:0:
420,80,97003,1,0,1:0:0:0:
232,20,97233,1,0,0:0:0:0:
116,232,97464,2,0,P|120:184|108:144,1,83.9999974365235,8|0,1:0|0:0,0:0:0:0:
44,80,97695,1,2,0:0:0:0:
120,324,97926,6,0,P|172:304|204:244,2,125.999996154785,0|0|8,1:0|0:0|1:0,0:0:0:0:
148,60,98618,1,2,0:0:0:0:
312,28,98772,1,0,0:0:0:0:
344,24,98849,1,0,1:0:0:0:
392,136,99003,1,0,0:0:0:0:
424,132,99080,2,0,P|464:148|488:184,1,83.9999974365235,2|0,0:0|0:0,0:0:0:0:
424,296,99310,2,0,P|408:256|412:208,1,83.9999974365235,8|0,1:0|0:0,0:0:0:0:
496,80,99541,1,2,0:3:0:0:
380,360,99772,6,0,B|354:337|343:308|343:308|316:324|282:324,1,125.999996154785,0|0,1:0|0:0,0:0:0:0:
52,236,100233,1,8,1:0:0:0:
136,372,100387,1,0,0:0:0:0:
152,344,100464,2,0,P|172:304|176:264,1,83.9999974365235,2|0,0:0|0:0,0:0:0:0:
144,164,100695,2,0,P|164:96|212:56,1,125.999996154785,0|0,1:0|0:0,0:0:0:0:
376,244,101156,1,8,1:0:0:0:
452,4,101387,1,2,0:0:0:0:
248,196,101618,5,0,1:0:0:0:
240,228,101695,1,0,3:0:0:0:
240,260,101772,1,0,3:0:0:0:
248,292,101849,1,0,3:0:0:0:
368,64,102080,2,0,L|372:36,6,20.9999993591309,8|0|0|0|0|0|0,1:0|0:0|0:0|0:0|0:0|0:0|0:0,0:0:0:0:
468,316,102541,5,2,0:0:0:0:
440,336,102618,1,0,0:0:0:0:
408,348,102695,1,0,0:0:0:0:
376,344,102772,1,2,0:0:0:0:
344,328,102849,1,0,0:0:0:0:
324,300,102926,1,0,0:0:0:0:
312,272,103003,6,0,L|304:216,2,41.9999987182618,8|0|0,0:1|0:0|0:0,0:0:0:0:
172,328,103233,2,0,L|168:384,2,41.9999987182618,2|0|0,0:3|0:0|0:0,0:0:0:0:
104,192,103464,6,0,P|108:128|148:68,1,125.999996154785,4|0,1:0|0:0,0:0:0:0:
300,24,103849,1,0,0:0:0:0:
304,52,103926,2,0,L|316:136,1,83.9999974365235,8|0,1:0|0:0,0:0:0:0:
424,224,104156,2,0,L|412:140,1,83.9999974365235,2|0,0:0|0:0,0:0:0:0:
340,272,104387,2,0,B|320:280|320:280|320:304|320:304|284:316|260:360,1,125.999996154785,0|0,1:0|0:0,0:0:0:0:
92,336,104772,1,0,0:0:0:0:
64,328,104849,1,8,1:0:0:0:
110,201,105003,1,0,0:0:0:0:
96,176,105080,1,2,0:0:0:0:
232,128,105233,1,0,0:0:0:0:
239,100,105310,6,0,P|264:64|304:44,1,83.9999974365235,0|0,1:0|0:0,0:0:0:0:
335,160,105541,2,0,P|377:162|412:184,1,83.9999974365235,2|0,0:0|0:0,0:0:0:0:
340,272,105772,2,0,P|358:311|355:356,1,83.9999974365235,8|0,1:0|0:0,0:0:0:0:
240,323,106003,2,0,P|216:358|180:378,1,83.9999974365235,2|0,0:0|0:0,0:0:0:0:
136,272,106233,6,0,B|107:236|114:173|136:173|157:173|164:110|136:75,1,209.999993591309,0|0,1:0|0:0,0:0:0:0:
44,192,106695,2,0,P|40:240|52:284,1,83.9999974365235,8|0,1:0|0:0,0:0:0:0:
228,160,106926,1,2,3:0:0:0:
357,351,107156,6,0,B|383:294|383:294|382:229,1,125.999996154785,0|0,1:0|0:0,0:0:0:0:
284,92,107541,1,0,0:0:0:0:
280,120,107618,2,0,P|276:168|284:216,1,83.9999974365235,8|0,1:0|0:0,0:0:0:0:
256,340,107849,2,0,P|232:304|188:280,1,83.9999974365235,2|0,0:0|0:0,0:0:0:0:
60,304,108080,2,0,B|50:250|50:250|64:240|64:240|55:186,1,125.999996154785,0|0,1:0|0:0,0:0:0:0:
144,52,108464,1,0,0:0:0:0:
172,40,108541,1,8,1:0:0:0:
256,148,108695,1,0,0:0:0:0:
284,160,108772,1,2,0:0:0:0:
364,48,108926,1,0,0:0:0:0:
392,36,109003,6,0,P|436:40|472:68,1,83.9999974365235,0|0,1:0|0:0,0:0:0:0:
408,232,109233,2,0,L|400:144,1,83.9999974365235,2|0,0:0|0:0,0:0:0:0:
248,64,109464,2,0,L|255:147,1,83.9999974365235,8|0,1:0|0:0,0:0:0:0:
244,324,109695,2,0,P|192:324|164:308,1,83.9999974365235,2|0,0:0|0:0,0:0:0:0:
36,160,109926,2,0,B|68:191|74:222|0:217|11:289|54:271|97:253|110:325|35:321|40:352|74:384,1,251.999992309571,4|8,1:0|1:0,0:0:0:0:
136,120,110618,2,0,P|164:84|200:68,1,83.9999974365235,2|0,0:3|0:0,0:0:0:0:
312,128,110849,6,0,P|352:120|392:92,1,83.9999974365235,0|0,1:0|0:0,0:0:0:0:
512,228,111080,2,0,P|472:220|432:192,1,83.9999974365235,2|0,0:0|0:0,0:0:0:0:
316,328,111310,2,0,P|356:320|396:292,1,83.9999974365235,8|0,1:0|0:0,0:0:0:0:
216,268,111541,2,0,P|172:260|128:280,1,83.9999974365235,2|0,0:0|0:0,0:0:0:0:
40,376,111772,2,0,L|24:240,1,125.999996154785,0|0,1:0|0:0,0:0:0:0:
100,96,112156,1,0,0:0:0:0:
116,120,112233,1,8,1:0:0:0:
260,48,112387,1,0,0:0:0:0:
261,76,112464,1,2,0:0:0:0:
420,100,112618,1,0,0:0:0:0:
406,124,112695,6,0,P|392:168|396:216,1,83.9999974365235,0|0,1:0|0:0,0:0:0:0:
296,348,112926,2,0,P|310:304|306:256,1,83.9999974365235,2|0,0:0|0:0,0:0:0:0:
232,116,113156,2,0,P|218:160|222:208,1,83.9999974365235,8|0,1:0|0:0,0:0:0:0:
122,340,113387,2,0,P|136:296|132:248,1,83.9999974365235,2|0,0:0|0:0,0:0:0:0:
40,116,113618,2,0,B|26:85|40:55|40:55|70:41|100:55,1,125.999996154785,0|0,1:0|0:0,0:0:0:0:
219,197,114003,1,0,0:0:0:0:
244,212,114080,2,0,P|284:228|336:228,1,83.9999974365235,8|0,1:0|0:0,0:0:0:0:
428,208,114310,1,2,0:3:0:0:
122,340,114541,6,0,P|136:260|124:212,1,125.999996154785,0|0,1:0|0:0,0:0:0:0:
24,88,114926,1,0,0:0:0:0:
48,68,115003,2,0,P|84:48|128:48,1,83.9999974365235,8|0,1:0|0:0,0:0:0:0:
232,168,115233,2,0,P|273:167|309:147,1,83.9999974365235,2|0,0:0|0:0,0:0:0:0:
416,32,115464,2,0,L|424:164,1,125.999996154785,0|0,1:0|0:0,0:0:0:0:
375,328,115849,1,0,0:0:0:0:
367,300,115926,2,0,P|347:256|319:224,1,83.9999974365235,8|0,1:0|0:0,0:0:0:0:
212,132,116156,2,0,P|188:168|180:216,1,83.9999974365235,2|0,0:0|0:0,0:0:0:0:
120,328,116387,5,0,1:0:0:0:
92,320,116464,1,0,1:0:0:0:
68,304,116541,1,0,1:0:0:0:
52,280,116618,1,0,1:0:0:0:
44,252,116695,1,0,1:0:0:0:
44,224,116772,1,0,1:0:0:0:
52,196,116849,6,0,L|112:128,1,83.9999974365235,8|0,1:0|0:0,0:0:0:0:
336,32,117080,2,0,L|280:94,1,83.9999974365235,2|0,1:2|0:0,0:0:0:0:
210,289,117310,2,0,B|220:318|255:333|287:328|287:328|309:365|348:375|348:375|386:386|426:363|436:324|436:324|446:286|424:246|389:237|389:237|367:299,1,461.999985900879,4|0,1:0|0:0,0:0:0:0:
276,248,118233,6,0,P|248:216|204:208,1,83.9999974365235,4|0,1:0|0:0,0:0:0:0:
120,352,118464,2,0,P|128:304|120:256,1,83.9999974365235,2|0,0:0|0:0,0:0:0:0:
60,76,118695,2,0,P|44:140|64:216,1,125.999996154785,8|2,1:0|3:0,0:0:0:0:
208,128,119080,1,0,0:0:0:0:
236,120,119156,2,0,P|272:104|304:64,1,83.9999974365235,0|0,1:0|0:0,0:0:0:0:
416,0,119387,2,0,P|432:44|428:92,1,83.9999974365235,2|0,0:0|0:0,0:0:0:0:
464,212,119618,2,0,P|452:256|456:308,1,83.9999974365235,8|0,1:0|0:0,0:0:0:0:
336,384,119849,2,0,P|328:336|304:292,1,83.9999974365235,2|0,3:0|0:0,0:0:0:0:
212,188,120080,6,0,L|124:204,1,83.9999974365235,0|0,1:0|0:0,0:0:0:0:
24,336,120310,2,0,L|106:320,1,83.9999974365235,2|0,0:0|0:0,0:0:0:0:
221,180,120541,2,0,L|124:198,1,83.9999974365235,8|0,1:0|0:0,0:0:0:0:
14,343,120772,2,0,L|105:327,1,83.9999974365235,2|0,3:0|0:0,0:0:0:0:
144,120,121003,2,0,P|88:64|80:156,1,209.999993591309,0|0,1:0|0:0,0:0:0:0:
152,272,121464,5,8,1:0:0:0:
180,276,121541,1,0,0:0:0:0:
208,280,121618,1,0,0:0:0:0:
236,284,121695,1,2,0:3:0:0:
264,288,121772,1,0,0:0:0:0:
292,292,121849,1,0,0:0:0:0:
320,296,121926,6,0,P|376:288|424:228,1,125.999996154785,0|2,1:0|0:0,0:0:0:0:
448,72,122310,1,0,0:0:0:0:
420,64,122387,2,0,P|376:56|336:72,1,83.9999974365235,8|0,1:0|0:0,0:0:0:0:
256,224,122618,2,0,P|284:192|300:132,1,83.9999974365235,2|0,0:3|0:0,0:0:0:0:
164,32,122849,2,0,B|132:64|132:116|132:116|132:152,1,125.999996154785,0|2,1:0|0:0,0:0:0:0:
52,296,123233,1,0,0:0:0:0:
80,308,123310,1,8,1:0:0:0:
256,296,123464,1,0,0:0:0:0:
228,284,123541,1,2,0:3:0:0:
204,120,123695,1,0,0:0:0:0:
212,92,123772,6,0,P|240:56|280:40,1,83.9999974365235,0|0,1:0|0:0,0:0:0:0:
448,84,124003,2,0,P|420:120|380:136,1,83.9999974365235,2|0,0:0|0:0,0:0:0:0:
188,108,124233,2,0,P|150:125|125:159,1,83.9999974365235,8|0,1:0|0:0,0:0:0:0:
165,335,124464,2,0,P|202:317|227:283,1,83.9999974365235,2|0,0:3|0:0,0:0:0:0:
296,96,124695,6,0,P|288:140|304:184,1,83.9999974365235,4|0,1:0|0:0,0:0:0:0:
360,256,124926,1,2,0:0:0:0:
32,360,125156,2,0,B|52:316|32:276|32:276|44:236,1,125.999996154785,8|2,1:0|0:3,0:0:0:0:
120,8,125618,5,0,1:0:0:0:
284,44,125772,1,0,0:0:0:0:
312,52,125849,1,2,0:0:0:0:
112,96,126003,1,0,0:0:0:0:
84,104,126080,1,0,1:0:0:0:
440,136,126310,5,2,0:1:0:0:
84,224,126464,5,0,0:0:0:0:
100,248,126541,2,0,P|140:264|184:256,1,83.9999974365235,0|0,1:0|0:0,0:0:0:0:
256,132,126772,2,0,L|244:48,1,83.9999974365235,2|0,0:0|0:0,0:0:0:0:
400,56,127003,2,0,L|368:134,1,83.9999974365235,8|0,1:0|0:0,0:0:0:0:
440,220,127233,2,0,L|506:167,1,83.9999974365235,2|0,3:0|0:0,0:0:0:0:
448,304,127464,6,0,P|400:296|372:268,1,83.9999974365235,0|0,1:0|0:0,0:0:0:0:
256,132,127695,2,0,L|248:232,1,83.9999974365235,2|0,0:0|0:0,0:0:0:0:
140,336,127926,2,0,P|132:288|108:248,1,83.9999974365235,8|0,1:0|0:0,0:0:0:0:
32,104,128156,2,0,L|40:204,1,83.9999974365235,2|0,0:3|0:0,0:0:0:0:
172,100,128387,2,0,P|196:64|236:44,1,83.9999974365235,0|0,1:0|0:0,0:0:0:0:
249,215,128618,2,0,P|273:251|313:271,1,83.9999974365235,2|0,0:0|0:0,0:0:0:0:
424,288,128849,1,8,1:0:0:0:
464,140,129003,1,0,0:0:0:0:
452,112,129080,1,2,0:3:0:0:
432,92,129156,1,0,0:0:0:0:
404,80,129233,1,0,0:0:0:0:
376,80,129310,6,0,L|240:100,1,125.999996154785,0|2,1:0|0:0,0:0:0:0:
128,224,129695,1,0,0:0:0:0:
156,220,129772,2,0,L|240:208,1,83.9999974365235,8|0,1:0|0:0,0:0:0:0:
360,328,130003,2,0,P|316:320|284:288,1,83.9999974365235,2|0,0:3|0:0,0:0:0:0:
216,96,130233,2,0,P|180:140|124:116,1,125.999996154785,0|2,1:0|0:0,0:0:0:0:
32,252,130618,1,0,0:0:0:0:
36,280,130695,2,0,P|48:324|76:356,1,83.9999974365235,8|0,1:0|0:0,0:0:0:0:
216,272,130926,2,0,P|172:264|132:272,1,83.9999974365235,2|0,0:3|0:0,0:0:0:0:
256,352,131156,5,8,1:0:0:0:
472,280,131310,1,0,1:0:0:0:
444,272,131387,1,2,1:3:0:0:
228,200,131541,1,0,1:0:0:0:
256,192,131618,1,8,1:0:0:0:
480,124,131772,1,0,1:0:0:0:
452,116,131849,1,2,1:3:0:0:
220,64,132003,1,0,1:0:0:0:
248,56,132080,6,0,L|288:44,2,41.9999987182618,8|0|0,1:0|1:0|1:0,1:0:0:0:
88,92,132310,2,0,L|48:80,2,41.9999987182618,2|0|0,1:3|1:0|1:0,1:0:0:0:
228,200,132541,2,0,P|236:248|232:296,1,83.9999974365235,8|0,1:0|1:0,0:0:0:0:
72,372,132772,2,0,P|64:324|68:276,1,83.9999974365235,2|0,1:3|1:0,1:0:0:0:
308,172,133003,6,0,P|320:240|317:301,1,125.999996154785,4|2,1:0|0:0,0:0:0:0:
140,192,133387,1,0,0:0:0:0:
144,164,133464,2,0,P|152:120|176:84,1,83.9999974365235,8|0,1:0|0:0,0:0:0:0:
344,36,133695,2,0,P|328:72|296:104,1,83.9999974365235,2|0,0:3|0:0,0:0:0:0:
223,277,133926,2,0,P|275:321|319:293,1,125.999996154785,0|2,1:0|0:0,0:0:0:0:
420,152,134310,1,0,0:0:0:0:
424,180,134387,2,0,L|440:268,1,83.9999974365235,8|0,1:0|0:0,0:0:0:0:
332,378,134618,2,0,L|316:290,1,83.9999974365235,2|0,0:3|0:0,0:0:0:0:
296,103,134849,6,0,P|252:107|208:119,1,83.9999974365235,0|0,1:0|0:0,0:0:0:0:
48,179,135080,2,0,P|92:183|136:195,1,83.9999974365235,2|0,0:0|0:0,0:0:0:0:
305,262,135310,2,0,P|261:266|217:278,1,83.9999974365235,8|0,1:0|0:0,0:0:0:0:
41,338,135541,2,0,P|85:342|129:354,1,83.9999974365235,2|0,0:3|0:0,0:0:0:0:
316,356,135772,2,0,P|384:320|396:276,1,125.999996154785,0|2,1:0|0:0,0:0:0:0:
352,112,136156,1,0,0:0:0:0:
356,84,136233,2,0,L|364:32,2,41.9999987182618,8|0|0,1:0|0:0|0:0,0:0:0:0:
216,172,136464,2,0,L|220:220,2,41.9999987182618,2|0|0,3:0|0:0|0:0,0:0:0:0:
100,36,136695,6,0,B|64:88|64:88|60:156,1,125.999996154785,0|2,1:0|0:0,0:0:0:0:
136,304,137080,1,0,0:0:0:0:
164,300,137156,2,0,P|208:288|240:252,1,83.9999974365235,8|0,1:0|0:0,0:0:0:0:
320,140,137387,2,0,P|364:152|396:188,1,83.9999974365235,2|0,0:3|0:0,0:0:0:0:
364,336,137618,2,0,P|324:300|316:228,1,125.999996154785,0|2,1:0|0:0,0:0:0:0:
404,56,138003,1,0,0:0:0:0:
400,84,138080,1,8,1:0:0:0:
252,180,138233,1,0,0:0:0:0:
248,152,138310,1,2,0:3:0:0:
96,80,138464,1,0,0:0:0:0:
104,108,138541,6,0,P|112:152|104:200,1,83.9999974365235,0|0,1:0|0:0,0:0:0:0:
36,332,138772,2,0,P|72:360|116:364,1,83.9999974365235,2|0,0:0|0:0,0:0:0:0:
260,276,139003,2,0,P|220:263|176:280,1,83.9999974365235,8|0,1:0|0:0,0:0:0:0:
340,356,139233,2,0,P|372:324|384:276,1,83.9999974365235,2|0,0:3|0:0,0:0:0:0:
412,104,139464,2,0,L|420:192,1,83.9999974365235,4|0,1:0|0:0,0:0:0:0:
488,268,139695,1,2,0:0:0:0:
100,104,139926,2,0,L|88:240,1,125.999996154785,8|2,1:0|0:3,0:0:0:0:
340,356,140387,5,0,1:0:0:0:
380,168,140541,1,0,0:0:0:0:
388,196,140618,1,2,0:0:0:0:
236,112,140772,1,0,0:0:0:0:
244,84,140849,1,8,1:0:0:0:
448,348,141080,5,2,0:1:0:0:
256,292,141233,5,0,0:0:0:0:
228,284,141310,2,0,P|184:280|144:288,1,83.9999974365235,0|0,1:0|0:0,0:0:0:0:
24,348,141541,2,0,L|8:256,1,83.9999974365235,2|0,0:0|0:0,0:0:0:0:
80,84,141772,2,0,L|94:166,1,83.9999974365235,8|0,1:0|0:0,0:0:0:0:
228,284,142003,2,0,P|264:256|280:216,1,83.9999974365235,2|0,0:3|0:0,0:0:0:0:
352,64,142233,6,0,L|368:148,1,83.9999974365235,0|0,1:0|0:0,0:0:0:0:
408,320,142464,2,0,L|424:236,1,83.9999974365235,2|0,0:0|0:0,0:0:0:0:
432,64,142695,2,0,L|448:148,1,83.9999974365235,8|0,1:0|0:0,0:0:0:0:
488,320,142926,2,0,L|504:236,1,83.9999974365235,2|0,0:3|0:0,0:0:0:0:
432,64,143156,2,0,P|392:52|352:64,1,83.9999974365235,0|0,1:0|0:0,0:0:0:0:
276,144,143387,1,2,0:0:0:0:
244,376,143618,1,8,1:0:0:0:
76,324,143772,1,0,0:0:0:0:
56,300,143849,1,2,0:3:0:0:
48,272,143926,1,0,0:0:0:0:
52,244,144003,1,0,0:0:0:0:
68,220,144080,6,0,P|96:168|88:96,1,125.999996154785,0|2,1:0|0:0,0:0:0:0:
236,28,144464,1,0,0:0:0:0:
240,56,144541,2,0,L|252:140,1,83.9999974365235,8|0,1:0|0:0,0:0:0:0:
404,200,144772,2,0,L|392:116,1,83.9999974365235,2|0,0:3|0:0,0:0:0:0:
300,284,145003,2,0,P|340:332|404:344,1,125.999996154785,0|2,1:0|0:0,0:0:0:0:
480,168,145387,1,0,0:0:0:0:
480,140,145464,2,0,P|480:92|456:52,1,83.9999974365235,8|0,1:0|0:0,0:0:0:0:
304,140,145695,2,0,P|304:92|328:52,1,83.9999974365235,2|0,0:3|0:0,0:0:0:0:
240,224,145926,5,8,1:0:0:0:
216,240,146003,1,0,1:0:0:0:
192,256,146080,1,0,1:0:0:0:
168,272,146156,1,0,1:0:0:0:
400,344,146387,2,0,L|416:384,3,41.9999987182618,0|0|0|0,1:0|1:0|1:0|1:0,0:0:0:0:
204,40,146849,5,8,1:0:0:0:
48,128,147003,1,0,1:0:0:0:
76,136,147080,1,2,1:2:0:0:
300,160,147233,1,0,1:0:0:0:
272,168,147310,1,8,1:0:0:0:
40,248,147464,1,0,1:0:0:0:
68,256,147541,1,2,1:2:0:0:
312,284,147695,1,0,1:0:0:0:
284,292,147772,6,0,L|128:328,1,157.500006008148,4|0,1:0|0:0,0:0:0:0:
228,92,148695,2,0,L|384:56,1,157.500006008148,2|0,0:0|0:0,0:0:0:0:
480,328,149618,2,0,P|472:296|444:260,1,78.7500030040742,2|0,0:0|0:0,0:0:0:0:
336,160,150080,2,0,P|328:192|332:240,1,78.7500030040742
252,352,150541,2,0,P|184:360|104:312,1,157.500006008148,2|0,0:0|0:0,0:0:0:0:
40,136,151233,2,0,L|36:164,2,26.2500010013581
44,112,151464,6,0,P|112:104|192:152,1,157.500006008148,2|0,0:0|0:0,0:0:0:0:
216,228,152156,1,0,0:0:0:0:
276,292,152387,2,0,P|352:304|408:248,1,157.500006008148,2|0,0:0|0:0,0:0:0:0:
424,56,153310,6,0,L|360:104,1,78.7500030040742,2|0,0:0|0:0,0:0:0:0:
151,280,153772,2,0,L|88:328,1,78.7500030040742
88,56,154233,2,0,L|152:104,1,78.7500030040742,2|0,0:0|0:0,0:0:0:0:
361,280,154695,2,0,L|424:328,1,78.7500030040742
256,64,155156,6,0,P|264:136|212:204,1,157.500006008148,4|0,0:0|0:0,0:0:0:0:
136,236,155849,1,0,0:0:0:0:
72,296,156080,2,0,B|101:324|143:323|143:323|178:345|218:335,1,157.500006008148,2|0,0:0|0:0,0:0:0:0:
296,296,156772,1,0,0:0:0:0:
384,296,157003,2,0,P|416:304|456:336,1,78.7500030040742,2|0,0:0|0:0,0:0:0:0:
219,335,157464,2,0,P|208:296|220:256,1,78.7500030040742
360,140,157926,2,0,P|352:172|316:204,1,78.7500030040742,2|0,0:0|0:0,0:0:0:0:
240,36,158387,1,0,0:0:0:0:
136,264,158618,2,0,L|132:300,2,26.2500010013581
140,240,158849,6,0,P|92:216|36:260,1,131.25000500679,2|0,0:0|0:0,0:0:0:0:
32,288,159310,2,0,L|40:372,1,78.7500030040742,2|0,0:0|0:0,0:0:0:0:
244,320,159772,2,0,L|256:236,1,78.7500030040742
380,80,160233,2,0,L|384:160,1,78.7500030040742
488,312,160695,1,2,0:3:0:0:
256,192,160772,12,4,162541,0:0:0:0:
88,40,177310,6,0,L|160:52,1,52.5000020027161,2|0,0:0|0:0,0:0:0:0:
208,116,177541,2,0,L|136:128,1,52.5000020027161
88,192,177772,2,0,L|160:204,1,52.5000020027161,2|0,0:0|0:0,0:0:0:0:
208,268,178003,2,0,L|136:280,1,52.5000020027161
80,332,178233,2,0,P|100:356|132:368,1,52.5000020027161,2|0,0:0|0:0,0:0:0:0:
148,372,178464,1,0,0:0:0:0:
268,352,178618,1,2,0:3:0:0:
444,116,179156,6,0,P|416:132|360:140,1,78.7500030040742,2|0,0:0|0:0,0:0:0:0:
264,72,179541,1,0,0:0:0:0:
236,64,179618,1,2,0:0:0:0:
192,180,179772,1,0,0:0:0:0:
164,188,179849,1,0,0:0:0:0:
84,52,180003,1,0,0:0:0:0:
88,80,180080,2,0,P|88:108|76:136,1,52.5000020027161,2|0,0:0|0:0,0:0:0:0:
64,156,180310,1,0,0:0:0:0:
32,276,180464,2,0,P|52:308|96:332,1,78.7500030040742,2|0,0:3|0:0,0:0:0:0:
248,288,180772,2,0,P|224:276|196:272,1,52.5000020027161,2|0,0:0|0:0,0:0:0:0:
168,88,181003,6,0,L|164:56,2,26.2500010013581,2|0|0,0:0|0:0|0:0,0:0:0:0:
172,116,181233,2,0,P|200:132|232:136,1,52.5000020027161
304,88,181464,2,0,P|328:80|360:80,1,52.5000020027161,2|0,0:0|0:0,0:0:0:0:
432,136,181695,2,0,P|440:160|440:192,1,52.5000020027161
384,264,181926,2,0,P|376:288|376:316,1,52.5000020027161,2|0,0:0|0:0,0:0:0:0:
384,344,182156,1,0,0:0:0:0:
244,364,182310,1,2,0:3:0:0:
72,64,182849,6,0,L|80:152,1,78.7500030040742,2|0,0:0|0:0,0:0:0:0:
168,232,183233,1,0,0:0:0:0:
164,204,183310,1,2,0:0:0:0:
208,56,183464,1,0,0:0:0:0:
212,84,183541,1,0,0:0:0:0:
296,216,183695,1,0,0:0:0:0:
292,188,183772,2,0,P|292:160|304:132,1,52.5000020027161,2|0,0:0|0:0,0:0:0:0:
316,112,184003,1,0,0:0:0:0:
432,52,184156,2,0,P|448:88|448:128,1,78.7500030040742,2|0,0:3|0:0,0:0:0:0:
408,264,184464,2,0,L|400:208,1,52.5000020027161,2|0,0:0|0:0,0:0:0:0:
344,348,184695,6,0,P|320:336|288:336,1,52.5000020027161,2|0,0:0|0:0,0:0:0:0:
204,360,184926,2,0,L|144:344,1,52.5000020027161
60,320,185156,2,0,P|52:292|56:264,1,52.5000020027161,2|0,0:0|0:0,0:0:0:0:
128,208,185387,2,0,L|120:148,1,52.5000020027161
56,84,185618,2,0,P|80:68|104:60,1,52.5000020027161,2|0,0:0|0:0,0:0:0:0:
132,56,185849,1,0,0:0:0:0:
264,84,186003,1,2,0:3:0:0:
412,356,186541,6,0,P|432:320|440:280,1,78.7500030040742,2|0,0:0|0:0,0:0:0:0:
460,152,186926,1,0,0:0:0:0:
464,124,187003,1,2,0:0:0:0:
328,184,187156,1,0,0:0:0:0:
311,161,187233,1,0,0:0:0:0:
296,312,187387,1,0,0:0:0:0:
267,307,187464,2,0,L|208:296,1,52.5000020027161,2|0,0:0|0:0,0:0:0:0:
188,292,187695,1,0,0:0:0:0:
68,232,187849,2,0,P|64:188|84:144,1,78.7500030040742,2|0,0:3|0:0,0:0:0:0:
184,40,188156,2,0,P|188:68|188:96,1,52.5000020027161,2|0,0:0|0:0,0:0:0:0:
256,208,188387,6,0,P|284:204|304:192,1,52.5000020027161,2|0,0:0|0:0,0:0:0:0:
312,96,188618,2,0,P|340:100|360:112,1,52.5000020027161
452,96,188849,2,0,P|455:124|448:146,1,52.5000020027161,2|0,0:0|0:0,0:0:0:0:
496,232,189080,2,0,P|469:242|446:242,1,52.5000020027161
368,312,189310,2,0,P|351:289|345:266,1,52.5000020027161,2|0,0:0|0:0,0:0:0:0:
344,236,189541,1,0,0:0:0:0:
256,136,189695,1,2,0:3:0:0:
48,348,190233,6,0,P|68:308|68:264,1,78.7500030040742,2|0,0:0|0:0,0:0:0:0:
92,144,190618,1,0,0:0:0:0:
104,172,190695,1,2,0:0:0:0:
176,288,190849,1,0,0:0:0:0:
180,260,190926,1,0,0:0:0:0:
284,188,191080,1,0,0:0:0:0:
288,160,191156,2,0,P|292:132|308:96,1,52.5000020027161,2|0,0:0|0:0,0:0:0:0:
312,84,191387,1,0,0:0:0:0:
432,144,191541,2,0,P|444:104|440:60,1,78.7500030040742,2|0,0:3|0:0,0:0:0:0:
384,216,191849,2,0,P|372:244|372:272,1,52.5000020027161,2|0,0:0|0:0,0:0:0:0:
312,348,192080,6,0,L|200:356,1,105,2|2,0:0|0:3,0:0:0:0:
60,308,192464,1,0,0:0:0:0:
36,296,192541,1,2,0:0:0:0:
120,184,192695,1,0,0:0:0:0:
111,158,192772,1,2,0:3:0:0:
248,100,192926,1,0,0:0:0:0:
260,75,193003,2,0,P|292:52|324:48,1,70,2|0,0:0|0:0,0:0:0:0:
424,76,193233,2,0,P|440:112|440:144,1,70,2|0,0:3|0:0,0:0:0:0:
364,212,193464,2,0,P|352:248|360:292,1,70,2|0,0:0|0:0,0:0:0:0:
284,356,193695,2,0,P|244:364|212:356,1,70,2|0,0:3|0:0,0:0:0:0:
116,328,193926,5,2,0:0:0:0:
72,192,194080,1,0,0:0:0:0:
64,168,194156,1,2,0:3:0:0:
136,56,194310,1,0,0:0:0:0:
140,80,194387,1,2,0:0:0:0:
216,184,194541,1,0,0:0:0:0:
220,160,194618,1,2,0:3:0:0:
304,52,194772,1,0,0:0:0:0:
305,76,194849,1,2,0:0:0:0:
384,184,195003,1,0,0:0:0:0:
380,160,195080,1,2,0:3:0:0:
292,252,195233,1,0,0:0:0:0:
288,276,195310,2,0,L|282:314,2,35,2|0|0,1:2|0:0|0:0,0:0:0:0:
176,228,195541,2,0,P|136:220|100:232,1,70,2|0,0:3|0:0,0:0:0:0:
32,296,195772,6,0,P|56:332|96:348,1,83.9999974365235,0|0,1:0|0:0,0:0:0:0:
192,328,196003,2,0,P|236:316|280:332,1,83.9999974365235,2|0,1:3|0:0,0:0:0:0:
368,360,196233,2,0,P|412:344|440:308,1,83.9999974365235,0|0,1:0|0:0,0:0:0:0:
484,228,196464,2,0,L|472:144,1,83.9999974365235,2|0,1:3|0:0,0:0:0:0:
380,232,196695,2,0,P|348:216|316:176,1,83.9999974365235,0|0,1:0|0:0,0:0:0:0:
284,80,196926,2,0,P|244:64|196:68,1,83.9999974365235,2|0,1:3|0:0,0:0:0:0:
100,80,197156,2,0,L|80:172,1,83.9999974365235,0|0,1:0|0:0,0:0:0:0:
172,228,197387,2,0,L|189:145,1,83.9999974365235,2|0,1:3|0:0,0:0:0:0:
284,80,197618,5,0,1:0:0:0:
416,232,197772,1,0,0:0:0:0:
416,232,197849,1,2,1:3:0:0:
320,300,198003,1,0,0:0:0:0:
320,300,198080,1,0,1:3:0:0:
192,300,198233,1,0,0:0:0:0:
192,300,198310,1,2,1:3:0:0:
96,232,198464,1,0,0:0:0:0:
96,232,198541,2,0,P|48:232|20:208,1,83.9999974365235,0|0,1:0|0:0,0:0:0:0:
44,112,198772,2,0,P|92:112|120:136,1,83.9999974365235,2|0,1:3|0:0,0:0:0:0:
196,236,199003,5,0,1:0:0:0:
224,240,199080,1,0,1:0:0:0:
252,236,199156,1,0,1:0:0:0:
280,224,199233,1,2,1:3:0:0:
300,204,199310,1,0,1:0:0:0:
316,180,199387,1,0,1:0:0:0:
320,152,199464,6,0,P|328:108|360:72,1,83.9999974365235,0|2,1:0|0:2,0:0:0:0:
496,96,199695,2,0,P|488:140|456:176,1,83.9999974365235,2|2,1:3|0:0,0:0:0:0:
332,236,199926,2,0,P|300:268|284:312,1,83.9999974365235,0|2,1:0|0:0,0:0:0:0:
164,372,200156,2,0,P|124:360|88:324,1,83.9999974365235,2|0,1:3|0:0,0:0:0:0:
60,188,200387,2,0,L|52:104,1,83.9999974365235,0|2,1:0|0:0,0:0:0:0:
172,28,200618,2,0,P|216:16|256:32,1,83.9999974365235,2|2,1:3|0:0,0:0:0:0:
328,148,200849,2,0,L|308:240,1,83.9999974365235,0|2,1:0|0:0,0:0:0:0:
356,344,201080,1,2,1:3:0:0:
384,340,201156,1,0,1:0:0:0:
408,328,201233,1,0,1:0:0:0:
428,308,201310,6,0,L|445:225,1,83.9999974365235,8|2,1:0|0:0,1:0:0:0:
480,92,201541,2,0,P|460:48|416:28,1,83.9999974365235,8|2,1:0|0:0,0:0:0:0:
296,84,201772,2,0,P|256:100|204:88,1,83.9999974365235,8|2,1:0|0:0,0:0:0:0:
92,24,202003,2,0,P|64:56|48:104,1,83.9999974365235,8|0,1:0|0:0,0:0:0:0:
136,208,202233,2,0,P|144:252|128:296,1,83.9999974365235,8|2,1:0|0:0,0:0:0:0:
24,376,202464,2,0,L|108:384,1,83.9999974365235,8|2,1:0|0:0,0:0:0:0:
240,356,202695,1,8,1:0:0:0:
264,340,202772,1,0,1:0:0:0:
280,316,202849,1,0,1:0:0:0:
288,288,202926,1,0,1:0:0:0:
288,260,203003,1,0,1:0:0:0:
280,232,203080,1,0,1:0:0:0:
268,208,203156,5,4,1:0:0:0:
256,192,203233,12,4,204080,1:0:0:0:
256,192,204156,12,0,204926,0:0:0:0:
256,280,205003,6,0,L|256:312,34,20.9999993591309,4|0|0|0|0|0|0|0|0|0|0|0|2|0|0|0|0|0|0|0|0|0|0|0|2|0|0|0|0|0|0|0|0|0|0,1:0|1:0|1:0|1:0|1:0|1:0|1:0|1:0|1:0|1:0|1:0|1:0|1:2|1:0|1:0|1:0|1:0|1:0|1:0|1:0|1:0|1:0|1:0|1:0|1:2|1:0|1:0|1:0|1:0|1:0|1:2|1:0|1:0|1:0|1:0,1:0:0:0:
256,192,206387,1,2,3:3:0:0:
96,40,206849,6,0,L|112:288,1,244.999992523194,4|0,1:0|0:0,0:0:0:0:
224,324,207310,2,0,L|208:79,1,244.999992523194,8|0,1:0|0:0,0:0:0:0:
312,20,207772,2,0,L|324:180,1,146.999995513916,0|0,1:0|0:0,0:0:0:0:
436,296,208156,1,0,0:0:0:0:
435,271,208233,2,0,L|431:171,1,97.9999970092774,8|0,1:0|0:0,0:0:0:0:
343,315,208464,2,0,B|327:311|327:311|315:327|315:327|287:323|255:339,1,97.9999970092774,2|0,0:0|0:0,0:0:0:0:
140,380,208695,6,0,P|76:340|108:180,1,244.999992523194,0|0,1:0|0:0,0:0:0:0:
200,120,209156,2,0,P|257:178|164:276,1,244.999992523194,8|0,1:0|0:0,0:0:0:0:
52,128,209618,2,0,P|92:72|168:52,1,146.999995513916,0|0,1:0|0:0,0:0:0:0:
332,48,210003,1,0,1:0:0:0:
364,56,210080,1,8,1:0:0:0:
396,72,210156,1,0,1:0:0:0:
420,100,210233,1,0,1:0:0:0:
432,132,210310,1,2,1:0:0:0:
396,352,210541,6,0,P|304:316|300:180,1,244.999992523194,0|0,1:0|0:0,0:0:0:0:
384,245,211003,2,0,P|276:289|192:205,1,244.999992523194,8|0,1:0|0:0,0:0:0:0:
297,184,211464,2,0,P|293:252|237:308,1,146.999995513916,0|0,1:0|0:0,0:0:0:0:
72,336,211849,1,0,0:0:0:0:
68,312,211926,2,0,L|52:200,1,97.9999970092774,8|0,1:0|0:0,0:0:0:0:
152,24,212156,2,0,B|156:40|156:40|164:44|164:44|176:124,1,97.9999970092774,2|0,0:0|0:0,0:0:0:0:
240,306,212387,6,0,P|304:322|404:196,1,244.999992523194,0|0,1:0|0:0,0:0:0:0:
296,216,212849,2,0,P|344:110|460:109,1,244.999992523194,8|0,1:0|0:0,0:0:0:0:
380,20,213310,2,0,P|340:28|288:56,1,97.9999970092774,8|0,1:0|1:0,0:0:0:0:
96,96,213541,2,0,P|136:104|188:132,1,97.9999970092774,0|0,1:0|1:0,0:0:0:0:
296,216,213772,2,0,P|284:264|236:300,1,97.9999970092774,8|0,1:0|1:0,0:0:0:0:
84,248,214003,2,0,L|40:208,2,48.9999985046387,0|0|0,1:0|1:0|1:0,0:0:0:0:
220,372,214233,6,0,P|332:320|364:200,1,244.999992523194,4|0,1:0|0:0,0:0:0:0:
368,64,214695,2,0,P|256:116|224:236,1,244.999992523194,8|0,1:0|0:0,0:0:0:0:
124,328,215156,2,0,P|120:272|68:196,1,146.999995513916,0|0,1:0|0:0,0:0:0:0:
152,44,215541,1,0,0:0:0:0:
176,48,215618,2,0,L|284:64,1,97.9999970092774,8|0,1:0|0:0,0:0:0:0:
424,192,215849,2,0,L|327:177,1,97.9999970092774,2|0,0:0|0:0,0:0:0:0:
132,244,216080,6,0,B|176:214|240:236|240:268|239:301|303:322|348:293,1,244.999992523194,0|0,1:0|0:0,0:0:0:0:
424,192,216541,2,0,P|376:92|256:108,1,244.999992523194,8|0,1:0|0:0,0:0:0:0:
132,244,217003,2,0,P|132:184|116:96,1,146.999995513916,0|0,1:0|0:0,0:0:0:0:
264,308,217387,1,0,0:0:0:0:
280,340,217464,1,8,1:0:0:0:
304,364,217541,1,0,0:0:0:0:
336,376,217618,1,0,0:0:0:0:
372,376,217695,1,2,0:1:0:0:
452,124,217926,6,0,B|390:105|378:33|378:33|343:96|278:93,1,244.999992523194,0|0,1:0|0:0,0:0:0:0:
164,104,218387,2,0,B|160:166|223:202|223:202|152:214|133:275,1,244.999992523194,8|0,1:0|0:0,0:0:0:0:
36,328,218849,2,0,P|84:376|160:384,1,146.999995513916,0|0,1:0|0:0,0:0:0:0:
328,336,219233,1,0,0:0:0:0:
352,328,219310,2,0,P|400:324|452:336,1,97.9999970092774,8|0,1:0|0:0,0:0:0:0:
512,168,219541,2,0,P|464:178|415:174,1,97.9999970092774,2|0,0:0|0:0,0:0:0:0:
320,56,219772,6,0,L|224:76,1,97.9999970092774,0|0,1:0|0:0,0:0:0:0:
128,144,220003,2,0,L|224:164,1,97.9999970092774,0|0,1:0|0:0,0:0:0:0:
312,232,220233,2,0,L|256:244,1,48.9999985046387,8|0,1:0|0:0,0:0:0:0:
196,304,220387,1,0,1:0:0:0:
397,81,220695,6,0,P|417:125|413:181,1,97.9999970092774,2|0,1:0|1:0,0:0:0:0:
376,312,220926,2,0,L|408:356,2,48.9999985046387,0|0|0,1:0|1:0|1:0,0:0:0:0:
236,316,221156,1,10,1:0:0:0:
236,316,221618,6,0,P|152:296|128:152,1,244.999992523194,4|0,1:0|0:0,0:0:0:0:
220,208,222080,2,0,B|252:140|204:80|204:80|244:20|304:28,1,244.999992523194,8|0,1:0|0:0,0:0:0:0:
396,52,222541,2,0,B|383:107|383:107|407:130|407:130|396:186,1,146.999995513916,0|0,1:0|0:0,0:0:0:0:
316,336,222926,1,0,0:0:0:0:
308,312,223003,2,0,P|276:264|232:248,1,97.9999970092774,8|0,1:0|0:0,0:0:0:0:
56,196,223233,2,0,P|88:148|136:132,1,97.9999970092774,2|0,0:0|0:0,0:0:0:0:
288,40,223464,6,0,P|280:100|292:140,1,97.9999970092774,0|0,1:0|0:0,0:0:0:0:
360,220,223695,2,0,L|408:212,2,48.9999985046387,2|0|2,0:0|0:0|0:0,0:0:0:0:
308,312,223926,2,0,P|204:332|96:240,1,244.999992523194,8|0,1:0|0:0,0:0:0:0:
123,133,224387,2,0,B|200:144|200:144|257:201,1,146.999995513916,0|0,1:0|0:0,0:0:0:0:
88,352,224772,1,0,1:0:0:0:
60,328,224849,1,8,1:0:0:0:
40,296,224926,1,0,1:0:0:0:
28,260,225003,1,0,1:0:0:0:
26,223,225080,1,2,1:0:0:0:
268,59,225310,6,0,B|313:102|332:184|273:194|245:145|282:99|344:156|359:219,1,244.999992523194,0|0,1:0|0:0,0:0:0:0:
280,324,225772,2,0,P|176:296|140:168,1,244.999992523194,8|0,1:0|0:0,0:0:0:0:
212,68,226233,2,0,B|248:60|248:60|260:88|260:88|304:84|336:112,1,146.999995513916,0|0,1:0|0:0,0:0:0:0:
420,260,226618,1,0,0:0:0:0:
424,284,226695,2,0,P|444:332|484:356,1,97.9999970092774,8|0,1:0|0:0,0:0:0:0:
324,264,226926,2,0,P|300:212|268:172,1,97.9999970092774,2|0,0:0|0:0,0:0:0:0:
168,332,227156,6,0,B|128:380|56:366|56:366|19:304|51:250,1,244.999992523194,0|0,1:0|0:0,0:0:0:0:
138,174,227618,2,0,B|182:204|245:181|245:149|245:116|308:95|354:124,1,244.999992523194,8|0,1:0|0:0,0:0:0:0:
452,260,228080,2,0,P|408:292|356:308,1,105.000004005432,8|0,1:0|1:0,0:0:0:0:
172,304,228310,2,0,P|216:272|268:256,1,105.000004005432,0|0,1:0|1:0,0:0:0:0:
354,123,228541,2,0,P|320:84|276:68,1,97.9999970092774,8|0,1:0|0:0,0:0:0:0:
128,144,228772,2,0,L|80:136,2,48.9999985046387,0|0|0,1:0|1:0|1:0,0:0:0:0:
264,256,229003,6,0,P|208:336|72:300,1,244.999992523194,4|0,1:0|0:0,0:0:0:0:
116,200,229464,2,0,P|128:144|116:92,1,97.9999970092774,8|0,1:0|0:0,0:0:0:0:
224,48,229695,2,0,L|236:0,2,48.9999985046387,2|0|0,0:0|0:0|0:0,0:0:0:0:
280,152,229926,2,0,B|297:192|297:192|327:185|353:202|353:202|384:170,1,146.999995513916,0|0,1:0|0:0,0:0:0:0:
448,336,230310,1,0,0:0:0:0:
428,324,230387,2,0,P|384:304|328:304,1,97.9999970092774,8|0,1:0|0:0,0:0:0:0:
168,352,230618,2,0,P|136:316|136:264,1,97.9999970092774,2|0,0:0|0:0,0:0:0:0:
184,100,230849,6,0,P|128:20|108:120,1,244.999992523194,0|0,1:0|0:0,0:0:0:0:
216,184,231310,2,0,B|256:160|276:116|276:64|276:64|392:72,1,244.999992523194,8|0,1:0|0:0,0:0:0:0:
456,160,231772,2,0,B|449:176|449:176|466:191|466:191|452:208|452:208|469:223|469:223|454:241|454:241|472:255|472:255|457:273|457:273|475:287|475:287|460:305|460:305|478:320|478:320|471:340,1,244.999992523194,0|0,1:0|0:0,0:0:0:0:
336,284,232233,2,0,L|328:232,3,48.9999985046387,8|0|0|2,1:0|0:0|0:0|0:1,0:0:0:0:
128,348,232695,5,0,1:0:0:0:
104,344,232772,1,0,0:0:0:0:
84,332,232849,1,0,0:0:0:0:
68,316,232926,1,2,0:3:0:0:
56,296,233003,1,0,0:0:0:0:
52,272,233080,1,0,0:0:0:0:
56,248,233156,2,0,P|68:200|64:136,1,97.9999970092774,8|0,1:0|0:0,0:0:0:0:
168,52,233387,2,0,P|167:100|179:148,1,97.9999970092774,2|0,0:0|0:0,0:0:0:0:
237,254,233618,2,0,B|271:240|271:240|278:204|278:204|312:191|312:191|319:155,1,146.999995513916,0|0,1:0|0:0,0:0:0:0:
448,32,234003,1,0,0:0:0:0:
460,52,234080,2,0,P|480:96|480:156,1,97.9999970092774,8|0,1:0|0:0,0:0:0:0:
408,260,234310,2,0,P|410:308|430:353,1,97.9999970092774,2|0,0:0|0:0,0:0:0:0:
320,156,234541,6,0,P|300:112|248:80,1,105.000004005432,0|0,1:0|0:0,0:0:0:0:
124,208,234772,2,0,P|144:252|196:284,1,105.000004005432,0|0,1:0|0:0,0:0:0:0:
172,80,235003,2,0,P|140:84|116:96,1,52.5000020027161,8|0,1:0|0:0,0:0:0:0:
48,152,235156,1,0,1:0:0:0:
464,232,235464,5,10,1:0:0:0:
352,328,235618,1,0,1:0:0:0:
320,344,235695,1,0,1:0:0:0:
284,344,235772,1,0,1:0:0:0:
248,332,235849,1,0,1:0:0:0:
228,312,235926,2,0,L|208:232,1,78.7500030040742,10|2,1:0|0:0,0:0:0:0:
79,58,236387,6,0,P|104:98|104:145,1,90.9999958343508,4|0,1:0|0:0,0:0:0:0:
72,271,236618,2,0,P|108:307|155:314,1,90.9999958343508,2|0,0:3|0:0,0:0:0:0:
295,233,236849,2,0,P|251:222|205:236,1,90.9999958343508,8|0,1:0|0:0,0:0:0:0:
340,316,237080,2,0,P|375:283|390:236,1,90.9999958343508,2|0,0:0|0:0,0:0:0:0:
287,101,237310,2,0,B|272:169|272:169|297:241,1,136.499993751526,0|2,1:0|0:3,0:0:0:0:
376,92,237695,1,0,0:0:0:0:
365,59,237772,2,0,P|332:23|285:12,1,90.9999958343508,8|0,1:0|0:0,0:0:0:0:
104,48,238003,2,0,P|147:62|198:57,1,90.9999958343508,2|0,0:2|0:0,0:0:0:0:
238,138,238233,5,0,1:0:0:0:
241,170,238310,1,0,0:0:0:0:
234,202,238387,1,0,0:0:0:0:
212,227,238464,2,0,P|176:260|122:263,1,90.9999958343508,2|0,0:3|0:0,0:0:0:0:
84,124,238695,2,0,P|119:149|148:192,1,90.9999958343508,8|0,1:0|0:0,0:0:0:0:
212,324,238926,2,0,L|305:302,1,90.9999958343508,2|0,0:0|0:0,0:0:0:0:
412,184,239156,2,0,L|319:204,1,90.9999958343508,0|0,1:0|0:0,0:0:0:0:
212,227,239387,1,2,0:3:0:0:
84,124,239541,1,0,0:0:0:0:
99,96,239618,1,8,1:0:0:0:
124,74,239695,1,0,0:0:0:0:
156,67,239772,1,0,0:0:0:0:
189,74,239849,1,2,0:3:0:0:
214,96,239926,5,2,0:0:0:0:
235,121,240003,1,0,0:0:0:0:
269,132,240080,2,0,P|312:128|351:96,1,90.9999958343508,2|0,1:0|0:0,1:0:0:0:
417,202,240310,2,0,L|439:249,2,45.4999979171754,2|0|0,0:0|0:0|0:0,0:0:0:0:
304,268,240541,2,0,L|311:315,2,45.4999979171754,8|0|0,1:0|0:0|0:0,0:0:0:0:
172,256,240772,2,0,L|158:303,2,45.4999979171754,2|0|0,0:0|0:0|0:0,0:0:0:0:
264,164,241003,2,0,P|199:118|138:128,1,136.499993751526,0|2,1:0|0:3,0:0:0:0:
310,313,241387,1,0,0:0:0:0:
338,301,241464,2,0,P|370:261|373:214,1,90.9999958343508,8|0,1:0|0:0,0:0:0:0:
301,86,241695,2,0,P|268:125|265:172,1,90.9999958343508,2|0,0:1|0:0,0:0:0:0:
436,292,241926,6,0,B|429:310|429:310|440:324|440:324|432:342|432:342|440:356|440:356|436:378,1,90.9999958343508,2|0,1:2|0:0,0:0:0:0:
384,172,242156,2,0,B|391:154|391:154|380:139|380:139|387:121|387:121|380:107|380:107|384:85,1,90.9999958343508,2|0,0:0|0:0,0:0:0:0:
338,301,242387,2,0,L|342:352,2,45.4999979171754,8|0|0,1:0|0:0|0:0,0:0:0:0:
263,163,242618,2,0,B|224:139|224:139|174:143,1,90.9999958343508,2|0,0:0|0:0,0:0:0:0:
88,176,242849,5,10,1:0:0:0:
208,320,243003,1,0,1:0:0:0:
240,309,243080,1,8,1:0:0:0:
414,237,243233,1,0,1:0:0:0:
381,226,243310,1,8,1:0:0:0:
178,142,243464,1,0,1:0:0:0:
192,114,243541,1,10,1:0:0:0:
217,92,243618,1,0,1:0:0:0:
250,81,243695,1,0,1:0:0:0:
282,85,243772,6,0,P|328:92|371:113,1,90.9999958343508,4|0,1:0|0:0,0:0:0:0:
468,201,244003,2,0,P|421:208|378:229,1,90.9999958343508,2|0,0:3|0:0,0:0:0:0:
288,320,244233,2,0,P|234:323|194:302,1,90.9999958343508,8|0,1:0|0:0,0:0:0:0:
234,147,244464,2,0,P|255:186|255:236,1,90.9999958343508,2|0,0:0|0:0,0:0:0:0:
123,348,244695,2,0,P|97:297|101:211,1,136.499993751526,0|2,1:0|0:3,0:0:0:0:
232,60,245080,1,0,0:0:0:0:
256,64,245156,2,0,L|352:76,1,90.9999958343508,8|0,1:0|0:0,0:0:0:0:
480,172,245387,2,0,L|384:184,1,90.9999958343508,2|0,0:0|0:0,0:0:0:0:
288,240,245618,5,0,1:0:0:0:
292,272,245695,1,0,0:0:0:0:
308,300,245772,1,0,0:0:0:0:
336,316,245849,2,0,P|384:320|416:288,1,90.9999958343508,2|0,0:3|0:0,0:0:0:0:
300,164,246080,2,0,P|248:172|216:204,1,90.9999958343508,8|0,1:0|0:0,0:0:0:0:
112,328,246310,2,0,L|96:236,1,90.9999958343508,2|0,0:0|0:0,0:0:0:0:
80,136,246541,1,0,1:0:0:0:
232,36,246695,1,0,0:0:0:0:
236,68,246772,1,2,0:3:0:0:
368,196,246926,1,0,0:0:0:0:
376,164,247003,1,8,1:0:0:0:
404,148,247080,1,0,0:0:0:0:
436,152,247156,1,0,0:0:0:0:
460,176,247233,1,2,0:3:0:0:
460,208,247310,5,2,0:0:0:0:
440,236,247387,1,0,0:0:0:0:
408,240,247464,2,0,P|360:240|320:272,1,90.9999958343508,2|0,1:0|0:0,0:0:0:0:
208,320,247695,2,0,L|200:368,2,45.4999979171754,2|0|0,0:0|0:0|0:0,0:0:0:0:
116,228,247926,2,0,L|68:248,2,45.4999979171754,8|0|0,1:0|0:0|0:0,0:0:0:0:
136,100,248156,2,0,L|96:80,2,45.4999979171754,2|0|0,0:0|0:0|0:0,0:0:0:0:
256,48,248387,2,0,P|324:40|380:84,1,136.499993751526,0|2,1:0|0:3,0:0:0:0:
324,252,248772,1,0,0:0:0:0:
316,220,248849,2,0,L|292:112,1,90.9999958343508,8|0,1:0|0:0,0:0:0:0:
95,79,249080,2,0,L|114:167,1,90.9999958343508,2|0,0:0|0:0,0:0:0:0:
160,340,249310,6,0,P|212:336|260:312,1,90.9999958343508,2|0,1:2|0:0,0:0:0:0:
403,239,249541,2,0,P|351:235|303:211,1,90.9999958343508,2|0,1:2|0:0,0:0:0:0:
180,104,249772,2,0,P|204:100|224:88,1,45.4999979171754,8|0,1:0|0:0,0:0:0:0:
304,36,249926,2,0,P|324:28|352:28,1,45.4999979171754,2|0,1:2|0:0,0:0:0:0:
476,280,250233,5,2,1:0:0:0:
247,320,250387,1,0,1:0:0:0:
224,300,250464,1,0,1:0:0:0:
208,272,250541,1,0,1:0:0:0:
204,240,250618,1,0,1:0:0:0:
212,208,250695,2,0,P|232:164|264:136,1,90.9999958343508,8|0,1:0|0:0,0:0:0:0:
388,108,250926,2,0,P|368:64|336:36,1,90.9999958343508,2|0,0:0|0:0,0:0:0:0:
212,28,251156,6,0,L|76:56,1,125.999996154785,4|2,1:0|0:0,0:0:0:0:
0,256,251618,2,0,L|123:230,1,125.999996154785,8|2,1:0|0:3,0:0:0:0:
336,36,252080,2,0,P|316:96|336:160,1,125.999996154785,0|2,1:0|0:0,0:0:0:0:
276,292,252464,1,0,0:0:0:0:
272,272,252541,2,0,P|264:232|240:196,1,83.9999974365235,8|0,1:0|0:0,0:0:0:0:
140,147,252772,2,0,L|120:243,1,83.9999974365235,2|0,0:3|0:0,0:0:0:0:
40,300,253003,6,0,P|88:336|152:336,1,125.999996154785,0|2,1:0|0:0,0:0:0:0:
383,308,253464,2,0,P|335:272|271:272,1,125.999996154785,8|2,1:0|0:3,0:0:0:0:
96,136,253926,2,0,B|136:88|136:88|200:76,1,125.999996154785,0|2,1:0|0:0,0:0:0:0:
344,60,254310,1,0,1:0:0:0:
364,56,254387,2,0,L|407:50,2,41.9999987182618,8|0|0,1:0|1:0|1:0,0:0:0:0:
336,140,254618,1,2,0:3:0:0:
332,160,254695,1,2,0:0:0:0:
336,180,254772,1,0,0:0:0:0:
348,196,254849,6,0,P|376:240|360:320,1,125.999996154785,2|2,1:0|0:0,0:0:0:0:
148,348,255310,2,0,P|120:304|136:224,1,125.999996154785,8|2,1:0|0:3,0:0:0:0:
276,68,255772,2,0,P|228:24|168:20,1,125.999996154785,0|2,1:0|0:0,0:0:0:0:
76,132,256156,1,0,0:0:0:0:
88,148,256233,2,0,P|136:192|196:196,1,125.999996154785,8|2,1:0|0:3,0:0:0:0:
404,52,256695,6,0,B|420:96|404:113|387:129|404:174,1,125.999996154785,0|2,1:0|0:0,0:0:0:0:
304,372,257156,2,0,B|287:327|304:310|320:294|304:249,1,125.999996154785,8|2,1:0|0:3,0:0:0:0:
152,40,257618,5,8,1:0:0:0:
44,152,257772,1,0,1:0:0:0:
44,172,257849,1,0,1:0:0:0:
240,232,258003,1,0,1:0:0:0:
240,212,258080,1,8,1:0:0:0:
44,272,258233,1,0,1:0:0:0:
44,292,258310,1,0,1:0:0:0:
48,312,258387,1,0,0:0:0:0:
60,328,258464,1,0,0:0:0:0:
80,340,258541,6,0,L|208:344,1,125.999996154785,4|2,1:0|0:0,0:0:0:0:
388,216,259003,2,0,L|262:212,1,125.999996154785,8|2,1:0|0:3,0:0:0:0:
76,92,259464,2,0,P|124:40|184:32,1,125.999996154785,0|2,1:0|0:0,0:0:0:0:
312,96,259849,1,0,0:0:0:0:
332,104,259926,2,0,P|372:116|416:112,1,83.9999974365235,8|0,1:0|0:0,0:0:0:0:
492,200,260156,2,0,P|450:196|410:208,1,83.9999974365235,2|0,0:3|0:0,0:0:0:0:
328,296,260387,5,0,1:0:0:0:
229,50,260617,1,2,0:0:0:0:
165,308,260848,1,8,1:0:0:0:
368,137,261079,1,2,0:3:0:0:
103,156,261310,2,0,P|76:216|84:280,1,125.999996154785,0|2,1:0|0:0,0:0:0:0:
228,352,261695,1,0,0:0:0:0:
236,332,261772,2,0,P|248:296|248:244,1,83.9999974365235,8|0,1:0|0:0,0:0:0:0:
212,160,262003,1,2,0:3:0:0:
224,144,262080,1,2,0:0:0:0:
244,136,262156,1,0,0:0:0:0:
264,134,262233,6,0,P|304:118|340:38,1,125.999996154785,2|2,1:0|0:0,0:0:0:0:
248,250,262695,2,0,P|208:266|172:346,1,125.999996154785,8|2,1:0|0:3,0:0:0:0:
400,303,263156,2,0,L|412:171,1,125.999996154785,0|2,1:0|0:0,0:0:0:0:
340,47,263541,1,0,0:0:0:0:
336,68,263618,2,0,P|320:112|288:144,1,83.9999974365235,8|0,1:0|0:0,0:0:0:0:
188,148,263849,2,0,P|160:179|147:218,1,83.9999974365235,2|0,0:3|0:0,0:0:0:0:
56,276,264080,6,0,L|96:360,1,83.9999974365235,0|0,1:0|0:0,0:0:0:0:
240,228,264310,2,0,L|200:312,1,83.9999974365235,0|0,1:0|0:0,0:0:0:0:
96,160,264541,2,0,L|116:204,1,41.9999987182618,8|0,1:0|0:0,0:0:0:0:
188,148,264695,1,0,1:0:0:0:
464,44,265003,5,8,1:0:0:0:
368,152,265156,1,0,1:0:0:0:
364,180,265233,1,0,1:0:0:0:
372,208,265310,1,0,1:0:0:0:
392,228,265387,1,0,1:0:0:0:
420,240,265464,1,8,1:0:0:0:
248,368,265695,1,2,1:3:0:0:
186,6,265926,5,4,1:0:0:0:
92,200,266156,1,0,0:0:0:0:
234,149,266387,1,0,1:0:0:0:
43,56,266618,1,0,0:0:0:0:
160,304,266849,2,0,P|212:256|316:280,1,175,0|2,1:0|0:0,0:0:0:0:
336,292,267310,2,0,L|356:180,1,105,0|2,1:0|0:0,0:0:0:0:
204,32,267772,6,0,P|256:52|280:96,1,105,0|0,1:0|0:0,0:0:0:0:
104,308,268233,2,0,P|52:288|28:244,1,105,0|0,1:0|0:0,0:0:0:0:
185,135,268695,2,0,L|204:32,1,105,0|0,1:0|0:0,0:0:0:0:
252,216,269080,1,2,1:3:0:0:
244,248,269156,2,0,L|224:360,1,105,0|2,1:0|0:3,0:0:0:0:
389,297,269618,5,0,1:0:0:0:
417,40,269848,1,0,0:0:0:0:
426,321,270080,1,0,1:0:0:0:
378,15,270310,1,0,0:0:0:0:
244,248,270541,2,0,P|171:257|99:185,1,175,0|2,1:0|0:0,0:0:0:0:
116,160,271003,2,0,P|124:124|108:48,1,105,0|2,1:0|0:0,0:0:0:0:
56,280,271464,6,0,P|48:316|64:392,1,105,0|0,1:0|0:0,0:0:0:0:
288,132,271926,2,0,P|248:116|188:140,1,105,0|0,1:0|0:0,0:0:0:0:
424,352,272387,2,0,P|448:284|420:184,1,175,0|2,1:0|0:3,0:0:0:0:
400,160,272849,2,0,B|376:112|376:112|396:64,1,105,0|2,1:0|0:3,0:0:0:0:
77,53,273310,5,0,1:0:0:0:
271,89,273540,1,0,0:0:0:0:
28,324,273771,1,0,1:0:0:0:
220,357,274002,1,0,0:0:0:0:
395,64,274233,2,0,L|415:248,1,175,0|2,1:0|0:0,0:0:0:0:
448,248,274695,2,0,P|456:292|428:348,1,105,0|2,1:0|0:0,0:0:0:0:
137,307,275156,6,0,L|245:295,1,105,0|0,1:0|0:0,0:0:0:0:
375,77,275618,2,0,L|267:89,1,105,0|0,1:0|0:0,0:0:0:0:
137,307,276080,2,0,P|137:251|69:155,1,175,0|2,1:0|0:3,0:0:0:0:
36,152,276541,2,0,P|76:108|80:60,1,105,0|2,1:0|0:3,0:0:0:0:
292,16,277003,5,0,1:0:0:0:
496,59,277233,1,0,0:0:0:0:
356,214,277464,1,0,1:0:0:0:
292,16,277695,1,0,0:0:0:0:
472,184,277926,2,0,P|472:256|396:332,1,175,0|2,1:0|0:0,0:0:0:0:
392,360,278387,2,0,L|284:344,1,105,0|2,1:0|0:0,0:0:0:0:
84,300,278849,5,0,1:0:0:0:
120,92,279080,1,0,0:0:0:0:
428,300,279310,1,0,1:0:0:0:
392,92,279541,1,0,0:0:0:0:
84,300,279772,2,0,P|108:260|116:196,1,105,0|0,1:0|0:0,0:0:0:0:
108,72,280156,1,2,0:3:0:0:
120,92,280233,2,0,P|152:120|184:128,1,70,0|0,1:0|0:0,0:0:0:0:
276,128,280464,1,2,0:3:0:0:
440,336,280695,6,0,L|444:368,10,17.5,0|0|0|0|0|0|2|0|0|0|0,1:0|0:0|0:0|0:0|0:0|0:0|0:0|0:0|0:0|0:0|0:0,0:0:0:0:
476,256,281156,2,0,L|464:152,1,105,0|2,1:0|3:0,0:0:0:0:
192,40,281618,2,0,B|201:48|201:48|194:62|194:62|207:70|207:70|199:83|199:83|213:91|213:91|205:104|205:104|215:113,1,105,0|0,1:0|0:0,0:0:0:0:
128,328,282003,1,2,0:0:0:0:
120,304,282080,2,0,P|112:272|88:236,1,70,0|0,1:0|0:0,0:0:0:0:
120,76,282310,2,0,P|124:112|140:152,1,70,2|0,0:0|0:0,0:0:0:0:
240,308,282541,6,0,L|352:300,1,105,0|0,1:0|0:0,0:0:0:0:
456,56,283003,1,0,1:0:0:0:
187,70,283233,2,0,B|152:60|154:85|120:75,1,70,2|0,3:0|0:0,0:0:0:0:
36,120,283464,2,0,L|12:116,8,17.5,0|0|0|0|0|0|0|0|0,1:0|0:0|0:0|0:0|0:0|0:0|0:0|0:0|0:0,0:0:0:0:
120,168,283849,1,2,1:2:0:0:
120,168,283926,2,0,P|136:212|124:272,1,105,0|2,1:0|0:0,0:0:0:0:
280,64,284387,5,0,1:0:0:0:
364,296,284618,2,0,L|360:340,2,35
428,228,284849,2,0,P|436:188|432:152,1,70,0|2,1:0|0:0,0:0:0:0:
356,104,285080,2,0,L|352:84,4,17.5
280,236,285310,2,0,P|256:276|188:308,1,105,2|0,1:2|0:0,0:0:0:0:
64,188,285695,1,2,0:0:0:0:
68,164,285772,2,0,P|92:124|160:92,1,105,0|2,1:0|0:0,0:0:0:0:
416,60,286233,5,2,1:2:0:0:
388,352,286464,1,2,0:3:0:0:
316,72,286695,2,0,L|320:28,2,35,0|0|0,1:0|0:0|0:0,0:0:0:0:
252,144,286926,2,0,L|256:172,4,17.5
172,96,287156,1,2,1:2:0:0:
52,336,287387,1,0,0:0:0:0:
168,272,287541,1,2,0:0:0:0:
168,272,287618,2,0,P|216:272|272:304,1,105,0|2,1:0|0:0,1:0:0:0:
388,32,288080,6,0,L|388:112,1,78.7500030040742,2|8,0:2|0:0,0:0:0:0:
480,280,288541,2,0,L|480:200,1,78.7500030040742,2|8,0:0|0:0,0:0:0:0:
376,32,289003,2,0,L|376:112,1,78.7500030040742,2|8,0:2|2:0,0:0:0:0:
472,200,289387,1,2,0:0:0:0:
265,297,289618,2,0,L|297:265,1,26.2500010013581,0|8,0:0|0:0,0:0:0:0:
220,42,289926,5,2,0:0:0:0:
205,31,290156,1,8,0:0:0:0:
11,68,290388,1,2,0:0:0:0:
1,83,290618,1,8,0:0:0:0:
37,277,290849,1,2,0:0:0:0:
51,287,291079,1,8,0:0:0:0:
116,208,291233,1,2,0:0:0:0:
247,251,291464,1,0,0:0:0:0:
257,237,291541,1,8,0:0:0:0:
368,44,291772,6,0,P|380:76|368:124,1,78.7500030040742,2|8,0:0|0:0,0:0:0:0:
260,311,292233,2,0,P|248:279|260:231,1,78.7500030040742,2|8,0:0|0:0,0:0:0:0:
152,40,292695,2,0,P|164:72|152:120,1,78.7500030040742,2|8,0:0|0:0,0:0:0:0:
44,308,293080,1,2,0:0:0:0:
155,114,293310,2,0,L|163:146,1,26.2500010013581,0|8,0:0|0:0,0:0:0:0:
249,339,293618,5,2,0:0:0:0:
261,243,293849,1,8,0:0:0:0:
361,51,294080,1,2,0:0:0:0:
349,147,294311,1,8,0:0:0:0:
449,251,294541,1,2,0:0:0:0:
353,239,294772,1,8,0:0:0:0:
161,139,294926,1,2,0:0:0:0:
257,151,295156,1,0,0:0:0:0:
257,151,295234,1,8,0:0:0:0:
76,336,295464,6,0,P|64:296|76:256,1,78.7500030040742,2|8,0:1|0:0,0:0:0:0:
57,82,295926,2,0,P|97:91|126:122,1,78.7500030040742,2|8,0:0|0:0,0:0:0:0:
286,193,296387,2,0,P|257:223|216:233,1,78.7500030040742,2|8,0:0|0:0,0:0:0:0:
73,261,296772,1,2,0:0:0:0:
208,124,297003,2,0,L|212:164,1,26.2500010013581,0|8,0:0|0:0,0:0:0:0:
319,314,297310,5,2,0:0:0:0:
362,65,297541,1,8,0:0:0:0:
222,233,297772,1,2,0:0:0:0:
459,146,298003,1,8,0:0:0:0:
244,108,298233,1,2,0:0:0:0:
437,270,298464,1,8,0:0:0:0:
362,65,298618,1,2,0:0:0:0:
319,314,298849,1,0,0:0:0:0:
319,314,298926,1,8,0:0:0:0:
88,48,299156,6,0,L|120:136,1,78.7500030040742,2|8,0:0|0:0,0:0:0:0:
192,336,299618,2,0,L|224:248,1,78.7500030040742,2|8,0:0|0:0,0:0:0:0:
292,48,300080,2,0,L|324:136,1,78.7500030040742,2|8,0:0|0:0,0:0:0:0:
396,336,300464,1,2,0:0:0:0:
484,124,300695,2,0,L|496:160,1,26.2500010013581,0|8,0:0|0:0,0:0:0:0:
144,208,301003,5,2,0:0:0:0:
396,336,301233,1,8,0:0:0:0:
308,52,301464,1,2,0:0:0:0:
216,328,301695,1,8,0:0:0:0:
476,232,301926,1,2,0:0:0:0:
476,232,302156,1,8,0:0:0:0:
318,122,302310,2,0,P|282:134|246:162,1,78.7500030040742,2|2,0:0|0:0,0:0:0:0:
176,228,302618,2,0,L|172:248,4,13.125000500679,0|0|0|0|0,1:0|1:0|1:0|1:0|1:0,0:0:0:0:
120,148,302849,6,0,P|92:176|80:212,1,70,4|0,1:0|0:0,0:0:0:0:
96,300,303080,2,0,L|160:340,1,70,0|2,1:0|0:0,0:0:0:0:
252,352,303310,2,0,P|284:336|308:300,1,70,0|2,1:0|0:0,0:0:0:0:
336,220,303541,2,0,P|356:192|388:176,1,70,0|0,1:0|0:0,0:0:0:0:
484,192,303772,2,0,L|476:120,1,70,0|2,1:0|0:0,0:0:0:0:
380,8,304003,2,0,L|388:80,1,70,0|2,1:0|0:0,0:0:0:0:
387,176,304233,1,0,1:0:0:0:
108,320,304464,2,0,L|116:348,4,17.5,0|0|0|0|0,3:0|3:0|3:0|3:0|3:0,3:0:0:0:
36,260,304695,6,0,L|20:192,1,70,4|0,1:0|0:0,0:0:0:0:
12,160,304926,1,0,1:0:0:0:
96,40,305080,1,2,0:0:0:0:
100,56,305156,1,0,1:0:0:0:
200,156,305310,1,2,0:0:0:0:
204,140,305387,2,0,P|224:104|248:88,1,70,0|0,1:0|0:0,0:0:0:0:
340,68,305618,1,0,1:0:0:0:
440,168,305772,1,2,0:0:0:0:
444,184,305849,2,0,P|440:224|424:256,1,70,0|0,1:0|0:0,0:0:0:0:
352,312,306080,1,0,1:0:0:0:
352,312,306541,6,0,P|316:296|276:300,1,70,4|0,1:0|0:0,0:0:0:0:
200,336,306772,2,0,P|164:344|128:332,1,70,0|2,1:0|0:0,0:0:0:0:
60,276,307003,2,0,L|48:204,1,70,0|2,1:0|0:0,0:0:0:0:
156,96,307233,2,0,L|136:164,1,70,0|0,1:0|0:0,0:0:0:0:
64,96,307464,2,0,P|72:60|92:32,1,70,0|2,1:0|0:0,0:0:0:0:
184,12,307695,2,0,P|216:32|236:60,1,70,0|2,1:0|0:0,0:0:0:0:
248,152,307926,1,0,1:0:0:0:
388,364,308156,2,0,L|388:388,4,17.5,0|0|0|0|0,3:0|3:0|3:0|3:0|3:0,3:0:0:0:
460,320,308387,5,4,1:0:0:0:
324,284,308541,1,2,0:0:0:0:
324,268,308618,1,0,1:0:0:0:
460,232,308772,1,2,0:0:0:0:
460,216,308849,1,0,1:0:0:0:
324,180,309002,1,0,0:0:0:0:
324,164,309079,1,0,1:0:0:0:
460,128,309233,1,2,0:0:0:0:
460,112,309310,1,0,1:0:0:0:
324,76,309464,1,2,0:0:0:0:
324,60,309541,1,0,1:0:0:0:
168,28,309695,1,2,0:0:0:0:
172,44,309772,5,0,1:0:0:0:
176,76,309849,1,0,1:0:0:0:
172,108,309926,1,0,1:0:0:0:
156,136,310003,1,2,1:2:0:0:
132,156,310080,1,0,1:0:0:0:
104,168,310156,1,0,1:0:0:0:
72,172,310233,6,0,P|44:204|40:260,1,83.9999974365235,4|0,1:2|0:0,0:0:0:0:
96,344,310464,2,0,L|192:360,1,83.9999974365235,0|0,1:0|0:0,0:0:0:0:
264,280,310695,2,0,P|284:236|280:196,1,83.9999974365235,4|0,1:2|0:0,0:0:0:0:
212,108,310926,2,0,P|232:72|272:48,1,83.9999974365235,0|0,1:0|0:0,0:0:0:0:
380,32,311156,2,0,L|404:120,1,83.9999974365235,4|0,1:2|0:0,0:0:0:0:
340,236,311387,2,0,L|316:148,1,83.9999974365235,0|0,1:0|0:0,0:0:0:0:
432,232,311618,2,0,L|456:320,1,83.9999974365235,4|0,1:2|0:0,0:0:0:0:
372,360,311849,1,0,1:0:0:0:
140,24,312080,6,0,B|120:60|120:60|128:104,1,83.9999974365235,4|0,1:2|0:0,0:0:0:0:
208,184,312310,2,0,P|216:228|204:268,1,83.9999974365235
132,356,312541,2,0,L|216:376,1,83.9999974365235,4|0,1:2|0:0,0:0:0:0:
292,288,312772,2,0,P|328:264|372:260,1,83.9999974365235,0|0,1:0|0:0,0:0:0:0:
448,344,313003,2,0,P|412:368|368:372,1,83.9999974365235,4|0,1:2|0:0,0:0:0:0:
280,272,313233,2,0,P|280:232|304:196,1,83.9999974365235,0|0,1:0|0:0,0:0:0:0:
404,108,313464,1,4,1:2:0:0:
396,72,313541,1,0,1:0:0:0:
376,40,313618,1,0,1:0:0:0:
344,24,313695,1,0,1:0:0:0:
308,16,313772,1,0,1:0:0:0:
272,24,313849,1,0,1:0:0:0:
240,44,313926,5,4,1:0:0:0:
256,192,314003,12,0,315695,0:0:0:0:
204,268,315772,6,0,P|176:236|128:224,1,83.9999974365235,4|0,1:0|0:0,0:0:0:0:
36,132,316003,2,0,P|60:92|96:68,1,83.9999974365235,2|2,0:0|0:0,0:0:0:0:
224,56,316233,2,0,L|312:72,1,83.9999974365235,2|2,0:0|0:0,0:0:0:0:
336,252,316464,2,0,P|316:204|324:156,1,83.9999974365235,0|2,0:0|0:3,0:0:0:0:
392,12,316695,2,0,P|412:60|404:108,1,83.9999974365235,0|2,0:0|0:0,0:0:0:0:
235,222,316926,2,0,P|232:181|240:140,1,83.9999974365235,2|2,0:0|0:0,0:0:0:0:
120,32,317156,6,0,L|104:140,1,105.000004005432,0|0,1:0|0:0,0:0:0:0:
24,340,317387,2,0,L|40:232,1,105.000004005432,2|0,1:0|0:0,0:0:0:0:
188,80,317618,6,0,P|224:60|276:68,1,90.9999958343508,4|0,1:0|0:0,0:0:0:0:
368,148,317849,2,0,L|388:240,1,90.9999958343508,2|2,0:0|0:0,0:0:0:0:
472,328,318080,2,0,P|436:356|392:364,1,90.9999958343508,8|0,1:0|0:0,0:0:0:0:
200,292,318310,2,0,P|248:284|296:304,1,90.9999958343508,0|2,0:0|0:3,0:0:0:0:
124,360,318541,2,0,P|100:320|104:264,1,90.9999958343508,0|0,1:0|0:0,0:0:0:0:
132,68,318772,2,0,P|156:108|152:164,1,90.9999958343508,2|2,0:0|0:0,0:0:0:0:
24,168,319003,1,8,1:0:0:0:
24,168,319464,6,0,P|52:204|60:248,1,90.9999958343508,0|0,1:0|0:0,0:0:0:0:
124,360,319695,2,0,P|168:376|212:368,1,90.9999958343508,2|2,0:0|0:0,0:0:0:0:
308,288,319926,2,0,L|316:192,1,90.9999958343508,8|0,1:0|0:0,0:0:0:0:
392,96,320156,2,0,L|428:192,1,90.9999958343508,0|2,0:0|0:3,0:0:0:0:
424,308,320387,2,0,P|408:352|376:384,1,90.9999958343508,0|0,1:0|0:0,0:0:0:0:
236,300,320618,2,0,P|204:264|156:248,1,90.9999958343508,2|2,0:0|0:0,0:0:0:0:
36,328,320849,1,8,1:0:0:0:
36,328,321310,6,0,L|16:232,1,90.9999958343508,0|0,1:0|0:0,0:0:0:0:
0,112,321541,2,0,P|20:72|60:48,1,90.9999958343508,2|2,0:0|0:0,0:0:0:0:
168,116,321772,2,0,P|212:128|256:112,1,90.9999958343508,8|0,1:0|0:0,0:0:0:0:
424,36,322003,2,0,P|380:24|336:40,1,90.9999958343508,0|2,0:0|0:3,0:0:0:0:
344,200,322233,2,0,B|352:248|352:248|380:288,1,90.9999958343508,0|0,1:0|0:0,0:0:0:0:
268,382,322464,2,0,B|260:334|260:334|232:294,1,90.9999958343508,2|2,0:0|0:0,0:0:0:0:
124,288,322695,1,8,1:0:0:0:
124,288,323156,6,0,P|80:296|36:268,1,90.9999958343508,0|0,1:0|0:0,0:0:0:0:
73,138,323387,2,0,L|57:42,1,90.9999958343508,2|2,0:0|0:0,0:0:0:0:
220,124,323618,2,0,L|236:20,1,90.9999958343508,8|0,1:0|0:0,0:0:0:0:
268,224,323849,2,0,P|276:272|268:320,1,90.9999958343508,0|2,0:0|0:3,0:0:0:0:
332,132,324080,2,0,L|388:52,1,90.9999958343508,0|0,1:0|0:0,0:0:0:0:
472,148,324310,2,0,P|464:196|476:244,1,90.9999958343508,2|2,0:0|0:0,0:0:0:0:
370,336,324541,6,0,B|323:328|323:328|316:320|316:320|270:312,1,105.000004005432,8|0,1:0|0:0,0:0:0:0:
44,204,324773,2,0,B|90:211|90:211|97:219|97:219|143:227,1,105.000004005432,2|0,1:0|0:0,0:0:0:0:
362,214,325003,6,0,P|358:178|330:130,1,90.9999958343508,0|0,1:0|0:0,0:0:0:0:
212,128,325233,2,0,P|164:132|116:108,1,90.9999958343508,2|2,0:0|0:0,0:0:0:0:
44,204,325464,2,0,L|56:304,1,90.9999958343508,8|0,1:0|0:0,0:0:0:0:
160,368,325695,2,0,P|204:344|220:292,1,90.9999958343508,0|2,0:0|0:3,0:0:0:0:
266,191,325926,2,0,P|290:155|330:131,1,90.9999958343508
416,220,326156,2,0,P|392:256|352:280,1,90.9999958343508,2|2,0:0|0:0,0:0:0:0:
240,188,326387,1,8,1:0:0:0:
240,188,326849,6,0,P|220:148|176:116,1,90.9999958343508,0|0,1:0|0:0,0:0:0:0:
60,152,327080,2,0,B|44:188|76:204|60:240,1,90.9999958343508,2|2,0:0|0:0,0:0:0:0:
152,328,327310,2,0,B|168:292|136:276|152:240,1,90.9999958343508,8|0,1:0|0:0,0:0:0:0:
184,119,327541,2,0,L|276:100,1,90.9999958343508,0|2,0:0|0:3,0:0:0:0:
452,148,327772,2,0,L|360:167,1,90.9999958343508,0|0,1:0|0:0,0:0:0:0:
192,124,328003,2,0,L|284:105,1,90.9999958343508,2|2,0:0|0:0,0:0:0:0:
460,153,328233,1,8,1:0:0:0:
460,153,328695,6,0,P|472:200|460:244,1,90.9999958343508,0|0,1:0|0:0,0:0:0:0:
336,224,328926,2,0,P|288:232|248:276,1,90.9999958343508,2|2,0:0|0:0,0:0:0:0:
152,328,329156,2,0,B|108:316|108:316|72:284,1,90.9999958343508,8|0,1:0|0:0,0:0:0:0:
88,96,329387,2,0,P|100:140|96:188,1,90.9999958343508,0|2,0:0|0:3,0:0:0:0:
196,72,329618,2,0,P|228:40|272:28,1,90.9999958343508,0|0,1:0|0:0,0:0:0:0:
408,68,329849,2,0,L|324:108,1,90.9999958343508,2|2,0:0|0:0,0:0:0:0:
228,164,330080,1,8,1:0:0:0:
196,348,330541,6,0,L|180:364,2,14,2|0|0,0:3|0:0|0:0,0:0:0:0:
320,316,330772,2,0,L|336:328,2,14
144,252,331003,2,0,L|120:260,2,15.7499995193482
372,196,331233,2,0,L|396:204,2,15.7499995193482
104,144,331464,2,0,L|76:148,2,17.5,2|0|0,0:2|0:0|0:0,0:0:0:0:
416,96,331695,2,0,L|444:100,2,17.5,2|0|0,0:2|0:0|0:0,0:0:0:0:
60,36,331926,2,0,L|36:32,2,19.2500005874634,2|0|0,0:2|0:0|0:0,0:0:0:0:
440,4,332156,2,0,L|464:0,2,19.2500005874634,2|0|0,0:2|0:0|0:0,0:0:0:0:
128,288,332387,6,0,P|148:244|144:192,1,90.9999958343508,4|0,1:0|0:0,0:0:0:0:
180,80,332618,2,0,P|220:56|264:60,1,90.9999958343508,2|2,0:0|0:0,0:0:0:0:
376,116,332849,2,0,L|360:212,1,90.9999958343508,8|0,1:0|0:0,0:0:0:0:
444,284,333080,1,0,0:0:0:0:
256,344,333233,1,2,0:3:0:0:
240,328,333310,2,0,P|208:296|160:280,1,90.9999958343508,0|0,1:0|0:0,0:0:0:0:
28,224,333541,2,0,P|60:192|108:176,1,90.9999958343508,2|2,0:0|0:0,0:0:0:0:
248,184,333772,1,8,1:0:0:0:
248,184,334233,6,0,P|268:228|304:252,1,90.9999958343508,0|0,1:0|0:0,0:0:0:0:
396,336,334464,2,0,L|416:236,1,90.9999958343508,2|2,0:0|0:0,0:0:0:0:
472,104,334695,2,0,L|500:192,1,90.9999958343508,8|0,1:0|0:0,0:0:0:0:
504,288,334926,1,0,0:0:0:0:
348,100,335080,1,2,0:3:0:0:
328,88,335156,2,0,P|292:72|228:68,1,90.9999958343508,0|0,1:0|0:0,0:0:0:0:
128,176,335387,2,0,P|176:180|216:168,1,90.9999958343508,2|2,0:0|0:0,0:0:0:0:
68,88,335618,1,8,1:0:0:0:
68,88,336080,6,0,P|28:128|20:160,1,90.9999958343508,0|0,1:0|0:0,0:0:0:0:
122,261,336310,2,0,P|138:221|126:173,1,90.9999958343508,2|2,0:0|0:0,0:0:0:0:
30,297,336541,2,0,P|54:337|98:361,1,90.9999958343508,8|0,1:0|0:0,0:0:0:0:
192,332,336772,1,0,0:0:0:0:
428,236,336926,1,2,0:3:0:0:
404,240,337003,2,0,B|360:248|360:248|328:288,1,90.9999958343508,0|0,1:0|0:0,0:0:0:0:
192,332,337233,2,0,P|212:288|220:240,1,90.9999958343508,2|2,0:0|0:0,0:0:0:0:
212,136,337464,1,8,1:0:0:0:
212,136,337926,6,0,P|232:92|272:64,1,90.9999958343508,0|0,1:0|0:0,0:0:0:0:
388,88,338156,2,0,P|416:52|424:4,1,90.9999958343508,2|2,0:0|0:0,0:0:0:0:
323,193,338387,2,0,L|331:289,1,90.9999958343508,8|0,1:0|0:0,0:0:0:0:
424,356,338618,1,0,0:0:0:0:
116,284,338772,1,2,0:3:0:0:
112,260,338849,2,0,L|104:164,1,90.9999958343508,0|0,1:0|0:0,0:0:0:0:
28,68,339080,2,0,P|60:32|104:20,1,90.9999958343508,2|2,0:0|0:0,0:0:0:0:
388,88,339310,6,0,P|336:92|280:112,1,105.000004005432,8|0,1:0|0:0,0:0:0:0:
20,184,339541,2,0,P|72:188|128:208,1,105.000004005432,2|0,1:0|0:0,0:0:0:0:
357,350,339772,6,0,P|405:322|421:286,1,90.9999958343508,0|0,1:0|0:0,0:0:0:0:
501,194,340003,2,0,P|473:146|437:130,1,90.9999958343508,2|2,0:0|0:0,0:0:0:0:
349,50,340233,2,0,P|301:78|285:114,1,90.9999958343508,8|0,1:0|0:0,0:0:0:0:
332,212,340464,1,0,0:0:0:0:
84,348,340618,1,2,0:3:0:0:
84,324,340695,2,0,P|80:272|60:224,1,90.9999958343508,0|0,1:0|0:0,0:0:0:0:
184,192,340926,2,2,P|188:140|208:92,1,90.9999958343508
80,28,341156,1,8,1:0:0:0:
80,28,341618,6,0,L|176:20,1,90.9999958343508,0|0,1:0|0:0,0:0:0:0:
272,100,341849,2,0,L|368:92,1,90.9999958343508,2|2,0:0|0:0,0:0:0:0:
464,168,342080,2,0,P|468:216|448:252,1,90.9999958343508,8|0,1:0|0:0,0:0:0:0:
344,308,342310,1,0,0:0:0:0:
180,144,342464,1,0,0:0:0:0:
188,164,342541,2,0,P|196:212|184:252,1,90.9999958343508,0|0,1:0|0:0,0:0:0:0:
44,368,342772,2,0,P|36:320|48:280,1,90.9999958343508,2|2,0:0|0:0,0:0:0:0:
180,144,343003,1,8,1:0:0:0:
180,144,343464,6,0,B|220:119|226:153|266:128,1,90.9999958343508,0|0,1:0|0:0,0:0:0:0:
384,60,343695,2,0,P|408:100|408:156,1,90.9999958343508,2|2,0:0|0:0,0:0:0:0:
312,224,343926,2,0,P|296:272|304:320,1,90.9999958343508,8|0,1:0|0:0,0:0:0:0:
408,380,344156,1,0,0:0:0:0:
124,304,344310,1,2,0:3:0:0:
120,280,344387,2,0,L|104:176,1,90.9999958343508,0|0,1:0|0:0,0:0:0:0:
244,148,344618,2,0,L|288:64,1,90.9999958343508,2|2,0:0|0:0,0:0:0:0:
410,143,344849,1,8,1:0:0:0:
208,328,345080,6,0,L|216:372,2,45.4999979171754
120,280,345310,2,0,L|104:176,1,90.9999958343508,0|0,1:0|0:0,0:0:0:0:
142,75,345541,1,0,0:0:0:0:
158,59,345618,1,0,0:0:0:0:
178,51,345695,1,0,0:0:0:0:
202,51,345772,2,0,B|214:59|214:59|234:55|234:55|246:63|246:63|266:59|266:59|286:67,1,90.9999958343508,2|0,0:3|0:0,0:0:0:0:
410,143,346003,2,0,L|448:116,2,45.4999979171754,0|0|0,3:0|3:3|3:0,0:0:0:0:
421,288,346233,6,0,B|382:331|333:331|314:307|295:283|246:283|208:326,1,236.250009012223,2|0,0:0|3:0,0:0:0:0:
207,327,347156,6,0,P|184:280|152:252,1,90.9999958343508,4|0,1:0|0:0,0:0:0:0:
44,228,347387,1,2,0:0:0:0:
120,36,347541,1,2,0:0:0:0:
140,48,347618,2,0,P|184:64|228:64,1,90.9999958343508,8|0,1:0|0:0,0:0:0:0:
340,32,347849,1,0,0:0:0:0:
440,228,348003,1,2,0:3:0:0:
445,250,348080,2,0,L|465:342,1,90.9999958343508,0|0,1:0|0:0,0:0:0:0:
308,384,348310,2,0,L|308:293,1,90.9999958343508,2|2,0:0|0:0,0:0:0:0:
156,254,348541,1,8,1:0:0:0:
156,254,349003,6,0,P|168:208|152:164,1,90.9999958343508,0|0,1:0|0:0,0:0:0:0:
80,76,349233,1,2,0:0:0:0:
52,300,349387,1,2,0:0:0:0:
64,320,349464,2,0,P|96:352|152:364,1,90.9999958343508,8|0,1:0|0:0,0:0:0:0:
264,352,349695,1,0,0:0:0:0:
308,104,349849,1,2,0:3:0:0:
312,128,349926,2,0,P|332:172|360:204,1,90.9999958343508,0|0,1:0|0:0,0:0:0:0:
496,320,350156,2,0,P|476:276|448:244,1,90.9999958343508,2|2,0:0|0:0,0:0:0:0:
264,352,350387,2,0,B|336:348|336:348|340:316|368:292,1,136.499993751526,0|2,1:0|0:3,0:0:0:0:
366,293,350849,6,0,P|344:248|304:224,1,90.9999958343508,0|0,1:0|0:0,0:0:0:0:
208,224,351080,1,2,0:0:0:0:
56,360,351233,1,2,0:0:0:0:
36,348,351310,2,0,P|8:308|8:252,1,90.9999958343508,8|0,1:0|0:0,0:0:0:0:
40,168,351541,1,0,0:0:0:0:
232,32,351695,1,2,0:3:0:0:
244,52,351772,2,0,P|256:96|248:144,1,90.9999958343508,0|0,1:0|0:0,0:0:0:0:
213,312,352003,2,0,P|201:268|209:220,1,90.9999958343508,2|2,0:0|0:0,0:0:0:0:
340,128,352233,1,8,1:0:0:0:
340,128,352695,6,0,B|348:176|348:176|376:208,1,90.9999958343508,0|0,1:0|0:0,0:0:0:0:
480,236,352926,1,2,0:0:0:0:
312,356,353080,1,2,0:0:0:0:
296,340,353156,2,0,P|256:316|208:312,1,90.9999958343508,8|0,1:0|0:0,0:0:0:0:
108,328,353387,1,0,0:0:0:0:
36,132,353541,1,2,0:3:0:0:
40,156,353618,2,0,L|56:252,1,90.9999958343508,0|0,1:0|0:0,0:0:0:0:
204,272,353849,2,0,L|189:182,1,90.9999958343508,2|2,0:0|0:0,0:0:0:0:
256,60,354080,6,0,P|304:40|352:60,1,105.000004005432,8|0,1:0|0:0,0:0:0:0:
432,276,354310,2,0,P|384:296|336:276,1,105.000004005432,2|0,1:0|0:0,0:0:0:0:
428,44,354541,6,0,P|428:88|396:128,1,90.9999958343508,0|0,1:0|0:0,0:0:0:0:
288,144,354772,1,2,0:0:0:0:
72,40,354926,1,2,0:0:0:0:
60,60,355003,2,0,B|48:80|48:108|48:108|48:156,1,90.9999958343508,8|0,1:0|0:0,0:0:0:0:
54,245,355233,1,0,0:0:0:0:
265,352,355387,1,2,0:3:0:0:
285,344,355464,2,0,P|317:324|337:268,1,90.9999958343508,0|0,1:0|0:0,0:0:0:0:
288,160,355695,2,0,P|304:116|340:88,1,90.9999958343508,2|2,0:0|0:0,0:0:0:0:
468,72,355926,1,8,1:0:0:0:
468,72,356387,6,0,L|480:172,1,90.9999958343508,0|0,1:0|0:0,0:0:0:0:
492,268,356618,1,2,0:0:0:0:
292,360,356772,1,2,0:0:0:0:
284,340,356849,2,0,P|264:296|220:276,1,90.9999958343508,8|0,1:0|0:0,0:0:0:0:
124,292,357080,1,0,0:0:0:0:
56,68,357233,1,2,0:3:0:0:
60,92,357310,2,0,P|80:136|124:156,1,90.9999958343508,0|0,1:0|0:0,0:0:0:0:
272,80,357541,2,0,P|232:64|180:88,1,90.9999958343508,2|2,0:0|0:0,0:0:0:0:
332,164,357772,1,8,1:0:0:0:
332,164,358233,6,0,P|344:208|376:248,1,90.9999958343508,0|0,1:0|0:0,0:0:0:0:
456,292,358464,1,2,0:0:0:0:
256,356,358618,1,2,0:0:0:0:
256,356,358695,1,8,1:0:0:0:
56,292,358849,1,0,0:0:0:0:
56,292,358926,1,0,0:0:0:0:
56,92,359080,1,2,0:3:0:0:
56,92,359156,1,0,1:0:0:0:
256,28,359310,1,0,0:0:0:0:
256,28,359387,1,2,0:0:0:0:
456,92,359541,1,2,0:0:0:0:
456,92,359618,1,8,1:0:0:0:
56,292,360080,6,0,L|264:256,1,210,0|8,1:0|1:0,0:0:0:0:
356,48,360772,2,0,L|364:108,1,52.5,2|0,0:0|0:0,0:0:0:0:
472,284,361464,2,0,L|468:252,6,26.25,8|0|0|0|0|0|0,1:0|3:0|3:0|3:0|3:0|3:0|3:0,0:0:0:0:
416,344,361926,6,0,P|340:388|244:328,1,210,4|8,1:0|1:0,0:0:0:0:
92,240,362618,1,2,0:0:0:0:
92,240,362733,2,0,P|120:200|132:136,1,105,0|2,0:0|0:3,0:0:0:0:
428,12,363310,1,8,1:0:0:0:
332,164,363541,1,0,0:0:0:0:
448,300,363772,6,0,B|390:304|390:304|382:320|382:320|324:324|324:324|316:341|316:341|258:345,1,210,0|8,1:0|1:0,0:0:0:0:
92,280,364464,1,2,0:0:0:0:
72,232,364580,1,0,0:0:0:0:
72,180,364695,1,0,1:0:0:0:
96,132,364810,1,2,0:3:0:0:
320,59,365041,2,0,L|332:167,1,105,2|0,0:3|0:0,0:0:0:0:
432,260,365387,2,0,L|400:304,1,52.5,2|0,0:0|0:0,0:0:0:0:
264,356,365618,6,0,P|192:360|216:256,1,210,0|8,1:0|1:0,0:0:0:0:
368,168,366310,1,2,0:0:0:0:
368,168,366426,2,0,P|352:116|316:72,1,105,0|2,0:0|0:3,0:0:0:0:
96,324,367003,2,0,P|104:264|132:220,1,105,8|0,1:0|0:0,0:0:0:0:
452,280,367464,6,0,P|368:312|248:312,1,210,0|8,1:0|1:0,0:0:0:0:
