osu file format v14

[General]
AudioFilename: The Pretender.mp3
AudioLeadIn: 0
PreviewTime: -1
Countdown: 0
SampleSet: None
StackLeniency: 0.7
Mode: 2
LetterboxInBreaks: 0
WidescreenStoryboard: 0

[Editor]
Bookmarks: 22110,44179,84869,99352,129352,132455,143490,173835,206938,217973,226248,278662,284179,289697,291766,292455,293835,294869,295214,296593,331076,333145,339352,346938,348317,352369,352455,353145
DistanceSpacing: 0.8
BeatDivisor: 4
GridSize: 16
TimelineZoom: 5.299997

[Metadata]
Title:The Pretender
TitleUnicode:The Pretender
Artist:Infected Mushroom
ArtistUnicode:Infected Mushroom
Creator:ralip
Version:xxxxxxxxxx
Source:
Tags:
BeatmapID:857716
BeatmapSetID:394058

[Difficulty]
HPDrainRate:5
CircleSize:4.4
OverallDifficulty:7
ApproachRate:9.7
SliderMultiplier:1.60000000596046
SliderTickRate:2

[Events]
//Background and Video events
0,0,"bg.jpg",0,0
//Break Periods
//Storyboard Layer 0 (Background)
//Storyboard Layer 1 (Fail)
//Storyboard Layer 2 (Pass)
//Storyboard Layer 3 (Foreground)
//Storyboard Sound Samples

[TimingPoints]
42,344.827586206897,4,1,0,100,1,0
22110,-133.333333333333,4,1,0,100,0,0
44179,-100,4,1,0,100,0,0
206938,-66.6666666666667,4,1,0,100,0,0
217973,-66.6666666666667,4,1,0,100,0,0
246593,-100,4,1,0,100,0,0
246938,-100,4,1,0,100,0,0
289697,-66.6666666666667,4,1,0,100,0,0
292455,-50,4,1,0,100,0,0
296593,-100,4,1,0,100,0,0
331076,-66.6666666666667,4,1,0,100,0,0

[HitObjects]
352,320,22110,6,0,L|416:208,1,120.000005024671
336,112,22800,6,0,L|80:112,1,240.000010049343
144,304,23835,6,0,L|112:64,1,240.000010049343
192,256,25214,6,0,L|96:32,1,240.000010049343
352,224,26593,6,0,L|416:112,1,120.000005024671
272,64,27283,6,0,B|144:64|112:112|272:176|368:208|384:256|272:320|144:304,1,480.000020098686
416,128,29352,6,0,L|160:128,1,240.000010049343
400,128,30731,6,0,L|272:128,2,120.000005024671
160,160,31766,6,0,L|64:48,1,120.000005024671
352,176,32455,2,0,L|448:288,1,120.000005024671
160,320,33145,6,0,L|96:208,1,120.000005024671
208,96,33835,6,0,L|464:96,1,240.000010049343
368,304,34870,6,0,L|448:192,1,120.000005024671
240,128,35559,2,0,L|96:144,1,120.000005024671
320,256,36248,6,0,L|416:32,1,240.000010049343
160,224,37628,6,0,L|96:112,1,120.000005024671
240,64,38318,6,0,B|368:64|400:112|240:176|144:208|128:256|240:320|368:304,1,480.000020098686
96,128,40387,6,0,L|240:128,1,120.000005024671
32,48,41076,6,0,B|128:64|128:112|80:176|96:240|192:208|272:128|368:112|432:160|432:288|352:352|240:320|144:304|80:224|96:128|176:64|272:32|352:32|400:48|464:160,1,960.000040197371
336,264,44179,5,0,0:0:0:0:
376,224,44266,1,0,0:0:0:0:
280,168,44352,1,0,0:0:0:0:
132,244,44524,5,0,0:0:0:0:
88,204,44610,1,0,0:0:0:0:
192,168,44697,1,0,0:0:0:0:
292,168,44869,5,0,0:0:0:0:
320,128,44955,1,0,0:0:0:0:
172,92,45042,1,0,0:0:0:0:
308,240,45214,1,0,0:0:0:0:
356,184,45300,1,0,0:0:0:0:
288,144,45386,1,0,0:0:0:0:
96,256,45559,6,0,L|104:184,1,40.0000001490115
164,220,45731,2,0,L|172:156,1,40.0000001490115
80,184,45904,6,0,L|88:112,1,40.0000001490115
148,148,46076,2,0,L|156:84,1,40.0000001490115
48,124,46248,6,0,L|56:52,1,40.0000001490115
116,88,46420,2,0,L|124:24,1,40.0000001490115
432,60,46593,1,0,0:0:0:0:
160,160,46938,5,0,0:0:0:0:
112,160,47110,1,0,0:0:0:0:
288,160,47283,2,0,L|368:160,1,80.000000298023
176,160,47628,5,0,0:0:0:0:
128,160,47800,1,0,0:0:0:0:
320,112,47973,5,0,0:0:0:0:
224,112,48145,1,0,0:0:0:0:
304,240,48317,1,0,0:0:0:0:
128,176,48490,1,0,0:0:0:0:
112,208,48662,6,0,L|64:128,1,80.000000298023
336,160,49007,1,0,0:0:0:0:
272,96,49093,1,0,0:0:0:0:
336,48,49179,1,0,0:0:0:0:
480,320,49352,5,0,0:0:0:0:
416,320,49438,1,0,0:0:0:0:
352,320,49524,1,0,0:0:0:0:
288,320,49610,1,0,0:0:0:0:
320,160,49697,5,0,0:0:0:0:
368,160,49869,1,0,0:0:0:0:
224,160,50042,2,0,L|112:160,1,80.000000298023
320,160,50386,5,0,0:0:0:0:
368,160,50558,1,0,0:0:0:0:
128,112,50731,5,0,0:0:0:0:
208,112,50903,1,0,0:0:0:0:
160,240,51075,1,0,0:0:0:0:
352,176,51248,1,0,0:0:0:0:
368,208,51420,6,0,L|416:128,1,80.000000298023
272,160,51766,1,0,0:0:0:0:
160,112,51852,1,0,0:0:0:0:
128,64,51938,1,0,0:0:0:0:
0,320,52111,5,0,0:0:0:0:
64,320,52197,1,0,0:0:0:0:
128,320,52283,1,0,0:0:0:0:
192,320,52369,1,0,0:0:0:0:
160,176,52455,5,0,0:0:0:0:
288,176,52628,1,0,0:0:0:0:
160,176,52800,2,0,P|128:128|144:96,1,80.000000298023
352,256,53145,5,0,0:0:0:0:
224,144,53318,1,0,0:0:0:0:
336,128,53490,5,0,0:0:0:0:
224,256,53662,1,0,0:0:0:0:
400,160,53835,6,0,P|401:198|372:225,1,80.000000298023
160,128,54179,1,0,0:0:0:0:
288,128,54352,1,0,0:0:0:0:
208,256,54524,6,0,L|128:176,1,80.000000298023
304,192,54869,2,0,L|240:112,1,80.000000298023
464,176,55214,5,0,0:0:0:0:
352,176,55387,1,0,0:0:0:0:
480,224,55559,1,0,0:0:0:0:
304,144,55732,1,0,0:0:0:0:
160,256,55904,5,0,0:0:0:0:
272,256,56077,1,0,0:0:0:0:
176,256,56248,1,0,0:0:0:0:
256,256,56422,1,0,0:0:0:0:
192,128,56594,5,0,0:0:0:0:
192,128,56766,1,0,0:0:0:0:
320,128,56938,1,0,0:0:0:0:
304,128,57111,1,0,0:0:0:0:
160,272,57283,5,0,0:0:0:0:
96,192,57369,1,0,0:0:0:0:
176,160,57455,1,0,0:0:0:0:
336,272,57628,1,0,0:0:0:0:
400,224,57714,1,0,0:0:0:0:
352,160,57800,1,0,0:0:0:0:
160,160,57973,5,0,0:0:0:0:
112,160,58145,1,0,0:0:0:0:
288,160,58318,2,0,L|384:160,1,80.000000298023
160,160,58663,5,0,0:0:0:0:
112,160,58835,1,0,0:0:0:0:
352,112,59008,5,0,0:0:0:0:
256,112,59180,1,0,0:0:0:0:
320,240,59352,1,0,0:0:0:0:
128,176,59525,1,0,0:0:0:0:
112,208,59697,6,0,L|64:128,1,80.000000298023
176,160,60042,1,0,0:0:0:0:
240,96,60128,1,0,0:0:0:0:
176,48,60214,1,0,0:0:0:0:
32,320,60387,5,0,0:0:0:0:
96,320,60473,1,0,0:0:0:0:
160,320,60559,1,0,0:0:0:0:
224,320,60645,1,0,0:0:0:0:
368,208,60731,5,0,0:0:0:0:
416,208,60903,1,0,0:0:0:0:
256,208,61076,2,0,L|144:208,1,80.000000298023
384,208,61421,5,0,0:0:0:0:
432,208,61593,1,0,0:0:0:0:
176,160,61766,5,0,0:0:0:0:
256,160,61938,1,0,0:0:0:0:
240,272,62110,1,0,0:0:0:0:
400,224,62283,1,0,0:0:0:0:
416,256,62455,6,0,L|464:176,1,80.000000298023
368,160,62801,1,0,0:0:0:0:
304,96,62887,1,0,0:0:0:0:
368,48,62973,1,0,0:0:0:0:
512,320,63146,5,0,0:0:0:0:
448,320,63232,1,0,0:0:0:0:
384,320,63318,1,0,0:0:0:0:
320,320,63404,1,0,0:0:0:0:
176,160,63490,6,0,L|80:160,1,80.000000298023
384,160,63835,1,0,0:0:0:0:
432,96,63921,1,0,0:0:0:0:
352,64,64007,1,0,0:0:0:0:
416,224,64179,6,0,L|512:224,1,80.000000298023
256,240,64524,1,0,0:0:0:0:
176,176,64610,1,0,0:0:0:0:
256,144,64696,1,0,0:0:0:0:
160,128,64869,6,0,L|64:128,1,80.000000298023
336,144,65214,1,0,0:0:0:0:
384,80,65300,1,0,0:0:0:0:
304,48,65386,1,0,0:0:0:0:
304,256,65559,2,0,L|384:176,1,80.000000298023
160,240,65904,2,0,L|96:160,1,80.000000298023
336,256,66248,6,0,L|432:256,1,80.000000298023
192,256,66593,1,0,0:0:0:0:
144,192,66679,1,0,0:0:0:0:
224,160,66765,1,0,0:0:0:0:
112,320,66937,6,0,L|16:320,1,80.000000298023
256,320,67282,1,0,0:0:0:0:
304,256,67368,1,0,0:0:0:0:
224,224,67454,1,0,0:0:0:0:
352,208,67627,6,0,L|448:208,1,80.000000298023
192,224,67972,1,0,0:0:0:0:
144,160,68058,1,0,0:0:0:0:
224,128,68144,1,0,0:0:0:0:
160,192,68317,6,0,L|128:128,1,40.0000001490115
208,128,68490,2,0,L|176:64,1,40.0000001490115
208,176,68662,6,0,L|176:112,1,40.0000001490115
256,112,68835,2,0,L|224:48,1,40.0000001490115
480,80,69007,5,0,0:0:0:0:
400,160,69179,1,0,0:0:0:0:
240,192,69352,5,0,0:0:0:0:
208,176,69438,1,0,0:0:0:0:
176,128,69524,1,0,0:0:0:0:
176,80,69610,1,0,0:0:0:0:
320,80,69697,1,0,0:0:0:0:
384,48,69869,1,0,0:0:0:0:
256,240,70042,5,0,0:0:0:0:
224,208,70128,1,0,0:0:0:0:
192,160,70214,1,0,0:0:0:0:
208,112,70300,1,0,0:0:0:0:
464,176,70386,5,0,0:0:0:0:
336,176,70559,1,0,0:0:0:0:
480,208,70731,1,0,0:0:0:0:
320,208,70904,1,0,0:0:0:0:
176,160,71076,1,0,0:0:0:0:
240,96,71162,1,0,0:0:0:0:
176,48,71248,1,0,0:0:0:0:
32,320,71421,5,0,0:0:0:0:
96,320,71507,1,0,0:0:0:0:
160,320,71593,1,0,0:0:0:0:
224,320,71679,1,0,0:0:0:0:
192,160,71766,5,0,0:0:0:0:
144,160,71938,1,0,0:0:0:0:
304,176,72110,5,0,0:0:0:0:
336,144,72197,1,0,0:0:0:0:
368,96,72283,1,0,0:0:0:0:
320,64,72369,1,0,0:0:0:0:
224,80,72456,1,0,0:0:0:0:
176,48,72628,1,0,0:0:0:0:
288,256,72800,5,0,0:0:0:0:
320,224,72886,1,0,0:0:0:0:
336,192,72973,1,0,0:0:0:0:
304,144,73059,1,0,0:0:0:0:
80,176,73145,5,0,0:0:0:0:
208,176,73318,1,0,0:0:0:0:
80,208,73490,1,0,0:0:0:0:
208,208,73663,1,0,0:0:0:0:
320,160,73835,1,0,0:0:0:0:
352,112,73921,1,0,0:0:0:0:
384,64,74007,1,0,0:0:0:0:
512,320,74180,5,0,0:0:0:0:
448,320,74266,1,0,0:0:0:0:
384,320,74352,1,0,0:0:0:0:
320,320,74438,1,0,0:0:0:0:
352,176,74524,5,0,0:0:0:0:
224,176,74697,1,0,0:0:0:0:
352,176,74869,2,0,P|384:128|368:96,1,80.000000298023
128,256,75214,5,0,0:0:0:0:
240,256,75387,1,0,0:0:0:0:
112,256,75559,2,0,P|80:208|96:176,1,80.000000298023
160,128,75904,5,0,0:0:0:0:
160,128,76076,1,0,0:0:0:0:
320,128,76248,1,0,0:0:0:0:
224,128,76421,1,0,0:0:0:0:
304,256,76593,6,0,L|384:176,1,80.000000298023
208,192,76938,2,0,L|272:112,1,80.000000298023
48,176,77283,5,0,0:0:0:0:
128,112,77456,1,0,0:0:0:0:
192,192,77628,1,0,0:0:0:0:
112,256,77801,1,0,0:0:0:0:
352,256,77973,5,0,0:0:0:0:
272,176,78146,1,0,0:0:0:0:
208,256,78317,1,0,0:0:0:0:
272,304,78491,1,0,0:0:0:0:
320,128,78663,5,0,0:0:0:0:
320,128,78835,1,0,0:0:0:0:
160,128,79007,1,0,0:0:0:0:
208,128,79180,1,0,0:0:0:0:
352,272,79352,5,0,0:0:0:0:
416,192,79438,1,0,0:0:0:0:
336,160,79524,1,0,0:0:0:0:
176,272,79697,1,0,0:0:0:0:
112,224,79783,1,0,0:0:0:0:
160,160,79869,1,0,0:0:0:0:
304,176,80042,5,0,0:0:0:0:
352,176,80214,1,0,0:0:0:0:
144,192,80386,1,0,0:0:0:0:
128,160,80473,1,0,0:0:0:0:
112,112,80559,1,0,0:0:0:0:
144,64,80645,1,0,0:0:0:0:
304,176,80731,5,0,0:0:0:0:
352,176,80904,1,0,0:0:0:0:
160,208,81076,5,0,0:0:0:0:
128,176,81162,1,0,0:0:0:0:
112,128,81248,1,0,0:0:0:0:
128,96,81335,1,0,0:0:0:0:
288,192,81421,1,0,0:0:0:0:
336,192,81594,1,0,0:0:0:0:
352,224,81766,6,0,L|432:224,1,80.000000298023
336,160,82111,1,0,0:0:0:0:
272,96,82197,1,0,0:0:0:0:
336,48,82283,1,0,0:0:0:0:
480,320,82456,5,0,0:0:0:0:
416,320,82542,1,0,0:0:0:0:
352,320,82628,1,0,0:0:0:0:
288,320,82714,1,0,0:0:0:0:
176,160,82800,5,0,0:0:0:0:
128,160,82972,1,0,0:0:0:0:
336,176,83145,1,0,0:0:0:0:
384,144,83231,1,0,0:0:0:0:
384,96,83317,1,0,0:0:0:0:
352,64,83404,1,0,0:0:0:0:
176,160,83490,5,0,0:0:0:0:
128,160,83662,1,0,0:0:0:0:
320,208,83835,5,0,0:0:0:0:
336,176,83921,1,0,0:0:0:0:
352,144,84007,1,0,0:0:0:0:
320,112,84093,1,0,0:0:0:0:
192,176,84179,1,0,0:0:0:0:
144,176,84352,1,0,0:0:0:0:
352,288,84524,6,0,L|384:224,1,40.0000001490115
352,224,84697,2,0,L|320:176,1,40.0000001490115
288,176,84869,2,0,L|288:112,1,40.0000001490115
240,112,85042,2,0,L|176:96,1,40.0000001490115
0,320,85215,5,0,0:0:0:0:
64,320,85301,1,0,0:0:0:0:
128,320,85387,1,0,0:0:0:0:
192,320,85473,1,0,0:0:0:0:
320,176,85559,6,0,L|416:176,1,80.000000298023
128,160,85904,1,0,0:0:0:0:
80,96,85990,1,0,0:0:0:0:
160,64,86076,1,0,0:0:0:0:
96,240,86248,6,0,L|0:240,1,80.000000298023
256,240,86593,1,0,0:0:0:0:
336,176,86679,1,0,0:0:0:0:
256,144,86765,1,0,0:0:0:0:
336,144,86938,6,0,L|432:144,1,80.000000298023
176,144,87283,1,0,0:0:0:0:
128,80,87369,1,0,0:0:0:0:
208,48,87455,1,0,0:0:0:0:
208,256,87628,2,0,L|128:176,1,80.000000298023
352,240,87973,2,0,L|416:160,1,80.000000298023
160,256,88317,6,0,L|64:256,1,80.000000298023
320,256,88662,1,0,0:0:0:0:
368,192,88748,1,0,0:0:0:0:
288,160,88834,1,0,0:0:0:0:
416,320,89006,6,0,L|512:320,1,80.000000298023
256,320,89351,1,0,0:0:0:0:
208,256,89437,1,0,0:0:0:0:
288,224,89523,1,0,0:0:0:0:
144,224,89696,6,0,L|48:224,1,80.000000298023
320,224,90041,1,0,0:0:0:0:
368,160,90127,1,0,0:0:0:0:
288,128,90213,1,0,0:0:0:0:
352,192,90386,6,0,L|384:128,1,40.0000001490115
304,128,90559,2,0,L|336:64,1,40.0000001490115
304,176,90731,6,0,L|336:112,1,40.0000001490115
256,112,90904,2,0,L|288:48,1,40.0000001490115
32,80,91076,1,0,0:0:0:0:
480,80,91766,1,0,0:0:0:0:
32,80,92455,1,0,0:0:0:0:
480,80,93145,1,0,0:0:0:0:
256,192,93835,12,0,96421,0:0:0:0:
128,240,96593,5,0,0:0:0:0:
272,144,96766,1,0,0:0:0:0:
128,144,96938,1,0,0:0:0:0:
320,144,97110,1,0,0:0:0:0:
176,144,97283,1,0,0:0:0:0:
288,144,97455,1,0,0:0:0:0:
336,192,97973,5,0,0:0:0:0:
256,192,98145,1,0,0:0:0:0:
416,192,98317,1,0,0:0:0:0:
256,144,98490,1,0,0:0:0:0:
368,144,98662,1,0,0:0:0:0:
128,144,98835,1,0,0:0:0:0:
336,144,99007,1,0,0:0:0:0:
96,288,99352,5,0,0:0:0:0:
32,192,99524,1,0,0:0:0:0:
192,192,99697,5,0,0:0:0:0:
224,160,99783,1,0,0:0:0:0:
256,128,99869,1,0,0:0:0:0:
112,128,100042,5,0,0:0:0:0:
240,128,100214,1,0,0:0:0:0:
192,256,100386,5,0,0:0:0:0:
160,224,100473,1,0,0:0:0:0:
144,176,100559,1,0,0:0:0:0:
304,112,100731,1,0,0:0:0:0:
192,80,100904,1,0,0:0:0:0:
304,288,101076,5,0,0:0:0:0:
368,240,101162,1,0,0:0:0:0:
416,176,101248,1,0,0:0:0:0:
400,112,101335,1,0,0:0:0:0:
224,192,101421,5,0,0:0:0:0:
144,128,101593,1,0,0:0:0:0:
304,288,101766,5,0,0:0:0:0:
368,240,101852,1,0,0:0:0:0:
416,176,101938,1,0,0:0:0:0:
400,112,102025,1,0,0:0:0:0:
96,288,102110,5,0,0:0:0:0:
32,192,102282,1,0,0:0:0:0:
176,192,102455,5,0,0:0:0:0:
128,176,102542,1,0,0:0:0:0:
96,144,102628,1,0,0:0:0:0:
160,32,102800,1,0,0:0:0:0:
240,128,102972,1,0,0:0:0:0:
112,128,103144,1,0,0:0:0:0:
160,144,103231,1,0,0:0:0:0:
208,160,103317,1,0,0:0:0:0:
256,176,103404,1,0,0:0:0:0:
304,112,103489,1,0,0:0:0:0:
192,80,103662,1,0,0:0:0:0:
368,240,103835,6,0,L|416:160,1,80.000000298023
256,128,104179,2,0,L|192:208,1,80.000000298023
352,128,104524,2,0,L|400:64,1,80.000000298023
256,272,104869,5,0,0:0:0:0:
128,192,105042,1,0,0:0:0:0:
256,96,105214,1,0,0:0:0:0:
368,192,105386,1,0,0:0:0:0:
288,256,105559,5,0,0:0:0:0:
160,176,105732,1,0,0:0:0:0:
288,80,105904,1,0,0:0:0:0:
400,176,106076,1,0,0:0:0:0:
240,256,106248,5,0,0:0:0:0:
368,176,106421,1,0,0:0:0:0:
240,80,106593,1,0,0:0:0:0:
128,176,106765,1,0,0:0:0:0:
320,256,106938,5,0,0:0:0:0:
384,208,107024,1,0,0:0:0:0:
416,144,107110,1,0,0:0:0:0:
384,80,107197,1,0,0:0:0:0:
224,224,107283,5,0,0:0:0:0:
160,176,107369,1,0,0:0:0:0:
128,112,107455,1,0,0:0:0:0:
160,48,107542,1,0,0:0:0:0:
320,272,107628,5,0,0:0:0:0:
448,192,107801,1,0,0:0:0:0:
320,96,107973,1,0,0:0:0:0:
208,192,108145,1,0,0:0:0:0:
288,256,108318,5,0,0:0:0:0:
416,176,108491,1,0,0:0:0:0:
288,80,108663,1,0,0:0:0:0:
176,176,108835,1,0,0:0:0:0:
336,256,109007,5,0,0:0:0:0:
208,176,109180,1,0,0:0:0:0:
336,80,109352,1,0,0:0:0:0:
448,176,109524,1,0,0:0:0:0:
256,256,109697,5,0,0:0:0:0:
192,208,109783,1,0,0:0:0:0:
160,144,109869,1,0,0:0:0:0:
192,80,109956,1,0,0:0:0:0:
352,224,110042,5,0,0:0:0:0:
416,176,110128,1,0,0:0:0:0:
448,112,110214,1,0,0:0:0:0:
416,48,110301,1,0,0:0:0:0:
160,288,110386,5,0,0:0:0:0:
96,192,110558,1,0,0:0:0:0:
224,192,110731,1,0,0:0:0:0:
176,160,110817,1,0,0:0:0:0:
144,128,110903,5,0,0:0:0:0:
224,32,111076,1,0,0:0:0:0:
304,128,111248,1,0,0:0:0:0:
176,128,111420,1,0,0:0:0:0:
224,160,111507,1,0,0:0:0:0:
288,192,111593,5,0,0:0:0:0:
368,112,111765,1,0,0:0:0:0:
256,80,111938,1,0,0:0:0:0:
368,288,112110,5,0,0:0:0:0:
432,240,112196,1,0,0:0:0:0:
480,176,112282,1,0,0:0:0:0:
464,112,112369,1,0,0:0:0:0:
288,192,112455,5,0,0:0:0:0:
208,128,112627,1,0,0:0:0:0:
368,288,112800,5,0,0:0:0:0:
432,240,112886,1,0,0:0:0:0:
480,176,112972,1,0,0:0:0:0:
464,112,113059,1,0,0:0:0:0:
160,288,113144,5,0,0:0:0:0:
96,192,113316,1,0,0:0:0:0:
224,192,113489,1,0,0:0:0:0:
176,160,113576,1,0,0:0:0:0:
144,128,113661,5,0,0:0:0:0:
224,32,113834,1,0,0:0:0:0:
304,128,114006,1,0,0:0:0:0:
176,128,114178,1,0,0:0:0:0:
240,160,114266,1,0,0:0:0:0:
288,192,114351,5,0,0:0:0:0:
368,112,114523,1,0,0:0:0:0:
256,80,114696,1,0,0:0:0:0:
432,240,114869,6,0,L|480:160,1,80.000000298023
320,128,115213,2,0,L|256:208,1,80.000000298023
416,128,115558,2,0,L|464:64,1,80.000000298023
320,272,115903,5,0,0:0:0:0:
192,192,116076,1,0,0:0:0:0:
320,96,116248,1,0,0:0:0:0:
432,192,116420,1,0,0:0:0:0:
352,256,116593,5,0,0:0:0:0:
224,176,116766,1,0,0:0:0:0:
352,80,116938,1,0,0:0:0:0:
464,176,117110,1,0,0:0:0:0:
304,256,117282,5,0,0:0:0:0:
432,176,117455,1,0,0:0:0:0:
304,80,117627,1,0,0:0:0:0:
192,176,117799,1,0,0:0:0:0:
384,256,117972,5,0,0:0:0:0:
448,208,118058,1,0,0:0:0:0:
480,144,118144,1,0,0:0:0:0:
448,80,118231,1,0,0:0:0:0:
128,256,118317,5,0,0:0:0:0:
64,208,118403,1,0,0:0:0:0:
32,144,118489,1,0,0:0:0:0:
64,80,118576,1,0,0:0:0:0:
288,192,118662,5,0,0:0:0:0:
288,192,119352,1,0,0:0:0:0:
288,192,120042,1,0,0:0:0:0:
288,192,120731,1,0,0:0:0:0:
288,192,121076,5,0,0:0:0:0:
288,192,121162,1,0,0:0:0:0:
288,192,121248,1,0,0:0:0:0:
288,160,121335,1,0,0:0:0:0:
96,176,121421,5,0,0:0:0:0:
176,112,121593,1,0,0:0:0:0:
224,192,121766,1,0,0:0:0:0:
352,208,121938,1,0,0:0:0:0:
384,176,122024,1,0,0:0:0:0:
400,144,122110,1,0,0:0:0:0:
240,80,122283,5,0,0:0:0:0:
144,144,122455,1,0,0:0:0:0:
288,160,122628,1,0,0:0:0:0:
144,176,122800,5,0,0:0:0:0:
112,128,122886,1,0,0:0:0:0:
144,96,122973,1,0,0:0:0:0:
336,144,123145,1,0,0:0:0:0:
224,224,123317,5,0,0:0:0:0:
192,176,123404,1,0,0:0:0:0:
224,144,123490,1,0,0:0:0:0:
352,144,123662,1,0,0:0:0:0:
240,96,123835,5,0,0:0:0:0:
176,96,123921,1,0,0:0:0:0:
112,96,124007,1,0,0:0:0:0:
48,96,124093,1,0,0:0:0:0:
384,176,124179,5,0,0:0:0:0:
304,112,124351,1,0,0:0:0:0:
256,192,124524,1,0,0:0:0:0:
128,208,124696,1,0,0:0:0:0:
96,176,124782,1,0,0:0:0:0:
80,144,124868,1,0,0:0:0:0:
240,80,125041,5,0,0:0:0:0:
336,144,125213,1,0,0:0:0:0:
192,160,125386,1,0,0:0:0:0:
336,176,125558,5,0,0:0:0:0:
368,128,125644,1,0,0:0:0:0:
336,96,125731,1,0,0:0:0:0:
176,176,125904,5,0,0:0:0:0:
144,128,125990,1,0,0:0:0:0:
176,96,126077,1,0,0:0:0:0:
320,96,126248,5,0,0:0:0:0:
384,96,126335,1,0,0:0:0:0:
448,96,126421,1,0,0:0:0:0:
256,176,126593,5,0,0:0:0:0:
192,176,126680,1,0,0:0:0:0:
128,176,126766,1,0,0:0:0:0:
368,208,126938,5,0,0:0:0:0:
240,144,127110,1,0,0:0:0:0:
336,64,127283,1,0,0:0:0:0:
288,208,127455,5,0,0:0:0:0:
160,144,127627,1,0,0:0:0:0:
256,64,127800,1,0,0:0:0:0:
160,208,127973,5,0,0:0:0:0:
288,144,128145,1,0,0:0:0:0:
192,64,128318,1,0,0:0:0:0:
240,208,128490,5,0,0:0:0:0:
368,144,128662,1,0,0:0:0:0:
272,64,128835,1,0,0:0:0:0:
128,112,129007,5,0,0:0:0:0:
224,192,129179,1,0,0:0:0:0:
400,176,129352,5,0,0:0:0:0:
432,128,129438,1,0,0:0:0:0:
384,96,129524,1,0,0:0:0:0:
256,224,129697,5,0,0:0:0:0:
128,160,129869,1,0,0:0:0:0:
224,80,130042,1,0,0:0:0:0:
128,224,130215,5,0,0:0:0:0:
256,160,130387,1,0,0:0:0:0:
160,80,130560,1,0,0:0:0:0:
208,224,130732,5,0,0:0:0:0:
336,160,130904,1,0,0:0:0:0:
208,128,131076,1,0,0:0:0:0:
176,128,131162,1,0,0:0:0:0:
128,128,131248,1,0,0:0:0:0:
80,128,131334,1,0,0:0:0:0:
32,128,131421,1,0,0:0:0:0:
128,80,131593,1,0,0:0:0:0:
240,80,131765,5,0,0:0:0:0:
0,80,131938,1,0,0:0:0:0:
224,80,132110,1,0,0:0:0:0:
416,176,132455,5,0,0:0:0:0:
336,112,132627,1,0,0:0:0:0:
288,192,132800,1,0,0:0:0:0:
160,208,132972,1,0,0:0:0:0:
128,176,133058,1,0,0:0:0:0:
112,144,133144,1,0,0:0:0:0:
272,80,133317,5,0,0:0:0:0:
368,144,133489,1,0,0:0:0:0:
224,160,133662,1,0,0:0:0:0:
368,176,133834,5,0,0:0:0:0:
400,128,133920,1,0,0:0:0:0:
368,96,134007,1,0,0:0:0:0:
144,128,134179,1,0,0:0:0:0:
288,224,134351,5,0,0:0:0:0:
320,176,134438,1,0,0:0:0:0:
288,144,134524,1,0,0:0:0:0:
160,144,134696,1,0,0:0:0:0:
272,96,134869,5,0,0:0:0:0:
336,96,134955,1,0,0:0:0:0:
400,96,135041,1,0,0:0:0:0:
464,96,135127,1,0,0:0:0:0:
128,176,135214,5,0,0:0:0:0:
208,112,135385,1,0,0:0:0:0:
256,192,135558,1,0,0:0:0:0:
384,208,135730,1,0,0:0:0:0:
416,176,135816,1,0,0:0:0:0:
432,144,135902,1,0,0:0:0:0:
272,80,136075,5,0,0:0:0:0:
176,144,136247,1,0,0:0:0:0:
320,160,136420,1,0,0:0:0:0:
176,176,136592,5,0,0:0:0:0:
144,128,136678,1,0,0:0:0:0:
176,96,136765,1,0,0:0:0:0:
336,176,136938,5,0,0:0:0:0:
368,128,137024,1,0,0:0:0:0:
336,96,137111,1,0,0:0:0:0:
192,96,137282,5,0,0:0:0:0:
128,96,137369,1,0,0:0:0:0:
64,96,137455,1,0,0:0:0:0:
256,176,137627,5,0,0:0:0:0:
320,176,137714,1,0,0:0:0:0:
384,176,137800,1,0,0:0:0:0:
176,240,137973,5,0,0:0:0:0:
112,160,138145,1,0,0:0:0:0:
224,128,138317,1,0,0:0:0:0:
368,176,138490,5,0,0:0:0:0:
416,112,138576,1,0,0:0:0:0:
336,96,138662,1,0,0:0:0:0:
224,112,138835,5,0,0:0:0:0:
96,128,139007,1,0,0:0:0:0:
48,64,139093,1,0,0:0:0:0:
128,48,139179,1,0,0:0:0:0:
352,224,139352,5,0,0:0:0:0:
336,128,139524,1,0,0:0:0:0:
224,160,139697,1,0,0:0:0:0:
320,256,139869,1,0,0:0:0:0:
144,256,140042,5,0,0:0:0:0:
96,192,140128,1,0,0:0:0:0:
160,160,140215,1,0,0:0:0:0:
416,240,140386,5,0,0:0:0:0:
352,240,140473,1,0,0:0:0:0:
288,240,140559,1,0,0:0:0:0:
224,240,140645,1,0,0:0:0:0:
400,128,140731,5,0,0:0:0:0:
320,64,140902,1,0,0:0:0:0:
272,144,141075,1,0,0:0:0:0:
144,160,141247,1,0,0:0:0:0:
112,128,141333,1,0,0:0:0:0:
96,96,141419,1,0,0:0:0:0:
256,32,141592,5,0,0:0:0:0:
352,96,141764,1,0,0:0:0:0:
208,112,141937,1,0,0:0:0:0:
208,192,142110,1,0,0:0:0:0:
240,192,142196,1,0,0:0:0:0:
288,192,142282,1,0,0:0:0:0:
336,192,142368,1,0,0:0:0:0:
384,192,142455,1,0,0:0:0:0:
288,144,142627,1,0,0:0:0:0:
176,144,142799,5,0,0:0:0:0:
416,144,142972,1,0,0:0:0:0:
256,80,143145,5,0,0:0:0:0:
208,80,143231,1,0,0:0:0:0:
160,80,143317,1,0,0:0:0:0:
112,80,143404,1,0,0:0:0:0:
288,304,143490,6,0,L|288:128,1,160.000000596046
304,304,144179,6,0,P|368:256|256:96,1,320.000001192092
256,192,145214,2,0,L|256:160,7,20.0000000745057
256,144,145559,1,0,0:0:0:0:
144,288,145904,6,0,L|368:48,1,320.000001192092
96,304,146938,6,0,P|32:256|144:96,1,320.000001192092
320,192,147801,5,0,0:0:0:0:
144,192,147973,2,0,L|144:160,7,20.0000000745057
144,144,148318,1,0,0:0:0:0:
352,144,148662,1,0,0:0:0:0:
192,304,149007,6,0,B|112:224|112:224|288:112,1,320.000001192092
256,224,150042,6,0,L|256:192,7,20.0000000745057
208,192,150386,5,0,0:0:0:0:
320,192,150731,1,0,0:0:0:0:
176,192,151076,1,0,0:0:0:0:
352,288,151421,6,0,P|400:208|336:144,1,160.000000596046
112,192,152110,1,0,0:0:0:0:
256,224,152456,6,0,L|256:192,7,20.0000000745057
304,192,152800,5,0,0:0:0:0:
192,192,153145,1,0,0:0:0:0:
336,192,153490,1,0,0:0:0:0:
160,288,153835,6,0,P|112:208|176:144,1,160.000000596046
400,192,154524,1,0,0:0:0:0:
192,304,154869,6,0,B|112:224|112:224|288:112,1,320.000001192092
256,224,155904,6,0,L|256:192,7,20.0000000745057
208,192,156248,5,0,0:0:0:0:
320,192,156593,1,0,0:0:0:0:
176,192,156938,1,0,0:0:0:0:
352,288,157283,6,0,P|400:208|336:144,1,160.000000596046
112,192,157972,5,0,0:0:0:0:
256,224,158318,6,0,L|256:192,7,20.0000000745057
304,192,158662,5,0,0:0:0:0:
192,192,159007,1,0,0:0:0:0:
336,192,159352,1,0,0:0:0:0:
160,288,159697,6,0,P|112:208|176:144,1,160.000000596046
400,192,160386,1,0,0:0:0:0:
128,192,160731,1,0,0:0:0:0:
256,208,161076,6,0,L|224:208,7,20.0000000745057
208,208,161421,1,0,0:0:0:0:
416,208,161766,1,0,0:0:0:0:
112,208,162110,1,0,0:0:0:0:
416,208,162455,1,0,0:0:0:0:
256,208,162800,6,0,L|288:208,7,20.0000000745057
304,208,163145,1,0,0:0:0:0:
96,208,163490,1,0,0:0:0:0:
400,208,163834,1,0,0:0:0:0:
240,80,164179,6,0,P|128:80|128:224,1,280.00000104308
160,192,164869,6,0,L|128:128,1,40.0000001490115
208,128,165042,2,0,L|176:64,1,40.0000001490115
208,176,165214,6,0,L|176:112,1,40.0000001490115
256,112,165387,2,0,L|224:48,1,40.0000001490115
480,80,165559,1,0,0:0:0:0:
32,80,166249,1,0,0:0:0:0:
480,80,166938,1,0,0:0:0:0:
32,80,167628,1,0,0:0:0:0:
256,192,168317,12,0,170904,0:0:0:0:
384,240,171076,5,0,0:0:0:0:
240,144,171249,1,0,0:0:0:0:
384,144,171421,1,0,0:0:0:0:
192,144,171593,1,0,0:0:0:0:
336,144,171766,1,0,0:0:0:0:
224,144,171938,1,0,0:0:0:0:
176,192,172456,5,0,0:0:0:0:
208,192,172542,1,0,0:0:0:0:
256,192,172628,1,0,0:0:0:0:
304,192,172714,1,0,0:0:0:0:
352,192,172800,1,0,0:0:0:0:
256,144,172973,1,0,0:0:0:0:
144,144,173145,1,0,0:0:0:0:
384,144,173318,1,0,0:0:0:0:
160,144,173490,1,0,0:0:0:0:
416,288,173835,5,0,0:0:0:0:
480,192,174007,1,0,0:0:0:0:
352,192,174180,1,0,0:0:0:0:
400,144,174266,1,0,0:0:0:0:
448,96,174352,5,0,0:0:0:0:
352,32,174525,1,0,0:0:0:0:
272,128,174697,1,0,0:0:0:0:
400,128,174869,1,0,0:0:0:0:
336,160,174955,1,0,0:0:0:0:
272,192,175042,5,0,0:0:0:0:
208,112,175214,1,0,0:0:0:0:
320,80,175387,1,0,0:0:0:0:
208,288,175559,5,0,0:0:0:0:
144,240,175645,1,0,0:0:0:0:
96,176,175731,1,0,0:0:0:0:
112,112,175818,1,0,0:0:0:0:
288,192,175904,5,0,0:0:0:0:
368,128,176076,1,0,0:0:0:0:
208,288,176249,5,0,0:0:0:0:
144,240,176335,1,0,0:0:0:0:
96,176,176421,1,0,0:0:0:0:
112,112,176508,1,0,0:0:0:0:
416,288,176593,5,0,0:0:0:0:
480,192,176765,1,0,0:0:0:0:
352,192,176938,1,0,0:0:0:0:
400,144,177024,1,0,0:0:0:0:
448,96,177110,5,0,0:0:0:0:
352,32,177283,1,0,0:0:0:0:
272,128,177455,1,0,0:0:0:0:
400,128,177627,1,0,0:0:0:0:
352,176,177714,1,0,0:0:0:0:
304,208,177800,5,0,0:0:0:0:
208,112,177972,1,0,0:0:0:0:
320,80,178145,1,0,0:0:0:0:
144,240,178318,6,0,L|96:160,1,80.000000298023
256,128,178662,2,0,L|320:208,1,80.000000298023
160,128,179007,2,0,L|112:64,1,80.000000298023
256,272,179352,5,0,0:0:0:0:
384,192,179525,1,0,0:0:0:0:
256,96,179697,1,0,0:0:0:0:
144,192,179869,1,0,0:0:0:0:
224,256,180042,5,0,0:0:0:0:
352,176,180215,1,0,0:0:0:0:
224,80,180387,1,0,0:0:0:0:
112,176,180559,1,0,0:0:0:0:
272,256,180731,5,0,0:0:0:0:
144,176,180904,1,0,0:0:0:0:
272,80,181076,1,0,0:0:0:0:
384,176,181248,1,0,0:0:0:0:
192,256,181421,5,0,0:0:0:0:
128,208,181507,1,0,0:0:0:0:
96,144,181593,1,0,0:0:0:0:
128,80,181680,1,0,0:0:0:0:
288,224,181766,5,0,0:0:0:0:
352,176,181852,1,0,0:0:0:0:
384,112,181938,1,0,0:0:0:0:
352,48,182025,1,0,0:0:0:0:
192,272,182111,5,0,0:0:0:0:
64,192,182284,1,0,0:0:0:0:
192,96,182456,1,0,0:0:0:0:
304,192,182628,1,0,0:0:0:0:
224,256,182801,5,0,0:0:0:0:
96,176,182974,1,0,0:0:0:0:
224,80,183146,1,0,0:0:0:0:
336,176,183318,1,0,0:0:0:0:
176,256,183490,5,0,0:0:0:0:
304,176,183663,1,0,0:0:0:0:
176,80,183835,1,0,0:0:0:0:
64,176,184007,1,0,0:0:0:0:
256,256,184180,5,0,0:0:0:0:
320,208,184266,1,0,0:0:0:0:
352,144,184352,1,0,0:0:0:0:
320,80,184439,1,0,0:0:0:0:
160,224,184525,5,0,0:0:0:0:
96,176,184611,1,0,0:0:0:0:
64,112,184697,1,0,0:0:0:0:
96,48,184784,1,0,0:0:0:0:
352,288,184869,5,0,0:0:0:0:
416,192,185041,1,0,0:0:0:0:
288,192,185214,1,0,0:0:0:0:
336,160,185300,1,0,0:0:0:0:
384,112,185386,5,0,0:0:0:0:
288,32,185559,1,0,0:0:0:0:
208,128,185731,1,0,0:0:0:0:
336,128,185903,1,0,0:0:0:0:
288,160,185990,1,0,0:0:0:0:
224,192,186076,5,0,0:0:0:0:
144,112,186248,1,0,0:0:0:0:
256,80,186421,1,0,0:0:0:0:
144,288,186593,5,0,0:0:0:0:
80,240,186679,1,0,0:0:0:0:
32,176,186765,1,0,0:0:0:0:
48,112,186852,1,0,0:0:0:0:
224,192,186938,5,0,0:0:0:0:
304,128,187110,1,0,0:0:0:0:
144,288,187283,5,0,0:0:0:0:
80,240,187369,1,0,0:0:0:0:
32,176,187455,1,0,0:0:0:0:
48,112,187542,1,0,0:0:0:0:
352,288,187627,5,0,0:0:0:0:
416,192,187799,1,0,0:0:0:0:
288,192,187972,1,0,0:0:0:0:
336,160,188059,1,0,0:0:0:0:
384,112,188144,5,0,0:0:0:0:
288,32,188317,1,0,0:0:0:0:
208,128,188489,1,0,0:0:0:0:
336,128,188661,1,0,0:0:0:0:
272,160,188748,1,0,0:0:0:0:
224,192,188834,5,0,0:0:0:0:
144,112,189006,1,0,0:0:0:0:
256,80,189179,1,0,0:0:0:0:
80,240,189352,6,0,L|32:160,1,80.000000298023
192,128,189696,2,0,L|256:208,1,80.000000298023
96,128,190041,2,0,L|48:64,1,80.000000298023
192,272,190386,5,0,0:0:0:0:
320,192,190559,1,0,0:0:0:0:
192,96,190731,1,0,0:0:0:0:
80,192,190903,1,0,0:0:0:0:
160,256,191076,5,0,0:0:0:0:
288,176,191249,1,0,0:0:0:0:
160,80,191421,1,0,0:0:0:0:
48,176,191593,1,0,0:0:0:0:
208,256,191765,5,0,0:0:0:0:
80,176,191938,1,0,0:0:0:0:
208,80,192110,1,0,0:0:0:0:
320,176,192282,1,0,0:0:0:0:
128,256,192455,5,0,0:0:0:0:
64,208,192541,1,0,0:0:0:0:
32,144,192627,1,0,0:0:0:0:
64,80,192714,1,0,0:0:0:0:
384,256,192800,5,0,0:0:0:0:
448,208,192886,1,0,0:0:0:0:
480,144,192972,1,0,0:0:0:0:
448,80,193059,1,0,0:0:0:0:
224,192,193145,5,0,0:0:0:0:
224,192,193835,1,0,0:0:0:0:
224,192,194525,1,0,0:0:0:0:
224,192,195214,1,0,0:0:0:0:
224,192,195559,5,0,0:0:0:0:
224,192,195645,1,0,0:0:0:0:
224,192,195731,1,0,0:0:0:0:
224,192,195818,1,0,0:0:0:0:
400,96,195904,5,0,0:0:0:0:
464,208,196076,1,0,0:0:0:0:
288,144,196248,1,0,0:0:0:0:
112,160,196421,1,0,0:0:0:0:
272,160,196593,1,0,0:0:0:0:
256,160,196766,5,0,0:0:0:0:
304,112,196852,1,0,0:0:0:0:
240,80,196938,1,0,0:0:0:0:
96,96,197110,1,0,0:0:0:0:
208,128,197283,5,0,0:0:0:0:
144,240,197455,1,0,0:0:0:0:
304,192,197627,1,0,0:0:0:0:
496,192,197800,1,0,0:0:0:0:
336,192,197972,1,0,0:0:0:0:
352,192,198145,5,0,0:0:0:0:
304,144,198231,1,0,0:0:0:0:
368,112,198317,1,0,0:0:0:0:
512,128,198489,1,0,0:0:0:0:
336,128,198662,5,0,0:0:0:0:
368,256,198834,1,0,0:0:0:0:
224,176,199006,1,0,0:0:0:0:
48,192,199179,1,0,0:0:0:0:
208,192,199351,1,0,0:0:0:0:
192,192,199524,5,0,0:0:0:0:
240,144,199610,1,0,0:0:0:0:
176,112,199696,1,0,0:0:0:0:
32,128,199868,1,0,0:0:0:0:
272,208,200042,6,0,L|320:128,1,80.000000298023
160,96,200386,2,0,L|96:176,1,80.000000298023
256,96,200731,2,0,L|304:32,1,80.000000298023
176,192,201076,5,0,0:0:0:0:
112,192,201162,1,0,0:0:0:0:
48,192,201248,1,0,0:0:0:0:
0,192,201335,1,0,0:0:0:0:
112,96,201421,5,0,0:0:0:0:
48,208,201593,1,0,0:0:0:0:
224,144,201765,1,0,0:0:0:0:
400,160,201938,1,0,0:0:0:0:
240,160,202110,1,0,0:0:0:0:
256,160,202283,5,0,0:0:0:0:
208,112,202369,1,0,0:0:0:0:
272,80,202455,1,0,0:0:0:0:
416,96,202627,1,0,0:0:0:0:
304,128,202800,5,0,0:0:0:0:
368,240,202972,1,0,0:0:0:0:
208,192,203144,1,0,0:0:0:0:
16,192,203317,1,0,0:0:0:0:
176,192,203489,1,0,0:0:0:0:
160,192,203662,5,0,0:0:0:0:
208,144,203748,1,0,0:0:0:0:
144,112,203834,1,0,0:0:0:0:
0,128,204006,1,0,0:0:0:0:
176,128,204179,5,0,0:0:0:0:
144,256,204351,1,0,0:0:0:0:
288,176,204523,1,0,0:0:0:0:
464,192,204696,1,0,0:0:0:0:
304,192,204868,1,0,0:0:0:0:
320,192,205041,5,0,0:0:0:0:
272,144,205127,1,0,0:0:0:0:
336,112,205213,1,0,0:0:0:0:
480,128,205385,1,0,0:0:0:0:
304,192,205559,1,0,0:0:0:0:
272,192,205645,1,0,0:0:0:0:
224,192,205731,1,0,0:0:0:0:
176,192,205817,1,0,0:0:0:0:
128,192,205904,1,0,0:0:0:0:
224,144,206076,1,0,0:0:0:0:
336,144,206248,5,0,0:0:0:0:
80,144,206421,1,0,0:0:0:0:
304,144,206593,1,0,0:0:0:0:
104,312,206938,5,0,0:0:0:0:
64,280,207024,1,0,0:0:0:0:
44,240,207110,1,0,0:0:0:0:
48,196,207197,1,0,0:0:0:0:
208,168,207283,1,0,0:0:0:0:
272,124,207369,1,0,0:0:0:0:
336,84,207455,1,0,0:0:0:0:
400,44,207542,1,0,0:0:0:0:
312,312,207628,5,0,0:0:0:0:
224,256,207714,1,0,0:0:0:0:
156,204,207800,1,0,0:0:0:0:
272,176,207886,1,0,0:0:0:0:
120,196,207973,6,0,L|120:124,1,60.0000025123357
208,128,208145,2,0,L|208:216,1,60.0000025123357
332,52,208317,5,0,0:0:0:0:
392,56,208404,1,0,0:0:0:0:
436,96,208490,1,0,0:0:0:0:
452,152,208576,1,0,0:0:0:0:
300,260,208662,5,0,0:0:0:0:
208,252,208748,1,0,0:0:0:0:
152,176,208835,1,0,0:0:0:0:
160,92,208921,1,0,0:0:0:0:
344,88,209007,5,0,0:0:0:0:
384,148,209093,1,0,0:0:0:0:
392,212,209179,1,0,0:0:0:0:
360,272,209266,1,0,0:0:0:0:
124,200,209352,6,0,L|80:136,1,60.0000025123357
232,128,209524,2,0,L|276:72,1,60.0000025123357
80,308,209697,5,0,0:0:0:0:
44,256,209783,1,0,0:0:0:0:
40,200,209869,1,0,0:0:0:0:
80,152,209955,1,0,0:0:0:0:
252,272,210042,5,0,0:0:0:0:
344,224,210128,1,0,0:0:0:0:
424,172,210214,1,0,0:0:0:0:
440,84,210300,1,0,0:0:0:0:
264,148,210386,5,0,0:0:0:0:
192,148,210473,1,0,0:0:0:0:
120,160,210559,1,0,0:0:0:0:
64,224,210645,1,0,0:0:0:0:
232,240,210731,6,0,L|276:184,1,60.0000025123357
372,200,210904,2,0,L|328:264,1,60.0000025123357
228,72,211076,5,0,0:0:0:0:
188,72,211162,1,0,0:0:0:0:
144,72,211248,1,0,0:0:0:0:
112,48,211335,1,0,0:0:0:0:
316,72,211421,5,0,0:0:0:0:
356,72,211507,1,0,0:0:0:0:
400,72,211593,1,0,0:0:0:0:
444,52,211680,1,0,0:0:0:0:
248,140,211766,5,0,0:0:0:0:
208,140,211852,1,0,0:0:0:0:
164,140,211938,1,0,0:0:0:0:
124,116,212025,1,0,0:0:0:0:
280,184,212110,5,0,0:0:0:0:
312,152,212196,1,0,0:0:0:0:
376,180,212282,1,0,0:0:0:0:
336,220,212369,1,0,0:0:0:0:
264,316,212455,5,0,0:0:0:0:
208,276,212542,1,0,0:0:0:0:
164,224,212628,1,0,0:0:0:0:
200,156,212714,1,0,0:0:0:0:
396,232,212800,5,0,0:0:0:0:
440,180,212886,1,0,0:0:0:0:
408,116,212973,1,0,0:0:0:0:
344,80,213059,1,0,0:0:0:0:
136,216,213145,1,0,0:0:0:0:
76,172,213231,1,0,0:0:0:0:
56,100,213317,1,0,0:0:0:0:
112,52,213404,1,0,0:0:0:0:
276,120,213490,6,0,L|276:52,1,60.0000025123357
176,56,213662,2,0,L|180:140,1,60.0000025123357
296,288,213835,5,0,0:0:0:0:
352,264,213921,1,0,0:0:0:0:
392,232,214007,1,0,0:0:0:0:
372,184,214093,1,0,0:0:0:0:
232,184,214179,5,0,0:0:0:0:
188,176,214266,1,0,0:0:0:0:
152,136,214352,1,0,0:0:0:0:
172,88,214438,1,0,0:0:0:0:
352,220,214524,5,0,0:0:0:0:
292,276,214610,1,0,0:0:0:0:
216,260,214697,1,0,0:0:0:0:
176,192,214783,1,0,0:0:0:0:
400,88,214869,6,0,L|364:148,1,60.0000025123357
252,72,215042,2,0,L|300:156,1,60.0000025123357
460,220,215214,5,0,0:0:0:0:
432,264,215300,1,0,0:0:0:0:
388,280,215386,1,0,0:0:0:0:
336,280,215473,1,0,0:0:0:0:
176,280,215559,5,0,0:0:0:0:
124,280,215646,1,0,0:0:0:0:
80,264,215732,1,0,0:0:0:0:
52,220,215818,1,0,0:0:0:0:
240,188,215904,5,0,0:0:0:0:
304,148,215990,1,0,0:0:0:0:
368,112,216076,1,0,0:0:0:0:
432,72,216162,1,0,0:0:0:0:
256,56,216248,6,0,L|208:108,1,60.0000025123357
72,40,216421,2,0,L|120:112,1,60.0000025123357
284,164,216593,5,0,0:0:0:0:
340,152,216679,1,0,0:0:0:0:
388,180,216766,1,0,0:0:0:0:
376,240,216852,1,0,0:0:0:0:
228,188,216938,5,0,0:0:0:0:
184,156,217024,1,0,0:0:0:0:
192,104,217110,1,0,0:0:0:0:
232,76,217197,1,0,0:0:0:0:
368,80,217283,6,0,L|384:80,14,15.0000006280839
332,80,217628,6,0,L|348:80,13,15.0000006280839
440,160,217973,5,0,0:0:0:0:
384,224,218059,1,0,0:0:0:0:
312,268,218145,1,0,0:0:0:0:
228,284,218231,1,0,0:0:0:0:
64,176,218317,5,0,0:0:0:0:
100,100,218404,1,0,0:0:0:0:
188,72,218490,1,0,0:0:0:0:
280,68,218576,1,0,0:0:0:0:
184,136,218662,6,0,L|128:224,1,60.0000025123357
292,136,218835,2,0,L|340:208,1,60.0000025123357
236,308,219007,5,0,0:0:0:0:
316,276,219093,1,0,0:0:0:0:
388,220,219179,1,0,0:0:0:0:
424,152,219266,1,0,0:0:0:0:
284,108,219352,5,0,0:0:0:0:
232,108,219438,1,0,0:0:0:0:
180,108,219524,1,0,0:0:0:0:
128,108,219610,1,0,0:0:0:0:
276,224,219697,2,0,L|336:160,1,60.0000025123357
224,148,219869,2,0,L|176:96,1,60.0000025123357
376,72,220042,6,0,L|420:156,1,60.0000025123357
224,72,220214,2,0,L|172:160,1,60.0000025123357
368,304,220386,5,0,0:0:0:0:
428,228,220473,1,0,0:0:0:0:
376,160,220559,1,0,0:0:0:0:
296,128,220645,1,0,0:0:0:0:
168,224,220731,5,0,0:0:0:0:
80,176,220817,1,0,0:0:0:0:
64,92,220904,1,0,0:0:0:0:
128,32,220990,1,0,0:0:0:0:
352,72,221076,5,0,0:0:0:0:
392,92,221162,1,0,0:0:0:0:
416,132,221248,1,0,0:0:0:0:
404,168,221335,1,0,0:0:0:0:
252,176,221421,5,0,0:0:0:0:
176,176,221507,1,0,0:0:0:0:
104,196,221593,1,0,0:0:0:0:
148,260,221679,1,0,0:0:0:0:
276,312,221766,2,0,L|304:260,1,60.0000025123357
124,244,221938,2,0,L|76:160,1,60.0000025123357
244,80,222110,5,0,0:0:0:0:
324,80,222197,1,0,0:0:0:0:
400,80,222283,1,0,0:0:0:0:
472,80,222369,1,0,0:0:0:0:
252,160,222455,1,0,0:0:0:0:
172,164,222542,1,0,0:0:0:0:
96,164,222628,1,0,0:0:0:0:
24,164,222714,1,0,0:0:0:0:
204,248,222800,5,0,0:0:0:0:
284,248,222886,1,0,0:0:0:0:
356,248,222973,1,0,0:0:0:0:
424,248,223059,1,0,0:0:0:0:
264,96,223145,6,0,L|220:148,1,60.0000025123357
368,100,223317,2,0,L|400:156,1,60.0000025123357
248,328,223490,5,0,0:0:0:0:
192,284,223576,1,0,0:0:0:0:
140,224,223662,1,0,0:0:0:0:
128,156,223748,1,0,0:0:0:0:
328,216,223835,5,0,0:0:0:0:
396,168,223921,1,0,0:0:0:0:
380,96,224007,1,0,0:0:0:0:
308,64,224093,1,0,0:0:0:0:
228,148,224179,5,0,0:0:0:0:
156,148,224266,1,0,0:0:0:0:
88,152,224352,1,0,0:0:0:0:
16,152,224438,1,0,0:0:0:0:
188,260,224524,6,0,L|232:204,1,60.0000025123357
136,128,224697,2,0,L|100:56,1,60.0000025123357
276,72,224869,5,0,0:0:0:0:
348,80,224955,1,0,0:0:0:0:
404,128,225042,1,0,0:0:0:0:
400,196,225128,1,0,0:0:0:0:
216,288,225214,5,0,0:0:0:0:
152,248,225300,1,0,0:0:0:0:
148,176,225386,1,0,0:0:0:0:
192,120,225473,1,0,0:0:0:0:
364,256,225559,5,0,0:0:0:0:
424,208,225645,1,0,0:0:0:0:
480,152,225731,1,0,0:0:0:0:
480,80,225817,1,0,0:0:0:0:
272,156,225904,6,0,L|236:76,1,60.0000025123357
372,116,226076,2,0,L|408:40,1,60.0000025123357
256,160,226248,6,0,L|224:76,1,60.0000025123357
72,160,226421,2,0,L|104:72,1,60.0000025123357
320,160,226593,6,0,L|284:76,1,60.0000025123357
124,160,226766,2,0,L|156:76,1,60.0000025123357
352,160,226938,6,0,L|316:72,1,60.0000025123357
168,160,227111,2,0,L|200:72,1,60.0000025123357
352,168,227283,5,0,0:0:0:0:
400,132,227369,1,0,0:0:0:0:
400,80,227455,1,0,0:0:0:0:
352,48,227542,1,0,0:0:0:0:
184,168,227628,6,0,L|140:88,1,60.0000025123357
336,128,227800,2,0,L|388:80,1,60.0000025123357
216,160,227973,6,0,L|176:80,1,60.0000025123357
368,116,228145,2,0,L|420:64,1,60.0000025123357
248,148,228317,6,0,L|204:68,1,60.0000025123357
400,104,228489,2,0,L|448:56,1,60.0000025123357
92,84,228662,6,0,L|68:88,11,20.0000000745057
208,96,229007,5,0,0:0:0:0:
284,80,229093,1,0,0:0:0:0:
360,76,229179,1,0,0:0:0:0:
432,112,229266,1,0,0:0:0:0:
208,256,229352,5,0,0:0:0:0:
132,228,229438,1,0,0:0:0:0:
68,164,229524,1,0,0:0:0:0:
116,100,229610,1,0,0:0:0:0:
336,96,229697,5,0,0:0:0:0:
368,96,229783,1,0,0:0:0:0:
416,96,229869,1,0,0:0:0:0:
448,96,229955,1,0,0:0:0:0:
208,208,230042,6,0,L|168:136,1,60.0000025123357
316,128,230214,2,0,L|364:72,1,60.0000025123357
112,176,230386,5,0,0:0:0:0:
96,112,230473,1,0,0:0:0:0:
144,64,230559,1,0,0:0:0:0:
208,48,230645,1,0,0:0:0:0:
336,176,230731,5,0,0:0:0:0:
364,252,230817,1,0,0:0:0:0:
320,320,230903,1,0,0:0:0:0:
240,336,230989,1,0,0:0:0:0:
96,48,231076,5,0,0:0:0:0:
48,80,231162,1,0,0:0:0:0:
16,128,231248,1,0,0:0:0:0:
48,176,231334,1,0,0:0:0:0:
216,208,231421,6,0,L|256:136,1,60.0000025123357
96,128,231593,2,0,L|48:48,1,60.0000025123357
256,64,231766,5,0,0:0:0:0:
336,64,231852,1,0,0:0:0:0:
384,128,231938,1,0,0:0:0:0:
336,192,232024,1,0,0:0:0:0:
96,224,232110,5,0,0:0:0:0:
60,176,232196,1,0,0:0:0:0:
76,124,232282,1,0,0:0:0:0:
124,88,232369,1,0,0:0:0:0:
288,144,232455,5,0,0:0:0:0:
348,108,232542,1,0,0:0:0:0:
408,72,232628,1,0,0:0:0:0:
448,48,232714,1,0,0:0:0:0:
296,208,232800,6,0,L|240:128,1,60.0000025123357
132,208,232973,2,0,L|184:128,1,60.0000025123357
280,68,233145,5,0,0:0:0:0:
348,64,233231,1,0,0:0:0:0:
412,60,233317,1,0,0:0:0:0:
472,60,233404,1,0,0:0:0:0:
260,124,233490,5,0,0:0:0:0:
192,120,233576,1,0,0:0:0:0:
128,116,233662,1,0,0:0:0:0:
68,116,233749,1,0,0:0:0:0:
304,176,233835,5,0,0:0:0:0:
372,172,233921,1,0,0:0:0:0:
436,168,234007,1,0,0:0:0:0:
496,168,234094,1,0,0:0:0:0:
328,240,234179,6,0,L|300:168,1,60.0000025123357
184,252,234352,2,0,L|148:184,1,60.0000025123357
272,64,234524,5,0,0:0:0:0:
332,60,234610,1,0,0:0:0:0:
388,64,234697,1,0,0:0:0:0:
432,104,234783,1,0,0:0:0:0:
300,176,234869,5,0,0:0:0:0:
224,160,234955,1,0,0:0:0:0:
176,112,235042,1,0,0:0:0:0:
224,64,235128,1,0,0:0:0:0:
417,175,235214,5,0,0:0:0:0:
392,112,235300,1,0,0:0:0:0:
328,88,235386,1,0,0:0:0:0:
256,80,235473,1,0,0:0:0:0:
388,228,235559,6,0,L|424:164,1,60.0000025123357
232,172,235731,2,0,L|184:108,1,60.0000025123357
328,48,235904,5,0,0:0:0:0:
408,52,235990,1,0,0:0:0:0:
472,88,236076,1,0,0:0:0:0:
488,156,236162,1,0,0:0:0:0:
300,248,236248,5,0,0:0:0:0:
240,256,236335,1,0,0:0:0:0:
192,224,236421,1,0,0:0:0:0:
224,176,236507,1,0,0:0:0:0:
296,212,236593,5,0,0:0:0:0:
352,176,236679,1,0,0:0:0:0:
400,140,236766,1,0,0:0:0:0:
448,104,236852,1,0,0:0:0:0:
260,108,236938,6,0,L|224:36,1,60.0000025123357
380,64,237110,2,0,L|432:32,1,60.0000025123357
268,152,237283,5,0,0:0:0:0:
216,172,237369,1,0,0:0:0:0:
168,196,237455,1,0,0:0:0:0:
120,224,237542,1,0,0:0:0:0:
304,232,237628,5,0,0:0:0:0:
360,204,237714,1,0,0:0:0:0:
412,176,237800,1,0,0:0:0:0:
456,144,237886,1,0,0:0:0:0:
292,80,237973,5,0,0:0:0:0:
220,76,238059,1,0,0:0:0:0:
152,76,238145,1,0,0:0:0:0:
84,76,238231,1,0,0:0:0:0:
280,220,238317,6,0,L|332:148,1,60.0000025123357
420,240,238490,2,0,L|460:176,1,60.0000025123357
284,152,238662,6,0,L|232:76,1,60.0000025123357
400,56,238835,2,0,L|472:36,1,60.0000025123357
312,140,239007,6,0,L|256:60,1,60.0000025123357
428,44,239180,2,0,L|496:24,1,60.0000025123357
296,156,239352,6,0,L|244:76,1,60.0000025123357
412,60,239525,2,0,L|476:44,1,60.0000025123357
384,48,239697,5,0,0:0:0:0:
288,48,239783,1,0,0:0:0:0:
208,48,239869,1,0,0:0:0:0:
128,48,239955,1,0,0:0:0:0:
256,192,240042,12,0,245559,0:0:0:0:
260,300,246766,6,0,B|192:244|148:156|184:88|272:72|328:72|360:80|400:144|420:220|400:288|96:264,1,720.000002682207
252,300,249524,6,0,B|320:244|364:156|328:88|240:72|184:72|152:80|112:144|92:220|112:288|416:264,1,720.000002682207
280,184,251421,5,0,0:0:0:0:
88,212,252110,1,0,0:0:0:0:
416,208,252800,1,0,0:0:0:0:
156,220,253490,6,0,P|108:152|152:96,1,160.000000596046
232,184,254179,5,0,0:0:0:0:
272,184,254868,1,0,0:0:0:0:
96,208,255558,1,0,0:0:0:0:
356,220,256248,6,0,P|404:152|360:96,1,160.000000596046
232,184,256938,5,0,0:0:0:0:
424,220,257627,1,0,0:0:0:0:
96,208,258317,1,0,0:0:0:0:
356,220,259007,6,0,P|404:152|360:96,1,160.000000596046
280,184,259696,5,0,0:0:0:0:
84,184,260385,1,0,0:0:0:0:
416,208,261075,1,0,0:0:0:0:
112,216,261766,1,0,0:0:0:0:
44,108,262110,6,0,L|124:108,1,80.000000298023
80,192,262455,2,0,L|176:192,1,80.000000298023
144,272,262800,2,0,L|232:272,1,80.000000298023
128,200,263145,1,0,0:0:0:0:
80,128,263231,1,0,0:0:0:0:
164,88,263317,1,0,0:0:0:0:
468,108,263490,6,0,L|388:108,1,80.000000298023
432,192,263835,2,0,L|336:192,1,80.000000298023
368,272,264180,2,0,L|280:272,1,80.000000298023
368,176,264524,1,0,0:0:0:0:
432,116,264610,1,0,0:0:0:0:
376,60,264697,1,0,0:0:0:0:
208,72,264869,6,0,L|108:72,1,80.000000298023
336,232,265214,2,0,L|428:232,1,80.000000298023
192,144,265559,2,0,L|84:144,1,80.000000298023
120,232,265904,2,0,L|28:232,1,80.000000298023
320,104,266248,6,0,L|412:104,1,80.000000298023
268,200,266593,2,0,L|360:200,1,80.000000298023
204,280,266938,2,0,L|308:280,1,80.000000298023
156,200,267283,5,0,0:0:0:0:
104,144,267369,1,0,0:0:0:0:
172,112,267455,1,0,0:0:0:0:
440,88,267628,6,0,L|352:156,1,80.000000298023
300,332,267973,1,0,0:0:0:0:
232,264,268059,1,0,0:0:0:0:
316,228,268145,1,0,0:0:0:0:
184,120,268317,6,0,L|111:86,1,80.000000298023
324,264,268662,1,0,0:0:0:0:
392,196,268748,1,0,0:0:0:0:
308,160,268834,1,0,0:0:0:0:
140,108,269007,6,0,P|76:160|80:176,1,80.000000298023
268,248,269352,1,0,0:0:0:0:
328,176,269438,1,0,0:0:0:0:
248,148,269524,1,0,0:0:0:0:
96,296,269697,6,0,L|64:216,1,80.000000298023
256,232,270042,1,0,0:0:0:0:
296,200,270128,1,0,0:0:0:0:
332,168,270214,1,0,0:0:0:0:
204,76,270386,6,0,L|96:76,1,80.000000298023
316,204,270731,1,0,0:0:0:0:
256,144,270817,1,0,0:0:0:0:
324,104,270904,1,0,0:0:0:0:
464,312,271076,6,0,L|500:224,1,80.000000298023
300,224,271421,1,0,0:0:0:0:
256,188,271507,1,0,0:0:0:0:
216,148,271593,1,0,0:0:0:0:
440,64,271766,6,0,L|328:64,1,80.000000298023
232,228,272110,1,0,0:0:0:0:
168,168,272197,1,0,0:0:0:0:
232,120,272283,1,0,0:0:0:0:
428,300,272455,5,0,0:0:0:0:
264,300,272628,1,0,0:0:0:0:
384,300,272800,1,0,0:0:0:0:
236,300,272973,1,0,0:0:0:0:
392,220,273145,6,0,P|424:144|248:96,1,320.000001192092
124,168,274007,6,0,L|68:108,1,80.000000298023
352,176,274352,1,0,0:0:0:0:
144,252,274524,6,0,P|84:168|224:20,1,320.000001192092
352,128,275386,2,0,L|428:80,1,80.000000298023
208,132,275731,1,0,0:0:0:0:
440,300,275904,6,0,B|476:212|436:100|296:120|396:120|280:44,1,320.000001192092
152,160,276766,6,0,L|48:160,1,80.000000298023
312,172,277110,1,0,0:0:0:0:
72,300,277283,6,0,B|36:212|76:100|216:120|116:120|232:44,1,320.000001192092
316,244,278145,6,0,L|376:164,1,80.000000298023
184,160,278490,1,0,0:0:0:0:
448,128,278662,5,0,0:0:0:0:
80,128,279007,1,0,0:0:0:0:
256,128,279352,1,0,0:0:0:0:
464,128,279697,5,0,0:0:0:0:
64,144,280042,1,0,0:0:0:0:
240,128,280386,1,0,0:0:0:0:
480,320,280731,5,0,0:0:0:0:
16,320,281076,1,0,0:0:0:0:
464,320,281421,1,0,0:0:0:0:
256,336,281766,1,0,0:0:0:0:
64,80,282110,5,0,0:0:0:0:
368,256,282455,1,0,0:0:0:0:
96,96,282800,1,0,0:0:0:0:
400,288,283145,1,0,0:0:0:0:
448,112,283490,5,0,0:0:0:0:
256,144,283835,1,0,0:0:0:0:
480,80,284179,6,0,L|368:80,1,80.000000298023
32,80,284524,6,0,L|144:80,1,80.000000298023
480,160,284869,6,0,L|368:160,1,80.000000298023
32,160,285214,6,0,L|144:160,1,80.000000298023
480,240,285559,6,0,L|368:240,1,80.000000298023
32,240,285904,6,0,L|144:240,1,80.000000298023
32,80,286248,6,0,L|144:80,1,80.000000298023
480,80,286593,6,0,L|368:80,1,80.000000298023
32,80,286938,6,0,L|144:80,1,80.000000298023
480,80,287283,6,0,L|368:80,1,80.000000298023
32,160,287628,6,0,L|144:160,1,80.000000298023
480,160,287973,6,0,L|368:160,1,80.000000298023
32,80,288317,6,0,L|144:80,1,80.000000298023
480,80,288662,6,0,L|368:80,1,80.000000298023
32,144,289007,6,0,L|144:144,1,80.000000298023
32,80,289352,6,0,L|144:80,1,80.000000298023
288,64,289697,5,0,0:0:0:0:
336,80,289783,1,0,0:0:0:0:
368,128,289869,1,0,0:0:0:0:
384,176,289955,1,0,0:0:0:0:
176,208,290042,6,0,L|128:144,1,60.0000025123357
256,128,290214,2,0,L|320:80,1,60.0000025123357
448,288,290386,5,0,0:0:0:0:
384,288,290473,1,0,0:0:0:0:
320,288,290559,1,0,0:0:0:0:
256,288,290645,1,0,0:0:0:0:
352,160,290731,6,0,L|416:96,1,60.0000025123357
160,160,290904,2,0,L|96:96,1,60.0000025123357
256,64,291076,1,0,0:0:0:0:
320,96,291162,1,0,0:0:0:0:
352,160,291248,1,0,0:0:0:0:
320,224,291335,1,0,0:0:0:0:
224,128,291421,6,0,L|176:192,1,60.0000025123357
96,128,291593,2,0,L|48:48,1,60.0000025123357
240,48,291766,5,0,0:0:0:0:
304,64,291852,1,0,0:0:0:0:
352,112,291938,1,0,0:0:0:0:
368,176,292024,1,0,0:0:0:0:
224,224,292110,6,0,L|176:288,1,60.0000025123357
96,224,292283,6,0,L|48:144,1,60.0000025123357
256,240,292455,1,0,0:0:0:0:
272,224,292484,1,0,0:0:0:0:
288,208,292513,1,0,0:0:0:0:
304,192,292542,1,0,0:0:0:0:
320,176,292570,1,0,0:0:0:0:
336,160,292599,1,0,0:0:0:0:
320,144,292628,1,0,0:0:0:0:
304,128,292656,1,0,0:0:0:0:
288,112,292685,1,0,0:0:0:0:
272,96,292714,1,0,0:0:0:0:
256,80,292743,1,0,0:0:0:0:
240,64,292771,1,0,0:0:0:0:
224,48,292800,1,0,0:0:0:0:
192,64,292829,1,0,0:0:0:0:
176,80,292858,1,0,0:0:0:0:
160,96,292886,1,0,0:0:0:0:
144,112,292915,1,0,0:0:0:0:
128,128,292944,1,0,0:0:0:0:
112,144,292973,1,0,0:0:0:0:
128,160,293001,1,0,0:0:0:0:
144,176,293030,1,0,0:0:0:0:
160,192,293059,1,0,0:0:0:0:
176,208,293087,1,0,0:0:0:0:
192,224,293116,1,0,0:0:0:0:
256,224,293145,5,0,0:0:0:0:
272,208,293174,1,0,0:0:0:0:
288,192,293203,1,0,0:0:0:0:
304,176,293232,1,0,0:0:0:0:
320,160,293260,1,0,0:0:0:0:
336,144,293289,1,0,0:0:0:0:
320,128,293318,1,0,0:0:0:0:
304,112,293346,1,0,0:0:0:0:
288,96,293375,1,0,0:0:0:0:
272,80,293404,1,0,0:0:0:0:
256,64,293433,1,0,0:0:0:0:
240,48,293461,1,0,0:0:0:0:
224,32,293490,1,0,0:0:0:0:
192,48,293519,1,0,0:0:0:0:
176,64,293548,1,0,0:0:0:0:
160,80,293576,1,0,0:0:0:0:
144,96,293605,1,0,0:0:0:0:
128,112,293634,1,0,0:0:0:0:
112,128,293663,1,0,0:0:0:0:
128,144,293691,1,0,0:0:0:0:
144,160,293720,1,0,0:0:0:0:
160,176,293749,1,0,0:0:0:0:
176,192,293777,1,0,0:0:0:0:
192,208,293806,1,0,0:0:0:0:
256,192,293835,6,0,L|288:192,47,20.0000000745057
272,144,294869,2,0,L|288:160,16,20.0000000745057
128,160,295559,5,0,0:0:0:0:
384,160,295904,1,0,0:0:0:0:
256,160,296248,1,0,0:0:0:0:
336,192,296593,5,0,0:0:0:0:
304,192,296679,1,0,0:0:0:0:
256,192,296765,1,0,0:0:0:0:
208,192,296851,1,0,0:0:0:0:
160,192,296937,1,0,0:0:0:0:
256,144,297110,1,0,0:0:0:0:
368,144,297282,1,0,0:0:0:0:
128,144,297455,1,0,0:0:0:0:
336,144,297627,1,0,0:0:0:0:
96,288,297972,5,0,0:0:0:0:
32,192,298144,1,0,0:0:0:0:
160,192,298317,1,0,0:0:0:0:
80,128,298489,5,0,0:0:0:0:
160,32,298662,1,0,0:0:0:0:
240,128,298834,1,0,0:0:0:0:
112,128,299006,1,0,0:0:0:0:
224,192,299179,5,0,0:0:0:0:
304,112,299351,1,0,0:0:0:0:
192,80,299524,1,0,0:0:0:0:
304,288,299696,5,0,0:0:0:0:
368,240,299782,1,0,0:0:0:0:
416,176,299868,1,0,0:0:0:0:
400,112,299955,1,0,0:0:0:0:
224,192,300041,5,0,0:0:0:0:
144,128,300213,1,0,0:0:0:0:
304,288,300386,5,0,0:0:0:0:
368,240,300472,1,0,0:0:0:0:
416,176,300558,1,0,0:0:0:0:
400,112,300645,1,0,0:0:0:0:
96,288,300730,5,0,0:0:0:0:
32,192,300902,1,0,0:0:0:0:
160,192,301075,1,0,0:0:0:0:
80,128,301247,5,0,0:0:0:0:
160,32,301420,1,0,0:0:0:0:
240,128,301592,1,0,0:0:0:0:
112,128,301764,1,0,0:0:0:0:
224,192,301937,5,0,0:0:0:0:
304,112,302109,1,0,0:0:0:0:
192,80,302282,1,0,0:0:0:0:
368,240,302455,6,0,L|416:160,1,80.000000298023
256,128,302799,2,0,L|192:208,1,80.000000298023
352,128,303144,2,0,L|400:64,1,80.000000298023
256,272,303489,5,0,0:0:0:0:
128,192,303662,1,0,0:0:0:0:
256,96,303834,1,0,0:0:0:0:
368,192,304006,1,0,0:0:0:0:
288,256,304179,5,0,0:0:0:0:
160,176,304352,1,0,0:0:0:0:
288,80,304524,1,0,0:0:0:0:
400,176,304696,1,0,0:0:0:0:
240,256,304868,5,0,0:0:0:0:
368,176,305041,1,0,0:0:0:0:
240,80,305213,1,0,0:0:0:0:
128,176,305385,1,0,0:0:0:0:
320,256,305558,5,0,0:0:0:0:
384,208,305644,1,0,0:0:0:0:
416,144,305730,1,0,0:0:0:0:
384,80,305817,1,0,0:0:0:0:
224,224,305903,5,0,0:0:0:0:
160,176,305989,1,0,0:0:0:0:
128,112,306075,1,0,0:0:0:0:
160,48,306162,1,0,0:0:0:0:
320,272,306248,5,0,0:0:0:0:
448,192,306421,1,0,0:0:0:0:
320,96,306593,1,0,0:0:0:0:
208,192,306765,1,0,0:0:0:0:
288,256,306938,5,0,0:0:0:0:
416,176,307111,1,0,0:0:0:0:
288,80,307283,1,0,0:0:0:0:
176,176,307455,1,0,0:0:0:0:
336,256,307627,5,0,0:0:0:0:
208,176,307800,1,0,0:0:0:0:
336,80,307972,1,0,0:0:0:0:
448,176,308144,1,0,0:0:0:0:
256,256,308317,5,0,0:0:0:0:
192,208,308403,1,0,0:0:0:0:
160,144,308489,1,0,0:0:0:0:
192,80,308576,1,0,0:0:0:0:
352,224,308662,5,0,0:0:0:0:
416,176,308748,1,0,0:0:0:0:
448,112,308834,1,0,0:0:0:0:
416,48,308921,1,0,0:0:0:0:
160,288,309006,5,0,0:0:0:0:
96,192,309178,1,0,0:0:0:0:
224,192,309351,1,0,0:0:0:0:
144,128,309523,5,0,0:0:0:0:
224,32,309696,1,0,0:0:0:0:
304,128,309868,1,0,0:0:0:0:
176,128,310040,1,0,0:0:0:0:
288,192,310213,5,0,0:0:0:0:
368,112,310385,1,0,0:0:0:0:
256,80,310558,1,0,0:0:0:0:
368,288,310730,5,0,0:0:0:0:
432,240,310816,1,0,0:0:0:0:
480,176,310902,1,0,0:0:0:0:
464,112,310989,1,0,0:0:0:0:
288,192,311075,5,0,0:0:0:0:
208,128,311247,1,0,0:0:0:0:
368,288,311420,5,0,0:0:0:0:
432,240,311506,1,0,0:0:0:0:
480,176,311592,1,0,0:0:0:0:
464,112,311679,1,0,0:0:0:0:
160,288,311764,5,0,0:0:0:0:
96,192,311936,1,0,0:0:0:0:
224,192,312109,1,0,0:0:0:0:
144,128,312281,5,0,0:0:0:0:
224,32,312454,1,0,0:0:0:0:
304,128,312626,1,0,0:0:0:0:
176,128,312798,1,0,0:0:0:0:
288,192,312971,5,0,0:0:0:0:
368,112,313143,1,0,0:0:0:0:
256,80,313316,1,0,0:0:0:0:
432,240,313489,6,0,L|480:160,1,80.000000298023
320,128,313833,2,0,L|256:208,1,80.000000298023
416,128,314178,2,0,L|464:64,1,80.000000298023
320,272,314523,5,0,0:0:0:0:
192,192,314696,1,0,0:0:0:0:
320,96,314868,1,0,0:0:0:0:
432,192,315040,1,0,0:0:0:0:
352,256,315213,5,0,0:0:0:0:
224,176,315386,1,0,0:0:0:0:
352,80,315558,1,0,0:0:0:0:
464,176,315730,1,0,0:0:0:0:
304,256,315902,5,0,0:0:0:0:
432,176,316075,1,0,0:0:0:0:
304,80,316247,1,0,0:0:0:0:
192,176,316419,1,0,0:0:0:0:
384,256,316592,5,0,0:0:0:0:
448,208,316678,1,0,0:0:0:0:
480,144,316764,1,0,0:0:0:0:
448,80,316851,1,0,0:0:0:0:
128,256,316937,5,0,0:0:0:0:
64,208,317023,1,0,0:0:0:0:
32,144,317109,1,0,0:0:0:0:
64,80,317196,1,0,0:0:0:0:
352,160,317283,6,0,B|336:224|288:272|224:272|160:240|128:176|144:96|192:48|288:32|352:64|368:128|368:224|368:288|320:320|288:352|224:336|176:320|128:272|96:224|112:128|160:64|240:48,1,960.000003576276
288,192,319696,5,0,0:0:0:0:
288,192,319782,1,0,0:0:0:0:
288,192,319868,1,0,0:0:0:0:
288,192,319955,1,0,0:0:0:0:
112,96,320041,5,0,0:0:0:0:
48,208,320213,1,0,0:0:0:0:
224,144,320385,1,0,0:0:0:0:
400,160,320558,1,0,0:0:0:0:
240,160,320730,1,0,0:0:0:0:
256,160,320903,5,0,0:0:0:0:
208,112,320989,1,0,0:0:0:0:
272,80,321075,1,0,0:0:0:0:
416,96,321247,1,0,0:0:0:0:
304,128,321420,5,0,0:0:0:0:
368,240,321592,1,0,0:0:0:0:
208,192,321764,1,0,0:0:0:0:
16,192,321937,1,0,0:0:0:0:
176,192,322109,1,0,0:0:0:0:
160,192,322282,5,0,0:0:0:0:
208,144,322368,1,0,0:0:0:0:
144,112,322454,1,0,0:0:0:0:
0,128,322626,1,0,0:0:0:0:
176,128,322799,5,0,0:0:0:0:
144,256,322971,1,0,0:0:0:0:
288,176,323143,1,0,0:0:0:0:
464,192,323316,1,0,0:0:0:0:
304,192,323488,1,0,0:0:0:0:
320,192,323661,5,0,0:0:0:0:
272,144,323747,1,0,0:0:0:0:
336,112,323833,1,0,0:0:0:0:
480,128,324005,1,0,0:0:0:0:
240,208,324179,6,0,L|192:128,1,80.000000298023
352,96,324523,2,0,L|416:176,1,80.000000298023
256,96,324868,2,0,L|208:32,1,80.000000298023
336,192,325213,5,0,0:0:0:0:
400,192,325299,1,0,0:0:0:0:
464,192,325385,1,0,0:0:0:0:
512,192,325472,1,0,0:0:0:0:
400,96,325558,5,0,0:0:0:0:
464,208,325730,1,0,0:0:0:0:
288,144,325902,1,0,0:0:0:0:
112,160,326075,1,0,0:0:0:0:
272,160,326247,1,0,0:0:0:0:
256,160,326420,5,0,0:0:0:0:
304,112,326506,1,0,0:0:0:0:
240,80,326592,1,0,0:0:0:0:
96,96,326764,1,0,0:0:0:0:
208,128,326937,5,0,0:0:0:0:
144,240,327109,1,0,0:0:0:0:
304,192,327281,1,0,0:0:0:0:
496,192,327454,1,0,0:0:0:0:
336,192,327626,1,0,0:0:0:0:
352,192,327799,5,0,0:0:0:0:
304,144,327885,1,0,0:0:0:0:
368,112,327971,1,0,0:0:0:0:
512,128,328143,1,0,0:0:0:0:
336,128,328316,5,0,0:0:0:0:
368,256,328488,1,0,0:0:0:0:
224,176,328660,1,0,0:0:0:0:
48,192,328833,1,0,0:0:0:0:
208,192,329005,1,0,0:0:0:0:
192,192,329178,5,0,0:0:0:0:
240,144,329264,1,0,0:0:0:0:
176,112,329350,1,0,0:0:0:0:
32,128,329522,1,0,0:0:0:0:
208,192,329696,1,0,0:0:0:0:
240,192,329782,1,0,0:0:0:0:
288,192,329868,1,0,0:0:0:0:
336,192,329954,1,0,0:0:0:0:
384,192,330041,1,0,0:0:0:0:
288,144,330213,1,0,0:0:0:0:
176,144,330385,5,0,0:0:0:0:
416,144,330558,1,0,0:0:0:0:
192,144,330730,1,0,0:0:0:0:
224,80,331076,5,0,0:0:0:0:
288,64,331163,1,0,0:0:0:0:
352,64,331249,1,0,0:0:0:0:
416,80,331335,1,0,0:0:0:0:
272,160,331421,5,0,0:0:0:0:
240,224,331507,1,0,0:0:0:0:
272,272,331593,1,0,0:0:0:0:
336,272,331679,1,0,0:0:0:0:
160,208,331766,6,0,L|112:128,1,60.0000025123357
272,144,331938,2,0,L|352:144,1,60.0000025123357
208,48,332110,5,0,0:0:0:0:
144,64,332197,1,0,0:0:0:0:
128,128,332283,1,0,0:0:0:0:
192,144,332369,1,0,0:0:0:0:
400,224,332455,5,0,0:0:0:0:
352,224,332542,1,0,0:0:0:0:
304,208,332628,1,0,0:0:0:0:
288,176,332714,1,0,0:0:0:0:
208,64,332800,5,0,0:0:0:0:
144,80,332886,1,0,0:0:0:0:
112,128,332973,1,0,0:0:0:0:
144,160,333059,1,0,0:0:0:0:
384,176,333145,6,0,L|448:96,1,60.0000025123357
272,128,333317,2,0,L|224:80,1,60.0000025123357
384,48,333490,5,0,0:0:0:0:
448,64,333576,1,0,0:0:0:0:
480,128,333662,1,0,0:0:0:0:
432,176,333748,1,0,0:0:0:0:
256,96,333835,5,0,0:0:0:0:
192,112,333921,1,0,0:0:0:0:
144,144,334007,1,0,0:0:0:0:
160,176,334093,1,0,0:0:0:0:
304,192,334179,5,0,0:0:0:0:
368,176,334266,1,0,0:0:0:0:
432,160,334352,1,0,0:0:0:0:
416,96,334438,1,0,0:0:0:0:
320,112,334524,6,0,L|293:58,1,60.0000025123357
154,112,334697,2,0,L|180:58,1,60.0000025123357
368,272,334869,5,0,0:0:0:0:
432,240,334955,1,0,0:0:0:0:
448,176,335042,1,0,0:0:0:0:
400,128,335128,1,0,0:0:0:0:
240,80,335213,5,0,0:0:0:0:
160,80,335300,1,0,0:0:0:0:
84,80,335386,1,0,0:0:0:0:
12,80,335472,1,0,0:0:0:0:
232,160,335558,1,0,0:0:0:0:
312,164,335645,1,0,0:0:0:0:
388,164,335731,1,0,0:0:0:0:
460,164,335817,1,0,0:0:0:0:
280,248,335904,5,0,0:0:0:0:
200,248,335989,1,0,0:0:0:0:
128,248,336076,1,0,0:0:0:0:
60,248,336162,1,0,0:0:0:0:
220,96,336248,6,0,L|264:148,1,60.0000025123357
116,100,336420,2,0,L|84:156,1,60.0000025123357
264,328,336593,5,0,0:0:0:0:
320,284,336679,1,0,0:0:0:0:
372,224,336765,1,0,0:0:0:0:
384,156,336851,1,0,0:0:0:0:
184,216,336938,5,0,0:0:0:0:
116,168,337024,1,0,0:0:0:0:
132,96,337110,1,0,0:0:0:0:
204,64,337196,1,0,0:0:0:0:
284,148,337282,5,0,0:0:0:0:
356,148,337369,1,0,0:0:0:0:
424,152,337455,1,0,0:0:0:0:
496,152,337541,1,0,0:0:0:0:
324,260,337627,6,0,L|280:204,1,60.0000025123357
376,128,337800,2,0,L|412:56,1,60.0000025123357
236,72,337972,5,0,0:0:0:0:
164,80,338058,1,0,0:0:0:0:
108,128,338145,1,0,0:0:0:0:
112,196,338231,1,0,0:0:0:0:
296,288,338317,5,0,0:0:0:0:
360,248,338403,1,0,0:0:0:0:
364,176,338489,1,0,0:0:0:0:
320,120,338576,1,0,0:0:0:0:
148,256,338662,5,0,0:0:0:0:
88,208,338748,1,0,0:0:0:0:
32,152,338834,1,0,0:0:0:0:
48,80,338920,1,0,0:0:0:0:
240,156,339007,6,0,L|276:76,1,60.0000025123357
140,116,339179,2,0,L|104:40,1,60.0000025123357
256,160,339351,6,0,L|288:76,1,60.0000025123357
440,160,339524,2,0,L|408:72,1,60.0000025123357
192,160,339696,6,0,L|228:76,1,60.0000025123357
388,160,339869,2,0,L|356:76,1,60.0000025123357
160,160,340041,6,0,L|196:72,1,60.0000025123357
344,160,340214,2,0,L|312:72,1,60.0000025123357
160,168,340386,5,0,0:0:0:0:
112,132,340472,1,0,0:0:0:0:
112,80,340558,1,0,0:0:0:0:
160,48,340645,1,0,0:0:0:0:
328,168,340731,6,0,L|372:88,1,60.0000025123357
176,128,340903,2,0,L|124:80,1,60.0000025123357
296,160,341076,6,0,L|336:80,1,60.0000025123357
144,116,341248,2,0,L|92:64,1,60.0000025123357
160,64,341421,6,0,L|136:68,11,20.0000000745057
160,64,341766,6,0,L|184:68,11,20.0000000745057
464,80,342110,5,0,0:0:0:0:
400,80,342283,1,0,0:0:0:0:
496,144,342455,1,0,0:0:0:0:
384,144,342628,1,0,0:0:0:0:
128,160,342800,6,0,L|-16:160,1,120.000005024671
48,80,343145,5,0,0:0:0:0:
112,80,343318,1,0,0:0:0:0:
16,144,343490,1,0,0:0:0:0:
128,144,343663,1,0,0:0:0:0:
48,208,343835,1,0,0:0:0:0:
112,208,344007,1,0,0:0:0:0:
368,160,344179,6,0,L|512:160,1,120.000005024671
224,176,344524,1,0,0:0:0:0:
128,176,344697,1,0,0:0:0:0:
48,80,344869,5,0,0:0:0:0:
112,80,345042,1,0,0:0:0:0:
16,144,345214,1,0,0:0:0:0:
128,144,345387,1,0,0:0:0:0:
368,160,345559,6,0,L|512:160,1,120.000005024671
464,80,345904,5,0,0:0:0:0:
400,80,346077,1,0,0:0:0:0:
496,144,346249,1,0,0:0:0:0:
384,144,346422,1,0,0:0:0:0:
464,208,346594,1,0,0:0:0:0:
400,208,346766,1,0,0:0:0:0:
128,160,346938,6,0,L|-16:160,1,120.000005024671
160,256,347283,5,0,0:0:0:0:
288,304,347455,1,0,0:0:0:0:
176,208,347628,1,0,0:0:0:0:
320,272,347800,1,0,0:0:0:0:
208,160,347973,2,0,L|64:160,1,120.000005024671
352,272,348317,5,0,0:0:0:0:
416,224,348404,1,0,0:0:0:0:
448,160,348490,1,0,0:0:0:0:
400,112,348576,1,0,0:0:0:0:
336,176,348662,1,0,0:0:0:0:
272,144,348748,1,0,0:0:0:0:
256,80,348835,1,0,0:0:0:0:
304,48,348921,1,0,0:0:0:0:
496,80,349007,5,0,0:0:0:0:
400,80,349179,1,0,0:0:0:0:
480,128,349352,1,0,0:0:0:0:
416,128,349524,1,0,0:0:0:0:
224,192,349697,6,0,L|96:192,1,120.000005024671
272,112,350042,1,0,0:0:0:0:
224,112,350214,1,0,0:0:0:0:
144,96,350387,5,0,0:0:0:0:
240,96,350559,1,0,0:0:0:0:
160,144,350732,1,0,0:0:0:0:
224,144,350904,1,0,0:0:0:0:
384,208,351076,6,0,L|512:208,1,120.000005024671
336,144,351421,5,0,0:0:0:0:
208,224,351593,1,0,0:0:0:0:
352,176,351766,1,0,0:0:0:0:
224,224,351938,1,0,0:0:0:0:
368,128,352110,6,0,L|496:128,1,120.000005024671
176,320,352455,5,0,0:0:0:0:
128,272,352542,1,0,0:0:0:0:
80,224,352628,1,0,0:0:0:0:
64,160,352714,1,0,0:0:0:0:
224,208,352800,1,0,0:0:0:0:
288,176,352886,1,0,0:0:0:0:
352,144,352973,1,0,0:0:0:0:
352,80,353059,1,0,0:0:0:0:
48,80,353145,5,0,0:0:0:0:
112,80,353318,1,0,0:0:0:0:
16,144,353490,1,0,0:0:0:0:
128,144,353663,1,0,0:0:0:0:
368,160,353835,6,0,L|512:160,1,120.000005024671
464,80,354180,5,0,0:0:0:0:
400,80,354353,1,0,0:0:0:0:
496,144,354525,1,0,0:0:0:0:
384,144,354698,1,0,0:0:0:0:
464,208,354870,1,0,0:0:0:0:
400,208,355042,1,0,0:0:0:0:
128,160,355214,6,0,L|-16:160,1,120.000005024671
288,176,355559,1,0,0:0:0:0:
384,176,355732,1,0,0:0:0:0:
464,80,355904,5,0,0:0:0:0:
400,80,356077,1,0,0:0:0:0:
496,144,356249,1,0,0:0:0:0:
384,144,356422,1,0,0:0:0:0:
144,160,356593,6,0,L|0:160,1,120.000005024671
48,80,356939,5,0,0:0:0:0:
112,80,357112,1,0,0:0:0:0:
16,144,357284,1,0,0:0:0:0:
128,144,357457,1,0,0:0:0:0:
48,208,357629,1,0,0:0:0:0:
112,208,357801,1,0,0:0:0:0:
368,160,357973,6,0,L|512:160,1,120.000005024671
352,256,358318,5,0,0:0:0:0:
224,304,358490,1,0,0:0:0:0:
336,208,358663,1,0,0:0:0:0:
192,272,358835,1,0,0:0:0:0:
272,176,359008,2,0,L|416:176,1,120.000005024671
160,272,359352,5,0,0:0:0:0:
96,224,359439,1,0,0:0:0:0:
64,160,359525,1,0,0:0:0:0:
112,112,359611,1,0,0:0:0:0:
176,176,359697,1,0,0:0:0:0:
240,144,359783,1,0,0:0:0:0:
256,80,359870,1,0,0:0:0:0:
208,48,359956,1,0,0:0:0:0:
16,80,360042,5,0,0:0:0:0:
112,80,360214,1,0,0:0:0:0:
32,128,360387,1,0,0:0:0:0:
96,128,360559,1,0,0:0:0:0:
256,192,360732,6,0,L|384:192,1,120.000005024671
240,112,361077,1,0,0:0:0:0:
288,112,361249,1,0,0:0:0:0:
368,96,361422,5,0,0:0:0:0:
272,96,361594,1,0,0:0:0:0:
352,144,361767,1,0,0:0:0:0:
288,144,361939,1,0,0:0:0:0:
128,208,362111,6,0,L|0:208,1,120.000005024671
176,144,362456,5,0,0:0:0:0:
304,224,362628,1,0,0:0:0:0:
160,176,362801,1,0,0:0:0:0:
288,224,362973,1,0,0:0:0:0:
160,128,363145,6,0,L|32:128,1,120.000005024671
336,320,363490,5,0,0:0:0:0:
384,272,363577,1,0,0:0:0:0:
432,224,363663,1,0,0:0:0:0:
448,160,363749,1,0,0:0:0:0:
288,208,363835,1,0,0:0:0:0:
224,176,363921,1,0,0:0:0:0:
160,144,364008,1,0,0:0:0:0:
160,80,364093,1,0,0:0:0:0:
352,80,364179,5,0,0:0:0:0:
160,80,364524,1,0,0:0:0:0:
480,80,364869,1,0,0:0:0:0:
96,272,365904,5,0,0:0:0:0:
352,272,366248,1,0,0:0:0:0:
96,272,366593,1,0,0:0:0:0:
416,160,367283,1,0,0:0:0:0:
192,160,367628,1,0,0:0:0:0:
432,208,367973,1,0,0:0:0:0:
96,304,368662,5,0,0:0:0:0:
432,304,369007,1,0,0:0:0:0:
256,192,369697,5,0,0:0:0:0:
256,192,370386,2,0,L|240:192,32,15.0000006280839
112,192,371421,1,0,0:0:0:0:
384,192,371766,1,0,0:0:0:0:
112,272,372800,1,0,0:0:0:0:
384,288,373145,1,0,0:0:0:0:
128,192,373835,5,0,0:0:0:0:
336,192,374179,1,0,0:0:0:0:
176,192,374524,1,0,0:0:0:0:
368,192,374697,1,0,0:0:0:0:
208,192,374869,1,0,0:0:0:0:
336,192,375042,1,0,0:0:0:0:
160,80,375214,5,0,0:0:0:0:
352,80,375559,1,0,0:0:0:0:
32,80,375904,1,0,0:0:0:0:
416,272,376939,5,0,0:0:0:0:
160,272,377283,1,0,0:0:0:0:
416,272,377628,1,0,0:0:0:0:
96,160,378318,1,0,0:0:0:0:
320,160,378663,1,0,0:0:0:0:
80,208,379008,1,0,0:0:0:0:
416,304,379697,5,0,0:0:0:0:
80,304,380042,1,0,0:0:0:0:
256,192,380732,5,0,0:0:0:0:
256,192,381421,2,0,L|272:192,32,15.0000006280839
400,192,382456,1,0,0:0:0:0:
128,192,382801,1,0,0:0:0:0:
400,272,383835,1,0,0:0:0:0:
128,288,384180,1,0,0:0:0:0:
384,192,384870,5,0,0:0:0:0:
336,192,385559,1,0,0:0:0:0:
144,192,385731,1,0,0:0:0:0:
400,192,385904,1,0,0:0:0:0:
80,192,386076,1,0,0:0:0:0:
