osu file format v14

[General]
AudioFilename: The Pretender.mp3
AudioLeadIn: 0
PreviewTime: 195912
Countdown: 0
SampleSet: Normal
StackLeniency: 0.6
Mode: 3
LetterboxInBreaks: 0
SpecialStyle: 0
WidescreenStoryboard: 1

[Editor]
Bookmarks: 50,44187,99360,143498,173843,240050,297981,342118,386256
DistanceSpacing: 0.8
BeatDivisor: 4
GridSize: 16
TimelineZoom: 2.799999

[Metadata]
Title:The Pretender
TitleUnicode:The Pretender
Artist:Infected Mushroom
ArtistUnicode:Infected Mushroom
Creator:puxtu
Version:The 4K Maniac
Source:
Tags:Evening Zenx Z3nx lZenxl -kamikaze- pxt Foo Fighters Echoes, Silence, Patience & Grace 2007 Roswell Records Israeli psytrance electronica psychedelic trance electronic rock glitch-hop Amit Duvedevani
BeatmapID:756516
BeatmapSetID:342245

[Difficulty]
HPDrainRate:8
CircleSize:4
OverallDifficulty:9
ApproachRate:9
SliderMultiplier:1.4
SliderTickRate:1

[Events]
//Background and Video events
0,0,"bg.jpg",0,0
//Break Periods
//Storyboard Layer 0 (Background)
//Storyboard Layer 1 (Fail)
//Storyboard Layer 2 (Pass)
//Storyboard Layer 3 (Foreground)
//Storyboard Sound Samples

[TimingPoints]
50,344.827586206897,4,1,1,50,1,0
99015,-76.9230769230769,4,1,1,50,0,0
99101.25,-90.9090909090909,4,1,1,50,0,0
99187.5,-111.111111111111,4,1,1,50,0,0
99273.75,-142.857142857143,4,1,1,50,0,0
99360,-100,4,1,1,50,0,1
110373,-100,4,1,1,50,0,0
110394,-100,4,1,1,50,0,1
118670,-100,4,1,1,50,0,0
121429,-100,4,1,1,50,0,1
132442,-100,4,1,1,50,0,0
132463,-100,4,1,1,50,0,1
143498,-100,4,1,1,10,0,0
168325,-100,4,1,1,50,0,0
173843,-100,4,1,1,50,0,1
184856,-100,4,1,1,50,0,0
184877,-100,4,1,1,50,0,1
193153,-100,4,1,1,50,0,0
195912,-100,4,1,1,50,0,1
206925,-100,4,1,1,50,0,0
206946,-100,4,1,1,50,0,1
217959,-100,4,1,1,50,0,0
217981,-100,4,1,1,50,0,1
228993,-100,4,1,1,50,0,0
229015,-100,4,1,1,50,0,1
240050,-100,4,1,1,50,0,0
297981,-100,4,1,1,50,0,1
308993,-100,4,1,1,50,0,0
309015,-100,4,1,1,50,0,1
317291,-1000,4,1,1,50,0,0
318900,-500,4,1,1,50,0,0
318958,-333.333333333333,4,1,1,50,0,0
319015,-250,4,1,1,50,0,0
319073,-200,4,1,1,50,0,0
319130,-166.666666666667,4,1,1,50,0,0
319188,-142.857142857143,4,1,1,50,0,0
319245,-125,4,1,1,50,0,0
319303,-111.111111111111,4,1,1,50,0,0
319360,-100,4,1,1,50,0,0
320050,-100,4,1,1,50,0,1
331062,-100,4,1,1,50,0,0
331084,-100,4,1,1,50,0,1
342118,-100,4,1,1,50,0,0

[HitObjects]
64,192,44187,5,0,0:0:0:0:
192,192,44187,1,8,0:0:0:0:
448,192,44187,1,2,0:0:0:0:
64,192,44532,1,0,0:0:0:0:
320,192,44532,1,8,0:0:0:0:
448,192,44532,1,2,0:0:0:0:
64,192,44877,1,2,0:0:0:0:
192,192,44877,1,0,0:0:0:0:
448,192,44877,1,8,0:0:0:0:
64,192,45222,1,2,0:0:0:0:
448,192,45222,1,8,0:0:0:0:
320,192,45222,1,0,0:0:0:0:
64,192,45567,1,0,0:0:0:0:
448,192,45567,1,8,0:0:0:0:
192,192,45653,1,0,0:0:0:0:
320,192,45739,1,0,0:0:0:0:
192,192,45825,1,0,0:0:0:0:
64,192,45912,1,0,0:0:0:0:
448,192,45912,1,8,0:0:0:0:
320,192,45998,1,0,0:0:0:0:
192,192,46084,1,0,0:0:0:0:
320,192,46170,1,0,0:0:0:0:
64,192,46256,1,0,0:0:0:0:
448,192,46256,1,8,0:0:0:0:
192,192,46343,1,0,0:0:0:0:
320,192,46429,1,0,0:0:0:0:
192,192,46515,1,0,0:0:0:0:
448,192,46601,1,0,0:0:0:0:
64,192,46601,1,8,0:0:0:0:
64,192,46946,1,4,0:0:0:0:
448,192,46946,1,0,0:0:0:0:
192,192,46946,1,0,0:0:0:0:
448,192,47118,1,0,0:0:0:0:
192,192,47291,1,0,0:0:0:0:
64,192,47291,1,0,0:0:0:0:
320,192,47291,1,8,0:0:0:0:
448,192,47463,1,2,0:0:0:0:
192,192,47550,1,2,0:0:0:0:
320,192,47636,1,2,0:0:0:0:
64,192,47722,1,2,0:0:0:0:
192,192,47808,1,0,0:0:0:0:
448,192,47808,1,0,0:0:0:0:
320,192,47981,1,0,0:0:0:0:
64,192,47981,1,0,0:0:0:0:
448,192,47981,1,8,0:0:0:0:
320,192,48153,1,0,0:0:0:0:
192,192,48325,1,0,0:0:0:0:
448,192,48498,1,0,0:0:0:0:
192,192,48498,1,0,0:0:0:0:
64,192,48670,1,0,0:0:0:0:
320,192,48670,1,0,0:0:0:0:
448,192,48670,1,8,0:0:0:0:
192,192,48843,1,2,0:0:0:0:
448,192,48929,1,2,0:0:0:0:
64,192,49015,1,2,0:0:0:0:
320,192,49187,1,0,0:0:0:0:
448,192,49187,1,0,0:0:0:0:
64,192,49360,1,0,0:0:0:0:
192,192,49360,1,0,0:0:0:0:
448,192,49360,1,8,0:0:0:0:
320,192,49532,1,0,0:0:0:0:
192,192,49705,1,0,0:0:0:0:
448,192,49705,1,0,0:0:0:0:
192,192,49877,1,0,0:0:0:0:
64,192,50050,1,0,0:0:0:0:
320,192,50050,1,0,0:0:0:0:
448,192,50050,1,8,0:0:0:0:
192,192,50222,1,2,0:0:0:0:
320,192,50308,1,2,0:0:0:0:
64,192,50394,1,2,0:0:0:0:
448,192,50481,1,2,0:0:0:0:
320,192,50567,1,0,0:0:0:0:
192,192,50567,1,0,0:0:0:0:
64,192,50739,1,0,0:0:0:0:
448,192,50739,1,8,0:0:0:0:
192,192,50739,1,0,0:0:0:0:
64,192,50912,1,0,0:0:0:0:
448,192,51084,1,0,0:0:0:0:
448,192,51256,1,0,0:0:0:0:
192,192,51256,1,0,0:0:0:0:
64,192,51429,1,0,0:0:0:0:
192,192,51429,1,0,0:0:0:0:
320,192,51429,1,8,0:0:0:0:
448,192,51601,1,2,0:0:0:0:
64,192,51687,1,2,0:0:0:0:
320,192,51774,1,2,0:0:0:0:
320,192,51946,1,0,0:0:0:0:
192,192,51946,1,0,0:0:0:0:
192,192,52118,1,8,0:0:0:0:
448,192,52118,1,0,0:0:0:0:
64,192,52118,1,0,0:0:0:0:
320,192,52291,1,0,0:0:0:0:
448,192,52463,1,0,0:0:0:0:
192,192,52463,1,0,0:0:0:0:
192,192,52636,1,0,0:0:0:0:
64,192,52808,1,0,0:0:0:0:
320,192,52808,1,8,0:0:0:0:
448,192,52808,1,0,0:0:0:0:
192,192,52981,1,2,0:0:0:0:
448,192,53067,1,2,0:0:0:0:
320,192,53153,1,2,0:0:0:0:
64,192,53239,1,2,0:0:0:0:
448,192,53325,1,0,0:0:0:0:
192,192,53325,1,0,0:0:0:0:
448,192,53498,1,8,0:0:0:0:
64,192,53498,1,0,0:0:0:0:
320,192,53498,1,0,0:0:0:0:
320,192,53670,1,0,0:0:0:0:
192,192,53843,1,0,0:0:0:0:
320,192,54015,1,0,0:0:0:0:
192,192,54015,1,0,0:0:0:0:
64,192,54187,1,0,0:0:0:0:
320,192,54187,1,0,0:0:0:0:
448,192,54187,1,8,0:0:0:0:
192,192,54360,1,2,0:0:0:0:
320,192,54446,1,2,0:0:0:0:
448,192,54532,1,2,0:0:0:0:
192,192,54705,1,0,0:0:0:0:
320,192,54705,1,0,0:0:0:0:
64,192,54877,1,0,0:0:0:0:
448,192,54877,1,8,0:0:0:0:
192,192,54877,1,0,0:0:0:0:
320,192,55050,1,0,0:0:0:0:
192,192,55222,1,0,0:0:0:0:
448,192,55222,1,0,0:0:0:0:
192,192,55394,1,0,0:0:0:0:
448,192,55567,1,8,0:0:0:0:
320,192,55567,1,0,0:0:0:0:
64,192,55567,1,0,0:0:0:0:
192,192,55739,1,2,0:0:0:0:
448,192,55825,1,2,0:0:0:0:
64,192,55912,1,2,0:0:0:0:
320,192,55998,1,2,0:0:0:0:
448,192,56084,1,0,0:0:0:0:
192,192,56084,1,0,0:0:0:0:
192,192,56256,1,8,0:0:0:0:
320,192,56256,1,0,0:0:0:0:
64,192,56256,1,0,0:0:0:0:
320,192,56429,1,0,0:0:0:0:
64,192,56601,1,0,0:0:0:0:
320,192,56774,1,0,0:0:0:0:
64,192,56774,1,0,0:0:0:0:
320,192,56946,1,8,0:0:0:0:
192,192,56946,1,0,0:0:0:0:
448,192,56946,1,0,0:0:0:0:
64,192,57118,1,2,0:0:0:0:
448,192,57205,1,2,0:0:0:0:
192,192,57291,1,2,0:0:0:0:
320,192,57377,1,2,0:0:0:0:
64,192,57463,1,0,0:0:0:0:
448,192,57463,1,0,0:0:0:0:
192,192,57550,1,2,0:0:0:0:
320,192,57636,1,8,0:0:0:0:
64,192,57636,1,0,0:0:0:0:
448,192,57636,1,0,0:0:0:0:
192,192,57722,1,2,0:0:0:0:
320,192,57808,1,0,0:0:0:0:
192,192,57981,1,0,0:0:0:0:
448,192,57981,1,4,0:0:0:0:
64,192,57981,1,0,0:0:0:0:
64,192,58153,1,0,0:0:0:0:
320,192,58325,1,0,0:0:0:0:
448,192,58325,1,0,0:0:0:0:
192,192,58325,1,8,0:0:0:0:
64,192,58498,1,2,0:0:0:0:
320,192,58584,1,2,0:0:0:0:
192,192,58670,1,2,0:0:0:0:
448,192,58756,1,2,0:0:0:0:
320,192,58843,1,0,0:0:0:0:
64,192,58843,1,0,0:0:0:0:
192,192,59015,1,0,0:0:0:0:
448,192,59015,1,0,0:0:0:0:
64,192,59015,1,8,0:0:0:0:
192,192,59187,1,0,0:0:0:0:
320,192,59360,1,0,0:0:0:0:
64,192,59532,1,0,0:0:0:0:
320,192,59532,1,0,0:0:0:0:
448,192,59705,1,0,0:0:0:0:
192,192,59705,1,0,0:0:0:0:
64,192,59705,1,8,0:0:0:0:
320,192,59877,1,2,0:0:0:0:
64,192,59963,1,2,0:0:0:0:
448,192,60050,128,2,60222:0:0:0:0:
192,192,60222,1,0,0:0:0:0:
64,192,60222,1,0,0:0:0:0:
320,192,60394,1,0,0:0:0:0:
64,192,60394,1,8,0:0:0:0:
448,192,60394,128,0,60567:0:0:0:0:
192,192,60567,1,0,0:0:0:0:
320,192,60739,1,0,0:0:0:0:
64,192,60739,1,0,0:0:0:0:
320,192,60912,1,0,0:0:0:0:
448,192,61084,1,0,0:0:0:0:
192,192,61084,1,0,0:0:0:0:
64,192,61084,1,8,0:0:0:0:
320,192,61256,1,2,0:0:0:0:
192,192,61343,1,2,0:0:0:0:
448,192,61429,1,2,0:0:0:0:
64,192,61515,1,2,0:0:0:0:
192,192,61601,1,0,0:0:0:0:
320,192,61601,1,0,0:0:0:0:
448,192,61774,1,0,0:0:0:0:
64,192,61774,1,8,0:0:0:0:
320,192,61774,1,0,0:0:0:0:
64,192,61946,1,0,0:0:0:0:
448,192,62118,1,0,0:0:0:0:
192,192,62291,1,0,0:0:0:0:
448,192,62291,1,0,0:0:0:0:
64,192,62463,1,0,0:0:0:0:
320,192,62463,1,0,0:0:0:0:
192,192,62463,1,8,0:0:0:0:
448,192,62636,1,2,0:0:0:0:
64,192,62722,1,2,0:0:0:0:
320,192,62808,1,2,0:0:0:0:
192,192,62981,1,0,0:0:0:0:
448,192,62981,1,0,0:0:0:0:
320,192,63153,1,8,0:0:0:0:
64,192,63153,1,0,0:0:0:0:
448,192,63153,1,0,0:0:0:0:
192,192,63325,1,0,0:0:0:0:
64,192,63498,1,0,0:0:0:0:
320,192,63498,1,0,0:0:0:0:
64,192,63670,1,0,0:0:0:0:
448,192,63843,1,0,0:0:0:0:
192,192,63843,1,8,0:0:0:0:
320,192,63843,1,0,0:0:0:0:
64,192,64015,1,2,0:0:0:0:
320,192,64101,1,2,0:0:0:0:
192,192,64187,1,2,0:0:0:0:
448,192,64274,1,2,0:0:0:0:
64,192,64360,1,0,0:0:0:0:
320,192,64360,1,0,0:0:0:0:
64,192,64532,1,8,0:0:0:0:
448,192,64532,1,0,0:0:0:0:
192,192,64532,1,0,0:0:0:0:
192,192,64705,1,0,0:0:0:0:
320,192,64877,1,0,0:0:0:0:
320,192,65050,1,0,0:0:0:0:
192,192,65050,1,0,0:0:0:0:
192,192,65222,1,0,0:0:0:0:
448,192,65222,1,0,0:0:0:0:
64,192,65222,1,8,0:0:0:0:
320,192,65394,1,2,0:0:0:0:
64,192,65481,1,2,0:0:0:0:
448,192,65567,1,2,0:0:0:0:
192,192,65739,1,0,0:0:0:0:
64,192,65739,1,0,0:0:0:0:
448,192,65912,1,0,0:0:0:0:
192,192,65912,1,8,0:0:0:0:
320,192,65912,1,0,0:0:0:0:
448,192,66084,1,0,0:0:0:0:
64,192,66256,1,0,0:0:0:0:
320,192,66256,1,0,0:0:0:0:
320,192,66429,1,0,0:0:0:0:
64,192,66601,1,8,0:0:0:0:
192,192,66601,1,0,0:0:0:0:
448,192,66601,1,0,0:0:0:0:
320,192,66774,1,2,0:0:0:0:
64,192,66860,1,2,0:0:0:0:
448,192,66946,1,2,0:0:0:0:
192,192,67032,1,2,0:0:0:0:
64,192,67118,1,0,0:0:0:0:
320,192,67118,1,0,0:0:0:0:
320,192,67291,1,8,0:0:0:0:
192,192,67291,1,0,0:0:0:0:
448,192,67291,1,0,0:0:0:0:
192,192,67463,1,0,0:0:0:0:
320,192,67636,1,0,0:0:0:0:
448,192,67636,1,0,0:0:0:0:
192,192,67808,1,0,0:0:0:0:
64,192,67808,1,0,0:0:0:0:
64,192,67981,1,8,0:0:0:0:
448,192,67981,1,0,0:0:0:0:
192,192,67981,1,0,0:0:0:0:
448,192,68153,1,0,0:0:0:0:
320,192,68153,1,8,0:0:0:0:
64,192,68153,1,0,0:0:0:0:
192,192,68239,1,0,0:0:0:0:
320,192,68325,1,0,0:0:0:0:
448,192,68325,1,8,0:0:0:0:
64,192,68498,1,0,0:0:0:0:
192,192,68498,1,8,0:0:0:0:
448,192,68670,1,8,0:0:0:0:
320,192,68670,1,0,0:0:0:0:
64,192,68756,1,0,0:0:0:0:
192,192,68756,1,8,0:0:0:0:
448,192,68843,1,8,0:0:0:0:
320,192,68843,1,0,0:0:0:0:
64,192,68929,1,0,0:0:0:0:
192,192,68929,1,8,0:0:0:0:
448,192,69015,1,8,0:0:0:0:
320,192,69015,1,0,0:0:0:0:
64,192,69015,1,4,0:0:0:0:
192,192,69187,1,0,0:0:0:0:
64,192,69360,1,0,0:0:0:0:
448,192,69360,1,0,0:0:0:0:
320,192,69360,1,8,0:0:0:0:
320,192,69532,1,2,0:0:0:0:
192,192,69618,1,2,0:0:0:0:
448,192,69705,1,2,0:0:0:0:
64,192,69791,1,2,0:0:0:0:
192,192,69877,1,0,0:0:0:0:
320,192,69877,1,0,0:0:0:0:
320,192,70050,1,0,0:0:0:0:
64,192,70050,1,0,0:0:0:0:
448,192,70050,1,8,0:0:0:0:
448,192,70222,1,0,0:0:0:0:
64,192,70394,1,0,0:0:0:0:
320,192,70567,1,0,0:0:0:0:
64,192,70567,1,0,0:0:0:0:
192,192,70739,1,0,0:0:0:0:
320,192,70739,1,0,0:0:0:0:
448,192,70739,1,8,0:0:0:0:
64,192,70912,1,2,0:0:0:0:
448,192,70998,1,2,0:0:0:0:
192,192,71084,1,2,0:0:0:0:
320,192,71256,1,0,0:0:0:0:
448,192,71256,1,0,0:0:0:0:
64,192,71429,1,0,0:0:0:0:
192,192,71429,1,0,0:0:0:0:
448,192,71429,1,8,0:0:0:0:
320,192,71601,1,0,0:0:0:0:
192,192,71774,1,0,0:0:0:0:
448,192,71774,1,0,0:0:0:0:
192,192,71946,1,0,0:0:0:0:
64,192,72118,1,0,0:0:0:0:
320,192,72118,1,0,0:0:0:0:
448,192,72118,1,8,0:0:0:0:
320,192,72291,1,2,0:0:0:0:
192,192,72377,1,2,0:0:0:0:
448,192,72463,1,2,0:0:0:0:
64,192,72550,1,2,0:0:0:0:
320,192,72636,1,0,0:0:0:0:
192,192,72636,1,0,0:0:0:0:
64,192,72808,1,0,0:0:0:0:
448,192,72808,1,8,0:0:0:0:
192,192,72808,1,0,0:0:0:0:
448,192,72981,1,0,0:0:0:0:
64,192,73153,1,0,0:0:0:0:
448,192,73325,1,0,0:0:0:0:
64,192,73325,1,0,0:0:0:0:
448,192,73498,1,0,0:0:0:0:
192,192,73498,1,0,0:0:0:0:
320,192,73498,1,8,0:0:0:0:
64,192,73670,1,2,0:0:0:0:
320,192,73756,1,2,0:0:0:0:
192,192,73843,1,2,0:0:0:0:
320,192,74015,1,0,0:0:0:0:
64,192,74015,1,0,0:0:0:0:
192,192,74187,1,8,0:0:0:0:
448,192,74187,1,0,0:0:0:0:
64,192,74187,1,0,0:0:0:0:
320,192,74360,1,0,0:0:0:0:
448,192,74532,1,0,0:0:0:0:
192,192,74532,1,0,0:0:0:0:
192,192,74705,1,0,0:0:0:0:
64,192,74877,1,0,0:0:0:0:
320,192,74877,1,8,0:0:0:0:
448,192,74877,1,0,0:0:0:0:
192,192,75050,1,2,0:0:0:0:
448,192,75136,1,2,0:0:0:0:
64,192,75222,1,2,0:0:0:0:
320,192,75308,1,2,0:0:0:0:
448,192,75394,1,0,0:0:0:0:
192,192,75394,1,0,0:0:0:0:
448,192,75567,1,8,0:0:0:0:
64,192,75567,1,0,0:0:0:0:
320,192,75567,1,0,0:0:0:0:
320,192,75739,1,0,0:0:0:0:
192,192,75912,1,0,0:0:0:0:
448,192,76084,1,0,0:0:0:0:
192,192,76084,1,0,0:0:0:0:
320,192,76256,1,0,0:0:0:0:
64,192,76256,1,0,0:0:0:0:
448,192,76256,1,8,0:0:0:0:
192,192,76429,1,2,0:0:0:0:
64,192,76515,1,2,0:0:0:0:
448,192,76601,1,2,0:0:0:0:
192,192,76774,1,0,0:0:0:0:
320,192,76774,1,0,0:0:0:0:
64,192,76946,1,0,0:0:0:0:
448,192,76946,1,8,0:0:0:0:
192,192,76946,1,0,0:0:0:0:
320,192,77118,1,0,0:0:0:0:
192,192,77291,1,0,0:0:0:0:
448,192,77291,1,0,0:0:0:0:
192,192,77463,1,0,0:0:0:0:
448,192,77636,1,8,0:0:0:0:
320,192,77636,1,0,0:0:0:0:
64,192,77636,1,0,0:0:0:0:
192,192,77808,1,2,0:0:0:0:
448,192,77894,1,2,0:0:0:0:
64,192,77981,1,2,0:0:0:0:
320,192,78067,1,2,0:0:0:0:
448,192,78153,1,0,0:0:0:0:
192,192,78153,1,0,0:0:0:0:
448,192,78325,1,8,0:0:0:0:
320,192,78325,1,0,0:0:0:0:
64,192,78325,1,0,0:0:0:0:
64,192,78498,1,0,0:0:0:0:
320,192,78670,1,0,0:0:0:0:
320,192,78843,1,0,0:0:0:0:
192,192,78843,1,0,0:0:0:0:
320,192,79015,1,8,0:0:0:0:
64,192,79015,1,0,0:0:0:0:
448,192,79015,1,0,0:0:0:0:
192,192,79187,1,2,0:0:0:0:
64,192,79274,1,2,0:0:0:0:
448,192,79360,1,0,0:0:0:0:
320,192,79360,1,8,0:0:0:0:
192,192,79446,1,8,0:0:0:0:
64,192,79446,1,0,0:0:0:0:
448,192,79532,1,0,0:0:0:0:
320,192,79532,1,0,0:0:0:0:
192,192,79705,1,8,0:0:0:0:
64,192,79705,1,0,0:0:0:0:
448,192,79705,1,0,0:0:0:0:
320,192,79877,1,0,0:0:0:0:
192,192,79877,1,0,0:0:0:0:
320,192,80050,1,0,0:0:0:0:
448,192,80050,1,4,0:0:0:0:
64,192,80050,1,0,0:0:0:0:
64,192,80222,1,0,0:0:0:0:
320,192,80394,1,0,0:0:0:0:
448,192,80394,1,0,0:0:0:0:
192,192,80394,1,8,0:0:0:0:
64,192,80567,1,2,0:0:0:0:
320,192,80653,1,2,0:0:0:0:
192,192,80739,1,2,0:0:0:0:
448,192,80825,1,2,0:0:0:0:
320,192,80912,1,0,0:0:0:0:
64,192,80912,1,0,0:0:0:0:
192,192,81084,1,0,0:0:0:0:
448,192,81084,1,0,0:0:0:0:
64,192,81084,1,8,0:0:0:0:
192,192,81256,1,0,0:0:0:0:
320,192,81429,1,0,0:0:0:0:
192,192,81601,1,0,0:0:0:0:
320,192,81601,1,0,0:0:0:0:
448,192,81774,1,0,0:0:0:0:
192,192,81774,1,0,0:0:0:0:
64,192,81774,1,8,0:0:0:0:
320,192,81946,1,2,0:0:0:0:
64,192,82032,1,2,0:0:0:0:
448,192,82118,1,2,0:0:0:0:
192,192,82291,1,0,0:0:0:0:
64,192,82291,1,0,0:0:0:0:
448,192,82463,1,0,0:0:0:0:
320,192,82463,1,0,0:0:0:0:
64,192,82463,1,8,0:0:0:0:
192,192,82636,1,0,0:0:0:0:
320,192,82808,1,0,0:0:0:0:
64,192,82808,1,0,0:0:0:0:
320,192,82981,1,0,0:0:0:0:
448,192,83153,1,0,0:0:0:0:
192,192,83153,1,0,0:0:0:0:
64,192,83153,1,8,0:0:0:0:
320,192,83325,1,2,0:0:0:0:
192,192,83412,1,2,0:0:0:0:
320,192,83498,1,2,0:0:0:0:
64,192,83584,1,2,0:0:0:0:
192,192,83670,1,0,0:0:0:0:
448,192,83670,1,0,0:0:0:0:
448,192,83843,1,0,0:0:0:0:
64,192,83843,1,8,0:0:0:0:
320,192,83843,1,0,0:0:0:0:
320,192,84015,1,0,0:0:0:0:
192,192,84187,1,0,0:0:0:0:
192,192,84360,1,0,0:0:0:0:
448,192,84360,1,0,0:0:0:0:
448,192,84532,1,0,0:0:0:0:
320,192,84532,1,0,0:0:0:0:
64,192,84532,1,8,0:0:0:0:
192,192,84705,1,2,0:0:0:0:
64,192,84791,1,2,0:0:0:0:
320,192,84877,1,2,0:0:0:0:
192,192,85050,1,0,0:0:0:0:
448,192,85050,1,0,0:0:0:0:
320,192,85222,1,8,0:0:0:0:
64,192,85222,1,0,0:0:0:0:
448,192,85222,1,0,0:0:0:0:
192,192,85394,1,0,0:0:0:0:
320,192,85567,1,0,0:0:0:0:
448,192,85567,1,0,0:0:0:0:
192,192,85739,1,0,0:0:0:0:
448,192,85912,1,0,0:0:0:0:
64,192,85912,1,8,0:0:0:0:
320,192,85912,1,0,0:0:0:0:
192,192,86084,1,2,0:0:0:0:
320,192,86170,1,2,0:0:0:0:
192,192,86256,1,2,0:0:0:0:
448,192,86343,1,2,0:0:0:0:
64,192,86429,1,0,0:0:0:0:
320,192,86429,1,0,0:0:0:0:
64,192,86601,1,8,0:0:0:0:
448,192,86601,1,0,0:0:0:0:
192,192,86601,1,0,0:0:0:0:
320,192,86774,1,0,0:0:0:0:
192,192,86946,1,0,0:0:0:0:
64,192,87118,1,0,0:0:0:0:
448,192,87118,1,0,0:0:0:0:
192,192,87291,1,0,0:0:0:0:
320,192,87291,1,0,0:0:0:0:
64,192,87291,1,8,0:0:0:0:
448,192,87463,1,2,0:0:0:0:
64,192,87550,1,2,0:0:0:0:
448,192,87636,1,0,0:0:0:0:
320,192,87808,1,0,0:0:0:0:
192,192,87808,1,0,0:0:0:0:
448,192,87981,1,0,0:0:0:0:
64,192,87981,1,8,0:0:0:0:
192,192,87981,1,0,0:0:0:0:
320,192,88153,1,0,0:0:0:0:
448,192,88325,1,0,0:0:0:0:
64,192,88325,1,0,0:0:0:0:
64,192,88498,1,0,0:0:0:0:
320,192,88670,1,8,0:0:0:0:
192,192,88670,1,0,0:0:0:0:
448,192,88670,1,0,0:0:0:0:
320,192,88843,1,2,0:0:0:0:
192,192,88929,1,2,0:0:0:0:
448,192,89015,1,2,0:0:0:0:
192,192,89101,1,2,0:0:0:0:
64,192,89187,1,0,0:0:0:0:
448,192,89187,1,0,0:0:0:0:
320,192,89360,1,8,0:0:0:0:
192,192,89360,1,0,0:0:0:0:
64,192,89360,1,0,0:0:0:0:
448,192,89532,1,0,0:0:0:0:
320,192,89705,1,0,0:0:0:0:
64,192,89877,1,0,0:0:0:0:
448,192,89877,1,0,0:0:0:0:
192,192,90050,1,8,0:0:0:0:
320,192,90050,1,0,0:0:0:0:
448,192,90050,1,0,0:0:0:0:
320,192,90222,1,2,0:0:0:0:
192,192,90308,1,2,0:0:0:0:
64,192,90394,1,2,0:0:0:0:
448,192,90481,1,2,0:0:0:0:
192,192,90567,1,0,0:0:0:0:
320,192,90567,1,8,0:0:0:0:
192,192,90739,1,8,0:0:0:0:
64,192,90739,1,0,0:0:0:0:
448,192,90739,1,0,0:0:0:0:
320,192,90912,1,2,0:0:0:0:
192,192,90998,1,2,0:0:0:0:
448,192,91084,1,8,0:0:0:0:
320,192,91084,1,0,0:0:0:0:
64,192,91084,128,4,91774:0:0:0:0:
320,192,91774,128,4,92463:0:0:0:0:
448,192,91774,1,0,0:0:0:0:
192,192,91774,1,8,0:0:0:0:
64,192,92463,1,8,0:0:0:0:
448,192,92463,1,0,0:0:0:0:
192,192,92463,128,4,93153:0:0:0:0:
448,192,93153,128,4,99015:0:0:0:0:
320,192,93153,1,0,0:0:0:0:
64,192,93153,1,8,0:0:0:0:
192,192,96601,1,0,0:0:0:0:
192,192,96774,1,0,0:0:0:0:
64,192,96946,1,0,0:0:0:0:
320,192,96946,1,2,0:0:0:0:
192,192,97118,1,0,0:0:0:0:
192,192,97291,1,0,0:0:0:0:
64,192,97463,1,0,0:0:0:0:
320,192,97463,1,2,0:0:0:0:
192,192,97636,1,0,0:0:0:0:
64,192,97981,1,0,0:0:0:0:
64,192,98153,1,0,0:0:0:0:
192,192,98325,1,0,0:0:0:0:
320,192,98325,1,2,0:0:0:0:
64,192,98498,1,0,0:0:0:0:
64,192,98670,1,0,0:0:0:0:
192,192,98843,1,0,0:0:0:0:
320,192,98843,1,2,0:0:0:0:
64,192,99015,1,0,0:0:0:0:
64,192,99360,1,0,0:0:0:0:
448,192,99360,1,4,0:0:0:0:
192,192,99360,1,8,0:0:0:0:
320,192,99360,1,0,0:0:0:0:
320,192,99532,1,2,0:0:0:0:
64,192,99705,1,0,0:0:0:0:
192,192,99705,1,2,0:0:0:0:
448,192,99705,1,8,0:0:0:0:
320,192,99877,1,2,0:0:0:0:
192,192,99963,1,2,0:0:0:0:
448,192,100050,1,2,0:0:0:0:
192,192,100222,1,2,0:0:0:0:
64,192,100222,1,0,0:0:0:0:
320,192,100394,1,2,0:0:0:0:
448,192,100394,1,8,0:0:0:0:
64,192,100394,1,0,0:0:0:0:
192,192,100567,1,2,0:0:0:0:
320,192,100739,1,2,0:0:0:0:
192,192,100912,1,0,0:0:0:0:
448,192,100912,1,2,0:0:0:0:
64,192,101084,1,0,0:0:0:0:
192,192,101084,1,2,0:0:0:0:
320,192,101084,1,8,0:0:0:0:
448,192,101256,1,2,0:0:0:0:
192,192,101343,1,2,0:0:0:0:
64,192,101429,1,2,0:0:0:0:
192,192,101601,1,2,0:0:0:0:
320,192,101601,1,0,0:0:0:0:
64,192,101774,1,0,0:0:0:0:
320,192,101774,1,2,0:0:0:0:
448,192,101774,1,8,0:0:0:0:
192,192,101946,1,2,0:0:0:0:
64,192,102118,1,0,0:0:0:0:
320,192,102118,1,2,0:0:0:0:
320,192,102291,1,2,0:0:0:0:
64,192,102463,1,8,0:0:0:0:
448,192,102463,1,0,0:0:0:0:
192,192,102463,1,2,0:0:0:0:
320,192,102636,1,2,0:0:0:0:
64,192,102722,1,2,0:0:0:0:
448,192,102808,1,2,0:0:0:0:
64,192,102894,1,2,0:0:0:0:
192,192,102981,1,2,0:0:0:0:
320,192,102981,1,0,0:0:0:0:
448,192,103153,1,2,0:0:0:0:
320,192,103153,1,0,0:0:0:0:
64,192,103153,1,8,0:0:0:0:
192,192,103325,1,2,0:0:0:0:
448,192,103498,1,2,0:0:0:0:
320,192,103670,1,0,0:0:0:0:
64,192,103670,1,2,0:0:0:0:
448,192,103843,1,0,0:0:0:0:
192,192,103843,1,8,0:0:0:0:
320,192,103843,1,2,0:0:0:0:
64,192,104015,1,2,0:0:0:0:
192,192,104101,1,2,0:0:0:0:
448,192,104187,1,2,0:0:0:0:
320,192,104360,1,2,0:0:0:0:
192,192,104360,1,0,0:0:0:0:
64,192,104532,1,8,0:0:0:0:
192,192,104532,1,2,0:0:0:0:
448,192,104532,1,0,0:0:0:0:
320,192,104705,1,2,0:0:0:0:
448,192,104877,1,2,0:0:0:0:
192,192,104877,1,0,0:0:0:0:
192,192,105050,1,2,0:0:0:0:
448,192,105222,1,0,0:0:0:0:
320,192,105222,1,2,0:0:0:0:
64,192,105222,1,8,0:0:0:0:
192,192,105394,1,2,0:0:0:0:
320,192,105481,1,2,0:0:0:0:
64,192,105567,1,2,0:0:0:0:
192,192,105653,1,2,0:0:0:0:
448,192,105739,1,0,0:0:0:0:
320,192,105739,1,2,0:0:0:0:
192,192,105912,1,2,0:0:0:0:
64,192,105912,1,8,0:0:0:0:
448,192,105912,1,0,0:0:0:0:
320,192,106084,1,2,0:0:0:0:
64,192,106256,1,2,0:0:0:0:
448,192,106429,1,0,0:0:0:0:
64,192,106429,1,2,0:0:0:0:
320,192,106601,1,2,0:0:0:0:
448,192,106601,1,0,0:0:0:0:
192,192,106601,1,8,0:0:0:0:
64,192,106774,1,2,0:0:0:0:
192,192,106860,1,2,0:0:0:0:
448,192,106946,1,2,0:0:0:0:
320,192,107118,1,2,0:0:0:0:
192,192,107118,1,0,0:0:0:0:
64,192,107291,1,8,0:0:0:0:
448,192,107291,1,0,0:0:0:0:
192,192,107291,1,2,0:0:0:0:
320,192,107463,1,2,0:0:0:0:
448,192,107636,1,0,0:0:0:0:
192,192,107636,1,2,0:0:0:0:
192,192,107808,1,2,0:0:0:0:
448,192,107981,1,8,0:0:0:0:
320,192,107981,1,2,0:0:0:0:
64,192,107981,1,0,0:0:0:0:
192,192,108153,1,2,0:0:0:0:
448,192,108239,1,2,0:0:0:0:
320,192,108325,1,2,0:0:0:0:
64,192,108412,1,2,0:0:0:0:
448,192,108498,1,2,0:0:0:0:
192,192,108498,1,0,0:0:0:0:
320,192,108670,1,8,0:0:0:0:
192,192,108670,1,0,0:0:0:0:
64,192,108670,1,2,0:0:0:0:
320,192,108843,1,2,0:0:0:0:
192,192,109015,1,2,0:0:0:0:
448,192,109015,1,0,0:0:0:0:
320,192,109187,1,2,0:0:0:0:
64,192,109187,1,0,0:0:0:0:
192,192,109360,1,2,0:0:0:0:
64,192,109360,1,0,0:0:0:0:
448,192,109360,1,8,0:0:0:0:
320,192,109532,1,2,0:0:0:0:
64,192,109532,1,8,0:0:0:0:
448,192,109532,1,0,0:0:0:0:
448,192,109705,1,2,0:0:0:0:
192,192,109705,1,0,0:0:0:0:
64,192,109877,1,2,0:0:0:0:
320,192,109877,1,0,0:0:0:0:
448,192,110050,1,8,0:0:0:0:
320,192,110050,1,2,0:0:0:0:
192,192,110136,1,2,0:0:0:0:
64,192,110136,1,8,0:0:0:0:
320,192,110222,1,2,0:0:0:0:
448,192,110222,1,8,0:0:0:0:
192,192,110308,1,2,0:0:0:0:
64,192,110308,1,8,0:0:0:0:
448,192,110394,1,4,0:0:0:0:
64,192,110394,1,0,0:0:0:0:
320,192,110394,1,8,0:0:0:0:
192,192,110567,1,2,0:0:0:0:
448,192,110739,1,0,0:0:0:0:
320,192,110739,1,2,0:0:0:0:
64,192,110739,1,8,0:0:0:0:
192,192,110912,1,2,0:0:0:0:
64,192,111084,1,2,0:0:0:0:
320,192,111170,1,2,0:0:0:0:
192,192,111256,1,2,0:0:0:0:
448,192,111256,1,0,0:0:0:0:
320,192,111429,1,2,0:0:0:0:
64,192,111429,1,8,0:0:0:0:
448,192,111429,1,0,0:0:0:0:
64,192,111601,1,2,0:0:0:0:
192,192,111774,1,2,0:0:0:0:
320,192,111946,1,0,0:0:0:0:
64,192,111946,1,2,0:0:0:0:
192,192,112118,1,8,0:0:0:0:
448,192,112118,1,0,0:0:0:0:
320,192,112118,1,2,0:0:0:0:
64,192,112291,1,2,0:0:0:0:
192,192,112377,1,2,0:0:0:0:
448,192,112463,1,2,0:0:0:0:
320,192,112636,1,2,0:0:0:0:
192,192,112636,1,0,0:0:0:0:
448,192,112808,1,0,0:0:0:0:
64,192,112808,1,8,0:0:0:0:
192,192,112808,1,2,0:0:0:0:
320,192,112981,1,2,0:0:0:0:
448,192,113153,1,0,0:0:0:0:
192,192,113153,1,2,0:0:0:0:
192,192,113325,1,2,0:0:0:0:
448,192,113498,1,8,0:0:0:0:
64,192,113498,1,0,0:0:0:0:
320,192,113498,1,2,0:0:0:0:
192,192,113670,1,2,0:0:0:0:
320,192,113756,1,2,0:0:0:0:
64,192,113843,1,2,0:0:0:0:
448,192,113929,1,2,0:0:0:0:
320,192,114015,1,2,0:0:0:0:
192,192,114015,1,0,0:0:0:0:
448,192,114187,1,8,0:0:0:0:
64,192,114187,1,2,0:0:0:0:
192,192,114187,1,0,0:0:0:0:
320,192,114360,1,2,0:0:0:0:
64,192,114532,1,2,0:0:0:0:
320,192,114705,1,2,0:0:0:0:
192,192,114705,1,0,0:0:0:0:
64,192,114877,1,0,0:0:0:0:
192,192,114877,1,2,0:0:0:0:
448,192,114877,1,8,0:0:0:0:
320,192,115050,1,2,0:0:0:0:
64,192,115136,1,2,0:0:0:0:
192,192,115222,1,2,0:0:0:0:
448,192,115308,1,2,0:0:0:0:
192,192,115394,1,2,0:0:0:0:
320,192,115394,1,0,0:0:0:0:
448,192,115567,1,8,0:0:0:0:
64,192,115567,1,0,0:0:0:0:
320,192,115567,1,2,0:0:0:0:
192,192,115739,1,2,0:0:0:0:
320,192,115912,1,0,0:0:0:0:
64,192,115912,1,2,0:0:0:0:
320,192,116084,1,2,0:0:0:0:
64,192,116256,1,0,0:0:0:0:
192,192,116256,1,2,0:0:0:0:
448,192,116256,1,8,0:0:0:0:
320,192,116429,1,2,0:0:0:0:
64,192,116515,1,2,0:0:0:0:
448,192,116601,1,2,0:0:0:0:
320,192,116687,1,2,0:0:0:0:
192,192,116774,1,2,0:0:0:0:
64,192,116774,1,0,0:0:0:0:
64,192,116946,1,0,0:0:0:0:
320,192,116946,1,2,0:0:0:0:
448,192,116946,1,8,0:0:0:0:
192,192,117118,1,2,0:0:0:0:
448,192,117291,1,2,0:0:0:0:
64,192,117463,1,2,0:0:0:0:
192,192,117463,1,0,0:0:0:0:
192,192,117636,1,2,0:0:0:0:
320,192,117636,1,8,0:0:0:0:
448,192,117636,1,0,0:0:0:0:
320,192,117808,1,2,0:0:0:0:
64,192,117894,1,2,0:0:0:0:
448,192,117981,1,2,0:0:0:0:
320,192,118153,1,0,0:0:0:0:
192,192,118153,1,2,0:0:0:0:
64,192,118325,1,0,0:0:0:0:
448,192,118325,1,8,0:0:0:0:
320,192,118325,1,2,0:0:0:0:
192,192,118498,1,2,0:0:0:0:
192,192,120912,1,0,0:0:0:0:
320,192,120912,1,0,0:0:0:0:
192,192,121084,1,0,0:0:0:0:
64,192,121084,1,8,0:0:0:0:
320,192,121170,1,0,0:0:0:0:
448,192,121170,1,8,0:0:0:0:
192,192,121256,1,0,0:0:0:0:
64,192,121256,1,8,0:0:0:0:
448,192,121343,1,8,0:0:0:0:
320,192,121343,1,0,0:0:0:0:
192,192,121429,1,8,0:0:0:0:
64,192,121429,1,0,0:0:0:0:
448,192,121429,1,4,0:0:0:0:
320,192,121601,1,2,0:0:0:0:
448,192,121774,1,4,0:0:0:0:
64,192,121774,1,8,0:0:0:0:
192,192,121774,128,2,121946:0:0:0:0:
320,192,121946,1,2,0:0:0:0:
192,192,122118,1,0,0:0:0:0:
64,192,122118,128,2,122291:0:0:0:0:
448,192,122291,1,0,0:0:0:0:
320,192,122291,1,2,0:0:0:0:
64,192,122463,1,8,0:0:0:0:
192,192,122463,1,2,0:0:0:0:
448,192,122463,1,0,0:0:0:0:
320,192,122636,1,2,0:0:0:0:
192,192,122808,128,2,122981:0:0:0:0:
64,192,122981,1,2,0:0:0:0:
448,192,122981,1,0,0:0:0:0:
192,192,123153,1,8,0:0:0:0:
320,192,123153,1,2,0:0:0:0:
448,192,123153,1,0,0:0:0:0:
64,192,123325,128,2,123498:0:0:0:0:
320,192,123498,1,2,0:0:0:0:
192,192,123670,1,0,0:0:0:0:
320,192,123670,128,2,123843:0:0:0:0:
192,192,123843,1,2,0:0:0:0:
64,192,123843,1,8,0:0:0:0:
448,192,123843,1,0,0:0:0:0:
192,192,124015,128,2,124187:0:0:0:0:
64,192,124187,1,2,0:0:0:0:
448,192,124187,1,0,0:0:0:0:
192,192,124360,1,2,0:0:0:0:
64,192,124532,1,8,0:0:0:0:
320,192,124532,1,2,0:0:0:0:
448,192,124532,128,0,124705:0:0:0:0:
192,192,124705,1,2,0:0:0:0:
64,192,124877,128,2,125050:0:0:0:0:
320,192,125050,1,2,0:0:0:0:
448,192,125050,1,0,0:0:0:0:
64,192,125222,1,2,0:0:0:0:
448,192,125222,1,8,0:0:0:0:
192,192,125222,128,0,125394:0:0:0:0:
320,192,125394,1,2,0:0:0:0:
64,192,125567,128,2,125739:0:0:0:0:
320,192,125739,1,2,0:0:0:0:
192,192,125739,1,0,0:0:0:0:
192,192,125912,1,2,0:0:0:0:
448,192,125912,1,0,0:0:0:0:
320,192,125912,128,8,126084:0:0:0:0:
64,192,126084,1,2,0:0:0:0:
192,192,126256,128,2,126429:0:0:0:0:
448,192,126429,1,0,0:0:0:0:
64,192,126429,1,2,0:0:0:0:
320,192,126601,1,2,0:0:0:0:
64,192,126601,1,0,0:0:0:0:
448,192,126601,128,8,126774:0:0:0:0:
192,192,126774,1,2,0:0:0:0:
448,192,126946,1,0,0:0:0:0:
64,192,126946,128,2,127118:0:0:0:0:
320,192,127118,1,2,0:0:0:0:
64,192,127291,1,2,0:0:0:0:
448,192,127291,1,8,0:0:0:0:
320,192,127291,128,0,127463:0:0:0:0:
192,192,127463,1,2,0:0:0:0:
320,192,127636,128,2,127808:0:0:0:0:
64,192,127808,1,0,0:0:0:0:
448,192,127808,1,2,0:0:0:0:
448,192,127981,1,8,0:0:0:0:
320,192,127981,1,2,0:0:0:0:
192,192,127981,128,0,128153:0:0:0:0:
64,192,128153,1,2,0:0:0:0:
64,192,128325,128,2,128498:0:0:0:0:
192,192,128498,1,0,0:0:0:0:
448,192,128498,1,2,0:0:0:0:
64,192,128670,1,0,0:0:0:0:
320,192,128670,1,8,0:0:0:0:
192,192,128670,1,2,0:0:0:0:
448,192,128843,128,2,129015:0:0:0:0:
64,192,129015,1,2,0:0:0:0:
192,192,129187,1,0,0:0:0:0:
320,192,129187,128,2,129360:0:0:0:0:
192,192,129360,1,2,0:0:0:0:
64,192,129360,1,0,0:0:0:0:
448,192,129360,1,8,0:0:0:0:
320,192,129532,128,2,129705:0:0:0:0:
448,192,129705,1,2,0:0:0:0:
192,192,129705,1,0,0:0:0:0:
64,192,129877,1,2,0:0:0:0:
320,192,130050,1,0,0:0:0:0:
448,192,130050,1,2,0:0:0:0:
192,192,130050,128,8,130222:0:0:0:0:
64,192,130222,1,2,0:0:0:0:
192,192,130394,128,2,130567:0:0:0:0:
320,192,130567,1,0,0:0:0:0:
448,192,130567,1,2,0:0:0:0:
64,192,130739,1,8,0:0:0:0:
192,192,130739,1,2,0:0:0:0:
448,192,130739,128,0,130912:0:0:0:0:
320,192,130912,1,2,0:0:0:0:
64,192,131084,1,2,0:0:0:0:
192,192,131084,1,8,0:0:0:0:
448,192,131170,1,2,0:0:0:0:
320,192,131170,1,8,0:0:0:0:
64,192,131256,1,2,0:0:0:0:
192,192,131256,1,8,0:0:0:0:
448,192,131343,1,8,0:0:0:0:
320,192,131343,1,2,0:0:0:0:
64,192,131429,1,2,0:0:0:0:
192,192,131429,1,8,0:0:0:0:
320,192,131601,1,0,0:0:0:0:
448,192,131601,1,2,0:0:0:0:
64,192,131774,1,8,0:0:0:0:
448,192,131774,1,2,0:0:0:0:
320,192,131774,1,0,0:0:0:0:
64,192,131946,1,2,0:0:0:0:
192,192,131946,1,0,0:0:0:0:
192,192,132118,1,2,0:0:0:0:
448,192,132118,1,8,0:0:0:0:
64,192,132118,1,0,0:0:0:0:
320,192,132291,1,0,0:0:0:0:
192,192,132377,1,0,0:0:0:0:
320,192,132463,1,8,0:0:0:0:
64,192,132463,1,4,0:0:0:0:
448,192,132463,1,0,0:0:0:0:
192,192,132636,1,2,0:0:0:0:
320,192,132808,128,2,132981:0:0:0:0:
64,192,132808,1,0,0:0:0:0:
448,192,132808,1,8,0:0:0:0:
192,192,132981,1,2,0:0:0:0:
448,192,133153,128,2,133325:0:0:0:0:
192,192,133325,1,2,0:0:0:0:
64,192,133325,1,0,0:0:0:0:
448,192,133498,1,8,0:0:0:0:
320,192,133498,1,2,0:0:0:0:
64,192,133498,1,0,0:0:0:0:
192,192,133670,1,2,0:0:0:0:
320,192,133843,128,2,134015:0:0:0:0:
64,192,134015,1,0,0:0:0:0:
448,192,134015,1,2,0:0:0:0:
192,192,134187,1,2,0:0:0:0:
320,192,134187,1,8,0:0:0:0:
64,192,134187,1,0,0:0:0:0:
448,192,134360,128,2,134532:0:0:0:0:
64,192,134532,1,2,0:0:0:0:
320,192,134705,1,0,0:0:0:0:
192,192,134705,128,2,134877:0:0:0:0:
320,192,134877,1,2,0:0:0:0:
64,192,134877,1,0,0:0:0:0:
448,192,134877,1,8,0:0:0:0:
192,192,135050,1,2,0:0:0:0:
448,192,135222,1,2,0:0:0:0:
64,192,135222,1,0,0:0:0:0:
320,192,135394,1,2,0:0:0:0:
64,192,135567,1,8,0:0:0:0:
192,192,135567,1,2,0:0:0:0:
448,192,135567,128,0,135739:0:0:0:0:
320,192,135739,1,2,0:0:0:0:
448,192,135912,128,2,136084:0:0:0:0:
64,192,136084,1,0,0:0:0:0:
192,192,136084,1,2,0:0:0:0:
320,192,136256,1,0,0:0:0:0:
448,192,136256,1,2,0:0:0:0:
64,192,136256,128,8,136429:0:0:0:0:
192,192,136429,1,2,0:0:0:0:
448,192,136601,128,2,136774:0:0:0:0:
320,192,136774,1,0,0:0:0:0:
192,192,136774,1,2,0:0:0:0:
192,192,136946,128,8,137118:0:0:0:0:
448,192,136946,1,2,0:0:0:0:
64,192,136946,1,0,0:0:0:0:
320,192,137118,1,2,0:0:0:0:
320,192,137291,128,2,137463:0:0:0:0:
64,192,137463,1,0,0:0:0:0:
448,192,137463,1,2,0:0:0:0:
448,192,137636,1,0,0:0:0:0:
192,192,137636,1,2,0:0:0:0:
64,192,137636,128,8,137808:0:0:0:0:
320,192,137808,1,2,0:0:0:0:
192,192,137981,1,2,0:0:0:0:
448,192,137981,128,0,138153:0:0:0:0:
320,192,138153,1,2,0:0:0:0:
64,192,138325,1,8,0:0:0:0:
192,192,138325,128,0,138498:0:0:0:0:
448,192,138325,1,2,0:0:0:0:
320,192,138498,1,2,0:0:0:0:
64,192,138670,128,2,138843:0:0:0:0:
192,192,138843,1,0,0:0:0:0:
320,192,138843,1,2,0:0:0:0:
448,192,139015,1,0,0:0:0:0:
64,192,139015,1,8,0:0:0:0:
192,192,139015,128,2,139187:0:0:0:0:
320,192,139187,1,2,0:0:0:0:
64,192,139360,128,2,139532:0:0:0:0:
192,192,139532,1,0,0:0:0:0:
448,192,139532,1,2,0:0:0:0:
64,192,139705,1,0,0:0:0:0:
192,192,139705,1,8,0:0:0:0:
320,192,139705,1,2,0:0:0:0:
448,192,139877,128,2,140050:0:0:0:0:
64,192,140050,1,2,0:0:0:0:
192,192,140222,1,0,0:0:0:0:
320,192,140222,128,2,140394:0:0:0:0:
448,192,140394,1,0,0:0:0:0:
64,192,140394,1,8,0:0:0:0:
192,192,140394,1,2,0:0:0:0:
192,192,140567,128,2,140739:0:0:0:0:
448,192,140739,1,2,0:0:0:0:
64,192,140739,1,0,0:0:0:0:
192,192,140912,1,2,0:0:0:0:
64,192,141084,128,8,141256:0:0:0:0:
448,192,141084,1,0,0:0:0:0:
320,192,141084,1,2,0:0:0:0:
192,192,141256,1,2,0:0:0:0:
320,192,141429,128,2,141601:0:0:0:0:
192,192,141601,1,0,0:0:0:0:
448,192,141601,1,2,0:0:0:0:
64,192,141774,1,0,0:0:0:0:
448,192,141774,1,8,0:0:0:0:
320,192,141774,128,2,141946:0:0:0:0:
192,192,141946,1,2,0:0:0:0:
320,192,142118,1,2,0:0:0:0:
64,192,142118,128,0,142291:0:0:0:0:
192,192,142291,1,2,0:0:0:0:
448,192,142291,1,0,0:0:0:0:
64,192,142463,1,8,0:0:0:0:
448,192,142463,1,0,0:0:0:0:
320,192,142463,128,2,142636:0:0:0:0:
448,192,142636,1,2,0:0:0:0:
192,192,142636,1,0,0:0:0:0:
64,192,142636,128,8,142808:0:0:0:0:
320,192,142808,1,0,0:0:0:0:
192,192,142808,1,2,0:0:0:0:
320,192,142981,1,2,0:0:0:0:
448,192,142981,128,0,143153:0:0:0:0:
192,192,143153,1,2,0:0:0:0:
64,192,143153,1,8,0:0:0:0:
320,192,143239,1,8,0:0:0:0:
448,192,143239,1,2,0:0:0:0:
64,192,143325,1,8,0:0:0:0:
192,192,143325,1,2,0:0:0:0:
448,192,143412,1,2,0:0:0:0:
320,192,143412,1,8,0:0:0:0:
64,192,143498,1,0,0:0:0:0:
64,192,144187,128,0,144877:0:0:0:0:
448,192,144877,1,0,0:0:0:0:
448,192,145222,1,0,0:0:0:0:
448,192,145567,128,0,146601:0:0:0:0:
192,192,146601,1,0,0:0:0:0:
192,192,146946,128,0,147291:0:0:0:0:
64,192,147291,1,0,0:0:0:0:
320,192,147377,1,0,0:0:0:0:
64,192,147463,1,0,0:0:0:0:
448,192,147550,1,0,0:0:0:0:
320,192,147636,1,0,0:0:0:0:
192,192,147808,1,0,0:0:0:0:
448,192,147894,1,0,0:0:0:0:
64,192,147981,1,0,0:0:0:0:
320,192,148325,128,0,149015:0:0:0:0:
64,192,149015,1,0,0:0:0:0:
64,192,149360,1,0,0:0:0:0:
64,192,149705,128,0,150050:0:0:0:0:
448,192,150050,1,0,0:0:0:0:
448,192,150136,1,0,0:0:0:0:
192,192,150222,1,0,0:0:0:0:
192,192,150308,1,0,0:0:0:0:
320,192,150394,1,0,0:0:0:0:
64,192,150567,1,0,0:0:0:0:
448,192,150739,1,0,0:0:0:0:
448,192,151084,128,0,151774:0:0:0:0:
192,192,151774,1,0,0:0:0:0:
192,192,152118,1,0,0:0:0:0:
192,192,152463,128,0,153153:0:0:0:0:
320,192,152808,1,0,0:0:0:0:
64,192,152894,1,0,0:0:0:0:
448,192,152981,1,0,0:0:0:0:
64,192,153067,1,0,0:0:0:0:
320,192,153153,1,0,0:0:0:0:
192,192,153325,1,0,0:0:0:0:
320,192,153498,1,0,0:0:0:0:
320,192,153843,128,0,154532:0:0:0:0:
64,192,154187,1,0,0:0:0:0:
192,192,154274,1,0,0:0:0:0:
448,192,154360,1,0,0:0:0:0:
192,192,154446,1,0,0:0:0:0:
64,192,154532,1,0,0:0:0:0:
320,192,155050,1,0,0:0:0:0:
64,192,155222,128,0,155912:0:0:0:0:
448,192,155567,1,0,0:0:0:0:
192,192,155653,1,0,0:0:0:0:
320,192,155739,1,0,0:0:0:0:
448,192,155825,1,0,0:0:0:0:
192,192,155912,1,0,0:0:0:0:
320,192,156084,1,0,0:0:0:0:
448,192,156256,1,0,0:0:0:0:
448,192,156601,128,0,157291:0:0:0:0:
320,192,156946,128,0,157291:0:0:0:0:
192,192,157291,1,0,0:0:0:0:
192,192,157636,1,0,0:0:0:0:
192,192,157981,128,0,158670:0:0:0:0:
320,192,158325,1,0,0:0:0:0:
64,192,158412,1,0,0:0:0:0:
320,192,158498,1,0,0:0:0:0:
64,192,158584,1,0,0:0:0:0:
448,192,158670,1,0,0:0:0:0:
192,192,158843,1,0,0:0:0:0:
320,192,159015,1,0,0:0:0:0:
64,192,159015,128,0,159360:0:0:0:0:
320,192,159360,128,0,160050:0:0:0:0:
448,192,159705,128,0,160050:0:0:0:0:
64,192,160050,1,0,0:0:0:0:
448,192,160394,1,0,0:0:0:0:
192,192,160394,1,0,0:0:0:0:
64,192,160739,128,0,161084:0:0:0:0:
320,192,161084,1,0,0:0:0:0:
320,192,161170,1,0,0:0:0:0:
192,192,161256,1,0,0:0:0:0:
192,192,161343,1,0,0:0:0:0:
448,192,161429,1,0,0:0:0:0:
320,192,161429,1,0,0:0:0:0:
192,192,161601,1,0,0:0:0:0:
448,192,161774,1,0,0:0:0:0:
64,192,161774,128,0,162118:0:0:0:0:
448,192,162118,128,0,162808:0:0:0:0:
320,192,162118,1,0,0:0:0:0:
64,192,162463,128,0,162808:0:0:0:0:
192,192,162808,1,0,0:0:0:0:
192,192,163153,1,0,0:0:0:0:
192,192,163498,128,0,164187:0:0:0:0:
448,192,163843,128,0,164187:0:0:0:0:
320,192,164187,1,0,0:0:0:0:
320,192,164532,1,0,0:0:0:0:
448,192,164877,128,0,165567:0:0:0:0:
192,192,165222,1,0,0:0:0:0:
320,192,165308,1,0,0:0:0:0:
64,192,165394,1,0,0:0:0:0:
320,192,165481,1,0,0:0:0:0:
192,192,165567,1,0,0:0:0:0:
448,192,168325,1,2,0:0:0:0:
192,192,168498,1,2,0:0:0:0:
64,192,168670,1,0,2:0:0:0:
320,192,168670,1,2,0:0:0:0:
192,192,168843,1,2,0:0:0:0:
448,192,168929,1,2,0:0:0:0:
64,192,169015,1,2,0:0:0:0:
320,192,169101,1,2,0:0:0:0:
192,192,169187,1,2,0:0:0:0:
448,192,169360,1,2,0:0:0:0:
64,192,169360,1,0,2:0:0:0:
192,192,169532,1,2,0:0:0:0:
320,192,169705,1,2,0:0:0:0:
64,192,169877,1,2,0:0:0:0:
448,192,170050,1,2,0:0:0:0:
192,192,170050,1,0,2:0:0:0:
320,192,170222,1,2,0:0:0:0:
64,192,170308,1,2,0:0:0:0:
448,192,170394,1,2,0:0:0:0:
320,192,170567,1,2,0:0:0:0:
448,192,170739,1,2,0:0:0:0:
64,192,170739,1,0,2:0:0:0:
192,192,170912,1,2,0:0:0:0:
64,192,171084,1,2,0:0:0:0:
320,192,171256,1,2,0:0:0:0:
192,192,171429,1,2,0:0:0:0:
448,192,171429,1,0,2:0:0:0:
320,192,171601,1,2,0:0:0:0:
64,192,171687,1,2,0:0:0:0:
448,192,171774,1,2,0:0:0:0:
192,192,171860,1,2,0:0:0:0:
320,192,171946,1,2,0:0:0:0:
448,192,172118,1,2,0:0:0:0:
64,192,172118,1,0,2:0:0:0:
192,192,172291,1,2,0:0:0:0:
320,192,172463,1,2,0:0:0:0:
448,192,172463,1,0,0:0:0:0:
192,192,172550,1,2,0:0:0:0:
64,192,172550,1,0,0:0:0:0:
320,192,172636,1,2,0:0:0:0:
448,192,172636,1,0,0:0:0:0:
192,192,172722,1,2,0:0:0:0:
64,192,172722,1,0,0:0:0:0:
448,192,172808,1,0,0:0:0:0:
320,192,172808,1,2,0:0:0:0:
64,192,172808,1,8,0:0:0:0:
192,192,172981,1,2,0:0:0:0:
320,192,172981,1,0,0:0:0:0:
448,192,173153,1,8,0:0:0:0:
192,192,173153,1,0,0:0:0:0:
64,192,173153,1,2,0:0:0:0:
320,192,173325,1,2,0:0:0:0:
192,192,173325,1,0,0:0:0:0:
64,192,173498,1,8,0:0:0:0:
320,192,173498,1,0,0:0:0:0:
448,192,173498,1,2,0:0:0:0:
448,192,173843,1,0,0:0:0:0:
64,192,173843,1,4,0:0:0:0:
192,192,173843,1,8,0:0:0:0:
320,192,173843,1,0,0:0:0:0:
192,192,174015,1,2,0:0:0:0:
448,192,174187,1,0,0:0:0:0:
320,192,174187,1,2,0:0:0:0:
64,192,174187,1,8,0:0:0:0:
192,192,174360,1,2,0:0:0:0:
448,192,174446,1,2,0:0:0:0:
320,192,174532,1,2,0:0:0:0:
64,192,174618,1,2,0:0:0:0:
192,192,174705,1,2,0:0:0:0:
448,192,174705,1,0,0:0:0:0:
64,192,174877,1,8,0:0:0:0:
320,192,174877,1,2,0:0:0:0:
448,192,174877,1,0,0:0:0:0:
192,192,175050,1,2,0:0:0:0:
448,192,175222,1,2,0:0:0:0:
320,192,175394,1,0,0:0:0:0:
64,192,175394,1,2,0:0:0:0:
320,192,175567,1,2,0:0:0:0:
448,192,175567,1,0,0:0:0:0:
192,192,175567,1,8,0:0:0:0:
64,192,175739,1,2,0:0:0:0:
192,192,175825,1,2,0:0:0:0:
448,192,175912,1,2,0:0:0:0:
320,192,176084,1,2,0:0:0:0:
192,192,176084,1,0,0:0:0:0:
448,192,176256,1,0,0:0:0:0:
192,192,176256,1,2,0:0:0:0:
64,192,176256,1,8,0:0:0:0:
320,192,176429,1,2,0:0:0:0:
448,192,176601,1,0,0:0:0:0:
64,192,176601,1,2,0:0:0:0:
192,192,176774,1,2,0:0:0:0:
320,192,176946,1,2,0:0:0:0:
64,192,176946,1,0,0:0:0:0:
448,192,176946,1,8,0:0:0:0:
192,192,177118,1,2,0:0:0:0:
448,192,177205,1,2,0:0:0:0:
64,192,177291,1,2,0:0:0:0:
448,192,177377,1,2,0:0:0:0:
320,192,177463,1,2,0:0:0:0:
192,192,177463,1,0,0:0:0:0:
64,192,177636,1,2,0:0:0:0:
192,192,177636,1,0,0:0:0:0:
448,192,177636,1,8,0:0:0:0:
320,192,177808,1,2,0:0:0:0:
64,192,177981,1,2,0:0:0:0:
192,192,178153,1,0,0:0:0:0:
448,192,178153,1,2,0:0:0:0:
320,192,178325,1,2,0:0:0:0:
64,192,178325,1,0,0:0:0:0:
448,192,178325,1,8,0:0:0:0:
192,192,178498,1,2,0:0:0:0:
320,192,178584,1,2,0:0:0:0:
448,192,178670,1,2,0:0:0:0:
320,192,178843,1,0,0:0:0:0:
64,192,178843,1,2,0:0:0:0:
448,192,179015,1,8,0:0:0:0:
64,192,179015,1,0,0:0:0:0:
192,192,179015,1,2,0:0:0:0:
320,192,179187,1,2,0:0:0:0:
64,192,179360,1,0,0:0:0:0:
448,192,179360,1,2,0:0:0:0:
192,192,179532,1,2,0:0:0:0:
64,192,179705,1,8,0:0:0:0:
320,192,179705,1,2,0:0:0:0:
448,192,179705,1,0,0:0:0:0:
192,192,179877,1,2,0:0:0:0:
320,192,179963,1,2,0:0:0:0:
64,192,180050,1,2,0:0:0:0:
192,192,180136,1,2,0:0:0:0:
448,192,180222,1,0,0:0:0:0:
320,192,180222,1,2,0:0:0:0:
192,192,180394,1,2,0:0:0:0:
448,192,180394,1,8,0:0:0:0:
64,192,180394,1,0,0:0:0:0:
320,192,180567,1,2,0:0:0:0:
64,192,180739,1,2,0:0:0:0:
448,192,180912,1,2,0:0:0:0:
192,192,180912,1,0,0:0:0:0:
64,192,181084,1,0,0:0:0:0:
320,192,181084,1,8,0:0:0:0:
192,192,181084,1,2,0:0:0:0:
448,192,181256,1,2,0:0:0:0:
320,192,181343,1,2,0:0:0:0:
64,192,181429,1,2,0:0:0:0:
320,192,181601,1,0,0:0:0:0:
192,192,181601,1,2,0:0:0:0:
448,192,181774,1,8,0:0:0:0:
64,192,181774,1,0,0:0:0:0:
320,192,181774,1,2,0:0:0:0:
192,192,181946,1,2,0:0:0:0:
64,192,182118,1,0,0:0:0:0:
448,192,182118,1,2,0:0:0:0:
320,192,182291,1,2,0:0:0:0:
192,192,182463,1,2,0:0:0:0:
448,192,182463,1,0,0:0:0:0:
64,192,182463,1,8,0:0:0:0:
320,192,182636,1,2,0:0:0:0:
64,192,182808,1,2,0:0:0:0:
192,192,182894,1,2,0:0:0:0:
64,192,182981,1,2,0:0:0:0:
320,192,182981,1,0,0:0:0:0:
192,192,183153,1,0,0:0:0:0:
64,192,183153,1,8,0:0:0:0:
448,192,183153,1,2,0:0:0:0:
320,192,183325,1,2,0:0:0:0:
64,192,183498,1,0,0:0:0:0:
192,192,183498,1,2,0:0:0:0:
192,192,183670,1,2,0:0:0:0:
64,192,183670,1,0,0:0:0:0:
64,192,183843,1,8,0:0:0:0:
320,192,183843,1,2,0:0:0:0:
448,192,183843,1,0,0:0:0:0:
64,192,184015,1,0,0:0:0:0:
448,192,184015,1,8,0:0:0:0:
192,192,184015,1,2,0:0:0:0:
448,192,184187,1,0,0:0:0:0:
320,192,184187,1,2,0:0:0:0:
448,192,184360,1,0,0:0:0:0:
320,192,184360,1,2,0:0:0:0:
64,192,184532,1,8,0:0:0:0:
192,192,184532,1,2,0:0:0:0:
448,192,184618,1,8,0:0:0:0:
320,192,184618,1,2,0:0:0:0:
192,192,184705,1,2,0:0:0:0:
64,192,184705,1,8,0:0:0:0:
448,192,184791,1,8,0:0:0:0:
320,192,184791,1,2,0:0:0:0:
448,192,184877,1,0,0:0:0:0:
192,192,184877,1,8,0:0:0:0:
64,192,184877,1,4,0:0:0:0:
320,192,185050,1,2,0:0:0:0:
64,192,185222,1,0,0:0:0:0:
448,192,185222,1,8,0:0:0:0:
192,192,185222,1,2,0:0:0:0:
320,192,185394,1,2,0:0:0:0:
64,192,185567,1,2,0:0:0:0:
192,192,185653,1,2,0:0:0:0:
448,192,185739,1,0,0:0:0:0:
320,192,185739,1,2,0:0:0:0:
448,192,185912,1,8,0:0:0:0:
192,192,185912,1,2,0:0:0:0:
64,192,185912,1,0,0:0:0:0:
192,192,186084,1,2,0:0:0:0:
320,192,186256,1,2,0:0:0:0:
192,192,186429,1,0,0:0:0:0:
448,192,186429,1,2,0:0:0:0:
320,192,186601,1,8,0:0:0:0:
192,192,186601,1,2,0:0:0:0:
64,192,186601,1,0,0:0:0:0:
448,192,186774,1,2,0:0:0:0:
192,192,186860,1,2,0:0:0:0:
64,192,186946,1,2,0:0:0:0:
192,192,187118,1,2,0:0:0:0:
320,192,187118,1,0,0:0:0:0:
320,192,187291,1,2,0:0:0:0:
64,192,187291,1,0,0:0:0:0:
448,192,187291,1,8,0:0:0:0:
192,192,187463,1,2,0:0:0:0:
64,192,187636,1,0,0:0:0:0:
320,192,187636,1,2,0:0:0:0:
320,192,187808,1,2,0:0:0:0:
64,192,187981,1,8,0:0:0:0:
192,192,187981,1,2,0:0:0:0:
448,192,187981,1,0,0:0:0:0:
320,192,188153,1,2,0:0:0:0:
192,192,188239,1,2,0:0:0:0:
448,192,188325,1,2,0:0:0:0:
64,192,188412,1,2,0:0:0:0:
192,192,188498,1,2,0:0:0:0:
320,192,188498,1,0,0:0:0:0:
448,192,188670,1,2,0:0:0:0:
64,192,188670,1,8,0:0:0:0:
320,192,188670,1,0,0:0:0:0:
192,192,188843,1,2,0:0:0:0:
320,192,189015,1,2,0:0:0:0:
192,192,189187,1,2,0:0:0:0:
448,192,189187,1,0,0:0:0:0:
448,192,189360,1,0,0:0:0:0:
320,192,189360,1,2,0:0:0:0:
64,192,189360,1,8,0:0:0:0:
192,192,189532,1,2,0:0:0:0:
448,192,189618,1,2,0:0:0:0:
320,192,189705,1,2,0:0:0:0:
64,192,189791,1,2,0:0:0:0:
192,192,189877,1,0,0:0:0:0:
448,192,189877,1,2,0:0:0:0:
192,192,190050,1,2,0:0:0:0:
64,192,190050,1,8,0:0:0:0:
320,192,190050,1,0,0:0:0:0:
448,192,190222,1,2,0:0:0:0:
192,192,190394,1,0,0:0:0:0:
64,192,190394,1,2,0:0:0:0:
192,192,190567,1,2,0:0:0:0:
64,192,190739,1,8,0:0:0:0:
320,192,190739,1,2,0:0:0:0:
448,192,190739,1,0,0:0:0:0:
192,192,190912,1,2,0:0:0:0:
448,192,190998,1,2,0:0:0:0:
320,192,191084,1,2,0:0:0:0:
64,192,191170,1,2,0:0:0:0:
448,192,191256,1,0,0:0:0:0:
320,192,191256,1,2,0:0:0:0:
448,192,191429,1,0,0:0:0:0:
192,192,191429,1,2,0:0:0:0:
64,192,191429,1,8,0:0:0:0:
320,192,191601,1,2,0:0:0:0:
64,192,191774,1,2,0:0:0:0:
448,192,191946,1,2,0:0:0:0:
64,192,191946,1,0,0:0:0:0:
192,192,192118,1,8,0:0:0:0:
320,192,192118,1,2,0:0:0:0:
448,192,192118,1,0,0:0:0:0:
64,192,192291,1,2,0:0:0:0:
448,192,192377,1,2,0:0:0:0:
320,192,192463,1,2,0:0:0:0:
64,192,192550,1,2,0:0:0:0:
320,192,192636,1,2,0:0:0:0:
192,192,192636,1,0,0:0:0:0:
192,192,192808,1,2,0:0:0:0:
448,192,192808,1,0,0:0:0:0:
64,192,192808,1,8,0:0:0:0:
320,192,192981,1,2,0:0:0:0:
192,192,193153,1,2,0:0:0:0:
448,192,193153,1,0,0:0:0:0:
64,192,193498,1,0,0:0:0:0:
64,192,193670,1,0,0:0:0:0:
64,192,193843,1,2,0:0:0:0:
320,192,193843,1,0,0:0:0:0:
448,192,194187,1,0,0:0:0:0:
448,192,194360,1,0,0:0:0:0:
192,192,194532,1,2,0:0:0:0:
448,192,194532,1,0,0:0:0:0:
64,192,194877,1,0,0:0:0:0:
64,192,195050,1,0,0:0:0:0:
192,192,195222,1,0,0:0:0:0:
448,192,195394,1,0,0:0:0:0:
320,192,195394,1,0,0:0:0:0:
64,192,195567,1,8,0:0:0:0:
192,192,195567,1,0,0:0:0:0:
320,192,195653,1,0,0:0:0:0:
448,192,195653,1,8,0:0:0:0:
64,192,195739,1,8,0:0:0:0:
192,192,195739,1,0,0:0:0:0:
448,192,195825,1,8,0:0:0:0:
320,192,195825,1,0,0:0:0:0:
64,192,195912,128,0,196084:0:0:0:0:
192,192,195912,1,8,0:0:0:0:
448,192,195912,1,4,0:0:0:0:
320,192,196084,128,2,196256:0:0:0:0:
64,192,196256,1,0,0:0:0:0:
448,192,196256,1,8,0:0:0:0:
192,192,196256,128,2,196429:0:0:0:0:
320,192,196429,128,2,196601:0:0:0:0:
448,192,196601,128,2,196774:0:0:0:0:
64,192,196774,1,0,0:0:0:0:
192,192,196774,128,2,196946:0:0:0:0:
448,192,196946,1,8,0:0:0:0:
64,192,196946,128,0,197118:0:0:0:0:
320,192,196946,1,2,0:0:0:0:
192,192,197118,128,2,197291:0:0:0:0:
320,192,197291,128,2,197463:0:0:0:0:
64,192,197463,1,0,0:0:0:0:
448,192,197463,128,2,197636:0:0:0:0:
320,192,197636,1,8,0:0:0:0:
64,192,197636,128,0,197808:0:0:0:0:
192,192,197636,1,2,0:0:0:0:
448,192,197808,128,2,197981:0:0:0:0:
64,192,197981,128,2,198153:0:0:0:0:
192,192,198153,128,2,198325:0:0:0:0:
320,192,198153,1,0,0:0:0:0:
64,192,198325,1,0,0:0:0:0:
448,192,198325,1,8,0:0:0:0:
320,192,198325,128,2,198498:0:0:0:0:
192,192,198498,128,2,198670:0:0:0:0:
64,192,198670,128,0,198843:0:0:0:0:
448,192,198670,1,2,0:0:0:0:
320,192,198843,128,2,199015:0:0:0:0:
448,192,199015,128,0,199187:0:0:0:0:
192,192,199015,1,2,0:0:0:0:
64,192,199015,1,8,0:0:0:0:
320,192,199187,128,2,199360:0:0:0:0:
448,192,199360,128,2,199532:0:0:0:0:
64,192,199532,1,0,0:0:0:0:
192,192,199532,128,2,199705:0:0:0:0:
64,192,199705,128,8,199877:0:0:0:0:
448,192,199705,1,2,0:0:0:0:
320,192,199705,1,0,0:0:0:0:
192,192,199877,128,2,200050:0:0:0:0:
448,192,200050,128,2,200222:0:0:0:0:
192,192,200222,1,2,0:0:0:0:
320,192,200222,128,0,200394:0:0:0:0:
448,192,200394,1,2,0:0:0:0:
64,192,200394,1,0,0:0:0:0:
192,192,200394,128,8,200567:0:0:0:0:
64,192,200567,128,2,200739:0:0:0:0:
320,192,200739,128,2,200912:0:0:0:0:
64,192,200912,1,0,0:0:0:0:
448,192,200912,128,2,201084:0:0:0:0:
192,192,201084,1,2,0:0:0:0:
64,192,201084,128,8,201256:0:0:0:0:
320,192,201084,1,0,0:0:0:0:
320,192,201256,128,2,201429:0:0:0:0:
448,192,201429,1,2,0:0:0:0:
192,192,201429,128,0,201601:0:0:0:0:
64,192,201601,128,2,201774:0:0:0:0:
448,192,201774,128,0,201946:0:0:0:0:
320,192,201774,1,2,0:0:0:0:
192,192,201774,1,8,0:0:0:0:
192,192,201946,128,2,202118:0:0:0:0:
64,192,202118,128,2,202291:0:0:0:0:
192,192,202291,1,0,0:0:0:0:
320,192,202291,128,2,202463:0:0:0:0:
64,192,202463,1,8,0:0:0:0:
192,192,202463,128,2,202636:0:0:0:0:
448,192,202463,1,0,0:0:0:0:
320,192,202636,128,2,202808:0:0:0:0:
448,192,202808,128,2,202981:0:0:0:0:
320,192,202981,1,0,0:0:0:0:
64,192,202981,128,2,203153:0:0:0:0:
192,192,203153,1,8,0:0:0:0:
320,192,203153,128,2,203325:0:0:0:0:
448,192,203153,1,0,0:0:0:0:
64,192,203325,128,2,203498:0:0:0:0:
448,192,203498,128,2,203670:0:0:0:0:
192,192,203670,1,0,0:0:0:0:
320,192,203670,128,2,203843:0:0:0:0:
64,192,203843,1,2,0:0:0:0:
448,192,203843,1,0,0:0:0:0:
192,192,203843,128,8,204015:0:0:0:0:
320,192,204015,128,2,204187:0:0:0:0:
64,192,204187,1,2,0:0:0:0:
448,192,204187,128,0,204360:0:0:0:0:
192,192,204360,128,2,204532:0:0:0:0:
448,192,204532,1,0,0:0:0:0:
64,192,204532,128,8,204705:0:0:0:0:
320,192,204532,1,2,0:0:0:0:
192,192,204705,128,2,204877:0:0:0:0:
448,192,204877,128,2,205050:0:0:0:0:
64,192,205050,1,0,0:0:0:0:
320,192,205050,128,2,205222:0:0:0:0:
64,192,205222,128,2,205394:0:0:0:0:
448,192,205222,1,8,0:0:0:0:
192,192,205222,1,0,0:0:0:0:
448,192,205394,128,2,205567:0:0:0:0:
64,192,205567,1,8,0:0:0:0:
192,192,205567,1,2,0:0:0:0:
320,192,205653,1,8,0:0:0:0:
448,192,205653,1,2,0:0:0:0:
192,192,205739,1,2,0:0:0:0:
64,192,205739,1,8,0:0:0:0:
320,192,205825,1,8,0:0:0:0:
448,192,205825,1,2,0:0:0:0:
64,192,205912,1,8,0:0:0:0:
192,192,205912,1,2,0:0:0:0:
320,192,206084,1,2,0:0:0:0:
448,192,206084,1,0,0:0:0:0:
448,192,206256,1,2,0:0:0:0:
320,192,206256,1,0,0:0:0:0:
64,192,206256,1,8,0:0:0:0:
192,192,206429,1,0,0:0:0:0:
64,192,206429,1,2,0:0:0:0:
448,192,206601,1,8,0:0:0:0:
192,192,206601,1,2,0:0:0:0:
64,192,206601,1,0,0:0:0:0:
64,192,206946,1,4,0:0:0:0:
320,192,206946,1,8,0:0:0:0:
448,192,206946,1,0,0:0:0:0:
192,192,207032,1,0,0:0:0:0:
448,192,207118,1,2,0:0:0:0:
320,192,207205,1,0,0:0:0:0:
448,192,207291,1,0,0:0:0:0:
64,192,207291,1,8,0:0:0:0:
192,192,207291,1,2,0:0:0:0:
320,192,207377,1,0,0:0:0:0:
192,192,207463,1,2,0:0:0:0:
64,192,207550,1,0,0:0:0:0:
320,192,207636,1,2,0:0:0:0:
192,192,207722,1,0,0:0:0:0:
448,192,207808,1,0,0:0:0:0:
64,192,207808,1,2,0:0:0:0:
320,192,207894,1,0,0:0:0:0:
192,192,207981,1,2,0:0:0:0:
64,192,207981,1,8,0:0:0:0:
448,192,207981,1,0,0:0:0:0:
320,192,208067,1,0,0:0:0:0:
64,192,208153,1,2,0:0:0:0:
448,192,208239,1,0,0:0:0:0:
192,192,208325,1,2,0:0:0:0:
448,192,208412,1,0,0:0:0:0:
320,192,208498,1,0,0:0:0:0:
64,192,208498,1,2,0:0:0:0:
192,192,208584,1,0,0:0:0:0:
320,192,208670,1,2,0:0:0:0:
64,192,208670,1,8,0:0:0:0:
448,192,208670,1,0,0:0:0:0:
192,192,208756,1,0,0:0:0:0:
320,192,208843,1,2,0:0:0:0:
64,192,208929,1,0,0:0:0:0:
448,192,209015,1,2,0:0:0:0:
64,192,209101,1,0,0:0:0:0:
192,192,209187,1,0,0:0:0:0:
448,192,209187,1,2,0:0:0:0:
320,192,209274,1,0,0:0:0:0:
64,192,209360,1,8,0:0:0:0:
448,192,209360,1,0,0:0:0:0:
192,192,209360,1,2,0:0:0:0:
320,192,209446,1,0,0:0:0:0:
192,192,209532,1,2,0:0:0:0:
448,192,209618,1,0,0:0:0:0:
320,192,209705,1,2,0:0:0:0:
64,192,209705,1,0,0:0:0:0:
192,192,209791,1,0,0:0:0:0:
320,192,209877,1,2,0:0:0:0:
192,192,209963,1,0,0:0:0:0:
320,192,210050,1,2,0:0:0:0:
448,192,210050,1,8,0:0:0:0:
64,192,210050,1,0,0:0:0:0:
192,192,210136,1,0,0:0:0:0:
448,192,210222,1,2,0:0:0:0:
64,192,210308,1,2,0:0:0:0:
320,192,210394,1,2,0:0:0:0:
64,192,210481,1,0,0:0:0:0:
192,192,210567,1,0,0:0:0:0:
448,192,210567,1,2,0:0:0:0:
320,192,210653,1,0,0:0:0:0:
192,192,210739,1,0,0:0:0:0:
64,192,210739,1,2,0:0:0:0:
448,192,210739,1,8,0:0:0:0:
320,192,210825,1,0,0:0:0:0:
448,192,210912,1,2,0:0:0:0:
192,192,210998,1,0,0:0:0:0:
64,192,211084,1,2,0:0:0:0:
448,192,211170,1,0,0:0:0:0:
320,192,211256,1,2,0:0:0:0:
192,192,211256,1,0,0:0:0:0:
64,192,211343,1,0,0:0:0:0:
192,192,211429,1,2,0:0:0:0:
448,192,211429,1,0,0:0:0:0:
320,192,211429,1,8,0:0:0:0:
64,192,211515,1,0,0:0:0:0:
320,192,211601,1,2,0:0:0:0:
192,192,211687,1,0,0:0:0:0:
448,192,211774,1,2,0:0:0:0:
192,192,211860,1,0,0:0:0:0:
64,192,211946,1,2,0:0:0:0:
448,192,211946,1,0,0:0:0:0:
320,192,212032,1,0,0:0:0:0:
192,192,212118,1,2,0:0:0:0:
64,192,212118,1,0,0:0:0:0:
448,192,212118,1,8,0:0:0:0:
320,192,212205,1,0,0:0:0:0:
192,192,212291,1,2,0:0:0:0:
320,192,212377,1,0,0:0:0:0:
192,192,212463,1,2,0:0:0:0:
447,192,212463,1,0,0:0:0:0:
64,192,212550,1,0,0:0:0:0:
320,192,212636,1,2,0:0:0:0:
192,192,212722,1,0,0:0:0:0:
448,192,212808,1,8,0:0:0:0:
320,192,212808,1,2,0:0:0:0:
64,192,212808,1,0,0:0:0:0:
192,192,212894,1,0,0:0:0:0:
448,192,212981,1,2,0:0:0:0:
320,192,213067,1,2,0:0:0:0:
64,192,213153,1,2,0:0:0:0:
192,192,213239,1,2,0:0:0:0:
320,192,213325,1,2,0:0:0:0:
64,192,213325,1,0,0:0:0:0:
448,192,213412,1,0,0:0:0:0:
192,192,213498,1,8,0:0:0:0:
64,192,213498,1,0,0:0:0:0:
320,192,213498,1,2,0:0:0:0:
448,192,213584,1,0,0:0:0:0:
192,192,213670,1,2,0:0:0:0:
320,192,213756,1,0,0:0:0:0:
64,192,213843,1,2,0:0:0:0:
448,192,213929,1,0,0:0:0:0:
320,192,214015,1,2,0:0:0:0:
64,192,214015,1,0,0:0:0:0:
192,192,214101,1,0,0:0:0:0:
64,192,214187,1,0,0:0:0:0:
320,192,214187,1,8,0:0:0:0:
448,192,214187,1,2,0:0:0:0:
192,192,214274,1,0,0:0:0:0:
448,192,214360,1,2,0:0:0:0:
192,192,214446,1,0,0:0:0:0:
320,192,214532,1,2,0:0:0:0:
64,192,214618,1,0,0:0:0:0:
448,192,214705,1,0,0:0:0:0:
192,192,214705,1,2,0:0:0:0:
320,192,214791,1,0,0:0:0:0:
64,192,214877,1,0,0:0:0:0:
448,192,214877,1,8,0:0:0:0:
192,192,214877,1,2,0:0:0:0:
320,192,214963,1,0,0:0:0:0:
192,192,215050,1,2,0:0:0:0:
320,192,215136,1,0,0:0:0:0:
64,192,215222,1,0,0:0:0:0:
448,192,215222,1,2,0:0:0:0:
192,192,215308,1,0,0:0:0:0:
448,192,215394,1,2,0:0:0:0:
320,192,215481,1,0,0:0:0:0:
192,192,215567,1,2,0:0:0:0:
64,192,215567,1,0,0:0:0:0:
448,192,215567,1,8,0:0:0:0:
320,192,215653,1,0,0:0:0:0:
64,192,215739,1,2,0:0:0:0:
192,192,215825,1,2,0:0:0:0:
320,192,215912,1,2,0:0:0:0:
192,192,215998,1,2,0:0:0:0:
448,192,216084,1,0,0:0:0:0:
64,192,216084,1,2,0:0:0:0:
320,192,216170,1,0,0:0:0:0:
192,192,216256,1,0,0:0:0:0:
64,192,216256,1,8,0:0:0:0:
448,192,216256,1,2,0:0:0:0:
320,192,216343,1,0,0:0:0:0:
192,192,216429,1,2,0:0:0:0:
64,192,216515,1,0,0:0:0:0:
320,192,216601,1,2,0:0:0:0:
448,192,216601,1,0,0:0:0:0:
192,192,216687,1,0,0:0:0:0:
448,192,216774,1,0,0:0:0:0:
64,192,216774,1,2,0:0:0:0:
320,192,216860,1,0,0:0:0:0:
64,192,216946,1,0,0:0:0:0:
448,192,216946,1,8,0:0:0:0:
192,192,216946,1,2,0:0:0:0:
320,192,217032,1,0,0:0:0:0:
192,192,217118,1,0,0:0:0:0:
64,192,217118,1,2,0:0:0:0:
448,192,217118,1,8,0:0:0:0:
320,192,217205,1,0,0:0:0:0:
192,192,217291,1,0,0:0:0:0:
64,192,217291,1,2,0:0:0:0:
320,192,217377,1,0,0:0:0:0:
192,192,217463,1,2,0:0:0:0:
448,192,217463,1,0,0:0:0:0:
64,192,217550,1,0,0:0:0:0:
448,192,217636,1,8,0:0:0:0:
320,192,217636,1,2,0:0:0:0:
192,192,217722,1,8,0:0:0:0:
64,192,217722,1,2,0:0:0:0:
320,192,217808,1,2,0:0:0:0:
448,192,217808,1,8,0:0:0:0:
192,192,217894,1,8,0:0:0:0:
64,192,217894,1,2,0:0:0:0:
448,192,217981,1,4,0:0:0:0:
320,192,217981,1,8,0:0:0:0:
64,192,217981,1,0,0:0:0:0:
192,192,218067,1,0,0:0:0:0:
64,192,218153,1,2,0:0:0:0:
320,192,218239,1,0,0:0:0:0:
448,192,218325,1,8,0:0:0:0:
64,192,218325,1,0,0:0:0:0:
192,192,218325,1,2,0:0:0:0:
320,192,218412,1,0,0:0:0:0:
448,192,218498,1,2,0:0:0:0:
64,192,218584,1,0,0:0:0:0:
192,192,218670,1,2,0:0:0:0:
320,192,218756,1,0,0:0:0:0:
448,192,218843,1,2,0:0:0:0:
64,192,218843,1,0,0:0:0:0:
192,192,218929,1,0,0:0:0:0:
64,192,219015,1,0,0:0:0:0:
320,192,219015,1,2,0:0:0:0:
448,192,219015,1,8,0:0:0:0:
192,192,219101,1,0,0:0:0:0:
320,192,219187,1,2,0:0:0:0:
64,192,219274,1,0,0:0:0:0:
320,192,219360,1,2,0:0:0:0:
64,192,219446,1,0,0:0:0:0:
448,192,219532,1,2,0:0:0:0:
192,192,219532,1,0,0:0:0:0:
320,192,219618,1,0,0:0:0:0:
64,192,219705,1,0,0:0:0:0:
448,192,219705,1,8,0:0:0:0:
192,192,219705,1,2,0:0:0:0:
320,192,219791,1,0,0:0:0:0:
192,192,219877,1,2,0:0:0:0:
448,192,219963,1,0,0:0:0:0:
64,192,220050,1,2,0:0:0:0:
320,192,220136,1,0,0:0:0:0:
64,192,220222,1,2,0:0:0:0:
448,192,220222,1,0,0:0:0:0:
192,192,220308,1,0,0:0:0:0:
448,192,220394,1,8,0:0:0:0:
320,192,220394,1,2,0:0:0:0:
64,192,220394,1,0,0:0:0:0:
192,192,220481,1,0,0:0:0:0:
320,192,220567,1,2,0:0:0:0:
64,192,220653,1,0,0:0:0:0:
192,192,220739,1,0,0:0:0:0:
448,192,220739,1,2,0:0:0:0:
320,192,220825,1,0,0:0:0:0:
192,192,220912,1,2,0:0:0:0:
320,192,220998,1,0,0:0:0:0:
64,192,221084,1,8,0:0:0:0:
192,192,221084,1,2,0:0:0:0:
448,192,221084,1,0,0:0:0:0:
320,192,221170,1,0,0:0:0:0:
448,192,221256,1,2,0:0:0:0:
64,192,221343,1,2,0:0:0:0:
192,192,221429,1,2,0:0:0:0:
448,192,221515,1,0,0:0:0:0:
320,192,221601,1,0,0:0:0:0:
64,192,221601,1,2,0:0:0:0:
192,192,221687,1,0,0:0:0:0:
64,192,221774,1,8,0:0:0:0:
448,192,221774,1,2,0:0:0:0:
320,192,221774,1,0,0:0:0:0:
192,192,221860,1,0,0:0:0:0:
64,192,221946,1,2,0:0:0:0:
448,192,222032,1,0,0:0:0:0:
320,192,222118,1,2,0:0:0:0:
192,192,222205,1,0,0:0:0:0:
448,192,222291,1,0,0:0:0:0:
64,192,222291,1,2,0:0:0:0:
320,192,222377,1,0,0:0:0:0:
192,192,222463,1,8,0:0:0:0:
64,192,222463,1,0,0:0:0:0:
448,192,222463,1,2,0:0:0:0:
320,192,222550,1,0,0:0:0:0:
192,192,222636,1,2,0:0:0:0:
448,192,222722,1,0,0:0:0:0:
320,192,222808,1,2,0:0:0:0:
64,192,222894,1,0,0:0:0:0:
192,192,222981,1,0,0:0:0:0:
448,192,222981,1,2,0:0:0:0:
320,192,223067,1,0,0:0:0:0:
64,192,223153,1,8,0:0:0:0:
448,192,223153,1,0,0:0:0:0:
192,192,223153,1,2,0:0:0:0:
320,192,223239,1,0,0:0:0:0:
64,192,223325,1,2,0:0:0:0:
192,192,223412,1,0,0:0:0:0:
320,192,223498,1,2,0:0:0:0:
64,192,223498,1,0,0:0:0:0:
448,192,223584,1,0,0:0:0:0:
192,192,223670,1,2,0:0:0:0:
320,192,223756,1,0,0:0:0:0:
64,192,223843,1,8,0:0:0:0:
448,192,223843,1,0,0:0:0:0:
192,192,223843,1,2,0:0:0:0:
320,192,223929,1,0,0:0:0:0:
192,192,224015,1,2,0:0:0:0:
448,192,224101,1,2,0:0:0:0:
320,192,224187,1,2,0:0:0:0:
192,192,224274,1,2,0:0:0:0:
448,192,224360,1,0,0:0:0:0:
64,192,224360,1,2,0:0:0:0:
320,192,224446,1,0,0:0:0:0:
192,192,224532,1,2,0:0:0:0:
448,192,224532,1,0,0:0:0:0:
64,192,224532,1,8,0:0:0:0:
320,192,224618,1,0,0:0:0:0:
192,192,224705,1,2,0:0:0:0:
320,192,224791,1,0,0:0:0:0:
448,192,224877,1,2,0:0:0:0:
64,192,224963,1,0,0:0:0:0:
448,192,225050,1,0,0:0:0:0:
192,192,225050,1,2,0:0:0:0:
320,192,225136,1,0,0:0:0:0:
192,192,225222,1,8,0:0:0:0:
64,192,225222,1,2,0:0:0:0:
448,192,225222,1,0,0:0:0:0:
320,192,225308,1,0,0:0:0:0:
64,192,225394,1,2,0:0:0:0:
448,192,225481,1,0,0:0:0:0:
192,192,225567,1,2,0:0:0:0:
320,192,225653,1,0,0:0:0:0:
448,192,225739,1,2,0:0:0:0:
64,192,225739,1,0,0:0:0:0:
192,192,225825,1,0,0:0:0:0:
320,192,225912,1,2,0:0:0:0:
448,192,225912,1,0,0:0:0:0:
64,192,225912,1,8,0:0:0:0:
192,192,225998,1,0,0:0:0:0:
320,192,226084,1,2,0:0:0:0:
64,192,226170,1,0,0:0:0:0:
320,192,226256,1,8,0:0:0:0:
448,192,226256,1,0,0:0:0:0:
192,192,226343,1,8,0:0:0:0:
64,192,226343,1,0,0:0:0:0:
320,192,226429,1,8,0:0:0:0:
448,192,226429,1,0,0:0:0:0:
192,192,226515,1,8,0:0:0:0:
64,192,226515,1,0,0:0:0:0:
320,192,226601,1,8,0:0:0:0:
448,192,226601,1,0,0:0:0:0:
64,192,226687,1,0,0:0:0:0:
192,192,226687,1,8,0:0:0:0:
320,192,226774,1,0,0:0:0:0:
448,192,226774,1,8,0:0:0:0:
192,192,226860,1,8,0:0:0:0:
64,192,226860,1,0,0:0:0:0:
320,192,226946,1,8,0:0:0:0:
448,192,226946,1,0,0:0:0:0:
64,192,227032,1,0,0:0:0:0:
192,192,227032,1,8,0:0:0:0:
448,192,227118,1,8,0:0:0:0:
320,192,227118,1,0,0:0:0:0:
64,192,227205,1,8,0:0:0:0:
192,192,227205,1,0,0:0:0:0:
320,192,227291,1,8,0:0:0:0:
448,192,227291,1,0,0:0:0:0:
192,192,227377,1,8,0:0:0:0:
64,192,227377,1,0,0:0:0:0:
448,192,227463,1,8,0:0:0:0:
320,192,227463,1,0,0:0:0:0:
64,192,227550,1,8,0:0:0:0:
192,192,227550,1,0,0:0:0:0:
320,192,227636,1,0,0:0:0:0:
448,192,227636,1,8,0:0:0:0:
64,192,227722,1,8,0:0:0:0:
192,192,227722,1,0,0:0:0:0:
320,192,227808,1,8,0:0:0:0:
448,192,227808,1,0,0:0:0:0:
192,192,227894,1,8,0:0:0:0:
64,192,227894,1,0,0:0:0:0:
448,192,227981,1,0,0:0:0:0:
320,192,227981,1,8,0:0:0:0:
192,192,228067,1,8,0:0:0:0:
64,192,228067,1,0,0:0:0:0:
448,192,228153,1,8,0:0:0:0:
320,192,228153,1,0,0:0:0:0:
64,192,228239,1,8,0:0:0:0:
192,192,228239,1,0,0:0:0:0:
320,192,228325,1,8,0:0:0:0:
448,192,228325,1,0,0:0:0:0:
192,192,228412,1,8,0:0:0:0:
64,192,228412,1,0,0:0:0:0:
448,192,228498,1,0,0:0:0:0:
320,192,228498,1,8,0:0:0:0:
192,192,228584,1,8,0:0:0:0:
64,192,228584,1,0,0:0:0:0:
448,192,228670,1,8,0:0:0:0:
320,192,228713,1,8,0:0:0:0:
64,192,228756,1,8,0:0:0:0:
192,192,228800,1,8,0:0:0:0:
448,192,228843,1,8,0:0:0:0:
320,192,228886,1,8,0:0:0:0:
64,192,228929,1,8,0:0:0:0:
192,192,228972,1,8,0:0:0:0:
320,192,229015,1,4,0:0:0:0:
448,192,229015,1,8,0:0:0:0:
64,192,229101,1,0,0:0:0:0:
192,192,229187,1,2,0:0:0:0:
320,192,229274,1,0,0:0:0:0:
64,192,229360,1,2,0:0:0:0:
192,192,229360,1,8,0:0:0:0:
448,192,229360,1,0,0:0:0:0:
320,192,229446,1,0,0:0:0:0:
64,192,229532,1,2,0:0:0:0:
448,192,229618,1,0,0:0:0:0:
320,192,229705,1,2,0:0:0:0:
64,192,229791,1,0,0:0:0:0:
448,192,229877,1,0,0:0:0:0:
192,192,229877,1,2,0:0:0:0:
320,192,229963,1,0,0:0:0:0:
192,192,230050,1,2,0:0:0:0:
64,192,230050,1,8,0:0:0:0:
448,192,230050,1,0,0:0:0:0:
320,192,230136,1,0,0:0:0:0:
64,192,230222,1,2,0:0:0:0:
192,192,230308,1,0,0:0:0:0:
320,192,230394,1,2,0:0:0:0:
448,192,230481,1,0,0:0:0:0:
64,192,230567,1,2,0:0:0:0:
192,192,230567,1,0,0:0:0:0:
320,192,230653,1,0,0:0:0:0:
64,192,230739,1,8,0:0:0:0:
448,192,230739,1,0,0:0:0:0:
192,192,230739,1,2,0:0:0:0:
320,192,230825,1,0,0:0:0:0:
448,192,230912,1,2,0:0:0:0:
64,192,230998,1,0,0:0:0:0:
192,192,231084,1,2,0:0:0:0:
320,192,231170,1,0,0:0:0:0:
448,192,231256,1,2,0:0:0:0:
64,192,231256,1,0,0:0:0:0:
192,192,231343,1,0,0:0:0:0:
64,192,231429,1,8,0:0:0:0:
448,192,231429,1,0,0:0:0:0:
320,192,231429,1,2,0:0:0:0:
192,192,231515,1,0,0:0:0:0:
320,192,231601,1,2,0:0:0:0:
448,192,231687,1,0,0:0:0:0:
192,192,231774,1,0,0:0:0:0:
64,192,231774,1,2,0:0:0:0:
320,192,231860,1,0,0:0:0:0:
192,192,231946,1,2,0:0:0:0:
448,192,232032,1,0,0:0:0:0:
64,192,232118,1,0,0:0:0:0:
320,192,232118,1,8,0:0:0:0:
192,192,232118,1,2,0:0:0:0:
448,192,232205,1,0,0:0:0:0:
320,192,232291,1,2,0:0:0:0:
64,192,232377,1,2,0:0:0:0:
192,192,232463,1,2,0:0:0:0:
320,192,232550,1,0,0:0:0:0:
448,192,232636,1,2,0:0:0:0:
64,192,232636,1,0,0:0:0:0:
192,192,232722,1,0,0:0:0:0:
448,192,232808,1,8,0:0:0:0:
320,192,232808,1,0,0:0:0:0:
64,192,232808,1,2,0:0:0:0:
192,192,232894,1,0,0:0:0:0:
448,192,232981,1,2,0:0:0:0:
64,192,233067,1,0,0:0:0:0:
320,192,233153,1,2,0:0:0:0:
192,192,233239,1,0,0:0:0:0:
64,192,233325,1,0,0:0:0:0:
448,192,233325,1,2,0:0:0:0:
320,192,233412,1,0,0:0:0:0:
192,192,233498,1,8,0:0:0:0:
448,192,233498,1,2,0:0:0:0:
64,192,233498,1,0,0:0:0:0:
320,192,233584,1,0,0:0:0:0:
192,192,233670,1,2,0:0:0:0:
448,192,233756,1,0,0:0:0:0:
320,192,233843,1,2,0:0:0:0:
192,192,233929,1,0,0:0:0:0:
448,192,234015,1,0,0:0:0:0:
64,192,234015,1,2,0:0:0:0:
192,192,234101,1,0,0:0:0:0:
64,192,234187,1,0,0:0:0:0:
448,192,234187,1,8,0:0:0:0:
320,192,234187,1,2,0:0:0:0:
192,192,234274,1,0,0:0:0:0:
64,192,234360,1,2,0:0:0:0:
320,192,234446,1,0,0:0:0:0:
192,192,234532,1,2,0:0:0:0:
448,192,234532,1,0,0:0:0:0:
64,192,234618,1,0,0:0:0:0:
192,192,234705,1,2,0:0:0:0:
320,192,234791,1,0,0:0:0:0:
64,192,234877,1,0,0:0:0:0:
192,192,234877,1,8,0:0:0:0:
448,192,234877,1,2,0:0:0:0:
320,192,234963,1,0,0:0:0:0:
64,192,235050,1,2,0:0:0:0:
448,192,235136,1,2,0:0:0:0:
192,192,235222,1,2,0:0:0:0:
448,192,235308,1,2,0:0:0:0:
320,192,235394,1,2,0:0:0:0:
64,192,235394,1,0,0:0:0:0:
192,192,235481,1,0,0:0:0:0:
448,192,235567,1,8,0:0:0:0:
320,192,235567,1,2,0:0:0:0:
64,192,235567,1,0,0:0:0:0:
192,192,235653,1,0,0:0:0:0:
448,192,235739,1,2,0:0:0:0:
64,192,235825,1,0,0:0:0:0:
192,192,235912,1,2,0:0:0:0:
448,192,235998,1,0,0:0:0:0:
320,192,236084,1,2,0:0:0:0:
64,192,236084,1,0,0:0:0:0:
192,192,236170,1,0,0:0:0:0:
448,192,236256,1,2,0:0:0:0:
64,192,236256,1,0,0:0:0:0:
320,192,236256,1,8,0:0:0:0:
192,192,236343,1,0,0:0:0:0:
448,192,236429,1,2,0:0:0:0:
192,192,236515,1,0,0:0:0:0:
320,192,236601,1,2,0:0:0:0:
64,192,236687,1,0,0:0:0:0:
192,192,236774,1,2,0:0:0:0:
448,192,236774,1,0,0:0:0:0:
320,192,236860,1,0,0:0:0:0:
448,192,236946,1,8,0:0:0:0:
192,192,236946,1,2,0:0:0:0:
64,192,236946,1,0,0:0:0:0:
320,192,237032,1,0,0:0:0:0:
192,192,237118,1,2,0:0:0:0:
320,192,237205,1,0,0:0:0:0:
448,192,237291,1,2,0:0:0:0:
64,192,237291,1,0,0:0:0:0:
192,192,237377,1,0,0:0:0:0:
448,192,237463,1,2,0:0:0:0:
320,192,237550,1,0,0:0:0:0:
192,192,237636,1,2,0:0:0:0:
64,192,237636,1,0,0:0:0:0:
448,192,237636,1,8,0:0:0:0:
320,192,237722,1,0,0:0:0:0:
64,192,237808,1,2,0:0:0:0:
448,192,237894,1,2,0:0:0:0:
192,192,237981,1,2,0:0:0:0:
64,192,238067,1,2,0:0:0:0:
448,192,238153,1,0,0:0:0:0:
320,192,238153,1,2,0:0:0:0:
192,192,238239,1,0,0:0:0:0:
448,192,238325,1,2,0:0:0:0:
64,192,238325,1,8,0:0:0:0:
320,192,238325,1,0,0:0:0:0:
192,192,238412,1,0,0:0:0:0:
320,192,238498,1,2,0:0:0:0:
64,192,238584,1,0,0:0:0:0:
448,192,238670,1,0,0:0:0:0:
192,192,238670,1,2,0:0:0:0:
320,192,238756,1,0,0:0:0:0:
448,192,238843,1,2,0:0:0:0:
64,192,238843,1,0,0:0:0:0:
192,192,238929,1,0,0:0:0:0:
320,192,239015,1,2,0:0:0:0:
448,192,239015,1,0,0:0:0:0:
64,192,239015,1,8,0:0:0:0:
192,192,239101,1,0,0:0:0:0:
320,192,239187,1,0,0:0:0:0:
64,192,239187,1,8,0:0:0:0:
448,192,239187,1,2,0:0:0:0:
192,192,239274,1,0,0:0:0:0:
64,192,239360,1,0,0:0:0:0:
448,192,239360,1,2,0:0:0:0:
320,192,239446,1,0,0:0:0:0:
448,192,239532,1,0,0:0:0:0:
192,192,239532,1,2,0:0:0:0:
64,192,239618,1,0,0:0:0:0:
448,192,239705,1,8,0:0:0:0:
320,192,239705,1,2,0:0:0:0:
192,192,239791,1,2,0:0:0:0:
64,192,239791,1,8,0:0:0:0:
448,192,239877,1,8,0:0:0:0:
320,192,239877,1,2,0:0:0:0:
192,192,239963,1,8,0:0:0:0:
64,192,239963,1,2,0:0:0:0:
320,192,240050,1,0,0:0:0:0:
448,192,240050,128,0,243843:0:0:0:0:
64,192,240222,1,0,0:0:0:0:
192,192,240394,1,0,0:0:0:0:
320,192,240739,1,0,0:0:0:0:
64,192,241084,1,0,0:0:0:0:
192,192,241256,128,0,241601:0:0:0:0:
320,192,241601,1,0,0:0:0:0:
64,192,241774,1,0,0:0:0:0:
192,192,242118,1,0,0:0:0:0:
320,192,242463,128,0,242808:0:0:0:0:
192,192,242808,1,0,0:0:0:0:
64,192,242981,1,0,0:0:0:0:
192,192,243153,1,0,0:0:0:0:
320,192,243498,1,0,0:0:0:0:
192,192,243843,1,0,0:0:0:0:
64,192,244015,128,0,244360:0:0:0:0:
320,192,244360,1,0,0:0:0:0:
192,192,244532,1,0,0:0:0:0:
64,192,244877,1,0,0:0:0:0:
320,192,245222,128,0,245567:0:0:0:0:
192,192,245567,1,8,0:0:0:0:
64,192,245567,1,2,0:0:0:0:
448,192,245567,1,0,0:0:0:0:
320,192,245739,1,0,0:0:0:0:
64,192,245912,1,0,0:0:0:0:
320,192,246256,1,0,0:0:0:0:
64,192,246601,1,0,0:0:0:0:
448,192,246774,128,0,247118:0:0:0:0:
192,192,247118,1,0,0:0:0:0:
320,192,247291,1,0,0:0:0:0:
64,192,247636,1,0,0:0:0:0:
192,192,247981,128,0,248325:0:0:0:0:
320,192,248325,1,0,0:0:0:0:
64,192,248498,1,0,0:0:0:0:
448,192,248670,1,0,0:0:0:0:
192,192,249015,1,0,0:0:0:0:
448,192,249360,1,0,0:0:0:0:
64,192,249532,128,0,249877:0:0:0:0:
320,192,249877,1,0,0:0:0:0:
192,192,250050,1,0,0:0:0:0:
448,192,250394,1,0,0:0:0:0:
192,192,250739,128,0,251084:0:0:0:0:
320,192,251084,1,0,0:0:0:0:
448,192,251256,1,0,0:0:0:0:
192,192,251429,1,0,0:0:0:0:
64,192,251429,1,4,3:0:0:0:
448,192,251774,1,0,0:0:0:0:
192,192,252118,1,4,3:0:0:0:
320,192,252118,1,0,0:0:0:0:
64,192,252291,128,0,252636:0:0:0:0:
192,192,252636,1,0,0:0:0:0:
320,192,252808,1,4,3:0:0:0:
448,192,252808,1,0,0:0:0:0:
448,192,253153,1,0,0:0:0:0:
192,192,253498,1,4,3:0:0:0:
64,192,253498,128,0,253843:0:0:0:0:
448,192,253843,1,0,0:0:0:0:
192,192,254015,1,0,0:0:0:0:
320,192,254187,1,4,3:0:0:0:
448,192,254187,1,0,0:0:0:0:
64,192,254532,1,0,0:0:0:0:
192,192,254877,1,4,3:0:0:0:
320,192,254877,1,0,0:0:0:0:
448,192,255050,128,0,255394:0:0:0:0:
192,192,255394,1,0,0:0:0:0:
64,192,255567,1,0,0:0:0:0:
320,192,255567,1,4,3:0:0:0:
448,192,255912,1,0,0:0:0:0:
320,192,256256,1,4,3:0:0:0:
64,192,256256,128,0,256601:0:0:0:0:
448,192,256601,1,0,0:0:0:0:
192,192,256946,1,0,0:0:0:0:
320,192,256946,1,4,3:0:0:0:
448,192,257291,1,0,0:0:0:0:
64,192,257636,1,0,0:0:0:0:
192,192,257636,1,4,3:0:0:0:
448,192,257808,1,0,0:0:0:0:
64,192,257894,1,0,0:0:0:0:
192,192,257981,1,0,0:0:0:0:
320,192,258067,1,0,0:0:0:0:
64,192,258153,1,0,0:0:0:0:
448,192,258239,1,0,0:0:0:0:
192,192,258325,1,4,3:0:0:0:
320,192,258325,1,0,0:0:0:0:
64,192,258670,1,0,0:0:0:0:
320,192,259015,1,4,3:0:0:0:
448,192,259015,128,0,259360:0:0:0:0:
192,192,259360,1,0,0:0:0:0:
448,192,259532,1,0,0:0:0:0:
192,192,259705,1,4,3:0:0:0:
64,192,259705,1,0,0:0:0:0:
64,192,260050,1,0,0:0:0:0:
320,192,260394,1,4,3:0:0:0:
448,192,260394,1,0,0:0:0:0:
192,192,260567,128,0,260912:0:0:0:0:
320,192,260912,1,0,0:0:0:0:
64,192,261084,1,0,0:0:0:0:
192,192,261084,1,4,3:0:0:0:
448,192,261429,1,0,0:0:0:0:
320,192,261774,1,4,3:0:0:0:
192,192,261774,128,0,262118:0:0:0:0:
64,192,262118,1,4,3:0:0:0:
448,192,262118,1,0,0:0:0:0:
192,192,262463,1,4,3:0:0:0:
448,192,262463,1,0,0:0:0:0:
320,192,262808,1,0,0:0:0:0:
64,192,262808,1,4,3:0:0:0:
192,192,263153,1,4,3:0:0:0:
448,192,263153,1,0,0:0:0:0:
64,192,263498,1,4,3:0:0:0:
448,192,263498,1,0,0:0:0:0:
64,192,263843,1,0,0:0:0:0:
320,192,263843,1,4,3:0:0:0:
192,192,264187,1,0,0:0:0:0:
448,192,264187,1,4,3:0:0:0:
64,192,264532,1,0,0:0:0:0:
320,192,264532,1,4,3:0:0:0:
448,192,264877,1,4,3:0:0:0:
64,192,264877,1,0,0:0:0:0:
448,192,265222,1,0,0:0:0:0:
192,192,265222,1,4,3:0:0:0:
64,192,265567,1,4,3:0:0:0:
320,192,265567,1,0,0:0:0:0:
448,192,265912,1,0,0:0:0:0:
192,192,265912,1,4,3:0:0:0:
448,192,266256,1,0,0:0:0:0:
64,192,266256,1,4,3:0:0:0:
320,192,266601,1,4,3:0:0:0:
64,192,266601,1,0,0:0:0:0:
192,192,266946,1,0,0:0:0:0:
448,192,266946,1,4,3:0:0:0:
320,192,267291,1,4,3:0:0:0:
64,192,267291,1,0,0:0:0:0:
64,192,267636,1,0,0:0:0:0:
448,192,267636,1,4,3:0:0:0:
192,192,267981,1,4,3:0:0:0:
448,192,267981,1,0,0:0:0:0:
320,192,267981,1,8,0:0:0:0:
64,192,268325,1,4,3:0:0:0:
320,192,268325,1,0,0:0:0:0:
192,192,268670,1,4,3:0:0:0:
448,192,268670,1,0,0:0:0:0:
64,192,268670,1,8,0:0:0:0:
64,192,269015,1,4,3:0:0:0:
192,192,269015,1,0,0:0:0:0:
320,192,269360,1,4,3:0:0:0:
64,192,269360,1,0,0:0:0:0:
448,192,269360,1,8,0:0:0:0:
320,192,269705,1,4,3:0:0:0:
192,192,269705,1,0,0:0:0:0:
448,192,270050,1,8,0:0:0:0:
64,192,270050,1,0,0:0:0:0:
320,192,270050,1,4,3:0:0:0:
64,192,270394,1,0,0:0:0:0:
192,192,270394,1,4,3:0:0:0:
192,192,270739,1,4,3:0:0:0:
448,192,270739,1,0,0:0:0:0:
320,192,270739,1,8,0:0:0:0:
64,192,271084,1,4,3:0:0:0:
320,192,271084,1,0,0:0:0:0:
448,192,271429,1,0,0:0:0:0:
192,192,271429,1,4,3:0:0:0:
64,192,271429,1,8,0:0:0:0:
192,192,271774,1,4,3:0:0:0:
448,192,271774,1,0,0:0:0:0:
64,192,272118,1,0,0:0:0:0:
320,192,272118,1,4,3:0:0:0:
448,192,272118,1,8,0:0:0:0:
320,192,272463,1,4,3:0:0:0:
192,192,272463,1,0,0:0:0:0:
448,192,272808,1,8,0:0:0:0:
320,192,272808,1,4,3:0:0:0:
64,192,272808,1,0,0:0:0:0:
64,192,273153,1,0,0:0:0:0:
448,192,273153,1,0,0:0:0:0:
64,192,273498,1,0,0:0:0:0:
320,192,273498,1,0,0:0:0:0:
64,192,273843,1,2,0:0:0:0:
192,192,273843,1,0,0:0:0:0:
448,192,273843,1,8,0:0:0:0:
320,192,274187,1,0,0:0:0:0:
448,192,274187,1,0,0:0:0:0:
192,192,274532,1,0,0:0:0:0:
448,192,274532,1,0,0:0:0:0:
192,192,274877,1,0,0:0:0:0:
320,192,274877,1,0,0:0:0:0:
64,192,275222,1,2,0:0:0:0:
192,192,275222,1,0,0:0:0:0:
448,192,275222,1,8,0:0:0:0:
320,192,275567,1,0,0:0:0:0:
192,192,275567,1,0,0:0:0:0:
448,192,275912,1,0,0:0:0:0:
320,192,275912,1,0,0:0:0:0:
64,192,276256,1,0,0:0:0:0:
192,192,276256,1,0,0:0:0:0:
320,192,276601,1,0,0:0:0:0:
448,192,276601,1,8,0:0:0:0:
64,192,276601,1,2,0:0:0:0:
192,192,276946,1,0,0:0:0:0:
448,192,276946,1,0,0:0:0:0:
64,192,277291,1,0,0:0:0:0:
448,192,277291,1,0,0:0:0:0:
64,192,277636,1,0,0:0:0:0:
320,192,277636,1,0,0:0:0:0:
192,192,277981,1,2,0:0:0:0:
320,192,277981,1,0,0:0:0:0:
448,192,277981,1,8,0:0:0:0:
192,192,278325,1,0,0:0:0:0:
320,192,278325,1,0,0:0:0:0:
320,192,278670,1,8,0:0:0:0:
448,192,278670,1,2,0:0:0:0:
64,192,278670,1,0,0:0:0:0:
192,192,279015,1,0,0:0:0:0:
64,192,279015,1,0,0:0:0:0:
448,192,279187,1,0,0:0:0:0:
192,192,279274,1,0,0:0:0:0:
448,192,279360,1,2,0:0:0:0:
64,192,279360,1,0,0:0:0:0:
320,192,279360,1,8,0:0:0:0:
192,192,279446,1,0,0:0:0:0:
320,192,279532,1,0,0:0:0:0:
64,192,279705,1,0,0:0:0:0:
448,192,279705,1,0,0:0:0:0:
192,192,279877,1,0,0:0:0:0:
64,192,280050,1,0,0:0:0:0:
448,192,280050,1,2,0:0:0:0:
192,192,280050,1,8,0:0:0:0:
64,192,280394,1,0,0:0:0:0:
320,192,280394,1,0,0:0:0:0:
192,192,280567,1,0,0:0:0:0:
320,192,280653,1,0,0:0:0:0:
192,192,280739,1,8,0:0:0:0:
64,192,280739,1,0,0:0:0:0:
448,192,280739,1,2,0:0:0:0:
320,192,280825,1,0,0:0:0:0:
64,192,280912,1,0,0:0:0:0:
320,192,281084,1,0,0:0:0:0:
448,192,281084,1,0,0:0:0:0:
192,192,281256,1,0,0:0:0:0:
320,192,281429,1,8,0:0:0:0:
448,192,281429,1,2,0:0:0:0:
64,192,281429,1,0,0:0:0:0:
192,192,281774,1,0,0:0:0:0:
320,192,281774,1,0,0:0:0:0:
448,192,281946,1,0,0:0:0:0:
64,192,282032,1,0,0:0:0:0:
448,192,282118,1,2,0:0:0:0:
192,192,282118,1,0,0:0:0:0:
320,192,282118,1,8,0:0:0:0:
64,192,282205,1,0,0:0:0:0:
320,192,282291,1,0,0:0:0:0:
192,192,282463,1,0,0:0:0:0:
64,192,282463,1,0,0:0:0:0:
448,192,282636,1,0,0:0:0:0:
64,192,282808,1,0,0:0:0:0:
192,192,282808,1,2,0:0:0:0:
320,192,282808,1,8,0:0:0:0:
192,192,283153,1,0,0:0:0:0:
448,192,283153,1,0,0:0:0:0:
64,192,283325,1,0,0:0:0:0:
320,192,283412,1,0,0:0:0:0:
192,192,283498,1,8,0:0:0:0:
64,192,283498,1,0,0:0:0:0:
448,192,283498,1,2,0:0:0:0:
320,192,283584,1,0,0:0:0:0:
192,192,283670,1,0,0:0:0:0:
320,192,283843,1,0,0:0:0:0:
64,192,283843,1,0,0:0:0:0:
192,192,284015,1,0,0:0:0:0:
320,192,284187,1,8,0:0:0:0:
448,192,284187,1,2,0:0:0:0:
64,192,284187,1,0,0:0:0:0:
448,192,284360,1,0,0:0:0:0:
320,192,284360,1,0,0:0:0:0:
64,192,284532,1,0,0:0:0:0:
192,192,284532,1,8,0:0:0:0:
448,192,284532,1,2,0:0:0:0:
192,192,284705,1,0,0:0:0:0:
64,192,284705,1,0,0:0:0:0:
448,192,284877,1,2,0:0:0:0:
320,192,284877,1,8,0:0:0:0:
64,192,284877,1,0,0:0:0:0:
448,192,285050,1,0,0:0:0:0:
320,192,285050,1,0,0:0:0:0:
64,192,285222,1,0,0:0:0:0:
192,192,285222,1,8,0:0:0:0:
448,192,285222,1,2,0:0:0:0:
192,192,285394,1,0,0:0:0:0:
64,192,285394,1,0,0:0:0:0:
448,192,285567,1,2,0:0:0:0:
320,192,285567,1,8,0:0:0:0:
64,192,285567,1,0,0:0:0:0:
192,192,285739,1,0,0:0:0:0:
448,192,285739,1,0,0:0:0:0:
448,192,285912,1,2,0:0:0:0:
192,192,285912,1,8,0:0:0:0:
64,192,285912,1,0,0:0:0:0:
64,192,286084,1,0,0:0:0:0:
320,192,286084,1,0,0:0:0:0:
64,192,286256,1,0,0:0:0:0:
320,192,286256,1,8,0:0:0:0:
448,192,286256,1,2,0:0:0:0:
320,192,286429,1,0,0:0:0:0:
448,192,286429,1,0,0:0:0:0:
448,192,286601,1,2,0:0:0:0:
64,192,286601,1,0,0:0:0:0:
192,192,286601,1,8,0:0:0:0:
192,192,286774,1,0,0:0:0:0:
64,192,286774,1,0,0:0:0:0:
448,192,286946,1,2,0:0:0:0:
320,192,286946,1,8,0:0:0:0:
192,192,286946,1,0,0:0:0:0:
448,192,287118,1,0,0:0:0:0:
320,192,287118,1,0,0:0:0:0:
64,192,287291,1,0,0:0:0:0:
192,192,287291,1,8,0:0:0:0:
320,192,287291,1,2,0:0:0:0:
64,192,287463,1,0,0:0:0:0:
192,192,287463,1,0,0:0:0:0:
448,192,287636,1,2,0:0:0:0:
64,192,287636,1,0,0:0:0:0:
320,192,287636,1,8,0:0:0:0:
192,192,287808,1,0,0:0:0:0:
448,192,287808,1,0,0:0:0:0:
64,192,287981,1,0,0:0:0:0:
192,192,287981,1,8,0:0:0:0:
448,192,287981,1,2,0:0:0:0:
64,192,288153,1,0,0:0:0:0:
320,192,288153,1,0,0:0:0:0:
320,192,288325,1,8,0:0:0:0:
448,192,288325,1,2,0:0:0:0:
192,192,288325,1,0,0:0:0:0:
448,192,288498,1,0,0:0:0:0:
192,192,288498,1,0,0:0:0:0:
192,192,288670,1,2,0:0:0:0:
64,192,288670,1,0,0:0:0:0:
320,192,288670,1,8,0:0:0:0:
64,192,288843,1,0,0:0:0:0:
320,192,288843,1,0,0:0:0:0:
320,192,289015,1,0,0:0:0:0:
192,192,289015,1,8,0:0:0:0:
448,192,289015,1,2,0:0:0:0:
448,192,289187,1,0,0:0:0:0:
192,192,289187,1,0,0:0:0:0:
64,192,289360,1,2,0:0:0:0:
448,192,289360,1,0,0:0:0:0:
320,192,289360,1,8,0:0:0:0:
64,192,289532,1,0,0:0:0:0:
192,192,289532,1,0,0:0:0:0:
320,192,289705,5,0,0:0:0:0:
448,192,289705,1,2,0:0:0:0:
192,192,289791,1,2,0:0:0:0:
448,192,289877,1,2,0:0:0:0:
64,192,289877,1,0,0:0:0:0:
320,192,289963,1,2,0:0:0:0:
64,192,290050,1,2,0:0:0:0:
192,192,290050,1,0,0:0:0:0:
320,192,290136,1,2,0:0:0:0:
192,192,290222,1,2,0:0:0:0:
448,192,290222,1,0,0:0:0:0:
64,192,290308,1,2,0:0:0:0:
320,192,290394,1,0,0:0:0:0:
448,192,290394,1,2,0:0:0:0:
192,192,290481,1,2,0:0:0:0:
64,192,290567,1,2,0:0:0:0:
320,192,290567,1,0,0:0:0:0:
448,192,290653,1,2,0:0:0:0:
192,192,290739,1,2,0:0:0:0:
64,192,290739,1,0,0:0:0:0:
320,192,290825,1,2,0:0:0:0:
64,192,290912,1,0,0:0:0:0:
448,192,290912,1,2,0:0:0:0:
192,192,290998,1,2,0:0:0:0:
448,192,291084,1,2,0:0:0:0:
320,192,291084,1,0,0:0:0:0:
64,192,291170,1,2,0:0:0:0:
192,192,291256,1,0,0:0:0:0:
448,192,291256,1,2,0:0:0:0:
320,192,291343,1,2,0:0:0:0:
64,192,291429,1,0,0:0:0:0:
192,192,291429,1,2,0:0:0:0:
448,192,291515,1,2,0:0:0:0:
64,192,291601,1,2,0:0:0:0:
320,192,291601,1,0,0:0:0:0:
192,192,291687,1,2,0:0:0:0:
320,192,291774,1,0,0:0:0:0:
448,192,291774,1,2,0:0:0:0:
192,192,291860,1,2,0:0:0:0:
448,192,291946,1,2,0:0:0:0:
64,192,291946,1,0,0:0:0:0:
320,192,292032,1,2,0:0:0:0:
192,192,292118,1,2,0:0:0:0:
64,192,292118,1,0,0:0:0:0:
320,192,292205,1,2,0:0:0:0:
64,192,292291,1,0,0:0:0:0:
448,192,292291,1,2,0:0:0:0:
192,192,292377,1,2,0:0:0:0:
320,192,292463,1,2,0:0:0:0:
448,192,292463,1,0,0:0:0:0:
64,192,292550,1,0,0:0:0:0:
192,192,292550,1,2,0:0:0:0:
448,192,292636,1,0,0:0:0:0:
320,192,292636,1,2,0:0:0:0:
192,192,292722,1,2,0:0:0:0:
64,192,292722,1,0,0:0:0:0:
448,192,292808,1,0,0:0:0:0:
320,192,292808,1,2,0:0:0:0:
64,192,292894,1,0,0:0:0:0:
192,192,292894,1,2,0:0:0:0:
320,192,292981,1,2,0:0:0:0:
448,192,292981,1,0,0:0:0:0:
64,192,293067,1,0,0:0:0:0:
192,192,293067,1,2,0:0:0:0:
448,192,293153,1,0,0:0:0:0:
320,192,293153,1,2,0:0:0:0:
192,192,293239,1,2,0:0:0:0:
64,192,293239,1,0,0:0:0:0:
448,192,293325,1,0,0:0:0:0:
320,192,293325,1,2,0:0:0:0:
64,192,293412,1,0,0:0:0:0:
192,192,293412,1,2,0:0:0:0:
320,192,293498,1,2,0:0:0:0:
448,192,293498,1,0,0:0:0:0:
64,192,293584,1,0,0:0:0:0:
192,192,293584,1,2,0:0:0:0:
320,192,293670,1,2,0:0:0:0:
448,192,293670,1,0,0:0:0:0:
64,192,293756,1,0,0:0:0:0:
192,192,293756,1,2,0:0:0:0:
448,192,293843,1,0,0:0:0:0:
320,192,293886,1,0,0:0:0:0:
64,192,293929,1,0,0:0:0:0:
192,192,293972,1,0,0:0:0:0:
448,192,294015,1,0,0:0:0:0:
320,192,294058,1,0,0:0:0:0:
64,192,294101,1,0,0:0:0:0:
192,192,294144,1,0,0:0:0:0:
448,192,294187,1,0,0:0:0:0:
320,192,294231,1,0,0:0:0:0:
192,192,294274,1,0,0:0:0:0:
64,192,294317,1,0,0:0:0:0:
448,192,294360,1,0,0:0:0:0:
320,192,294403,1,0,0:0:0:0:
192,192,294446,1,0,0:0:0:0:
64,192,294489,1,0,0:0:0:0:
448,192,294532,1,0,0:0:0:0:
320,192,294575,1,0,0:0:0:0:
64,192,294618,1,0,0:0:0:0:
192,192,294662,1,0,0:0:0:0:
448,192,294705,1,0,0:0:0:0:
320,192,294748,1,0,0:0:0:0:
64,192,294791,1,0,0:0:0:0:
192,192,294834,1,0,0:0:0:0:
320,192,294877,1,0,0:0:0:0:
448,192,294906,1,0,0:0:0:0:
64,192,294935,1,0,0:0:0:0:
192,192,294963,1,0,0:0:0:0:
320,192,294992,1,0,0:0:0:0:
448,192,295021,1,0,0:0:0:0:
64,192,295050,1,0,0:0:0:0:
192,192,295078,1,0,0:0:0:0:
320,192,295107,1,0,0:0:0:0:
448,192,295136,1,0,0:0:0:0:
64,192,295164,5,0,0:0:0:0:
192,192,295193,1,0,0:0:0:0:
320,192,295222,1,0,0:0:0:0:
64,192,295567,5,0,0:0:0:0:
448,192,295912,1,0,0:0:0:0:
320,192,296256,1,0,0:0:0:0:
64,192,296601,1,0,0:0:0:0:
192,192,296601,1,8,0:0:0:0:
320,192,296687,1,8,0:0:0:0:
448,192,296687,1,0,0:0:0:0:
192,192,296774,1,8,0:0:0:0:
64,192,296774,1,0,0:0:0:0:
320,192,296860,1,8,0:0:0:0:
448,192,296860,1,0,0:0:0:0:
192,192,296946,1,8,0:0:0:0:
64,192,296946,1,0,0:0:0:0:
448,192,296946,1,2,0:0:0:0:
192,192,297118,1,8,0:0:0:0:
320,192,297118,1,0,0:0:0:0:
64,192,297291,1,2,0:0:0:0:
320,192,297291,1,0,0:0:0:0:
448,192,297291,1,8,0:0:0:0:
320,192,297463,1,0,0:0:0:0:
192,192,297463,1,8,0:0:0:0:
64,192,297636,1,2,0:0:0:0:
192,192,297636,1,8,0:0:0:0:
448,192,297636,1,0,0:0:0:0:
320,192,297981,1,2,0:0:0:0:
64,192,297981,1,4,0:0:0:0:
448,192,297981,1,4,2:0:0:0:
192,192,297981,1,0,0:0:0:0:
320,192,298153,1,2,0:0:0:0:
64,192,298325,1,8,0:0:0:0:
192,192,298325,1,2,0:0:0:0:
448,192,298325,1,0,0:0:0:0:
320,192,298498,1,2,0:0:0:0:
64,192,298584,1,2,0:0:0:0:
448,192,298670,1,2,0:0:0:0:
192,192,298756,1,2,0:0:0:0:
320,192,298843,1,0,0:0:0:0:
64,192,298843,1,2,0:0:0:0:
448,192,299015,1,0,0:0:0:0:
192,192,299015,1,2,0:0:0:0:
64,192,299015,1,8,0:0:0:0:
192,192,299187,1,2,0:0:0:0:
448,192,299360,1,2,0:0:0:0:
64,192,299532,1,2,0:0:0:0:
320,192,299532,1,0,0:0:0:0:
192,192,299705,1,8,0:0:0:0:
320,192,299705,1,2,0:0:0:0:
448,192,299705,1,0,0:0:0:0:
64,192,299877,1,2,0:0:0:0:
192,192,299963,1,2,0:0:0:0:
448,192,300050,1,2,0:0:0:0:
320,192,300222,1,2,0:0:0:0:
192,192,300222,1,0,0:0:0:0:
192,192,300394,1,2,0:0:0:0:
448,192,300394,1,0,0:0:0:0:
64,192,300394,1,8,0:0:0:0:
320,192,300567,1,2,0:0:0:0:
192,192,300739,1,2,0:0:0:0:
448,192,300739,1,0,0:0:0:0:
192,192,300912,1,2,0:0:0:0:
320,192,301084,1,2,0:0:0:0:
64,192,301084,1,0,0:0:0:0:
448,192,301084,1,8,0:0:0:0:
192,192,301256,1,2,0:0:0:0:
64,192,301429,1,2,0:0:0:0:
448,192,301515,1,2,0:0:0:0:
192,192,301601,1,0,0:0:0:0:
320,192,301601,1,2,0:0:0:0:
448,192,301774,1,8,0:0:0:0:
192,192,301774,1,0,0:0:0:0:
64,192,301774,1,2,0:0:0:0:
320,192,301946,1,2,0:0:0:0:
64,192,302118,1,2,0:0:0:0:
448,192,302291,1,2,0:0:0:0:
192,192,302291,1,0,0:0:0:0:
192,192,302463,1,2,0:0:0:0:
64,192,302463,1,0,0:0:0:0:
320,192,302463,1,8,0:0:0:0:
448,192,302636,1,2,0:0:0:0:
320,192,302722,1,2,0:0:0:0:
64,192,302808,1,2,0:0:0:0:
320,192,302981,1,0,0:0:0:0:
192,192,302981,1,2,0:0:0:0:
64,192,303153,1,0,0:0:0:0:
448,192,303153,1,8,0:0:0:0:
320,192,303153,1,2,0:0:0:0:
192,192,303325,1,2,0:0:0:0:
448,192,303498,1,2,0:0:0:0:
320,192,303498,1,0,0:0:0:0:
320,192,303670,1,2,0:0:0:0:
192,192,303843,1,2,0:0:0:0:
64,192,303843,1,0,0:0:0:0:
448,192,303843,1,8,0:0:0:0:
64,192,304015,1,2,0:0:0:0:
192,192,304101,1,2,0:0:0:0:
448,192,304187,1,2,0:0:0:0:
320,192,304274,1,2,0:0:0:0:
192,192,304360,1,2,0:0:0:0:
64,192,304360,1,0,0:0:0:0:
448,192,304532,1,8,0:0:0:0:
64,192,304532,1,0,0:0:0:0:
320,192,304532,1,2,0:0:0:0:
192,192,304705,1,2,0:0:0:0:
320,192,304877,1,2,0:0:0:0:
448,192,305050,1,2,0:0:0:0:
192,192,305050,1,0,0:0:0:0:
192,192,305222,1,2,0:0:0:0:
320,192,305222,1,8,0:0:0:0:
64,192,305222,1,0,0:0:0:0:
448,192,305394,1,2,0:0:0:0:
320,192,305481,1,2,0:0:0:0:
64,192,305567,1,2,0:0:0:0:
320,192,305739,1,0,0:0:0:0:
192,192,305739,1,2,0:0:0:0:
64,192,305912,1,0,0:0:0:0:
192,192,305912,1,2,0:0:0:0:
448,192,305912,1,8,0:0:0:0:
320,192,306084,1,2,0:0:0:0:
448,192,306256,1,2,0:0:0:0:
192,192,306256,1,0,0:0:0:0:
192,192,306429,1,2,0:0:0:0:
320,192,306601,1,2,0:0:0:0:
64,192,306601,1,8,0:0:0:0:
448,192,306601,1,0,0:0:0:0:
192,192,306774,1,2,0:0:0:0:
448,192,306946,1,2,0:0:0:0:
64,192,307032,1,2,0:0:0:0:
320,192,307118,1,0,0:0:0:0:
192,192,307118,1,2,0:0:0:0:
448,192,307291,1,2,0:0:0:0:
64,192,307291,1,8,0:0:0:0:
320,192,307291,1,0,0:0:0:0:
192,192,307463,1,2,0:0:0:0:
448,192,307636,1,2,0:0:0:0:
64,192,307636,1,0,0:0:0:0:
192,192,307808,1,2,0:0:0:0:
320,192,307808,1,0,0:0:0:0:
64,192,307981,1,8,0:0:0:0:
320,192,307981,1,2,0:0:0:0:
448,192,307981,1,0,0:0:0:0:
448,192,308153,1,8,0:0:0:0:
64,192,308153,1,0,0:0:0:0:
192,192,308153,1,2,0:0:0:0:
320,192,308325,1,0,0:0:0:0:
192,192,308325,1,2,0:0:0:0:
64,192,308498,1,0,0:0:0:0:
448,192,308498,1,2,0:0:0:0:
192,192,308670,1,2,0:0:0:0:
64,192,308670,1,8,0:0:0:0:
448,192,308756,1,8,0:0:0:0:
320,192,308756,1,2,0:0:0:0:
192,192,308843,1,2,0:0:0:0:
64,192,308843,1,8,0:0:0:0:
320,192,308929,1,2,0:0:0:0:
448,192,308929,1,8,0:0:0:0:
64,192,309015,1,4,0:0:0:0:
448,192,309015,1,0,0:0:0:0:
192,192,309015,1,8,0:0:0:0:
320,192,309187,1,2,0:0:0:0:
192,192,309360,1,2,0:0:0:0:
448,192,309360,1,8,0:0:0:0:
64,192,309360,1,0,0:0:0:0:
320,192,309532,1,2,0:0:0:0:
448,192,309705,1,2,0:0:0:0:
192,192,309791,1,2,0:0:0:0:
320,192,309877,1,2,0:0:0:0:
64,192,309877,1,0,0:0:0:0:
64,192,310050,1,0,0:0:0:0:
448,192,310050,1,8,0:0:0:0:
192,192,310050,1,2,0:0:0:0:
192,192,310222,1,2,0:0:0:0:
320,192,310394,1,2,0:0:0:0:
192,192,310567,1,0,0:0:0:0:
448,192,310567,1,2,0:0:0:0:
64,192,310739,1,0,0:0:0:0:
320,192,310739,1,8,0:0:0:0:
192,192,310739,1,2,0:0:0:0:
448,192,310912,1,2,0:0:0:0:
320,192,310998,1,2,0:0:0:0:
64,192,311084,1,2,0:0:0:0:
192,192,311256,1,2,0:0:0:0:
320,192,311256,1,0,0:0:0:0:
64,192,311429,1,0,0:0:0:0:
320,192,311429,1,2,0:0:0:0:
448,192,311429,1,8,0:0:0:0:
192,192,311601,1,2,0:0:0:0:
320,192,311774,1,2,0:0:0:0:
64,192,311774,1,0,0:0:0:0:
320,192,311946,1,2,0:0:0:0:
64,192,312118,1,8,0:0:0:0:
192,192,312118,1,2,0:0:0:0:
448,192,312118,1,0,0:0:0:0:
320,192,312291,1,2,0:0:0:0:
192,192,312377,1,2,0:0:0:0:
448,192,312463,1,2,0:0:0:0:
64,192,312550,1,2,0:0:0:0:
320,192,312636,1,0,0:0:0:0:
192,192,312636,1,2,0:0:0:0:
320,192,312808,1,0,0:0:0:0:
448,192,312808,1,2,0:0:0:0:
64,192,312808,1,8,0:0:0:0:
192,192,312981,1,2,0:0:0:0:
448,192,313153,1,2,0:0:0:0:
320,192,313325,1,0,0:0:0:0:
192,192,313325,1,2,0:0:0:0:
64,192,313498,1,8,0:0:0:0:
448,192,313498,1,0,0:0:0:0:
320,192,313498,1,2,0:0:0:0:
192,192,313670,1,2,0:0:0:0:
448,192,313756,1,2,0:0:0:0:
320,192,313843,1,2,0:0:0:0:
64,192,313929,1,2,0:0:0:0:
192,192,314015,1,0,0:0:0:0:
320,192,314015,1,2,0:0:0:0:
64,192,314187,1,8,0:0:0:0:
192,192,314187,1,2,0:0:0:0:
448,192,314187,1,0,0:0:0:0:
320,192,314360,1,2,0:0:0:0:
64,192,314532,1,2,0:0:0:0:
192,192,314532,1,0,0:0:0:0:
192,192,314705,1,2,0:0:0:0:
448,192,314877,1,0,0:0:0:0:
64,192,314877,1,8,0:0:0:0:
320,192,314877,1,2,0:0:0:0:
192,192,315050,1,2,0:0:0:0:
448,192,315136,1,2,0:0:0:0:
320,192,315222,1,2,0:0:0:0:
64,192,315308,1,2,0:0:0:0:
448,192,315394,1,0,0:0:0:0:
320,192,315394,1,2,0:0:0:0:
448,192,315567,1,0,0:0:0:0:
64,192,315567,1,8,0:0:0:0:
192,192,315567,1,2,0:0:0:0:
320,192,315739,1,2,0:0:0:0:
64,192,315912,1,2,0:0:0:0:
448,192,316084,1,2,0:0:0:0:
64,192,316084,1,0,0:0:0:0:
448,192,316256,1,0,0:0:0:0:
320,192,316256,1,2,0:0:0:0:
192,192,316256,1,8,0:0:0:0:
192,192,316429,1,2,0:0:0:0:
320,192,316515,1,2,0:0:0:0:
64,192,316601,1,2,0:0:0:0:
448,192,316687,1,2,0:0:0:0:
192,192,316774,1,0,0:0:0:0:
320,192,316774,1,2,0:0:0:0:
448,192,316946,1,0,0:0:0:0:
64,192,316946,1,8,0:0:0:0:
192,192,316946,1,2,0:0:0:0:
320,192,317118,1,2,0:0:0:0:
192,192,319532,1,0,0:0:0:0:
320,192,319532,1,0,0:0:0:0:
64,192,319705,1,8,0:0:0:0:
192,192,319705,1,0,0:0:0:0:
320,192,319791,1,0,0:0:0:0:
448,192,319791,1,8,0:0:0:0:
64,192,319877,1,8,0:0:0:0:
192,192,319877,1,0,0:0:0:0:
448,192,319963,1,8,0:0:0:0:
320,192,319963,1,0,0:0:0:0:
64,192,320050,128,0,320222:0:0:0:0:
192,192,320050,1,8,0:0:0:0:
448,192,320050,1,4,0:0:0:0:
320,192,320222,128,2,320394:0:0:0:0:
64,192,320394,1,0,0:0:0:0:
192,192,320394,128,2,320567:0:0:0:0:
448,192,320394,1,8,0:0:0:0:
320,192,320567,128,2,320739:0:0:0:0:
448,192,320739,128,2,320912:0:0:0:0:
64,192,320912,1,0,0:0:0:0:
192,192,320912,128,2,321084:0:0:0:0:
448,192,321084,1,8,0:0:0:0:
320,192,321084,1,2,0:0:0:0:
64,192,321084,128,0,321256:0:0:0:0:
192,192,321256,128,2,321429:0:0:0:0:
320,192,321429,128,2,321601:0:0:0:0:
64,192,321601,1,0,0:0:0:0:
448,192,321601,128,2,321774:0:0:0:0:
192,192,321774,1,2,0:0:0:0:
320,192,321774,1,8,0:0:0:0:
64,192,321774,128,0,321946:0:0:0:0:
448,192,321946,128,2,322118:0:0:0:0:
64,192,322118,128,2,322291:0:0:0:0:
320,192,322291,1,0,0:0:0:0:
192,192,322291,128,2,322463:0:0:0:0:
320,192,322463,128,2,322636:0:0:0:0:
64,192,322463,1,0,0:0:0:0:
448,192,322463,1,8,0:0:0:0:
192,192,322636,128,2,322808:0:0:0:0:
64,192,322808,128,0,322981:0:0:0:0:
448,192,322808,1,2,0:0:0:0:
320,192,322981,128,2,323153:0:0:0:0:
192,192,323153,1,2,0:0:0:0:
64,192,323153,1,8,0:0:0:0:
448,192,323153,128,0,323325:0:0:0:0:
320,192,323325,128,2,323498:0:0:0:0:
448,192,323498,128,2,323670:0:0:0:0:
192,192,323670,128,2,323843:0:0:0:0:
64,192,323670,1,0,0:0:0:0:
320,192,323843,1,0,0:0:0:0:
448,192,323843,1,2,0:0:0:0:
64,192,323843,128,8,324015:0:0:0:0:
192,192,324015,128,2,324187:0:0:0:0:
448,192,324187,128,2,324360:0:0:0:0:
320,192,324360,128,0,324532:0:0:0:0:
192,192,324360,1,2,0:0:0:0:
64,192,324532,1,0,0:0:0:0:
192,192,324532,128,8,324705:0:0:0:0:
448,192,324532,1,2,0:0:0:0:
64,192,324705,128,2,324877:0:0:0:0:
320,192,324877,128,2,325050:0:0:0:0:
448,192,325050,128,2,325222:0:0:0:0:
64,192,325050,1,0,0:0:0:0:
320,192,325222,1,0,0:0:0:0:
192,192,325222,1,2,0:0:0:0:
64,192,325222,128,8,325394:0:0:0:0:
320,192,325394,128,2,325567:0:0:0:0:
448,192,325567,1,2,0:0:0:0:
192,192,325567,128,0,325739:0:0:0:0:
64,192,325739,128,2,325912:0:0:0:0:
320,192,325912,1,2,0:0:0:0:
448,192,325912,128,0,326084:0:0:0:0:
192,192,325912,1,8,0:0:0:0:
192,192,326084,128,2,326256:0:0:0:0:
64,192,326256,128,2,326429:0:0:0:0:
320,192,326429,128,2,326601:0:0:0:0:
192,192,326429,1,0,0:0:0:0:
192,192,326601,128,2,326774:0:0:0:0:
448,192,326601,1,0,0:0:0:0:
64,192,326601,1,8,0:0:0:0:
320,192,326774,128,2,326946:0:0:0:0:
448,192,326946,128,2,327118:0:0:0:0:
320,192,327118,1,0,0:0:0:0:
64,192,327118,128,2,327291:0:0:0:0:
320,192,327291,128,2,327463:0:0:0:0:
448,192,327291,1,0,0:0:0:0:
192,192,327291,1,8,0:0:0:0:
64,192,327463,128,2,327636:0:0:0:0:
448,192,327636,128,2,327808:0:0:0:0:
192,192,327808,1,0,0:0:0:0:
320,192,327808,128,2,327981:0:0:0:0:
192,192,327981,128,8,328153:0:0:0:0:
448,192,327981,1,0,0:0:0:0:
64,192,327981,1,2,0:0:0:0:
320,192,328153,128,2,328325:0:0:0:0:
64,192,328325,1,2,0:0:0:0:
448,192,328325,128,0,328498:0:0:0:0:
192,192,328498,128,2,328670:0:0:0:0:
448,192,328670,1,0,0:0:0:0:
64,192,328670,128,8,328843:0:0:0:0:
320,192,328670,1,2,0:0:0:0:
448,192,328843,128,2,329015:0:0:0:0:
192,192,329015,128,2,329187:0:0:0:0:
64,192,329187,1,0,0:0:0:0:
320,192,329187,128,2,329360:0:0:0:0:
448,192,329360,1,8,0:0:0:0:
192,192,329360,1,0,0:0:0:0:
64,192,329360,128,2,329532:0:0:0:0:
448,192,329532,128,2,329705:0:0:0:0:
192,192,329705,1,2,0:0:0:0:
64,192,329705,1,8,0:0:0:0:
320,192,329791,1,8,0:0:0:0:
448,192,329791,1,2,0:0:0:0:
64,192,329877,1,8,0:0:0:0:
192,192,329877,1,2,0:0:0:0:
448,192,329963,1,2,0:0:0:0:
320,192,329963,1,8,0:0:0:0:
64,192,330050,1,8,0:0:0:0:
192,192,330050,1,2,0:0:0:0:
320,192,330222,1,2,0:0:0:0:
448,192,330222,1,0,0:0:0:0:
448,192,330394,1,8,0:0:0:0:
64,192,330394,1,2,0:0:0:0:
320,192,330394,1,0,0:0:0:0:
64,192,330567,1,0,0:0:0:0:
192,192,330567,1,2,0:0:0:0:
448,192,330739,1,0,0:0:0:0:
192,192,330739,1,2,0:0:0:0:
64,192,330739,1,8,0:0:0:0:
64,192,331084,1,4,0:0:0:0:
448,192,331084,1,0,0:0:0:0:
192,192,331084,1,8,0:0:0:0:
320,192,331170,1,0,0:0:0:0:
192,192,331256,1,2,0:0:0:0:
64,192,331343,1,0,0:0:0:0:
320,192,331429,1,2,0:0:0:0:
192,192,331429,1,8,0:0:0:0:
448,192,331429,1,0,0:0:0:0:
64,192,331515,1,0,0:0:0:0:
192,192,331601,1,2,0:0:0:0:
320,192,331687,1,0,0:0:0:0:
448,192,331774,1,2,0:0:0:0:
320,192,331860,1,0,0:0:0:0:
448,192,331946,1,0,0:0:0:0:
192,192,331946,1,2,0:0:0:0:
64,192,332032,1,0,0:0:0:0:
192,192,332118,1,2,0:0:0:0:
320,192,332118,1,8,0:0:0:0:
448,192,332118,1,0,0:0:0:0:
64,192,332205,1,0,0:0:0:0:
192,192,332291,1,2,0:0:0:0:
320,192,332377,1,0,0:0:0:0:
448,192,332463,1,2,0:0:0:0:
64,192,332550,1,0,0:0:0:0:
448,192,332636,1,2,0:0:0:0:
192,192,332636,1,0,0:0:0:0:
320,192,332722,1,0,0:0:0:0:
192,192,332808,1,2,0:0:0:0:
448,192,332808,1,8,0:0:0:0:
64,192,332808,1,0,0:0:0:0:
320,192,332894,1,0,0:0:0:0:
192,192,332981,1,2,0:0:0:0:
64,192,333067,1,0,0:0:0:0:
192,192,333153,1,2,0:0:0:0:
320,192,333239,1,0,0:0:0:0:
64,192,333325,1,0,0:0:0:0:
448,192,333325,1,2,0:0:0:0:
192,192,333412,1,0,0:0:0:0:
320,192,333498,1,2,0:0:0:0:
448,192,333498,1,0,0:0:0:0:
64,192,333498,1,8,0:0:0:0:
192,192,333584,1,0,0:0:0:0:
320,192,333670,1,2,0:0:0:0:
448,192,333756,1,0,0:0:0:0:
64,192,333843,1,2,0:0:0:0:
320,192,333843,1,0,0:0:0:0:
192,192,333929,1,0,0:0:0:0:
64,192,334015,1,2,0:0:0:0:
192,192,334101,1,0,0:0:0:0:
64,192,334187,1,0,0:0:0:0:
320,192,334187,1,2,0:0:0:0:
448,192,334187,1,8,0:0:0:0:
192,192,334274,1,0,0:0:0:0:
320,192,334360,1,2,0:0:0:0:
448,192,334446,1,2,0:0:0:0:
64,192,334532,1,2,0:0:0:0:
192,192,334618,1,0,0:0:0:0:
320,192,334705,1,2,0:0:0:0:
64,192,334705,1,0,0:0:0:0:
448,192,334791,1,0,0:0:0:0:
320,192,334877,1,8,0:0:0:0:
64,192,334877,1,2,0:0:0:0:
192,192,334877,1,0,0:0:0:0:
448,192,334963,1,0,0:0:0:0:
320,192,335050,1,2,0:0:0:0:
192,192,335136,1,0,0:0:0:0:
448,192,335222,1,2,0:0:0:0:
192,192,335308,1,0,0:0:0:0:
64,192,335394,1,0,0:0:0:0:
320,192,335394,1,2,0:0:0:0:
192,192,335481,1,0,0:0:0:0:
320,192,335567,1,8,0:0:0:0:
64,192,335567,1,2,0:0:0:0:
448,192,335567,1,0,0:0:0:0:
192,192,335653,1,0,0:0:0:0:
320,192,335739,1,2,0:0:0:0:
448,192,335825,1,0,0:0:0:0:
320,192,335912,1,2,0:0:0:0:
192,192,335998,1,0,0:0:0:0:
448,192,336084,1,0,0:0:0:0:
64,192,336084,1,2,0:0:0:0:
320,192,336170,1,0,0:0:0:0:
64,192,336256,1,0,0:0:0:0:
448,192,336256,1,8,0:0:0:0:
192,192,336256,1,2,0:0:0:0:
320,192,336343,1,0,0:0:0:0:
192,192,336429,1,2,0:0:0:0:
64,192,336515,1,0,0:0:0:0:
448,192,336601,1,0,0:0:0:0:
192,192,336601,1,2,0:0:0:0:
320,192,336687,1,0,0:0:0:0:
448,192,336774,1,2,0:0:0:0:
320,192,336860,1,0,0:0:0:0:
192,192,336946,1,2,0:0:0:0:
448,192,336946,1,8,0:0:0:0:
64,192,336946,1,0,0:0:0:0:
320,192,337032,1,0,0:0:0:0:
192,192,337118,1,2,0:0:0:0:
64,192,337205,1,2,0:0:0:0:
448,192,337291,1,2,0:0:0:0:
320,192,337377,1,2,0:0:0:0:
448,192,337463,1,2,0:0:0:0:
192,192,337463,1,0,0:0:0:0:
64,192,337550,1,0,0:0:0:0:
448,192,337636,1,8,0:0:0:0:
320,192,337636,1,2,0:0:0:0:
192,192,337636,1,0,0:0:0:0:
64,192,337722,1,0,0:0:0:0:
192,192,337808,1,2,0:0:0:0:
320,192,337894,1,0,0:0:0:0:
448,192,337981,1,2,0:0:0:0:
64,192,338067,1,0,0:0:0:0:
192,192,338153,1,0,0:0:0:0:
448,192,338153,1,2,0:0:0:0:
320,192,338239,1,0,0:0:0:0:
448,192,338325,1,2,0:0:0:0:
192,192,338325,1,8,0:0:0:0:
64,192,338325,1,0,0:0:0:0:
320,192,338412,1,0,0:0:0:0:
192,192,338498,1,2,0:0:0:0:
64,192,338584,1,0,0:0:0:0:
320,192,338670,1,2,0:0:0:0:
192,192,338756,1,0,0:0:0:0:
64,192,338843,1,2,0:0:0:0:
448,192,338843,1,0,0:0:0:0:
320,192,338929,1,0,0:0:0:0:
448,192,339015,1,8,0:0:0:0:
64,192,339015,1,0,0:0:0:0:
192,192,339015,1,2,0:0:0:0:
320,192,339101,1,0,0:0:0:0:
64,192,339187,1,2,0:0:0:0:
192,192,339274,1,0,0:0:0:0:
320,192,339360,1,2,0:0:0:0:
448,192,339360,1,0,0:0:0:0:
64,192,339446,1,0,0:0:0:0:
192,192,339446,1,2,0:0:0:0:
448,192,339532,1,0,0:0:0:0:
320,192,339532,1,2,0:0:0:0:
64,192,339618,1,0,0:0:0:0:
192,192,339618,1,2,0:0:0:0:
320,192,339705,1,0,0:0:0:0:
448,192,339705,1,2,0:0:0:0:
64,192,339791,1,0,0:0:0:0:
192,192,339791,1,2,0:0:0:0:
320,192,339877,1,2,0:0:0:0:
448,192,339877,1,0,0:0:0:0:
64,192,339963,1,0,0:0:0:0:
192,192,339963,1,2,0:0:0:0:
320,192,340050,1,2,0:0:0:0:
448,192,340050,1,0,0:0:0:0:
64,192,340136,1,0,0:0:0:0:
192,192,340136,1,2,0:0:0:0:
320,192,340222,1,0,0:0:0:0:
448,192,340222,1,2,0:0:0:0:
64,192,340308,1,0,0:0:0:0:
192,192,340308,1,2,0:0:0:0:
448,192,340394,1,2,0:0:0:0:
320,192,340394,1,0,0:0:0:0:
64,192,340481,1,0,0:0:0:0:
192,192,340481,1,2,0:0:0:0:
320,192,340567,1,2,0:0:0:0:
448,192,340567,1,0,0:0:0:0:
64,192,340653,1,0,0:0:0:0:
192,192,340653,1,2,0:0:0:0:
448,192,340739,1,0,0:0:0:0:
320,192,340782,1,0,0:0:0:0:
64,192,340825,1,0,0:0:0:0:
192,192,340868,1,0,0:0:0:0:
448,192,340912,1,0,0:0:0:0:
320,192,340955,1,0,0:0:0:0:
64,192,340998,1,0,0:0:0:0:
192,192,341041,1,0,0:0:0:0:
448,192,341084,1,0,0:0:0:0:
320,192,341127,1,0,0:0:0:0:
64,192,341170,1,0,0:0:0:0:
192,192,341213,1,0,0:0:0:0:
448,192,341256,1,0,0:0:0:0:
320,192,341300,1,0,0:0:0:0:
64,192,341343,1,0,0:0:0:0:
192,192,341386,1,0,0:0:0:0:
448,192,341429,1,0,0:0:0:0:
320,192,341472,1,0,0:0:0:0:
192,192,341515,1,0,0:0:0:0:
64,192,341558,1,0,0:0:0:0:
448,192,341601,1,0,0:0:0:0:
320,192,341644,1,0,0:0:0:0:
192,192,341687,1,0,0:0:0:0:
64,192,341731,1,0,0:0:0:0:
448,192,341774,1,0,0:0:0:0:
320,192,341802,1,0,0:0:0:0:
64,192,341831,1,0,0:0:0:0:
192,192,341860,1,0,0:0:0:0:
448,192,341889,1,0,0:0:0:0:
320,192,341917,1,0,0:0:0:0:
64,192,341946,1,0,0:0:0:0:
192,192,341975,1,0,0:0:0:0:
448,192,342004,1,0,0:0:0:0:
320,192,342032,1,0,0:0:0:0:
64,192,342061,1,0,0:0:0:0:
192,192,342090,1,0,0:0:0:0:
448,192,342118,1,4,0:0:0:0:
320,192,342118,1,0,0:0:0:0:
64,192,342291,1,0,0:0:0:0:
448,192,342463,1,2,0:0:0:0:
192,192,342463,1,0,0:0:0:0:
64,192,342808,1,2,0:0:0:0:
320,192,342808,1,8,0:0:0:0:
448,192,342808,1,0,0:0:0:0:
192,192,343153,1,0,0:0:0:0:
448,192,343325,1,0,0:0:0:0:
64,192,343498,1,0,0:0:0:0:
320,192,343670,1,0,0:0:0:0:
192,192,343843,1,0,0:0:0:0:
64,192,343843,1,0,0:0:0:0:
192,192,344187,1,8,0:0:0:0:
320,192,344187,1,0,0:0:0:0:
448,192,344187,1,2,0:0:0:0:
64,192,344532,1,0,0:0:0:0:
320,192,344705,1,0,0:0:0:0:
192,192,344877,1,0,0:0:0:0:
448,192,345050,1,0,0:0:0:0:
320,192,345222,1,0,0:0:0:0:
64,192,345222,1,0,0:0:0:0:
64,192,345567,1,0,0:0:0:0:
192,192,345567,1,8,0:0:0:0:
448,192,345567,1,2,0:0:0:0:
320,192,345912,1,0,0:0:0:0:
448,192,346084,1,0,0:0:0:0:
64,192,346256,1,0,0:0:0:0:
192,192,346429,1,0,0:0:0:0:
448,192,346601,1,0,0:0:0:0:
64,192,346601,1,0,0:0:0:0:
192,192,346946,1,0,0:0:0:0:
320,192,346946,1,8,0:0:0:0:
448,192,346946,1,2,0:0:0:0:
320,192,347291,1,0,0:0:0:0:
64,192,347636,1,0,0:0:0:0:
448,192,347636,1,2,0:0:0:0:
320,192,347808,1,0,0:0:0:0:
192,192,347981,1,0,0:0:0:0:
64,192,348325,1,0,0:0:0:0:
320,192,348325,1,8,0:0:0:0:
448,192,348325,128,2,349015:0:0:0:0:
64,192,349015,1,0,0:0:0:0:
192,192,349360,1,0,0:0:0:0:
320,192,349360,1,0,0:0:0:0:
64,192,349705,1,0,0:0:0:0:
320,192,349705,1,8,0:0:0:0:
448,192,349705,1,2,0:0:0:0:
192,192,350050,1,0,0:0:0:0:
448,192,350394,1,0,0:0:0:0:
64,192,350739,1,0,0:0:0:0:
192,192,350739,1,0,0:0:0:0:
448,192,351084,1,2,0:0:0:0:
320,192,351084,1,8,0:0:0:0:
192,192,351084,1,0,0:0:0:0:
64,192,351429,1,0,0:0:0:0:
448,192,351601,1,0,0:0:0:0:
320,192,351774,1,0,0:0:0:0:
64,192,351946,1,0,0:0:0:0:
192,192,352118,1,2,0:0:0:0:
448,192,352118,1,0,0:0:0:0:
64,192,352463,1,0,0:0:0:0:
320,192,352463,1,8,0:0:0:0:
448,192,352463,1,0,0:0:0:0:
192,192,352550,1,0,0:0:0:0:
320,192,352636,1,0,0:0:0:0:
192,192,352722,1,0,0:0:0:0:
448,192,352808,1,8,0:0:0:0:
64,192,352808,1,0,0:0:0:0:
320,192,352894,1,0,0:0:0:0:
192,192,352981,1,0,0:0:0:0:
320,192,353067,1,0,0:0:0:0:
192,192,353153,1,0,0:0:0:0:
448,192,353153,1,4,0:0:0:0:
64,192,353153,1,8,0:0:0:0:
320,192,353325,1,0,0:0:0:0:
192,192,353498,1,0,0:0:0:0:
448,192,353498,1,0,0:0:0:0:
64,192,353843,1,0,0:0:0:0:
192,192,353843,1,8,0:0:0:0:
448,192,353843,1,2,0:0:0:0:
320,192,354187,1,0,0:0:0:0:
192,192,354360,1,0,0:0:0:0:
448,192,354532,1,0,0:0:0:0:
64,192,354705,1,0,0:0:0:0:
192,192,354877,1,0,0:0:0:0:
448,192,354877,1,0,0:0:0:0:
320,192,354935,1,0,0:0:0:0:
64,192,354992,1,0,0:0:0:0:
448,192,355050,1,0,0:0:0:0:
192,192,355107,1,0,0:0:0:0:
320,192,355164,1,0,0:0:0:0:
448,192,355222,1,8,0:0:0:0:
64,192,355222,1,2,0:0:0:0:
192,192,355222,1,0,0:0:0:0:
448,192,355567,1,0,0:0:0:0:
192,192,355739,1,0,0:0:0:0:
320,192,355912,1,0,0:0:0:0:
64,192,356084,1,0,0:0:0:0:
448,192,356256,1,0,0:0:0:0:
192,192,356256,1,0,0:0:0:0:
448,192,356601,1,0,0:0:0:0:
64,192,356601,1,2,0:0:0:0:
320,192,356601,1,8,0:0:0:0:
192,192,356946,1,0,0:0:0:0:
320,192,357118,1,0,0:0:0:0:
64,192,357291,1,0,0:0:0:0:
448,192,357463,1,0,0:0:0:0:
64,192,357636,1,0,0:0:0:0:
192,192,357636,1,0,0:0:0:0:
448,192,357981,1,8,0:0:0:0:
320,192,357981,1,0,0:0:0:0:
64,192,357981,1,2,0:0:0:0:
192,192,358325,1,0,0:0:0:0:
320,192,358498,1,0,0:0:0:0:
448,192,358670,1,0,0:0:0:0:
64,192,358670,1,2,0:0:0:0:
192,192,358843,1,0,0:0:0:0:
320,192,359015,1,0,0:0:0:0:
192,192,359360,1,2,0:0:0:0:
64,192,359360,128,0,360050:0:0:0:0:
320,192,359360,1,8,0:0:0:0:
320,192,360050,1,0,0:0:0:0:
320,192,360164,1,0,0:0:0:0:
192,192,360279,1,0,0:0:0:0:
448,192,360394,1,0,0:0:0:0:
192,192,360394,1,0,0:0:0:0:
448,192,360509,1,0,0:0:0:0:
64,192,360624,1,0,0:0:0:0:
192,192,360739,1,8,0:0:0:0:
64,192,360739,1,2,0:0:0:0:
448,192,360739,1,0,0:0:0:0:
320,192,361084,1,0,0:0:0:0:
64,192,361429,1,0,0:0:0:0:
448,192,361774,1,0,0:0:0:0:
192,192,361774,1,0,0:0:0:0:
192,192,362118,1,8,0:0:0:0:
320,192,362118,1,0,0:0:0:0:
64,192,362118,1,2,0:0:0:0:
448,192,362463,1,0,0:0:0:0:
192,192,362636,1,0,0:0:0:0:
64,192,362808,1,0,0:0:0:0:
192,192,363153,1,0,0:0:0:0:
320,192,363153,1,2,0:0:0:0:
64,192,363498,1,8,0:0:0:0:
448,192,363498,1,0,0:0:0:0:
192,192,363498,1,0,0:0:0:0:
64,192,363670,1,0,0:0:0:0:
192,192,363670,1,0,0:0:0:0:
320,192,363843,1,8,0:0:0:0:
448,192,363843,1,0,0:0:0:0:
448,192,364015,1,0,0:0:0:0:
320,192,364015,1,0,0:0:0:0:
320,192,364187,1,0,0:0:0:0:
448,192,364187,1,8,0:0:0:0:
192,192,364187,1,0,0:0:0:0:
64,192,364187,128,4,364532:0:0:0:0:
448,192,364532,128,0,365222:0:0:0:0:
192,192,364877,1,8,0:0:0:0:
320,192,364877,1,0,0:0:0:0:
64,192,364877,1,2,0:0:0:0:
320,192,365222,128,0,365912:0:0:0:0:
192,192,365912,1,0,0:0:0:0:
64,192,365912,128,0,366601:0:0:0:0:
448,192,366256,1,2,0:0:0:0:
320,192,366256,1,0,0:0:0:0:
192,192,366256,1,8,0:0:0:0:
448,192,366601,128,0,367291:0:0:0:0:
64,192,367291,1,0,0:0:0:0:
320,192,367291,128,0,367981:0:0:0:0:
192,192,367636,1,8,0:0:0:0:
64,192,367636,1,0,0:0:0:0:
448,192,367636,1,2,0:0:0:0:
192,192,367981,128,0,368670:0:0:0:0:
448,192,368670,1,0,0:0:0:0:
64,192,368670,128,0,369360:0:0:0:0:
320,192,369015,1,8,0:0:0:0:
192,192,369015,1,0,0:0:0:0:
448,192,369015,1,2,0:0:0:0:
448,192,369360,128,0,370050:0:0:0:0:
320,192,369705,1,2,0:0:0:0:
192,192,369705,1,0,0:0:0:0:
448,192,370394,1,0,0:0:0:0:
192,192,370394,1,2,0:0:0:0:
320,192,370394,128,8,371084:0:0:0:0:
192,192,371429,1,0,0:0:0:0:
320,192,371429,1,0,0:0:0:0:
64,192,371774,1,0,0:0:0:0:
320,192,371774,1,8,0:0:0:0:
448,192,371774,128,2,372118:0:0:0:0:
192,192,372118,128,0,372808:0:0:0:0:
64,192,372808,1,0,0:0:0:0:
320,192,372808,1,0,0:0:0:0:
320,192,373153,1,8,0:0:0:0:
192,192,373153,1,0,0:0:0:0:
448,192,373153,1,2,0:0:0:0:
448,192,374187,1,0,0:0:0:0:
192,192,374187,1,2,0:0:0:0:
448,192,374532,1,2,0:0:0:0:
320,192,374532,1,8,0:0:0:0:
64,192,374532,1,0,0:0:0:0:
192,192,374618,1,0,0:0:0:0:
448,192,374705,1,0,0:0:0:0:
64,192,374791,1,0,0:0:0:0:
320,192,374877,1,0,0:0:0:0:
192,192,375050,1,0,0:0:0:0:
320,192,375136,1,0,0:0:0:0:
448,192,375222,1,0,0:0:0:0:
64,192,375222,128,2,375567:0:0:0:0:
320,192,375567,128,0,376256:0:0:0:0:
192,192,375912,1,8,0:0:0:0:
448,192,375912,1,2,0:0:0:0:
64,192,375912,1,0,0:0:0:0:
192,192,376256,128,0,376946:0:0:0:0:
320,192,376946,1,0,0:0:0:0:
448,192,376946,128,0,377636:0:0:0:0:
192,192,377291,1,0,0:0:0:0:
64,192,377291,1,2,0:0:0:0:
320,192,377291,1,8,0:0:0:0:
64,192,377636,128,0,378325:0:0:0:0:
448,192,378325,1,0,0:0:0:0:
192,192,378325,128,0,379015:0:0:0:0:
64,192,378670,1,2,0:0:0:0:
448,192,378670,1,0,0:0:0:0:
320,192,378670,1,8,0:0:0:0:
448,192,379015,128,0,379705:0:0:0:0:
320,192,379705,1,0,0:0:0:0:
64,192,379705,128,0,380394:0:0:0:0:
320,192,380050,1,0,0:0:0:0:
192,192,380050,1,8,0:0:0:0:
448,192,380050,1,2,0:0:0:0:
320,192,380394,128,0,381084:0:0:0:0:
64,192,380739,1,2,0:0:0:0:
448,192,380739,1,0,0:0:0:0:
448,192,381429,1,2,0:0:0:0:
320,192,381429,1,8,0:0:0:0:
192,192,381429,128,0,382118:0:0:0:0:
192,192,382463,1,0,0:0:0:0:
320,192,382463,1,0,0:0:0:0:
64,192,382808,1,2,0:0:0:0:
192,192,382808,1,8,0:0:0:0:
448,192,382808,128,0,383153:0:0:0:0:
64,192,383153,128,0,383843:0:0:0:0:
192,192,383843,1,0,0:0:0:0:
448,192,383843,1,0,0:0:0:0:
64,192,384187,1,2,0:0:0:0:
320,192,384187,1,0,0:0:0:0:
192,192,384187,1,8,0:0:0:0:
448,192,384532,1,0,0:0:0:0:
320,192,384705,1,0,0:0:0:0:
192,192,384877,1,0,0:0:0:0:
448,192,385050,1,0,0:0:0:0:
64,192,385222,1,0,0:0:0:0:
320,192,385222,1,2,0:0:0:0:
448,192,385567,1,0,0:0:0:0:
192,192,385567,1,8,0:0:0:0:
64,192,385567,1,2,0:0:0:0:
64,192,385739,1,2,0:0:0:0:
192,192,385739,1,8,0:0:0:0:
448,192,385739,1,0,0:0:0:0:
448,192,385912,1,0,0:0:0:0:
320,192,385912,1,2,0:0:0:0:
320,192,386084,1,2,0:0:0:0:
448,192,386084,1,0,0:0:0:0:
