osu file format v14

[General]
AudioFilename: The Pretender.mp3
AudioLeadIn: 0
PreviewTime: 195912
Countdown: 0
SampleSet: Normal
StackLeniency: 0.6
Mode: 3
LetterboxInBreaks: 0
SpecialStyle: 0
WidescreenStoryboard: 1

[Editor]
DistanceSpacing: 0.8
BeatDivisor: 12
GridSize: 16
TimelineZoom: 1.7

[Metadata]
Title:The Pretender
TitleUnicode:The Pretender
Artist:Infected Mushroom
ArtistUnicode:Infected Mushroom
Creator:puxtu
Version:7K Pandemic obj.lZenxl vs Kamikaze
Source:
Tags:Evening Zenx Z3nx lZenxl -kamikaze- pxt Foo Fighters Echoes, Silence, Patience & Grace 2007 Roswell Records Israeli psytrance electronica psychedelic trance electronic rock glitch-hop Amit Duvedevani
BeatmapID:1605247
BeatmapSetID:342245

[Difficulty]
HPDrainRate:8.5
CircleSize:7
OverallDifficulty:9
ApproachRate:9
SliderMultiplier:1.4
SliderTickRate:1

[Events]
//Background and Video events
0,0,"bg.jpg",0,0
//Break Periods
//Storyboard Layer 0 (Background)
//Storyboard Layer 1 (Fail)
//Storyboard Layer 2 (Pass)
//Storyboard Layer 3 (Foreground)
//Storyboard Sound Samples

[TimingPoints]
50,344.827586206897,4,1,1,10,1,0
50,-133.333333333333,4,1,1,10,0,0
42463,-125,4,1,1,30,0,0
43843,-125,4,1,1,30,0,0
43929,-117.647058823529,4,1,1,30,0,0
44015,-111.111111111111,4,1,1,30,0,0
44101,-105.263157894737,4,1,1,30,0,0
44187,-100,4,1,1,30,0,0
45567,-52.6315789473684,4,1,1,30,0,0
45610,-1000,4,1,1,30,0,0
45653,-52.6315789473684,4,1,1,30,0,0
45696,-1000,4,1,1,30,0,0
45739,-52.6315789473684,4,1,1,30,0,0
45782,-1000,4,1,1,30,0,0
45825,-52.6315789473684,4,1,1,30,0,0
45868,-1000,4,1,1,30,0,0
45912,-52.6315789473684,4,1,1,30,0,0
45955,-1000,4,1,1,30,0,0
45998,-52.6315789473684,4,1,1,30,0,0
46041,-1000,4,1,1,30,0,0
46084,-52.6315789473684,4,1,1,30,0,0
46127,-1000,4,1,1,30,0,0
46170,-52.6315789473684,4,1,1,30,0,0
46213,-1000,4,1,1,30,0,0
46256,-52.6315789473684,4,1,1,30,0,0
46300,-1000,4,1,1,30,0,0
46343,-52.6315789473684,4,1,1,30,0,0
46386,-1000,4,1,1,30,0,0
46429,-52.6315789473684,4,1,1,30,0,0
46472,-1000,4,1,1,30,0,0
46515,-52.6315789473684,4,1,1,30,0,0
46558,-1000,4,1,1,30,0,0
46601,-28.5714285714286,4,1,1,30,0,0
46623,-1000,4,1,1,30,0,0
46644,-500,4,1,1,30,0,0
46666,-333.333333333333,4,1,1,30,0,0
46687,-250,4,1,1,30,0,0
46709,-200,4,1,1,30,0,0
46731,-166.666666666667,4,1,1,30,0,0
46752,-142.857142857143,4,1,1,30,0,0
46774,-125,4,1,1,30,0,0
46795,-111.111111111111,4,1,1,30,0,0
46817,-100,4,1,1,30,0,0
46838,-95.2380952380952,4,1,1,30,0,0
46860,-90.9090909090909,4,1,1,30,0,0
46881,-86.9565217391304,4,1,1,30,0,0
46903,-83.3333333333333,4,1,1,30,0,0
46925,-80,4,1,1,30,0,0
46946,-111.111111111111,4,1,1,30,0,0
67636,-58.8235294117647,4,1,1,30,0,0
67722,-333.333333333333,4,1,1,30,0,0
67808,-58.8235294117647,4,1,1,30,0,0
67894,-333.333333333333,4,1,1,30,0,0
67981,-58.8235294117647,4,1,1,30,0,0
68067,-333.333333333333,4,1,1,30,0,0
68153,-58.8235294117647,4,1,1,30,0,0
68239,-333.333333333333,4,1,1,30,0,0
68325,-58.8235294117647,4,1,1,30,0,0
68412,-333.333333333333,4,1,1,30,0,0
68498,-58.8235294117647,4,1,1,30,0,0
68584,-333.333333333333,4,1,1,30,0,0
68670,-52.6315789473684,4,1,1,30,0,0
68713,-1000,4,1,1,30,0,0
68756,-52.6315789473684,4,1,1,30,0,0
68800,-1000,4,1,1,30,0,0
68843,-52.6315789473684,4,1,1,30,0,0
68886,-1000,4,1,1,30,0,0
68929,-52.6315789473684,4,1,1,30,0,0
68972,-1000,4,1,1,30,0,0
69015,-100,4,1,1,30,0,0
79360,-52.6315789473684,4,1,1,30,0,0
79403,-1000,4,1,1,30,0,0
79446,-52.6315789473684,4,1,1,30,0,0
79489,-1000,4,1,1,30,0,0
79532,-58.8235294117647,4,1,1,30,0,0
79618,-333.333333333333,4,1,1,30,0,0
79705,-58.8235294117647,4,1,1,30,0,0
79791,-333.333333333333,4,1,1,30,0,0
79877,-58.8235294117647,4,1,1,30,0,0
79963,-333.333333333333,4,1,1,30,0,0
80050,-100,4,1,1,30,0,0
91084,-10,4,1,1,30,0,0
91106,-200,4,1,1,30,0,0
91774,-10,4,1,1,30,0,0
91795,-200,4,1,1,30,0,0
92463,-10,4,1,1,30,0,0
92485,-200,4,1,1,30,0,0
93153,-125,4,1,1,30,0,0
96601,-117.647058823529,4,1,1,30,0,0
96946,-111.111111111111,4,1,1,30,0,0
97291,-105.263157894737,4,1,1,30,0,0
97636,-100,4,1,1,30,0,0
97981,-95.2380952380952,4,1,1,30,0,0
98325,-90.9090909090909,4,1,1,30,0,0
98670,-86.9565217391304,4,1,1,30,0,0
99015,-28.5714285714286,4,1,1,30,0,0
99037,-1000,4,1,1,30,0,0
99058,-500,4,1,1,30,0,0
99080,-333.333333333333,4,1,1,30,0,0
99101,-250,4,1,1,30,0,0
99123,-200,4,1,1,30,0,0
99144,-166.666666666667,4,1,1,30,0,0
99166,-142.857142857143,4,1,1,30,0,0
99187,-125,4,1,1,30,0,0
99209,-111.111111111111,4,1,1,30,0,0
99231,-100,4,1,1,30,0,0
99252,-95.2380952380952,4,1,1,30,0,0
99274,-90.9090909090909,4,1,1,30,0,0
99295,-86.9565217391304,4,1,1,30,0,0
99317,-83.3333333333333,4,1,1,30,0,0
99338,-80,4,1,1,30,0,0
99360,-100,4,1,1,30,0,0
109015,-66.6666666666667,4,1,1,30,0,0
109101,-200,4,1,1,30,0,0
109187,-66.6666666666667,4,1,1,30,0,0
109274,-200,4,1,1,30,0,0
109360,-66.6666666666667,4,1,1,30,0,0
109446,-200,4,1,1,30,0,0
109532,-66.6666666666667,4,1,1,30,0,0
109618,-200,4,1,1,30,0,0
109705,-66.6666666666667,4,1,1,30,0,0
109791,-200,4,1,1,30,0,0
109877,-66.6666666666667,4,1,1,30,0,0
109963,-200,4,1,1,30,0,0
110050,-52.6315789473684,4,1,1,30,0,0
110093,-1000,4,1,1,30,0,0
110136,-52.6315789473684,4,1,1,30,0,0
110179,-1000,4,1,1,30,0,0
110222,-52.6315789473684,4,1,1,30,0,0
110265,-1000,4,1,1,30,0,0
110308,-52.6315789473684,4,1,1,30,0,0
110351,-1000,4,1,1,30,0,0
110394,-100,4,1,1,30,0,0
118670,-200,4,1,1,30,0,0
118843,-43.4782608695652,4,1,1,30,0,0
118864,-200,4,1,1,30,0,0
119015,-43.4782608695652,4,1,1,30,0,0
119037,-200,4,1,1,30,0,0
119360,-43.4782608695652,4,1,1,30,0,0
119381,-200,4,1,1,30,0,0
119532,-43.4782608695652,4,1,1,30,0,0
119554,-200,4,1,1,30,0,0
119705,-43.4782608695652,4,1,1,30,0,0
119726,-200,4,1,1,30,0,0
119877,-43.4782608695652,4,1,1,30,0,0
119899,-200,4,1,1,30,0,0
120050,-43.4782608695652,4,1,1,30,0,0
120071,-200,4,1,1,30,0,0
120222,-43.4782608695652,4,1,1,30,0,0
120243,-200,4,1,1,30,0,0
120394,-45.4545454545455,4,1,1,30,0,0
120416,-166.666666666667,4,1,1,30,0,0
120567,-47.6190476190476,4,1,1,30,0,0
120588,-142.857142857143,4,1,1,30,0,0
120912,-100,4,1,1,30,0,0
121084,-52.6315789473684,4,1,1,30,0,0
121127,-1000,4,1,1,30,0,0
121170,-52.6315789473684,4,1,1,30,0,0
121213,-1000,4,1,1,30,0,0
121256,-52.6315789473684,4,1,1,30,0,0
121300,-1000,4,1,1,30,0,0
121343,-52.6315789473684,4,1,1,30,0,0
121386,-1000,4,1,1,30,0,0
121429,-100,4,1,1,30,0,0
131084,-52.6315789473684,4,1,1,30,0,0
131127,-1000,4,1,1,30,0,0
131170,-52.6315789473684,4,1,1,30,0,0
131213,-1000,4,1,1,30,0,0
131256,-52.6315789473684,4,1,1,30,0,0
131300,-1000,4,1,1,30,0,0
131343,-52.6315789473684,4,1,1,30,0,0
131386,-1000,4,1,1,30,0,0
131429,-66.6666666666667,4,1,1,30,0,0
131515,-200,4,1,1,30,0,0
131601,-66.6666666666667,4,1,1,30,0,0
131687,-200,4,1,1,30,0,0
131774,-66.6666666666667,4,1,1,30,0,0
131860,-200,4,1,1,30,0,0
131946,-66.6666666666667,4,1,1,30,0,0
132032,-200,4,1,1,30,0,0
132118,-100,4,1,1,30,0,0
132291,-200,4,1,1,30,0,0
132420,-40,4,1,1,30,0,0
132463,-100,4,1,1,30,0,0
142118,-66.6666666666667,4,1,1,30,0,0
142205,-200,4,1,1,30,0,0
142291,-66.6666666666667,4,1,1,30,0,0
142377,-200,4,1,1,30,0,0
142463,-66.6666666666667,4,1,1,30,0,0
142550,-200,4,1,1,30,0,0
142636,-66.6666666666667,4,1,1,30,0,0
142722,-200,4,1,1,30,0,0
142808,-66.6666666666667,4,1,1,30,0,0
142894,-200,4,1,1,30,0,0
142981,-66.6666666666667,4,1,1,30,0,0
143067,-200,4,1,1,30,0,0
143153,-52.6315789473684,4,1,1,30,0,0
143196,-1000,4,1,1,30,0,0
143239,-52.6315789473684,4,1,1,30,0,0
143282,-1000,4,1,1,30,0,0
143325,-52.6315789473684,4,1,1,30,0,0
143368,-1000,4,1,1,30,0,0
143412,-52.6315789473684,4,1,1,30,0,0
143455,-1000,4,1,1,30,0,0
143498,-10,4,1,1,30,0,0
143556,-125,4,1,1,30,0,0
149705,-166.666666666667,4,1,1,30,0,0
149877,-125,4,1,1,30,0,0
149963,-83.3333333333333,4,1,1,30,0,0
150050,-52.6315789473684,4,1,1,30,0,0
150093,-1000,4,1,1,30,0,0
150136,-52.6315789473684,4,1,1,30,0,0
150179,-1000,4,1,1,30,0,0
150222,-52.6315789473684,4,1,1,30,0,0
150265,-1000,4,1,1,30,0,0
150308,-52.6315789473684,4,1,1,30,0,0
150351,-1000,4,1,1,30,0,0
150394,-125,4,1,1,30,0,0
151084,-62.5,4,1,1,30,0,0
151429,-74.0740740740741,4,1,1,30,0,0
151601,-125,4,1,1,30,0,0
151687,-200,4,1,1,30,0,0
151774,-125,4,1,1,30,0,0
152463,-166.666666666667,4,1,1,30,0,0
152550,-142.857142857143,4,1,1,30,0,0
152636,-125,4,1,1,30,0,0
152722,-111.111111111111,4,1,1,30,0,0
152808,-100,4,1,1,30,0,0
153153,-111.111111111111,4,1,1,30,0,0
153498,-125,4,1,1,30,0,0
154187,-83.3333333333333,4,1,1,30,0,0
154231,-166.666666666667,4,1,1,30,0,0
154274,-83.3333333333333,4,1,1,30,0,0
154317,-166.666666666667,4,1,1,30,0,0
154360,-83.3333333333333,4,1,1,30,0,0
154403,-166.666666666667,4,1,1,30,0,0
154446,-83.3333333333333,4,1,1,30,0,0
154489,-166.666666666667,4,1,1,30,0,0
154532,-125,4,1,1,30,0,0
155567,-83.3333333333333,4,1,1,30,0,0
155610,-250,4,1,1,30,0,0
155653,-83.3333333333333,4,1,1,30,0,0
155696,-250,4,1,1,30,0,0
155739,-83.3333333333333,4,1,1,30,0,0
155782,-250,4,1,1,30,0,0
155825,-83.3333333333333,4,1,1,30,0,0
155868,-250,4,1,1,30,0,0
155912,-125,4,1,1,30,0,0
156601,-100,4,1,1,30,0,0
156946,-66.6666666666667,4,1,1,30,0,0
157032,-100,4,1,1,30,0,0
157118,-142.857142857143,4,1,1,30,0,0
157291,-125,4,1,1,30,0,0
157981,-111.111111111111,4,1,1,30,0,0
158153,-100,4,1,1,30,0,0
158670,-111.111111111111,4,1,1,30,0,0
159015,-125,4,1,1,30,0,0
160050,-117.647058823529,4,1,1,30,0,0
160394,-111.111111111111,4,1,1,30,0,0
160739,-105.263157894737,4,1,1,30,0,0
161084,-52.6315789473684,4,1,1,30,0,0
161127,-1000,4,1,1,30,0,0
161170,-52.6315789473684,4,1,1,30,0,0
161213,-1000,4,1,1,30,0,0
161256,-52.6315789473684,4,1,1,30,0,0
161300,-1000,4,1,1,30,0,0
161343,-52.6315789473684,4,1,1,30,0,0
161386,-1000,4,1,1,30,0,0
161429,-100,4,1,1,30,0,0
161774,-111.111111111111,4,1,1,30,0,0
162118,-125,4,1,1,30,0,0
162808,-111.111111111111,4,1,1,30,0,0
163153,-100,4,1,1,30,0,0
163498,-90.9090909090909,4,1,1,30,0,0
163843,-111.111111111111,4,1,1,30,0,0
164187,-125,4,1,1,30,0,0
165222,-62.5,4,1,1,30,0,0
165265,-500,4,1,1,30,0,0
165308,-62.5,4,1,1,30,0,0
165351,-500,4,1,1,30,0,0
165394,-62.5,4,1,1,30,0,0
165437,-500,4,1,1,30,0,0
165481,-62.5,4,1,1,30,0,0
165524,-500,4,1,1,30,0,0
165567,-125,4,1,1,30,0,0
167636,-100,4,1,1,30,0,0
172463,-52.6315789473684,4,1,1,30,0,0
172506,-1000,4,1,1,30,0,0
172550,-52.6315789473684,4,1,1,30,0,0
172593,-1000,4,1,1,30,0,0
172636,-52.6315789473684,4,1,1,30,0,0
172679,-1000,4,1,1,30,0,0
172722,-52.6315789473684,4,1,1,30,0,0
172765,-1000,4,1,1,30,0,0
172808,-66.6666666666667,4,1,1,30,0,0
172894,-200,4,1,1,30,0,0
172981,-66.6666666666667,4,1,1,30,0,0
173067,-200,4,1,1,30,0,0
173153,-66.6666666666667,4,1,1,30,0,0
173239,-200,4,1,1,30,0,0
173325,-66.6666666666667,4,1,1,30,0,0
173412,-200,4,1,1,30,0,0
173498,-250,4,1,1,30,0,0
173584,-125,4,1,1,30,0,0
173670,-83.3333333333333,4,1,1,30,0,0
173756,-62.5,4,1,1,30,0,0
173843,-100,4,1,1,30,0,0
183498,-58.8235294117647,4,1,1,30,0,0
183584,-333.333333333333,4,1,1,30,0,0
183670,-58.8235294117647,4,1,1,30,0,0
183756,-333.333333333333,4,1,1,30,0,0
183843,-58.8235294117647,4,1,1,30,0,0
183929,-333.333333333333,4,1,1,30,0,0
184015,-58.8235294117647,4,1,1,30,0,0
184101,-333.333333333333,4,1,1,30,0,0
184187,-58.8235294117647,4,1,1,30,0,0
184274,-333.333333333333,4,1,1,30,0,0
184360,-58.8235294117647,4,1,1,30,0,0
184446,-333.333333333333,4,1,1,30,0,0
184532,-52.6315789473684,4,1,1,30,0,0
184575,-1000,4,1,1,30,0,0
184618,-52.6315789473684,4,1,1,30,0,0
184662,-1000,4,1,1,30,0,0
184705,-52.6315789473684,4,1,1,30,0,0
184748,-1000,4,1,1,30,0,0
184791,-52.6315789473684,4,1,1,30,0,0
184834,-1000,4,1,1,30,0,0
184877,-100,4,1,1,30,0,0
193153,-76.9230769230769,4,1,1,30,0,0
193239,-142.857142857143,4,1,1,30,0,0
193325,-76.9230769230769,4,1,1,30,0,0
193412,-142.857142857143,4,1,1,30,0,0
193498,-52.6315789473684,4,1,1,30,0,0
193584,-142.857142857143,4,1,1,30,0,0
193843,-76.9230769230769,4,1,1,30,0,0
193929,-142.857142857143,4,1,1,30,0,0
194015,-76.9230769230769,4,1,1,30,0,0
194101,-142.857142857143,4,1,1,30,0,0
194187,-76.9230769230769,4,1,1,30,0,0
194274,-142.857142857143,4,1,1,30,0,0
194360,-76.9230769230769,4,1,1,30,0,0
194446,-142.857142857143,4,1,1,30,0,0
194532,-76.9230769230769,4,1,1,30,0,0
194618,-142.857142857143,4,1,1,30,0,0
194705,-76.9230769230769,4,1,1,30,0,0
194791,-142.857142857143,4,1,1,30,0,0
194877,-76.9230769230769,4,1,1,30,0,0
194963,-142.857142857143,4,1,1,30,0,0
195050,-76.9230769230769,4,1,1,30,0,0
195136,-142.857142857143,4,1,1,30,0,0
195222,-66.6666666666667,4,1,1,30,0,0
195308,-200,4,1,1,30,0,0
195394,-66.6666666666667,4,1,1,30,0,0
195481,-200,4,1,1,30,0,0
195567,-52.6315789473684,4,1,1,30,0,0
195610,-1000,4,1,1,30,0,0
195653,-52.6315789473684,4,1,1,30,0,0
195696,-1000,4,1,1,30,0,0
195739,-52.6315789473684,4,1,1,30,0,0
195782,-1000,4,1,1,30,0,0
195825,-52.6315789473684,4,1,1,30,0,0
195868,-1000,4,1,1,30,0,0
195912,-100,4,1,1,30,0,0
205567,-52.6315789473684,4,1,1,30,0,0
205610,-1000,4,1,1,30,0,0
205653,-52.6315789473684,4,1,1,30,0,0
205696,-1000,4,1,1,30,0,0
205739,-52.6315789473684,4,1,1,30,0,0
205782,-1000,4,1,1,30,0,0
205825,-52.6315789473684,4,1,1,30,0,0
205868,-1000,4,1,1,30,0,0
205912,-66.6666666666667,4,1,1,30,0,0
205998,-200,4,1,1,30,0,0
206084,-66.6666666666667,4,1,1,30,0,0
206170,-200,4,1,1,30,0,0
206256,-66.6666666666667,4,1,1,30,0,0
206343,-200,4,1,1,30,0,0
206429,-66.6666666666667,4,1,1,30,0,0
206515,-200,4,1,1,30,0,0
206601,-10,4,1,1,30,0,0
206623,-1000,4,1,1,30,0,0
206644,-500,4,1,1,30,0,0
206666,-333.333333333333,4,1,1,30,0,0
206687,-250,4,1,1,30,0,0
206709,-200,4,1,1,30,0,0
206731,-166.666666666667,4,1,1,30,0,0
206752,-142.857142857143,4,1,1,30,0,0
206774,-125,4,1,1,30,0,0
206795,-111.111111111111,4,1,1,30,0,0
206817,-100,4,1,1,30,0,0
206838,-95.2380952380952,4,1,1,30,0,0
206860,-90.9090909090909,4,1,1,30,0,0
206881,-86.9565217391304,4,1,1,30,0,0
206903,-83.3333333333333,4,1,1,30,0,0
206925,-80,4,1,1,30,0,0
206946,-100,4,1,1,30,0,0
217636,-52.6315789473684,4,1,1,30,0,0
217679,-1000,4,1,1,30,0,0
217722,-52.6315789473684,4,1,1,30,0,0
217765,-1000,4,1,1,30,0,0
217808,-52.6315789473684,4,1,1,30,0,0
217851,-1000,4,1,1,30,0,0
217894,-52.6315789473684,4,1,1,30,0,0
217937,-1000,4,1,1,30,0,0
217981,-100,4,1,1,30,0,0
226256,-58.8235294117647,4,1,1,30,0,0
226300,-333.333333333333,4,1,1,30,0,0
226343,-58.8235294117647,4,1,1,30,0,0
226386,-333.333333333333,4,1,1,30,0,0
226429,-58.8235294117647,4,1,1,30,0,0
226472,-333.333333333333,4,1,1,30,0,0
226515,-58.8235294117647,4,1,1,30,0,0
226558,-333.333333333333,4,1,1,30,0,0
226601,-58.8235294117647,4,1,1,30,0,0
226644,-333.333333333333,4,1,1,30,0,0
226687,-58.8235294117647,4,1,1,30,0,0
226731,-333.333333333333,4,1,1,30,0,0
226774,-58.8235294117647,4,1,1,30,0,0
226817,-333.333333333333,4,1,1,30,0,0
226860,-58.8235294117647,4,1,1,30,0,0
226903,-333.333333333333,4,1,1,30,0,0
226946,-58.8235294117647,4,1,1,30,0,0
226989,-333.333333333333,4,1,1,30,0,0
227032,-58.8235294117647,4,1,1,30,0,0
227075,-333.333333333333,4,1,1,30,0,0
227118,-58.8235294117647,4,1,1,30,0,0
227162,-333.333333333333,4,1,1,30,0,0
227205,-58.8235294117647,4,1,1,30,0,0
227248,-333.333333333333,4,1,1,30,0,0
227291,-58.8235294117647,4,1,1,30,0,0
227334,-333.333333333333,4,1,1,30,0,0
227377,-58.8235294117647,4,1,1,30,0,0
227420,-333.333333333333,4,1,1,30,0,0
227463,-58.8235294117647,4,1,1,30,0,0
227506,-333.333333333333,4,1,1,30,0,0
227550,-58.8235294117647,4,1,1,30,0,0
227593,-333.333333333333,4,1,1,30,0,0
227636,-58.8235294117647,4,1,1,30,0,0
227679,-333.333333333333,4,1,1,30,0,0
227722,-58.8235294117647,4,1,1,30,0,0
227765,-333.333333333333,4,1,1,30,0,0
227808,-58.8235294117647,4,1,1,30,0,0
227851,-333.333333333333,4,1,1,30,0,0
227894,-58.8235294117647,4,1,1,30,0,0
227937,-333.333333333333,4,1,1,30,0,0
227981,-58.8235294117647,4,1,1,30,0,0
228024,-333.333333333333,4,1,1,30,0,0
228067,-58.8235294117647,4,1,1,30,0,0
228110,-333.333333333333,4,1,1,30,0,0
228153,-58.8235294117647,4,1,1,30,0,0
228196,-333.333333333333,4,1,1,30,0,0
228239,-58.8235294117647,4,1,1,30,0,0
228282,-333.333333333333,4,1,1,30,0,0
228325,-58.8235294117647,4,1,1,30,0,0
228368,-333.333333333333,4,1,1,30,0,0
228412,-58.8235294117647,4,1,1,30,0,0
228455,-333.333333333333,4,1,1,30,0,0
228498,-58.8235294117647,4,1,1,30,0,0
228541,-333.333333333333,4,1,1,30,0,0
228584,-58.8235294117647,4,1,1,30,0,0
228627,-333.333333333333,4,1,1,30,0,0
228670,-58.8235294117647,4,1,1,30,0,0
228692,-333.333333333333,4,1,1,30,0,0
228713,-58.8235294117647,4,1,1,30,0,0
228735,-333.333333333333,4,1,1,30,0,0
228756,-58.8235294117647,4,1,1,30,0,0
228778,-333.333333333333,4,1,1,30,0,0
228800,-58.8235294117647,4,1,1,30,0,0
228821,-333.333333333333,4,1,1,30,0,0
228843,-58.8235294117647,4,1,1,30,0,0
228864,-333.333333333333,4,1,1,30,0,0
228886,-58.8235294117647,4,1,1,30,0,0
228907,-333.333333333333,4,1,1,30,0,0
228929,-58.8235294117647,4,1,1,30,0,0
228950,-333.333333333333,4,1,1,30,0,0
228972,-58.8235294117647,4,1,1,30,0,0
228993,-333.333333333333,4,1,1,30,0,0
229015,-100,4,1,1,30,0,0
239705,-52.6315789473684,4,1,1,30,0,0
239748,-1000,4,1,1,30,0,0
239791,-52.6315789473684,4,1,1,30,0,0
239834,-1000,4,1,1,30,0,0
239877,-52.6315789473684,4,1,1,30,0,0
239920,-1000,4,1,1,30,0,0
239963,-52.6315789473684,4,1,1,30,0,0
240006,-1000,4,1,1,30,0,0
240050,-100,4,1,1,30,0,0
240141.95,-101.010101010101,4,1,1,30,0,0
240233.9,-102.040816326531,4,1,1,30,0,0
240325.85,-103.092783505155,4,1,1,30,0,0
240417.8,-104.166666666667,4,1,1,30,0,0
240509.75,-105.263157894737,4,1,1,30,0,0
240601.7,-106.382978723404,4,1,1,30,0,0
240693.65,-107.52688172043,4,1,1,30,0,0
240785.6,-108.695652173913,4,1,1,30,0,0
240877.55,-109.89010989011,4,1,1,30,0,0
240969.5,-111.111111111111,4,1,1,30,0,0
241061.45,-112.359550561798,4,1,1,30,0,0
241153.4,-113.636363636364,4,1,1,30,0,0
241245.35,-114.942528735632,4,1,1,30,0,0
241337.3,-116.279069767442,4,1,1,30,0,0
241429.25,-117.647058823529,4,1,1,30,0,0
241521.2,-119.047619047619,4,1,1,30,0,0
241613.15,-120.481927710843,4,1,1,30,0,0
241705.1,-121.951219512195,4,1,1,30,0,0
241797.05,-123.456790123457,4,1,1,30,0,0
241889,-125,4,1,1,30,0,0
241980.95,-126.582278481013,4,1,1,30,0,0
242072.9,-128.205128205128,4,1,1,30,0,0
242164.85,-129.87012987013,4,1,1,30,0,0
242256.8,-131.578947368421,4,1,1,30,0,0
242348.75,-133.333333333333,4,1,1,30,0,0
242440.7,-135.135135135135,4,1,1,30,0,0
242532.65,-136.986301369863,4,1,1,30,0,0
242624.6,-138.888888888889,4,1,1,30,0,0
242716.55,-140.845070422535,4,1,1,30,0,0
242808.5,-142.857142857143,4,1,1,30,0,0
242900.45,-144.927536231884,4,1,1,30,0,0
242992.4,-147.058823529412,4,1,1,30,0,0
243084.35,-149.253731343284,4,1,1,30,0,0
243176.3,-151.515151515152,4,1,1,30,0,0
243268.25,-153.846153846154,4,1,1,30,0,0
243360.2,-156.25,4,1,1,30,0,0
243452.15,-158.730158730159,4,1,1,30,0,0
243544.1,-161.290322580645,4,1,1,30,0,0
243636.05,-163.934426229508,4,1,1,30,0,0
243728,-166.666666666667,4,1,1,30,0,0
243819.95,-169.491525423729,4,1,1,30,0,0
243911.9,-172.413793103448,4,1,1,30,0,0
244003.85,-175.438596491228,4,1,1,30,0,0
244095.8,-178.571428571429,4,1,1,30,0,0
244187.75,-181.818181818182,4,1,1,30,0,0
244279.7,-185.185185185185,4,1,1,30,0,0
244371.65,-188.679245283019,4,1,1,30,0,0
244463.6,-192.307692307692,4,1,1,30,0,0
244555.55,-196.078431372549,4,1,1,30,0,0
244647.5,-200,4,1,1,30,0,0
244739.45,-204.081632653061,4,1,1,30,0,0
244831.4,-208.333333333333,4,1,1,30,0,0
244923.35,-212.765957446808,4,1,1,30,0,0
245015.3,-217.391304347826,4,1,1,30,0,0
245107.25,-222.222222222222,4,1,1,30,0,0
245199.2,-227.272727272727,4,1,1,30,0,0
245291.15,-232.558139534884,4,1,1,30,0,0
245383.1,-238.095238095238,4,1,1,30,0,0
245475.05,-243.90243902439,4,1,1,30,0,0
245567,-250,4,1,1,30,0,0
262118,-250,4,1,1,30,0,0
262577.783333333,-243.90243902439,4,1,1,30,0,0
263037.566666667,-238.095238095238,4,1,1,30,0,0
263497.35,-232.558139534884,4,1,1,30,0,0
263957.133333333,-227.272727272727,4,1,1,30,0,0
264416.916666667,-222.222222222222,4,1,1,30,0,0
264876.7,-217.391304347826,4,1,1,30,0,0
265336.483333333,-212.765957446809,4,1,1,30,0,0
265796.266666667,-208.333333333333,4,1,1,30,0,0
266256.05,-204.081632653061,4,1,1,30,0,0
266715.833333333,-200,4,1,1,30,0,0
267175.616666667,-196.078431372549,4,1,1,30,0,0
267635.4,-192.307692307692,4,1,1,30,0,0
268095.183333333,-188.679245283019,4,1,1,30,0,0
268554.966666667,-185.185185185185,4,1,1,30,0,0
269014.75,-181.818181818182,4,1,1,30,0,0
269474.533333333,-178.571428571429,4,1,1,30,0,0
269934.316666667,-175.438596491228,4,1,1,30,0,0
270394.1,-172.413793103448,4,1,1,30,0,0
270853.883333333,-169.491525423729,4,1,1,30,0,0
271313.666666667,-166.666666666667,4,1,1,30,0,0
271773.45,-163.934426229508,4,1,1,30,0,0
272233.233333333,-161.290322580645,4,1,1,30,0,0
272693.016666667,-158.730158730159,4,1,1,30,0,0
273152.8,-156.25,4,1,1,30,0,0
273612.583333333,-153.846153846154,4,1,1,30,0,0
274072.366666667,-151.515151515152,4,1,1,30,0,0
274532.15,-149.253731343284,4,1,1,30,0,0
274991.933333333,-147.058823529412,4,1,1,30,0,0
275451.716666667,-144.927536231884,4,1,1,30,0,0
275911.5,-142.857142857143,4,1,1,30,0,0
276371.283333333,-140.845070422535,4,1,1,30,0,0
276831.066666667,-138.888888888889,4,1,1,30,0,0
277290.85,-136.986301369863,4,1,1,30,0,0
277750.633333333,-135.135135135135,4,1,1,30,0,0
278210.416666667,-133.333333333333,4,1,1,30,0,0
278670.2,-131.578947368421,4,1,1,30,0,0
279129.983333333,-129.87012987013,4,1,1,30,0,0
279589.766666667,-128.205128205128,4,1,1,30,0,0
280049.55,-126.582278481013,4,1,1,30,0,0
280509.333333333,-125,4,1,1,30,0,0
280969.116666667,-123.456790123457,4,1,1,30,0,0
281428.9,-121.951219512195,4,1,1,30,0,0
281888.683333333,-120.481927710843,4,1,1,30,0,0
282348.466666667,-119.047619047619,4,1,1,30,0,0
282808.25,-117.647058823529,4,1,1,30,0,0
283268.033333333,-116.279069767442,4,1,1,30,0,0
283727.816666667,-114.942528735632,4,1,1,30,0,0
284187.6,-113.636363636364,4,1,1,30,0,0
284647.383333333,-112.359550561798,4,1,1,30,0,0
285107.166666667,-111.111111111111,4,1,1,30,0,0
285566.95,-109.89010989011,4,1,1,30,0,0
286026.733333333,-108.695652173913,4,1,1,30,0,0
286486.516666667,-107.52688172043,4,1,1,30,0,0
286946.3,-106.382978723404,4,1,1,30,0,0
287406.083333333,-105.263157894737,4,1,1,30,0,0
287865.866666667,-104.166666666667,4,1,1,30,0,0
288325.65,-103.092783505155,4,1,1,30,0,0
288785.433333333,-102.040816326531,4,1,1,30,0,0
289245.216666667,-101.010101010101,4,1,1,30,0,0
289705,-100,4,1,1,30,0,0
295222,-1000,4,1,1,30,0,0
295394,-66.6666666666667,4,1,1,30,0,0
295588,-1000,4,1,1,30,0,0
295739,-66.6666666666667,4,1,1,30,0,0
295933,-1000,4,1,1,30,0,0
296084,-66.6666666666667,4,1,1,30,0,0
296278,-1000,4,1,1,30,0,0
296429,-500,4,1,1,30,0,0
296472,-200,4,1,1,30,0,0
296515,-125,4,1,1,30,0,0
296558,-83.3333333333333,4,1,1,30,0,0
296601,-100,4,1,1,30,0,0
297636,-250,4,1,1,30,0,0
297722,-125,4,1,1,30,0,0
297808,-83.3333333333333,4,1,1,30,0,0
297894,-62.5,4,1,1,30,0,0
297981,-100,4,1,1,30,0,0
307636,-66.6666666666667,4,1,1,30,0,0
307722,-200,4,1,1,30,0,0
307808,-66.6666666666667,4,1,1,30,0,0
307894,-200,4,1,1,30,0,0
307981,-66.6666666666667,4,1,1,30,0,0
308067,-200,4,1,1,30,0,0
308153,-66.6666666666667,4,1,1,30,0,0
308239,-200,4,1,1,30,0,0
308325,-66.6666666666667,4,1,1,30,0,0
308412,-200,4,1,1,30,0,0
308498,-66.6666666666667,4,1,1,30,0,0
308584,-200,4,1,1,30,0,0
308670,-52.6315789473684,4,1,1,30,0,0
308713,-1000,4,1,1,30,0,0
308756,-52.6315789473684,4,1,1,30,0,0
308800,-1000,4,1,1,30,0,0
308843,-52.6315789473684,4,1,1,30,0,0
308886,-1000,4,1,1,30,0,0
308929,-52.6315789473684,4,1,1,30,0,0
308972,-1000,4,1,1,30,0,0
309015,-100,4,1,1,30,0,0
317291,-10,4,1,1,30,0,0
317312,-166.666666666667,4,1,1,30,0,0
319015,-10,4,1,1,30,0,0
319037,-125,4,1,1,30,0,0
319532,-66.6666666666667,4,1,1,30,0,0
319618,-200,4,1,1,30,0,0
319705,-52.6315789473684,4,1,1,30,0,0
319748,-1000,4,1,1,30,0,0
319791,-52.6315789473684,4,1,1,30,0,0
319834,-1000,4,1,1,30,0,0
319877,-52.6315789473684,4,1,1,30,0,0
319920,-1000,4,1,1,30,0,0
319963,-52.6315789473684,4,1,1,30,0,0
320006,-1000,4,1,1,30,0,0
320050,-100,4,1,1,30,0,0
329705,-52.6315789473684,4,1,1,30,0,0
329748,-1000,4,1,1,30,0,0
329791,-52.6315789473684,4,1,1,30,0,0
329834,-1000,4,1,1,30,0,0
329877,-52.6315789473684,4,1,1,30,0,0
329920,-1000,4,1,1,30,0,0
329963,-52.6315789473684,4,1,1,30,0,0
330006,-1000,4,1,1,30,0,0
330050,-66.6666666666667,4,1,1,30,0,0
330136,-200,4,1,1,30,0,0
330222,-66.6666666666667,4,1,1,30,0,0
330308,-200,4,1,1,30,0,0
330394,-66.6666666666667,4,1,1,30,0,0
330481,-200,4,1,1,30,0,0
330567,-66.6666666666667,4,1,1,30,0,0
330653,-200,4,1,1,30,0,0
330739,-33.3333333333333,4,1,1,30,0,0
330782,-200,4,1,1,30,0,0
330912,-100,4,1,1,30,0,0
330998,-66.6666666666667,4,1,1,30,0,0
331084,-100,4,1,1,30,0,0
339360,-52.6315789473684,4,1,1,30,0,0
339403,-1000,4,1,1,30,0,0
339446,-52.6315789473684,4,1,1,30,0,0
339489,-1000,4,1,1,30,0,0
339532,-52.6315789473684,4,1,1,30,0,0
339575,-1000,4,1,1,30,0,0
339618,-52.6315789473684,4,1,1,30,0,0
339662,-1000,4,1,1,30,0,0
339705,-52.6315789473684,4,1,1,30,0,0
339748,-1000,4,1,1,30,0,0
339791,-52.6315789473684,4,1,1,30,0,0
339834,-1000,4,1,1,30,0,0
339877,-52.6315789473684,4,1,1,30,0,0
339920,-1000,4,1,1,30,0,0
339963,-52.6315789473684,4,1,1,30,0,0
340006,-1000,4,1,1,30,0,0
340050,-52.6315789473684,4,1,1,30,0,0
340093,-1000,4,1,1,30,0,0
340136,-52.6315789473684,4,1,1,30,0,0
340179,-1000,4,1,1,30,0,0
340222,-52.6315789473684,4,1,1,30,0,0
340265,-1000,4,1,1,30,0,0
340308,-52.6315789473684,4,1,1,30,0,0
340351,-1000,4,1,1,30,0,0
340394,-52.6315789473684,4,1,1,30,0,0
340437,-1000,4,1,1,30,0,0
340481,-52.6315789473684,4,1,1,30,0,0
340524,-1000,4,1,1,30,0,0
340567,-52.6315789473684,4,1,1,30,0,0
340610,-1000,4,1,1,30,0,0
340653,-52.6315789473684,4,1,1,30,0,0
340696,-1000,4,1,1,30,0,0
340739,-100,4,1,1,30,0,0
342118,-111.111111111111,4,1,1,30,0,0
364187,-125,4,1,1,30,0,0
383843,-111.111111111111,4,1,1,30,0,0
385222,-100,4,1,1,30,0,0

[HitObjects]
329,192,50,5,2,0:0:0:0:
256,192,739,128,0,1084:0:0:0:0:
182,192,1084,128,0,1429:0:0:0:0:
329,192,1429,128,0,1774:0:0:0:0:
475,192,1774,128,0,2463:0:0:0:0:
402,192,2463,128,0,3153:0:0:0:0:
109,192,2463,128,0,2808:0:0:0:0:
182,192,2808,128,0,3153:0:0:0:0:
329,192,3153,128,0,3843:0:0:0:0:
256,192,3153,128,0,3843:0:0:0:0:
109,192,3843,128,0,4532:0:0:0:0:
329,192,4532,1,0,0:0:0:0:
182,192,4877,128,0,5222:0:0:0:0:
475,192,4877,1,0,0:0:0:0:
36,192,5222,128,0,5567:0:0:0:0:
329,192,5222,1,0,0:0:0:0:
256,192,5567,1,2,0:0:0:0:
402,192,5567,1,0,0:0:0:0:
109,192,5912,1,0,0:0:0:0:
329,192,6256,128,0,6946:0:0:0:0:
182,192,6256,1,0,0:0:0:0:
182,192,7636,128,0,8325:0:0:0:0:
402,192,7981,128,0,8325:0:0:0:0:
475,192,8325,1,2,0:0:0:0:
109,192,8325,1,0,0:0:0:0:
36,192,8325,1,0,0:0:0:0:
329,192,8670,128,0,9360:0:0:0:0:
256,192,8670,128,0,9360:0:0:0:0:
402,192,9360,128,0,10050:0:0:0:0:
475,192,9360,128,0,10050:0:0:0:0:
36,192,10050,128,0,11084:0:0:0:0:
182,192,10050,1,0,0:0:0:0:
329,192,10222,1,0,0:0:0:0:
475,192,10394,128,2,10739:0:0:0:0:
256,192,10739,128,0,11084:0:0:0:0:
402,192,11084,1,2,0:0:0:0:
182,192,11084,1,0,0:0:0:0:
475,192,11774,128,0,12118:0:0:0:0:
109,192,12118,128,0,12463:0:0:0:0:
329,192,12463,128,0,12808:0:0:0:0:
256,192,13153,128,0,13498:0:0:0:0:
182,192,13498,128,0,13843:0:0:0:0:
402,192,13843,1,2,0:0:0:0:
36,192,13843,1,0,0:0:0:0:
402,192,14187,128,0,14532:0:0:0:0:
256,192,14187,1,0,0:0:0:0:
182,192,14532,128,0,14877:0:0:0:0:
475,192,14532,1,0,0:0:0:0:
329,192,14877,1,0,0:0:0:0:
36,192,15222,128,0,15912:0:0:0:0:
109,192,15222,1,0,0:0:0:0:
256,192,15567,1,0,0:0:0:0:
182,192,15912,128,0,16256:0:0:0:0:
402,192,15912,1,0,0:0:0:0:
475,192,16256,128,0,16601:0:0:0:0:
329,192,16256,1,0,0:0:0:0:
36,192,16601,1,2,0:0:0:0:
329,192,17291,128,0,17636:0:0:0:0:
182,192,17636,128,0,17981:0:0:0:0:
256,192,17981,128,0,18325:0:0:0:0:
402,192,18670,128,0,19360:0:0:0:0:
109,192,19015,128,0,19360:0:0:0:0:
329,192,19360,128,0,20050:0:0:0:0:
182,192,19705,128,0,20050:0:0:0:0:
475,192,20050,128,0,20394:0:0:0:0:
256,192,20739,128,0,21084:0:0:0:0:
36,192,21084,128,0,21429:0:0:0:0:
182,192,21429,1,2,0:0:0:0:
475,192,21429,1,0,0:0:0:0:
402,192,21601,1,0,0:0:0:0:
329,192,21774,128,0,22118:0:0:0:0:
182,192,22118,128,0,22463:0:0:0:0:
109,192,22463,128,0,23153:0:0:0:0:
402,192,22808,128,0,23153:0:0:0:0:
329,192,23153,128,0,23843:0:0:0:0:
182,192,23498,128,0,23843:0:0:0:0:
475,192,23843,128,0,24532:0:0:0:0:
256,192,24532,128,0,25222:0:0:0:0:
36,192,24532,128,0,24877:0:0:0:0:
182,192,25222,128,0,25912:0:0:0:0:
329,192,25222,128,0,25912:0:0:0:0:
402,192,25912,128,0,26256:0:0:0:0:
329,192,26601,128,0,27291:0:0:0:0:
475,192,27291,128,0,27981:0:0:0:0:
109,192,27636,1,2,0:0:0:0:
329,192,28325,1,2,0:0:0:0:
256,192,29705,128,0,30050:0:0:0:0:
402,192,29705,128,0,30050:0:0:0:0:
182,192,30050,128,0,30739:0:0:0:0:
329,192,30050,128,0,30394:0:0:0:0:
36,192,30739,128,0,31256:0:0:0:0:
329,192,30912,128,0,31256:0:0:0:0:
256,192,32463,1,2,0:0:0:0:
329,192,33153,128,0,33498:0:0:0:0:
109,192,33498,128,0,34187:0:0:0:0:
402,192,33843,128,0,34187:0:0:0:0:
182,192,34187,128,0,34877:0:0:0:0:
329,192,34532,128,0,34877:0:0:0:0:
475,192,34877,128,0,35567:0:0:0:0:
36,192,35567,128,0,36256:0:0:0:0:
402,192,35912,1,2,0:0:0:0:
182,192,36256,128,0,36946:0:0:0:0:
329,192,36601,128,0,36946:0:0:0:0:
256,192,36946,128,0,37636:0:0:0:0:
109,192,37636,128,0,38325:0:0:0:0:
475,192,38325,128,0,38670:0:0:0:0:
182,192,38670,1,2,0:0:0:0:
329,192,40739,128,0,41084:0:0:0:0:
182,192,40739,128,0,41084:0:0:0:0:
109,192,41084,128,0,42463:0:0:0:0:
402,192,41084,128,0,42463:0:0:0:0:
256,192,41429,1,2,0:0:0:0:
182,192,43843,128,0,44187:0:0:0:0:
475,192,44187,1,8,0:0:0:0:
402,192,44187,1,0,0:0:0:0:
329,192,44187,1,0,0:0:0:0:
475,192,44532,1,8,0:0:0:0:
402,192,44532,1,0,0:0:0:0:
329,192,44532,1,0,0:0:0:0:
182,192,44705,1,0,0:0:0:0:
182,192,44791,1,0,0:0:0:0:
475,192,44877,1,8,0:0:0:0:
402,192,44877,1,0,0:0:0:0:
329,192,44877,1,0,0:0:0:0:
36,192,45050,128,0,45222:0:0:0:0:
475,192,45222,1,8,0:0:0:0:
402,192,45222,1,0,0:0:0:0:
329,192,45222,1,0,0:0:0:0:
475,192,45567,1,8,0:0:0:0:
402,192,45567,1,0,0:0:0:0:
109,192,45653,1,0,0:0:0:0:
36,192,45653,1,0,0:0:0:0:
402,192,45739,1,0,0:0:0:0:
329,192,45739,1,0,0:0:0:0:
182,192,45825,1,0,0:0:0:0:
109,192,45825,1,0,0:0:0:0:
475,192,45912,1,8,0:0:0:0:
402,192,45912,1,0,0:0:0:0:
36,192,45998,1,0,0:0:0:0:
109,192,45998,1,0,0:0:0:0:
329,192,46084,1,0,0:0:0:0:
402,192,46084,1,0,0:0:0:0:
182,192,46170,1,0,0:0:0:0:
109,192,46170,1,0,0:0:0:0:
329,192,46256,1,8,0:0:0:0:
475,192,46256,1,0,0:0:0:0:
182,192,46343,1,0,0:0:0:0:
36,192,46343,1,0,0:0:0:0:
475,192,46429,1,0,0:0:0:0:
329,192,46429,1,0,0:0:0:0:
36,192,46515,1,0,0:0:0:0:
182,192,46515,1,0,0:0:0:0:
475,192,46601,1,8,0:0:0:0:
402,192,46601,1,0,0:0:0:0:
329,192,46601,1,0,0:0:0:0:
256,192,46601,128,0,46946:0:0:0:0:
475,192,46946,1,4,0:0:0:0:
402,192,46946,1,0,0:0:0:0:
109,192,46946,1,0,0:0:0:0:
36,192,46946,1,0,0:0:0:0:
182,192,47118,1,0,0:0:0:0:
329,192,47118,1,0,0:0:0:0:
256,192,47291,1,8,0:0:0:0:
36,192,47291,1,0,0:0:0:0:
475,192,47291,1,0,0:0:0:0:
402,192,47291,1,0,0:0:0:0:
109,192,47463,1,2,0:0:0:0:
329,192,47463,1,0,0:0:0:0:
182,192,47550,1,2,0:0:0:0:
402,192,47550,1,0,0:0:0:0:
256,192,47636,1,2,0:0:0:0:
36,192,47636,1,0,0:0:0:0:
109,192,47722,1,2,0:0:0:0:
329,192,47722,1,0,0:0:0:0:
402,192,47808,1,0,0:0:0:0:
182,192,47808,1,0,0:0:0:0:
475,192,47808,1,0,0:0:0:0:
475,192,47981,1,8,0:0:0:0:
329,192,47981,1,0,0:0:0:0:
109,192,47981,1,0,0:0:0:0:
36,192,47981,1,0,0:0:0:0:
402,192,48153,1,0,0:0:0:0:
182,192,48153,1,0,0:0:0:0:
329,192,48325,1,0,0:0:0:0:
109,192,48325,1,0,0:0:0:0:
475,192,48498,1,0,0:0:0:0:
182,192,48498,1,0,0:0:0:0:
256,192,48498,1,0,0:0:0:0:
475,192,48670,1,8,0:0:0:0:
329,192,48670,1,0,0:0:0:0:
109,192,48670,1,0,0:0:0:0:
36,192,48670,1,0,0:0:0:0:
402,192,48843,1,2,0:0:0:0:
256,192,48843,1,0,0:0:0:0:
329,192,48929,1,2,0:0:0:0:
182,192,48929,1,0,0:0:0:0:
256,192,49015,1,2,0:0:0:0:
109,192,49015,1,0,0:0:0:0:
182,192,49187,1,0,0:0:0:0:
36,192,49187,1,0,0:0:0:0:
475,192,49187,1,0,0:0:0:0:
475,192,49360,1,8,0:0:0:0:
402,192,49360,1,0,0:0:0:0:
109,192,49360,1,0,0:0:0:0:
36,192,49360,1,0,0:0:0:0:
329,192,49532,1,0,0:0:0:0:
182,192,49532,1,0,0:0:0:0:
36,192,49705,1,0,0:0:0:0:
256,192,49705,1,0,0:0:0:0:
402,192,49705,1,0,0:0:0:0:
329,192,49877,1,0,0:0:0:0:
182,192,49877,1,0,0:0:0:0:
475,192,50050,1,8,0:0:0:0:
256,192,50050,1,0,0:0:0:0:
109,192,50050,1,0,0:0:0:0:
36,192,50050,1,0,0:0:0:0:
402,192,50222,1,2,0:0:0:0:
182,192,50222,1,0,0:0:0:0:
329,192,50308,1,2,0:0:0:0:
109,192,50308,1,0,0:0:0:0:
256,192,50394,1,2,0:0:0:0:
36,192,50394,1,0,0:0:0:0:
182,192,50481,1,2,0:0:0:0:
475,192,50481,1,0,0:0:0:0:
329,192,50567,1,0,0:0:0:0:
109,192,50567,1,0,0:0:0:0:
402,192,50567,1,0,0:0:0:0:
475,192,50739,1,8,0:0:0:0:
402,192,50739,1,0,0:0:0:0:
182,192,50739,1,0,0:0:0:0:
36,192,50739,1,0,0:0:0:0:
329,192,50912,1,0,0:0:0:0:
256,192,50912,1,0,0:0:0:0:
402,192,51084,1,0,0:0:0:0:
109,192,51084,1,0,0:0:0:0:
475,192,51256,1,0,0:0:0:0:
182,192,51256,1,0,0:0:0:0:
36,192,51256,1,0,0:0:0:0:
475,192,51429,1,8,0:0:0:0:
329,192,51429,1,0,0:0:0:0:
109,192,51429,1,0,0:0:0:0:
36,192,51429,1,0,0:0:0:0:
402,192,51601,1,2,0:0:0:0:
256,192,51601,1,0,0:0:0:0:
329,192,51687,1,2,0:0:0:0:
182,192,51687,1,0,0:0:0:0:
256,192,51774,1,2,0:0:0:0:
109,192,51774,1,0,0:0:0:0:
475,192,51946,1,0,0:0:0:0:
182,192,51946,1,0,0:0:0:0:
36,192,51946,1,0,0:0:0:0:
109,192,52118,1,8,0:0:0:0:
36,192,52118,1,0,0:0:0:0:
475,192,52118,1,0,0:0:0:0:
256,192,52118,1,0,0:0:0:0:
329,192,52291,1,0,0:0:0:0:
182,192,52291,1,0,0:0:0:0:
475,192,52463,1,0,0:0:0:0:
256,192,52463,1,0,0:0:0:0:
36,192,52463,1,0,0:0:0:0:
109,192,52636,1,0,0:0:0:0:
329,192,52636,1,0,0:0:0:0:
475,192,52808,1,8,0:0:0:0:
256,192,52808,1,0,0:0:0:0:
402,192,52808,1,0,0:0:0:0:
36,192,52808,1,0,0:0:0:0:
109,192,52981,1,2,0:0:0:0:
329,192,52981,1,0,0:0:0:0:
182,192,53067,1,2,0:0:0:0:
402,192,53067,1,0,0:0:0:0:
256,192,53153,1,2,0:0:0:0:
36,192,53153,1,0,0:0:0:0:
109,192,53239,1,2,0:0:0:0:
475,192,53239,1,0,0:0:0:0:
182,192,53325,1,0,0:0:0:0:
402,192,53325,1,0,0:0:0:0:
329,192,53325,1,0,0:0:0:0:
256,192,53498,1,8,0:0:0:0:
109,192,53498,1,0,0:0:0:0:
36,192,53498,1,0,0:0:0:0:
475,192,53498,1,0,0:0:0:0:
329,192,53670,1,0,0:0:0:0:
182,192,53670,1,0,0:0:0:0:
402,192,53843,1,0,0:0:0:0:
256,192,53843,1,0,0:0:0:0:
329,192,54015,1,0,0:0:0:0:
182,192,54015,1,0,0:0:0:0:
36,192,54015,1,0,0:0:0:0:
256,192,54187,1,8,0:0:0:0:
109,192,54187,1,0,0:0:0:0:
36,192,54187,1,0,0:0:0:0:
475,192,54187,1,0,0:0:0:0:
182,192,54360,1,2,0:0:0:0:
402,192,54360,1,0,0:0:0:0:
329,192,54446,1,2,0:0:0:0:
109,192,54446,1,0,0:0:0:0:
402,192,54532,1,2,0:0:0:0:
36,192,54532,1,0,0:0:0:0:
256,192,54705,1,0,0:0:0:0:
109,192,54705,1,0,0:0:0:0:
329,192,54705,1,0,0:0:0:0:
475,192,54877,1,8,0:0:0:0:
182,192,54877,1,0,0:0:0:0:
36,192,54877,1,0,0:0:0:0:
329,192,54877,1,0,0:0:0:0:
109,192,55050,1,0,0:0:0:0:
402,192,55050,1,0,0:0:0:0:
182,192,55222,1,0,0:0:0:0:
36,192,55222,1,0,0:0:0:0:
475,192,55222,1,0,0:0:0:0:
402,192,55394,1,0,0:0:0:0:
256,192,55394,1,0,0:0:0:0:
109,192,55567,1,8,0:0:0:0:
36,192,55567,1,0,0:0:0:0:
475,192,55567,1,0,0:0:0:0:
329,192,55567,1,0,0:0:0:0:
182,192,55739,1,2,0:0:0:0:
402,192,55739,1,0,0:0:0:0:
329,192,55825,1,2,0:0:0:0:
109,192,55825,1,0,0:0:0:0:
256,192,55912,1,2,0:0:0:0:
36,192,55912,1,0,0:0:0:0:
329,192,55998,1,2,0:0:0:0:
182,192,55998,1,0,0:0:0:0:
402,192,56084,1,0,0:0:0:0:
109,192,56084,1,0,0:0:0:0:
475,192,56084,1,0,0:0:0:0:
402,192,56256,1,8,0:0:0:0:
256,192,56256,1,0,0:0:0:0:
182,192,56256,1,0,0:0:0:0:
36,192,56256,1,0,0:0:0:0:
329,192,56429,1,0,0:0:0:0:
109,192,56429,1,0,0:0:0:0:
475,192,56601,1,0,0:0:0:0:
256,192,56601,1,0,0:0:0:0:
329,192,56774,1,0,0:0:0:0:
109,192,56774,1,0,0:0:0:0:
402,192,56774,1,0,0:0:0:0:
402,192,56946,1,8,0:0:0:0:
182,192,56946,1,0,0:0:0:0:
36,192,56946,1,0,0:0:0:0:
256,192,56946,1,0,0:0:0:0:
109,192,57118,1,2,0:0:0:0:
329,192,57118,1,0,0:0:0:0:
182,192,57205,1,2,0:0:0:0:
402,192,57205,1,0,0:0:0:0:
256,192,57291,1,2,0:0:0:0:
36,192,57291,1,0,0:0:0:0:
182,192,57377,1,2,0:0:0:0:
329,192,57377,1,0,0:0:0:0:
36,192,57463,1,0,0:0:0:0:
402,192,57463,1,0,0:0:0:0:
182,192,57550,1,2,0:0:0:0:
329,192,57550,1,0,0:0:0:0:
36,192,57636,1,8,0:0:0:0:
475,192,57636,1,0,0:0:0:0:
256,192,57636,1,0,0:0:0:0:
109,192,57636,1,0,0:0:0:0:
182,192,57722,1,0,0:0:0:0:
402,192,57722,1,0,0:0:0:0:
109,192,57808,1,0,0:0:0:0:
329,192,57808,1,0,0:0:0:0:
182,192,57894,1,0,0:0:0:0:
402,192,57894,1,0,0:0:0:0:
109,192,57981,1,4,0:0:0:0:
475,192,57981,1,0,0:0:0:0:
256,192,57981,1,0,0:0:0:0:
36,192,57981,1,0,0:0:0:0:
329,192,57981,1,0,0:0:0:0:
182,192,58153,1,0,0:0:0:0:
329,192,58153,1,0,0:0:0:0:
475,192,58325,1,8,0:0:0:0:
402,192,58325,1,0,0:0:0:0:
256,192,58325,1,0,0:0:0:0:
36,192,58325,1,0,0:0:0:0:
109,192,58498,1,2,0:0:0:0:
402,192,58498,1,0,0:0:0:0:
182,192,58584,1,2,0:0:0:0:
329,192,58584,1,0,0:0:0:0:
36,192,58670,1,2,0:0:0:0:
402,192,58670,1,0,0:0:0:0:
109,192,58756,1,2,0:0:0:0:
329,192,58756,1,0,0:0:0:0:
182,192,58843,1,0,0:0:0:0:
402,192,58843,1,0,0:0:0:0:
256,192,58843,1,0,0:0:0:0:
475,192,59015,1,8,0:0:0:0:
329,192,59015,1,0,0:0:0:0:
109,192,59015,1,0,0:0:0:0:
36,192,59015,1,0,0:0:0:0:
402,192,59187,1,0,0:0:0:0:
182,192,59187,1,0,0:0:0:0:
256,192,59360,1,0,0:0:0:0:
109,192,59360,1,0,0:0:0:0:
475,192,59532,1,0,0:0:0:0:
329,192,59532,1,0,0:0:0:0:
182,192,59532,1,0,0:0:0:0:
475,192,59705,1,8,0:0:0:0:
402,192,59705,1,0,0:0:0:0:
256,192,59705,1,0,0:0:0:0:
109,192,59705,1,0,0:0:0:0:
182,192,59877,1,2,0:0:0:0:
329,192,59877,1,0,0:0:0:0:
256,192,59963,1,2,0:0:0:0:
109,192,59963,1,0,0:0:0:0:
402,192,60050,1,2,0:0:0:0:
36,192,60050,1,0,0:0:0:0:
475,192,60222,1,0,0:0:0:0:
182,192,60222,1,0,0:0:0:0:
329,192,60222,1,0,0:0:0:0:
475,192,60394,1,8,0:0:0:0:
402,192,60394,1,0,0:0:0:0:
256,192,60394,1,0,0:0:0:0:
109,192,60394,1,0,0:0:0:0:
36,192,60567,1,0,0:0:0:0:
329,192,60567,1,0,0:0:0:0:
475,192,60739,1,0,0:0:0:0:
256,192,60739,1,0,0:0:0:0:
182,192,60739,1,0,0:0:0:0:
329,192,60912,1,0,0:0:0:0:
109,192,60912,1,0,0:0:0:0:
36,192,61084,1,8,0:0:0:0:
475,192,61084,1,0,0:0:0:0:
402,192,61084,1,0,0:0:0:0:
256,192,61084,1,0,0:0:0:0:
182,192,61256,1,2,0:0:0:0:
329,192,61256,1,0,0:0:0:0:
109,192,61343,1,2,0:0:0:0:
402,192,61343,1,0,0:0:0:0:
36,192,61429,1,2,0:0:0:0:
256,192,61429,1,0,0:0:0:0:
329,192,61515,1,2,0:0:0:0:
109,192,61515,1,0,0:0:0:0:
402,192,61601,1,0,0:0:0:0:
182,192,61601,1,0,0:0:0:0:
256,192,61601,1,0,0:0:0:0:
475,192,61774,1,8,0:0:0:0:
329,192,61774,1,0,0:0:0:0:
109,192,61774,1,0,0:0:0:0:
36,192,61774,1,0,0:0:0:0:
402,192,61946,1,0,0:0:0:0:
256,192,61946,1,0,0:0:0:0:
329,192,62118,1,0,0:0:0:0:
182,192,62118,1,0,0:0:0:0:
256,192,62291,1,0,0:0:0:0:
109,192,62291,1,0,0:0:0:0:
402,192,62291,1,0,0:0:0:0:
475,192,62463,1,8,0:0:0:0:
402,192,62463,1,0,0:0:0:0:
182,192,62463,1,0,0:0:0:0:
36,192,62463,1,0,0:0:0:0:
256,192,62636,1,2,0:0:0:0:
109,192,62636,1,0,0:0:0:0:
182,192,62722,1,2,0:0:0:0:
329,192,62722,1,0,0:0:0:0:
402,192,62808,1,2,0:0:0:0:
256,192,62808,1,0,0:0:0:0:
475,192,62981,1,0,0:0:0:0:
329,192,62981,1,0,0:0:0:0:
109,192,62981,1,0,0:0:0:0:
475,192,63153,1,8,0:0:0:0:
402,192,63153,1,0,0:0:0:0:
182,192,63153,1,0,0:0:0:0:
36,192,63153,1,0,0:0:0:0:
256,192,63325,1,0,0:0:0:0:
109,192,63325,1,0,0:0:0:0:
182,192,63498,1,0,0:0:0:0:
36,192,63498,1,0,0:0:0:0:
475,192,63498,1,0,0:0:0:0:
402,192,63670,1,0,0:0:0:0:
256,192,63670,1,0,0:0:0:0:
475,192,63843,1,8,0:0:0:0:
329,192,63843,1,0,0:0:0:0:
36,192,63843,1,0,0:0:0:0:
109,192,63843,1,0,0:0:0:0:
402,192,64015,1,2,0:0:0:0:
182,192,64015,1,0,0:0:0:0:
329,192,64101,1,2,0:0:0:0:
109,192,64101,1,0,0:0:0:0:
475,192,64187,1,2,0:0:0:0:
182,192,64187,1,0,0:0:0:0:
402,192,64274,1,2,0:0:0:0:
36,192,64274,1,0,0:0:0:0:
329,192,64360,1,0,0:0:0:0:
109,192,64360,1,0,0:0:0:0:
256,192,64360,1,0,0:0:0:0:
475,192,64532,1,8,0:0:0:0:
402,192,64532,1,0,0:0:0:0:
182,192,64532,1,0,0:0:0:0:
36,192,64532,1,0,0:0:0:0:
329,192,64705,1,0,0:0:0:0:
182,192,64705,1,0,0:0:0:0:
256,192,64877,1,0,0:0:0:0:
109,192,64877,1,0,0:0:0:0:
329,192,65050,1,0,0:0:0:0:
182,192,65050,1,0,0:0:0:0:
475,192,65050,1,0,0:0:0:0:
475,192,65222,1,8,0:0:0:0:
402,192,65222,1,0,0:0:0:0:
256,192,65222,1,0,0:0:0:0:
109,192,65222,1,0,0:0:0:0:
329,192,65394,1,2,0:0:0:0:
182,192,65394,1,0,0:0:0:0:
109,192,65481,1,2,0:0:0:0:
402,192,65481,1,0,0:0:0:0:
256,192,65567,1,2,0:0:0:0:
36,192,65567,1,0,0:0:0:0:
402,192,65739,1,0,0:0:0:0:
109,192,65739,1,0,0:0:0:0:
475,192,65739,1,0,0:0:0:0:
475,192,65912,1,8,0:0:0:0:
329,192,65912,1,0,0:0:0:0:
182,192,65912,1,0,0:0:0:0:
36,192,65912,1,0,0:0:0:0:
402,192,66084,1,0,0:0:0:0:
256,192,66084,1,0,0:0:0:0:
109,192,66256,1,0,0:0:0:0:
36,192,66256,1,0,0:0:0:0:
329,192,66256,1,0,0:0:0:0:
402,192,66429,1,0,0:0:0:0:
182,192,66429,1,0,0:0:0:0:
475,192,66601,1,8,0:0:0:0:
402,192,66601,1,0,0:0:0:0:
256,192,66601,1,0,0:0:0:0:
109,192,66601,1,0,0:0:0:0:
182,192,66774,1,2,0:0:0:0:
329,192,66774,1,0,0:0:0:0:
109,192,66860,1,2,0:0:0:0:
402,192,66860,1,0,0:0:0:0:
36,192,66946,1,2,0:0:0:0:
256,192,66946,1,0,0:0:0:0:
329,192,67032,1,2,0:0:0:0:
109,192,67032,1,0,0:0:0:0:
475,192,67118,1,0,0:0:0:0:
402,192,67118,1,0,0:0:0:0:
182,192,67118,1,0,0:0:0:0:
402,192,67291,1,8,0:0:0:0:
256,192,67291,1,0,0:0:0:0:
109,192,67291,1,0,0:0:0:0:
36,192,67291,1,0,0:0:0:0:
329,192,67463,1,0,0:0:0:0:
182,192,67463,1,0,0:0:0:0:
475,192,67636,1,0,0:0:0:0:
256,192,67636,1,0,0:0:0:0:
36,192,67636,1,0,0:0:0:0:
475,192,67808,1,0,0:0:0:0:
329,192,67808,1,0,0:0:0:0:
109,192,67808,1,0,0:0:0:0:
475,192,67981,1,8,0:0:0:0:
402,192,67981,1,0,0:0:0:0:
182,192,67981,1,0,0:0:0:0:
36,192,67981,1,0,0:0:0:0:
329,192,68153,1,8,0:0:0:0:
109,192,68153,1,0,0:0:0:0:
36,192,68153,1,0,0:0:0:0:
402,192,68153,1,0,0:0:0:0:
475,192,68325,1,8,0:0:0:0:
329,192,68325,1,0,0:0:0:0:
182,192,68325,1,0,0:0:0:0:
402,192,68498,1,8,0:0:0:0:
256,192,68498,1,0,0:0:0:0:
109,192,68498,1,0,0:0:0:0:
475,192,68670,1,8,0:0:0:0:
402,192,68670,1,0,0:0:0:0:
329,192,68670,1,0,0:0:0:0:
182,192,68756,1,0,0:0:0:0:
109,192,68756,1,0,0:0:0:0:
36,192,68756,1,0,0:0:0:0:
475,192,68843,1,8,0:0:0:0:
329,192,68843,1,0,0:0:0:0:
402,192,68843,1,0,0:0:0:0:
182,192,68929,1,0,0:0:0:0:
36,192,68929,1,0,0:0:0:0:
109,192,68929,1,0,0:0:0:0:
475,192,69015,1,8,0:0:0:0:
402,192,69015,1,4,0:0:0:0:
256,192,69015,1,0,0:0:0:0:
329,192,69015,1,0,0:0:0:0:
182,192,69187,1,0,0:0:0:0:
329,192,69187,1,0,0:0:0:0:
256,192,69360,1,8,0:0:0:0:
475,192,69360,1,0,0:0:0:0:
109,192,69360,1,0,0:0:0:0:
36,192,69360,1,0,0:0:0:0:
182,192,69532,1,2,0:0:0:0:
402,192,69532,1,0,0:0:0:0:
329,192,69618,1,2,0:0:0:0:
109,192,69618,1,0,0:0:0:0:
475,192,69705,1,2,0:0:0:0:
256,192,69705,1,0,0:0:0:0:
182,192,69791,1,2,0:0:0:0:
402,192,69791,1,0,0:0:0:0:
36,192,69877,1,0,0:0:0:0:
109,192,69877,1,0,0:0:0:0:
329,192,69877,1,0,0:0:0:0:
182,192,70050,1,8,0:0:0:0:
36,192,70050,1,0,0:0:0:0:
402,192,70050,1,0,0:0:0:0:
475,192,70050,1,0,0:0:0:0:
329,192,70222,1,0,0:0:0:0:
109,192,70222,1,0,0:0:0:0:
182,192,70394,1,0,0:0:0:0:
402,192,70394,1,0,0:0:0:0:
329,192,70567,1,0,0:0:0:0:
256,192,70567,1,0,0:0:0:0:
36,192,70567,1,0,0:0:0:0:
182,192,70739,1,8,0:0:0:0:
36,192,70739,1,0,0:0:0:0:
402,192,70739,1,0,0:0:0:0:
475,192,70739,1,0,0:0:0:0:
256,192,70912,1,2,0:0:0:0:
109,192,70912,1,0,0:0:0:0:
329,192,70998,1,2,0:0:0:0:
182,192,70998,1,0,0:0:0:0:
256,192,71084,1,2,0:0:0:0:
402,192,71084,1,0,0:0:0:0:
329,192,71256,1,0,0:0:0:0:
475,192,71256,1,0,0:0:0:0:
36,192,71256,1,0,0:0:0:0:
36,192,71429,1,8,0:0:0:0:
402,192,71429,1,0,0:0:0:0:
475,192,71429,1,0,0:0:0:0:
109,192,71429,1,0,0:0:0:0:
182,192,71601,1,0,0:0:0:0:
329,192,71601,1,0,0:0:0:0:
256,192,71774,1,0,0:0:0:0:
475,192,71774,1,0,0:0:0:0:
109,192,71774,1,0,0:0:0:0:
329,192,71946,1,0,0:0:0:0:
182,192,71946,1,0,0:0:0:0:
36,192,72118,1,8,0:0:0:0:
256,192,72118,1,0,0:0:0:0:
402,192,72118,1,0,0:0:0:0:
475,192,72118,1,0,0:0:0:0:
109,192,72291,1,2,0:0:0:0:
329,192,72291,1,0,0:0:0:0:
182,192,72377,1,2,0:0:0:0:
402,192,72377,1,0,0:0:0:0:
475,192,72463,1,2,0:0:0:0:
256,192,72463,1,0,0:0:0:0:
329,192,72550,1,2,0:0:0:0:
109,192,72550,1,0,0:0:0:0:
182,192,72636,1,0,0:0:0:0:
256,192,72636,1,0,0:0:0:0:
402,192,72636,1,0,0:0:0:0:
475,192,72808,1,8,0:0:0:0:
329,192,72808,1,0,0:0:0:0:
36,192,72808,1,0,0:0:0:0:
109,192,72808,1,0,0:0:0:0:
256,192,72981,1,0,0:0:0:0:
182,192,72981,1,0,0:0:0:0:
109,192,73153,1,0,0:0:0:0:
402,192,73153,1,0,0:0:0:0:
475,192,73325,1,0,0:0:0:0:
36,192,73325,1,0,0:0:0:0:
329,192,73325,1,0,0:0:0:0:
182,192,73498,1,8,0:0:0:0:
36,192,73498,1,0,0:0:0:0:
402,192,73498,1,0,0:0:0:0:
475,192,73498,1,0,0:0:0:0:
256,192,73670,1,2,0:0:0:0:
109,192,73670,1,0,0:0:0:0:
182,192,73756,1,2,0:0:0:0:
329,192,73756,1,0,0:0:0:0:
402,192,73843,1,2,0:0:0:0:
256,192,73843,1,0,0:0:0:0:
36,192,74015,1,0,0:0:0:0:
329,192,74015,1,0,0:0:0:0:
475,192,74015,1,0,0:0:0:0:
475,192,74187,1,8,0:0:0:0:
36,192,74187,1,0,0:0:0:0:
256,192,74187,1,0,0:0:0:0:
402,192,74187,1,0,0:0:0:0:
182,192,74360,1,0,0:0:0:0:
329,192,74360,1,0,0:0:0:0:
475,192,74532,1,0,0:0:0:0:
256,192,74532,1,0,0:0:0:0:
36,192,74532,1,0,0:0:0:0:
182,192,74705,1,0,0:0:0:0:
402,192,74705,1,0,0:0:0:0:
475,192,74877,1,8,0:0:0:0:
256,192,74877,1,0,0:0:0:0:
109,192,74877,1,0,0:0:0:0:
36,192,74877,1,0,0:0:0:0:
402,192,75050,1,2,0:0:0:0:
182,192,75050,1,0,0:0:0:0:
329,192,75136,1,2,0:0:0:0:
109,192,75136,1,0,0:0:0:0:
256,192,75222,1,2,0:0:0:0:
475,192,75222,1,0,0:0:0:0:
402,192,75308,1,2,0:0:0:0:
182,192,75308,1,0,0:0:0:0:
329,192,75394,1,0,0:0:0:0:
36,192,75394,1,0,0:0:0:0:
109,192,75394,1,0,0:0:0:0:
36,192,75567,1,8,0:0:0:0:
475,192,75567,1,0,0:0:0:0:
256,192,75567,1,0,0:0:0:0:
402,192,75567,1,0,0:0:0:0:
182,192,75739,1,0,0:0:0:0:
329,192,75739,1,0,0:0:0:0:
109,192,75912,1,0,0:0:0:0:
256,192,75912,1,0,0:0:0:0:
329,192,76084,1,0,0:0:0:0:
182,192,76084,1,0,0:0:0:0:
475,192,76084,1,0,0:0:0:0:
402,192,76256,1,8,0:0:0:0:
36,192,76256,1,0,0:0:0:0:
256,192,76256,1,0,0:0:0:0:
475,192,76256,1,0,0:0:0:0:
329,192,76429,1,2,0:0:0:0:
109,192,76429,1,0,0:0:0:0:
402,192,76515,1,2,0:0:0:0:
182,192,76515,1,0,0:0:0:0:
109,192,76601,1,2,0:0:0:0:
475,192,76601,1,0,0:0:0:0:
256,192,76774,1,0,0:0:0:0:
402,192,76774,1,0,0:0:0:0:
182,192,76774,1,0,0:0:0:0:
36,192,76946,1,8,0:0:0:0:
182,192,76946,1,0,0:0:0:0:
475,192,76946,1,0,0:0:0:0:
329,192,76946,1,0,0:0:0:0:
402,192,77118,1,0,0:0:0:0:
109,192,77118,1,0,0:0:0:0:
475,192,77291,1,0,0:0:0:0:
36,192,77291,1,0,0:0:0:0:
329,192,77291,1,0,0:0:0:0:
109,192,77463,1,0,0:0:0:0:
256,192,77463,1,0,0:0:0:0:
475,192,77636,1,8,0:0:0:0:
36,192,77636,1,0,0:0:0:0:
182,192,77636,1,0,0:0:0:0:
402,192,77636,1,0,0:0:0:0:
109,192,77808,1,2,0:0:0:0:
329,192,77808,1,0,0:0:0:0:
402,192,77894,1,2,0:0:0:0:
182,192,77894,1,0,0:0:0:0:
256,192,77981,1,2,0:0:0:0:
475,192,77981,1,0,0:0:0:0:
182,192,78067,1,2,0:0:0:0:
329,192,78067,1,0,0:0:0:0:
36,192,78153,1,0,0:0:0:0:
402,192,78153,1,0,0:0:0:0:
109,192,78153,1,0,0:0:0:0:
109,192,78325,1,8,0:0:0:0:
256,192,78325,1,0,0:0:0:0:
475,192,78325,1,0,0:0:0:0:
329,192,78325,1,0,0:0:0:0:
402,192,78498,1,0,0:0:0:0:
182,192,78498,1,0,0:0:0:0:
36,192,78670,1,0,0:0:0:0:
256,192,78670,1,0,0:0:0:0:
402,192,78843,1,0,0:0:0:0:
109,192,78843,1,0,0:0:0:0:
182,192,78843,1,0,0:0:0:0:
109,192,79015,1,8,0:0:0:0:
475,192,79015,1,0,0:0:0:0:
329,192,79015,1,0,0:0:0:0:
256,192,79015,1,0,0:0:0:0:
402,192,79187,1,2,0:0:0:0:
182,192,79187,1,0,0:0:0:0:
109,192,79274,1,2,0:0:0:0:
329,192,79274,1,0,0:0:0:0:
475,192,79360,1,8,0:0:0:0:
256,192,79360,1,0,0:0:0:0:
402,192,79360,1,0,0:0:0:0:
182,192,79446,1,8,0:0:0:0:
109,192,79446,1,0,0:0:0:0:
36,192,79446,1,0,0:0:0:0:
329,192,79532,1,0,0:0:0:0:
402,192,79532,1,0,0:0:0:0:
256,192,79705,1,8,0:0:0:0:
402,192,79705,1,0,0:0:0:0:
109,192,79705,1,0,0:0:0:0:
182,192,79877,1,0,0:0:0:0:
329,192,79877,1,0,0:0:0:0:
402,192,80050,1,4,0:0:0:0:
36,192,80050,1,0,0:0:0:0:
256,192,80050,1,0,0:0:0:0:
182,192,80050,1,0,0:0:0:0:
475,192,80050,1,0,0:0:0:0:
329,192,80222,1,0,0:0:0:0:
182,192,80222,1,0,0:0:0:0:
36,192,80394,1,8,0:0:0:0:
109,192,80394,1,0,0:0:0:0:
475,192,80394,1,0,0:0:0:0:
256,192,80394,1,0,0:0:0:0:
402,192,80567,1,2,0:0:0:0:
109,192,80567,1,0,0:0:0:0:
182,192,80653,1,2,0:0:0:0:
329,192,80653,1,0,0:0:0:0:
475,192,80739,1,2,0:0:0:0:
109,192,80739,1,0,0:0:0:0:
182,192,80825,1,2,0:0:0:0:
402,192,80825,1,0,0:0:0:0:
329,192,80912,1,0,0:0:0:0:
109,192,80912,1,0,0:0:0:0:
256,192,80912,1,0,0:0:0:0:
475,192,81084,1,8,0:0:0:0:
36,192,81084,1,0,0:0:0:0:
182,192,81084,1,0,0:0:0:0:
402,192,81084,1,0,0:0:0:0:
329,192,81256,1,0,0:0:0:0:
109,192,81256,1,0,0:0:0:0:
402,192,81429,1,0,0:0:0:0:
256,192,81429,1,0,0:0:0:0:
182,192,81601,1,0,0:0:0:0:
329,192,81601,1,0,0:0:0:0:
36,192,81601,1,0,0:0:0:0:
36,192,81774,1,8,0:0:0:0:
109,192,81774,1,0,0:0:0:0:
402,192,81774,1,0,0:0:0:0:
256,192,81774,1,0,0:0:0:0:
182,192,81946,1,2,0:0:0:0:
329,192,81946,1,0,0:0:0:0:
402,192,82032,1,2,0:0:0:0:
256,192,82032,1,0,0:0:0:0:
475,192,82118,1,2,0:0:0:0:
109,192,82118,1,0,0:0:0:0:
36,192,82291,1,0,0:0:0:0:
182,192,82291,1,0,0:0:0:0:
329,192,82291,1,0,0:0:0:0:
256,192,82463,1,8,0:0:0:0:
36,192,82463,1,0,0:0:0:0:
109,192,82463,1,0,0:0:0:0:
402,192,82463,1,0,0:0:0:0:
182,192,82636,1,0,0:0:0:0:
475,192,82636,1,0,0:0:0:0:
329,192,82808,1,0,0:0:0:0:
36,192,82808,1,0,0:0:0:0:
256,192,82808,1,0,0:0:0:0:
182,192,82981,1,0,0:0:0:0:
402,192,82981,1,0,0:0:0:0:
256,192,83153,1,8,0:0:0:0:
109,192,83153,1,0,0:0:0:0:
36,192,83153,1,0,0:0:0:0:
475,192,83153,1,0,0:0:0:0:
182,192,83325,1,2,0:0:0:0:
329,192,83325,1,0,0:0:0:0:
402,192,83412,1,2,0:0:0:0:
109,192,83412,1,0,0:0:0:0:
256,192,83498,1,2,0:0:0:0:
475,192,83498,1,0,0:0:0:0:
182,192,83584,1,2,0:0:0:0:
402,192,83584,1,0,0:0:0:0:
36,192,83670,1,0,0:0:0:0:
109,192,83670,1,0,0:0:0:0:
329,192,83670,1,0,0:0:0:0:
182,192,83843,1,8,0:0:0:0:
402,192,83843,1,0,0:0:0:0:
475,192,83843,1,0,0:0:0:0:
36,192,83843,1,0,0:0:0:0:
256,192,84015,1,0,0:0:0:0:
109,192,84015,1,0,0:0:0:0:
182,192,84187,1,0,0:0:0:0:
329,192,84187,1,0,0:0:0:0:
256,192,84360,1,0,0:0:0:0:
109,192,84360,1,0,0:0:0:0:
402,192,84360,1,0,0:0:0:0:
109,192,84532,1,8,0:0:0:0:
36,192,84532,1,0,0:0:0:0:
329,192,84532,1,0,0:0:0:0:
475,192,84532,1,0,0:0:0:0:
402,192,84705,1,2,0:0:0:0:
256,192,84705,1,0,0:0:0:0:
182,192,84791,1,2,0:0:0:0:
329,192,84791,1,0,0:0:0:0:
256,192,84877,1,2,0:0:0:0:
109,192,84877,1,0,0:0:0:0:
402,192,85050,1,0,0:0:0:0:
182,192,85050,1,0,0:0:0:0:
36,192,85050,1,0,0:0:0:0:
329,192,85222,1,8,0:0:0:0:
36,192,85222,1,0,0:0:0:0:
109,192,85222,1,0,0:0:0:0:
475,192,85222,1,0,0:0:0:0:
402,192,85394,1,0,0:0:0:0:
256,192,85394,1,0,0:0:0:0:
475,192,85567,1,0,0:0:0:0:
36,192,85567,1,0,0:0:0:0:
329,192,85567,1,0,0:0:0:0:
109,192,85739,1,0,0:0:0:0:
256,192,85739,1,0,0:0:0:0:
36,192,85912,1,8,0:0:0:0:
402,192,85912,1,0,0:0:0:0:
182,192,85912,1,0,0:0:0:0:
475,192,85912,1,0,0:0:0:0:
329,192,86084,1,2,0:0:0:0:
109,192,86084,1,0,0:0:0:0:
182,192,86170,1,2,0:0:0:0:
402,192,86170,1,0,0:0:0:0:
36,192,86256,1,2,0:0:0:0:
329,192,86256,1,0,0:0:0:0:
109,192,86343,1,2,0:0:0:0:
475,192,86343,1,0,0:0:0:0:
402,192,86429,1,0,0:0:0:0:
256,192,86429,1,0,0:0:0:0:
182,192,86429,1,0,0:0:0:0:
109,192,86601,1,8,0:0:0:0:
475,192,86601,1,0,0:0:0:0:
329,192,86601,1,0,0:0:0:0:
36,192,86601,1,0,0:0:0:0:
182,192,86774,1,0,0:0:0:0:
329,192,86774,1,0,0:0:0:0:
256,192,86946,1,0,0:0:0:0:
402,192,86946,1,0,0:0:0:0:
329,192,87118,1,0,0:0:0:0:
182,192,87118,1,0,0:0:0:0:
36,192,87118,1,0,0:0:0:0:
109,192,87291,1,8,0:0:0:0:
36,192,87291,1,0,0:0:0:0:
256,192,87291,1,0,0:0:0:0:
402,192,87291,1,0,0:0:0:0:
329,192,87463,1,2,0:0:0:0:
182,192,87463,1,0,0:0:0:0:
402,192,87550,1,2,0:0:0:0:
109,192,87550,1,0,0:0:0:0:
475,192,87636,1,2,0:0:0:0:
256,192,87636,1,0,0:0:0:0:
109,192,87808,1,0,0:0:0:0:
36,192,87808,1,0,0:0:0:0:
402,192,87808,1,0,0:0:0:0:
475,192,87981,1,8,0:0:0:0:
329,192,87981,1,0,0:0:0:0:
182,192,87981,1,0,0:0:0:0:
36,192,87981,1,0,0:0:0:0:
256,192,88153,1,0,0:0:0:0:
109,192,88153,1,0,0:0:0:0:
475,192,88325,1,0,0:0:0:0:
182,192,88325,1,0,0:0:0:0:
402,192,88325,1,0,0:0:0:0:
109,192,88498,1,0,0:0:0:0:
329,192,88498,1,0,0:0:0:0:
256,192,88670,1,8,0:0:0:0:
36,192,88670,1,0,0:0:0:0:
402,192,88670,1,0,0:0:0:0:
109,192,88670,1,0,0:0:0:0:
182,192,88843,1,2,0:0:0:0:
329,192,88843,1,0,0:0:0:0:
109,192,88929,1,2,0:0:0:0:
402,192,88929,1,0,0:0:0:0:
475,192,89015,1,2,0:0:0:0:
256,192,89015,1,0,0:0:0:0:
402,192,89101,1,2,0:0:0:0:
182,192,89101,1,0,0:0:0:0:
109,192,89187,1,0,0:0:0:0:
329,192,89187,1,0,0:0:0:0:
36,192,89187,1,0,0:0:0:0:
402,192,89360,1,8,0:0:0:0:
109,192,89360,1,0,0:0:0:0:
475,192,89360,1,0,0:0:0:0:
256,192,89360,1,0,0:0:0:0:
329,192,89532,1,0,0:0:0:0:
182,192,89532,1,0,0:0:0:0:
256,192,89705,1,0,0:0:0:0:
36,192,89705,1,0,0:0:0:0:
475,192,89877,1,0,0:0:0:0:
329,192,89877,1,0,0:0:0:0:
109,192,89877,1,0,0:0:0:0:
475,192,90050,1,8,0:0:0:0:
402,192,90050,1,0,0:0:0:0:
182,192,90050,1,0,0:0:0:0:
36,192,90050,1,0,0:0:0:0:
329,192,90222,1,2,0:0:0:0:
109,192,90222,1,0,0:0:0:0:
182,192,90308,1,2,0:0:0:0:
402,192,90308,1,0,0:0:0:0:
329,192,90394,1,2,0:0:0:0:
109,192,90394,1,0,0:0:0:0:
402,192,90567,1,8,0:0:0:0:
256,192,90567,1,0,0:0:0:0:
182,192,90567,1,0,0:0:0:0:
182,192,90739,1,8,0:0:0:0:
36,192,90739,1,0,0:0:0:0:
329,192,90739,128,0,91084:0:0:0:0:
475,192,90739,128,0,91084:0:0:0:0:
182,192,91084,1,8,0:0:0:0:
109,192,91084,1,4,0:0:0:0:
256,192,91084,1,0,0:0:0:0:
402,192,91084,1,0,0:0:0:0:
36,192,91084,128,0,91774:0:0:0:0:
329,192,91774,1,4,0:0:0:0:
109,192,91774,1,8,0:0:0:0:
256,192,91774,1,0,0:0:0:0:
475,192,91774,1,0,0:0:0:0:
182,192,91774,128,0,92463:0:0:0:0:
402,192,92463,1,8,0:0:0:0:
329,192,92463,1,4,0:0:0:0:
256,192,92463,1,0,0:0:0:0:
109,192,92463,1,0,0:0:0:0:
475,192,92463,128,0,99015:0:0:0:0:
256,192,93153,1,4,0:0:0:0:
182,192,93153,1,8,0:0:0:0:
36,192,93153,1,0,0:0:0:0:
402,192,93153,128,0,99015:0:0:0:0:
36,192,96601,1,0,0:0:0:0:
329,192,96601,128,0,99015:0:0:0:0:
36,192,96774,1,0,0:0:0:0:
256,192,96946,1,2,0:0:0:0:
182,192,96946,1,0,0:0:0:0:
36,192,97118,1,0,0:0:0:0:
36,192,97291,1,0,0:0:0:0:
256,192,97463,1,2,0:0:0:0:
182,192,97463,1,0,0:0:0:0:
109,192,97636,1,0,0:0:0:0:
182,192,97722,1,0,0:0:0:0:
109,192,97808,1,0,0:0:0:0:
182,192,97894,1,0,0:0:0:0:
109,192,97981,1,0,0:0:0:0:
109,192,98153,1,0,0:0:0:0:
182,192,98325,1,2,0:0:0:0:
256,192,98325,1,0,0:0:0:0:
109,192,98498,1,0,0:0:0:0:
109,192,98670,1,0,0:0:0:0:
256,192,98843,1,2,0:0:0:0:
182,192,98843,1,0,0:0:0:0:
36,192,99015,128,0,99360:0:0:0:0:
475,192,99360,1,4,0:0:0:0:
329,192,99360,1,8,0:0:0:0:
182,192,99360,1,0,0:0:0:0:
109,192,99360,1,0,0:0:0:0:
256,192,99360,1,0,0:0:0:0:
329,192,99532,1,2,0:0:0:0:
182,192,99532,1,0,0:0:0:0:
256,192,99705,1,2,0:0:0:0:
109,192,99705,1,8,0:0:0:0:
402,192,99705,1,0,0:0:0:0:
475,192,99705,1,0,0:0:0:0:
329,192,99877,1,2,0:0:0:0:
36,192,99877,1,0,0:0:0:0:
402,192,99963,1,0,0:0:0:0:
182,192,99963,1,0,0:0:0:0:
475,192,100050,1,0,0:0:0:0:
109,192,100050,1,0,0:0:0:0:
36,192,100136,1,0,0:0:0:0:
329,192,100136,1,0,0:0:0:0:
109,192,100222,1,2,0:0:0:0:
402,192,100222,1,0,0:0:0:0:
256,192,100222,1,0,0:0:0:0:
475,192,100394,1,2,0:0:0:0:
36,192,100394,1,0,0:0:0:0:
182,192,100394,1,0,0:0:0:0:
329,192,100394,1,0,0:0:0:0:
109,192,100567,1,0,0:0:0:0:
256,192,100567,1,0,0:0:0:0:
182,192,100739,1,2,0:0:0:0:
329,192,100739,1,0,0:0:0:0:
36,192,100912,1,0,0:0:0:0:
256,192,100912,1,0,0:0:0:0:
402,192,100912,1,0,0:0:0:0:
182,192,101084,1,2,0:0:0:0:
329,192,101084,1,8,0:0:0:0:
475,192,101084,1,0,0:0:0:0:
109,192,101084,1,0,0:0:0:0:
402,192,101256,1,2,0:0:0:0:
256,192,101256,1,0,0:0:0:0:
182,192,101343,1,0,0:0:0:0:
329,192,101343,1,0,0:0:0:0:
109,192,101429,1,0,0:0:0:0:
256,192,101429,1,0,0:0:0:0:
329,192,101601,1,2,0:0:0:0:
182,192,101601,1,0,0:0:0:0:
36,192,101601,1,0,0:0:0:0:
402,192,101774,1,2,0:0:0:0:
256,192,101774,1,8,0:0:0:0:
109,192,101774,1,0,0:0:0:0:
475,192,101774,1,0,0:0:0:0:
182,192,101946,1,2,0:0:0:0:
36,192,101946,1,0,0:0:0:0:
475,192,102118,1,2,0:0:0:0:
402,192,102118,1,0,0:0:0:0:
256,192,102118,1,0,0:0:0:0:
329,192,102291,1,2,0:0:0:0:
182,192,102291,1,0,0:0:0:0:
402,192,102463,1,8,0:0:0:0:
256,192,102463,1,2,0:0:0:0:
109,192,102463,1,0,0:0:0:0:
36,192,102463,1,0,0:0:0:0:
329,192,102636,1,2,0:0:0:0:
109,192,102636,1,0,0:0:0:0:
182,192,102722,1,0,0:0:0:0:
402,192,102722,1,0,0:0:0:0:
475,192,102808,1,0,0:0:0:0:
36,192,102808,1,0,0:0:0:0:
329,192,102894,1,0,0:0:0:0:
109,192,102894,1,0,0:0:0:0:
256,192,102981,1,0,0:0:0:0:
402,192,102981,1,0,0:0:0:0:
182,192,102981,1,0,0:0:0:0:
329,192,103153,1,2,0:0:0:0:
182,192,103153,1,8,0:0:0:0:
109,192,103153,1,0,0:0:0:0:
36,192,103153,1,0,0:0:0:0:
256,192,103325,128,2,103498:0:0:0:0:
475,192,103325,1,0,0:0:0:0:
329,192,103498,128,0,103670:0:0:0:0:
182,192,103498,1,2,0:0:0:0:
36,192,103498,1,0,0:0:0:0:
256,192,103670,128,2,103843:0:0:0:0:
475,192,103670,1,0,0:0:0:0:
109,192,103670,1,0,0:0:0:0:
36,192,103843,128,0,104187:0:0:0:0:
475,192,103843,1,8,0:0:0:0:
329,192,103843,1,2,0:0:0:0:
182,192,103843,1,0,0:0:0:0:
402,192,104015,1,2,0:0:0:0:
109,192,104015,1,0,0:0:0:0:
329,192,104101,1,0,0:0:0:0:
182,192,104101,1,0,0:0:0:0:
109,192,104187,1,0,0:0:0:0:
256,192,104187,1,0,0:0:0:0:
475,192,104187,128,0,104532:0:0:0:0:
402,192,104360,1,2,0:0:0:0:
329,192,104360,1,0,0:0:0:0:
182,192,104360,1,0,0:0:0:0:
256,192,104532,1,8,0:0:0:0:
109,192,104532,1,2,0:0:0:0:
36,192,104532,128,0,104877:0:0:0:0:
329,192,104705,1,2,0:0:0:0:
475,192,104705,1,0,0:0:0:0:
182,192,104877,1,2,0:0:0:0:
256,192,104877,1,0,0:0:0:0:
402,192,104877,128,0,105050:0:0:0:0:
475,192,105050,1,0,0:0:0:0:
329,192,105050,128,2,105222:0:0:0:0:
256,192,105222,1,2,0:0:0:0:
36,192,105222,1,0,0:0:0:0:
109,192,105222,1,0,0:0:0:0:
182,192,105222,128,8,105394:0:0:0:0:
475,192,105394,1,2,0:0:0:0:
109,192,105394,128,0,105567:0:0:0:0:
402,192,105481,1,0,0:0:0:0:
256,192,105567,128,2,105739:0:0:0:0:
329,192,105567,1,0,0:0:0:0:
36,192,105653,1,0,0:0:0:0:
109,192,105739,1,0,0:0:0:0:
329,192,105739,1,0,0:0:0:0:
402,192,105739,128,2,105912:0:0:0:0:
109,192,105912,1,2,0:0:0:0:
36,192,105912,1,8,0:0:0:0:
182,192,105912,1,0,0:0:0:0:
475,192,105912,128,0,106084:0:0:0:0:
256,192,106084,1,0,0:0:0:0:
329,192,106084,128,2,106256:0:0:0:0:
36,192,106256,1,0,0:0:0:0:
182,192,106256,128,2,106429:0:0:0:0:
475,192,106429,1,2,0:0:0:0:
256,192,106429,1,0,0:0:0:0:
109,192,106429,128,0,106601:0:0:0:0:
36,192,106601,1,8,0:0:0:0:
402,192,106601,1,0,0:0:0:0:
329,192,106601,1,0,0:0:0:0:
182,192,106601,128,2,106774:0:0:0:0:
256,192,106774,1,0,0:0:0:0:
475,192,106774,128,2,106946:0:0:0:0:
329,192,106860,1,0,0:0:0:0:
109,192,106946,1,2,0:0:0:0:
402,192,106946,128,0,107118:0:0:0:0:
182,192,107118,1,2,0:0:0:0:
109,192,107118,1,0,0:0:0:0:
329,192,107118,128,0,107291:0:0:0:0:
475,192,107291,1,8,0:0:0:0:
256,192,107291,1,2,0:0:0:0:
36,192,107291,1,0,0:0:0:0:
182,192,107291,128,0,107463:0:0:0:0:
329,192,107463,1,2,0:0:0:0:
109,192,107463,128,0,107636:0:0:0:0:
36,192,107636,128,2,107808:0:0:0:0:
256,192,107636,1,0,0:0:0:0:
402,192,107636,1,0,0:0:0:0:
329,192,107808,128,2,107981:0:0:0:0:
182,192,107808,1,0,0:0:0:0:
475,192,107981,1,8,0:0:0:0:
402,192,107981,1,2,0:0:0:0:
256,192,107981,1,0,0:0:0:0:
36,192,107981,128,0,108153:0:0:0:0:
109,192,108153,1,2,0:0:0:0:
329,192,108153,128,0,108325:0:0:0:0:
402,192,108325,1,2,0:0:0:0:
182,192,108325,128,0,108498:0:0:0:0:
329,192,108498,1,2,0:0:0:0:
109,192,108498,1,0,0:0:0:0:
475,192,108498,128,0,108670:0:0:0:0:
402,192,108670,1,8,0:0:0:0:
36,192,108670,1,2,0:0:0:0:
256,192,108670,1,0,0:0:0:0:
182,192,108670,128,0,108843:0:0:0:0:
329,192,108843,1,2,0:0:0:0:
475,192,108843,128,0,109015:0:0:0:0:
329,192,109015,1,2,0:0:0:0:
256,192,109015,1,0,0:0:0:0:
182,192,109015,1,0,0:0:0:0:
329,192,109187,1,2,0:0:0:0:
256,192,109187,1,0,0:0:0:0:
182,192,109187,1,0,0:0:0:0:
109,192,109360,1,2,0:0:0:0:
36,192,109360,1,8,0:0:0:0:
475,192,109360,1,0,0:0:0:0:
402,192,109360,1,0,0:0:0:0:
109,192,109532,1,2,0:0:0:0:
36,192,109532,1,8,0:0:0:0:
475,192,109532,1,0,0:0:0:0:
402,192,109532,1,0,0:0:0:0:
329,192,109705,1,2,0:0:0:0:
256,192,109705,1,0,0:0:0:0:
182,192,109705,1,0,0:0:0:0:
329,192,109877,1,2,0:0:0:0:
256,192,109877,1,0,0:0:0:0:
182,192,109877,1,0,0:0:0:0:
475,192,110050,1,8,0:0:0:0:
402,192,110050,1,2,0:0:0:0:
329,192,110050,1,0,0:0:0:0:
182,192,110136,1,2,0:0:0:0:
109,192,110136,1,8,0:0:0:0:
36,192,110136,1,0,0:0:0:0:
475,192,110222,1,2,0:0:0:0:
402,192,110222,1,8,0:0:0:0:
329,192,110222,1,0,0:0:0:0:
182,192,110308,1,2,0:0:0:0:
109,192,110308,1,8,0:0:0:0:
36,192,110308,1,0,0:0:0:0:
402,192,110394,1,4,0:0:0:0:
475,192,110394,1,8,0:0:0:0:
329,192,110394,1,0,0:0:0:0:
256,192,110394,1,0,0:0:0:0:
329,192,110567,1,2,0:0:0:0:
182,192,110567,1,0,0:0:0:0:
256,192,110739,1,2,0:0:0:0:
475,192,110739,1,8,0:0:0:0:
36,192,110739,128,0,111084:0:0:0:0:
109,192,110739,1,0,0:0:0:0:
182,192,110912,1,2,0:0:0:0:
402,192,110912,1,0,0:0:0:0:
329,192,110998,1,0,0:0:0:0:
475,192,111084,128,0,111429:0:0:0:0:
256,192,111084,1,0,0:0:0:0:
182,192,111170,1,0,0:0:0:0:
36,192,111256,1,2,0:0:0:0:
402,192,111256,1,0,0:0:0:0:
109,192,111256,1,0,0:0:0:0:
36,192,111429,1,2,0:0:0:0:
182,192,111429,1,8,0:0:0:0:
109,192,111429,1,0,0:0:0:0:
329,192,111429,1,0,0:0:0:0:
402,192,111601,128,0,111774:0:0:0:0:
256,192,111601,1,0,0:0:0:0:
182,192,111774,1,2,0:0:0:0:
329,192,111774,1,0,0:0:0:0:
109,192,111946,128,2,112118:0:0:0:0:
475,192,111946,1,0,0:0:0:0:
256,192,111946,1,0,0:0:0:0:
182,192,112118,1,8,0:0:0:0:
329,192,112118,1,2,0:0:0:0:
36,192,112118,1,0,0:0:0:0:
402,192,112118,1,0,0:0:0:0:
109,192,112291,1,2,0:0:0:0:
256,192,112291,1,0,0:0:0:0:
329,192,112377,1,0,0:0:0:0:
182,192,112377,1,0,0:0:0:0:
109,192,112463,1,0,0:0:0:0:
402,192,112463,1,0,0:0:0:0:
256,192,112636,1,2,0:0:0:0:
109,192,112636,1,0,0:0:0:0:
402,192,112636,1,0,0:0:0:0:
36,192,112808,1,8,0:0:0:0:
182,192,112808,1,2,0:0:0:0:
329,192,112808,1,0,0:0:0:0:
475,192,112981,1,2,0:0:0:0:
402,192,112981,1,0,0:0:0:0:
36,192,113153,1,2,0:0:0:0:
256,192,113153,1,0,0:0:0:0:
109,192,113153,1,0,0:0:0:0:
329,192,113325,1,2,0:0:0:0:
182,192,113325,1,0,0:0:0:0:
36,192,113498,1,8,0:0:0:0:
256,192,113498,1,2,0:0:0:0:
475,192,113498,128,0,113843:0:0:0:0:
402,192,113498,1,0,0:0:0:0:
329,192,113670,1,2,0:0:0:0:
109,192,113670,1,0,0:0:0:0:
182,192,113756,1,0,0:0:0:0:
36,192,113843,128,2,114187:0:0:0:0:
256,192,113843,1,0,0:0:0:0:
329,192,113929,1,0,0:0:0:0:
475,192,114015,1,2,0:0:0:0:
402,192,114015,1,0,0:0:0:0:
109,192,114015,1,0,0:0:0:0:
475,192,114187,1,8,0:0:0:0:
402,192,114187,1,2,0:0:0:0:
329,192,114187,1,0,0:0:0:0:
182,192,114187,1,0,0:0:0:0:
109,192,114360,128,2,114532:0:0:0:0:
256,192,114360,1,0,0:0:0:0:
329,192,114532,1,2,0:0:0:0:
475,192,114532,1,0,0:0:0:0:
36,192,114705,1,2,0:0:0:0:
402,192,114705,128,0,114877:0:0:0:0:
256,192,114705,1,0,0:0:0:0:
36,192,114877,1,2,0:0:0:0:
182,192,114877,1,8,0:0:0:0:
475,192,114877,1,0,0:0:0:0:
329,192,114877,1,0,0:0:0:0:
109,192,115050,1,2,0:0:0:0:
182,192,115050,1,0,0:0:0:0:
256,192,115136,1,0,0:0:0:0:
329,192,115136,1,0,0:0:0:0:
475,192,115222,1,2,0:0:0:0:
402,192,115222,1,0,0:0:0:0:
36,192,115394,1,2,0:0:0:0:
182,192,115394,1,0,0:0:0:0:
329,192,115394,1,0,0:0:0:0:
402,192,115567,1,2,0:0:0:0:
36,192,115567,128,0,116084:0:0:0:0:
256,192,115567,1,0,0:0:0:0:
109,192,115567,1,0,0:0:0:0:
329,192,115739,1,2,0:0:0:0:
475,192,115739,1,0,0:0:0:0:
402,192,115912,1,2,0:0:0:0:
256,192,115912,1,0,0:0:0:0:
182,192,115912,128,0,116084:0:0:0:0:
475,192,116084,1,0,0:0:0:0:
329,192,116084,128,2,116256:0:0:0:0:
36,192,116256,1,0,0:0:0:0:
182,192,116256,1,0,0:0:0:0:
475,192,116256,128,0,116429:0:0:0:0:
402,192,116256,1,0,0:0:0:0:
256,192,116429,1,0,0:0:0:0:
109,192,116429,128,2,116601:0:0:0:0:
329,192,116515,1,0,0:0:0:0:
402,192,116601,1,0,0:0:0:0:
256,192,116601,128,0,116774:0:0:0:0:
36,192,116687,1,0,0:0:0:0:
182,192,116774,1,2,0:0:0:0:
109,192,116774,1,0,0:0:0:0:
402,192,116774,128,0,116946:0:0:0:0:
182,192,116946,1,2,0:0:0:0:
475,192,116946,1,8,0:0:0:0:
36,192,116946,1,0,0:0:0:0:
329,192,116946,128,0,117118:0:0:0:0:
256,192,117118,1,0,0:0:0:0:
109,192,117118,128,2,117291:0:0:0:0:
329,192,117291,1,2,0:0:0:0:
475,192,117291,128,0,117463:0:0:0:0:
182,192,117463,1,2,0:0:0:0:
256,192,117463,1,0,0:0:0:0:
36,192,117463,128,0,117636:0:0:0:0:
109,192,117636,1,2,0:0:0:0:
329,192,117636,1,8,0:0:0:0:
475,192,117636,128,0,117808:0:0:0:0:
402,192,117636,1,0,0:0:0:0:
182,192,117808,1,2,0:0:0:0:
256,192,117808,128,0,118153:0:0:0:0:
109,192,117894,1,0,0:0:0:0:
36,192,117981,1,2,0:0:0:0:
402,192,117981,1,0,0:0:0:0:
109,192,118153,1,2,0:0:0:0:
329,192,118153,1,0,0:0:0:0:
475,192,118153,128,0,118670:0:0:0:0:
402,192,118325,1,8,0:0:0:0:
36,192,118325,1,2,0:0:0:0:
109,192,118325,1,0,0:0:0:0:
256,192,118325,1,0,0:0:0:0:
329,192,118498,1,2,0:0:0:0:
182,192,118498,1,0,0:0:0:0:
256,192,118670,1,0,0:0:0:0:
329,192,120912,1,0,0:0:0:0:
256,192,120912,1,0,0:0:0:0:
182,192,120912,1,0,0:0:0:0:
109,192,121084,1,8,0:0:0:0:
182,192,121084,1,0,0:0:0:0:
36,192,121084,1,0,0:0:0:0:
402,192,121170,1,8,0:0:0:0:
329,192,121170,1,0,0:0:0:0:
475,192,121170,1,0,0:0:0:0:
36,192,121256,1,8,0:0:0:0:
182,192,121256,1,0,0:0:0:0:
109,192,121256,1,0,0:0:0:0:
329,192,121343,1,8,0:0:0:0:
402,192,121343,1,0,0:0:0:0:
475,192,121343,1,0,0:0:0:0:
36,192,121429,128,8,121601:0:0:0:0:
256,192,121429,128,4,121601:0:0:0:0:
182,192,121429,128,0,121601:0:0:0:0:
109,192,121429,128,0,121601:0:0:0:0:
475,192,121601,128,2,121774:0:0:0:0:
329,192,121601,128,0,121774:0:0:0:0:
36,192,121774,128,4,121946:0:0:0:0:
256,192,121774,128,8,121946:0:0:0:0:
109,192,121774,128,2,121946:0:0:0:0:
182,192,121946,128,2,122118:0:0:0:0:
475,192,121946,128,0,122118:0:0:0:0:
256,192,122118,128,2,122291:0:0:0:0:
109,192,122118,128,0,122291:0:0:0:0:
402,192,122118,128,0,122291:0:0:0:0:
182,192,122291,128,2,122463:0:0:0:0:
36,192,122291,128,0,122463:0:0:0:0:
256,192,122463,128,8,122636:0:0:0:0:
402,192,122463,128,2,122636:0:0:0:0:
329,192,122636,128,2,122808:0:0:0:0:
182,192,122636,128,0,122808:0:0:0:0:
109,192,122808,128,2,122981:0:0:0:0:
36,192,122808,128,0,122981:0:0:0:0:
256,192,122808,128,0,122981:0:0:0:0:
182,192,122981,128,2,123153:0:0:0:0:
475,192,122981,128,0,123153:0:0:0:0:
36,192,123153,128,8,123325:0:0:0:0:
402,192,123153,128,2,123325:0:0:0:0:
109,192,123325,128,2,123498:0:0:0:0:
182,192,123325,128,0,123498:0:0:0:0:
329,192,123325,128,0,123498:0:0:0:0:
256,192,123498,128,2,123670:0:0:0:0:
402,192,123498,128,0,123670:0:0:0:0:
109,192,123670,128,2,123843:0:0:0:0:
36,192,123670,128,0,123843:0:0:0:0:
329,192,123670,128,0,123843:0:0:0:0:
256,192,123843,128,2,124015:0:0:0:0:
182,192,123843,128,8,124015:0:0:0:0:
109,192,124015,128,2,124187:0:0:0:0:
36,192,124015,128,0,124187:0:0:0:0:
402,192,124015,128,0,124187:0:0:0:0:
329,192,124187,128,2,124360:0:0:0:0:
182,192,124187,128,0,124360:0:0:0:0:
475,192,124187,128,0,124360:0:0:0:0:
256,192,124360,128,2,124532:0:0:0:0:
109,192,124360,128,0,124532:0:0:0:0:
36,192,124532,128,8,124705:0:0:0:0:
329,192,124532,128,2,124705:0:0:0:0:
475,192,124532,128,0,124705:0:0:0:0:
182,192,124705,128,2,124877:0:0:0:0:
402,192,124705,128,0,124877:0:0:0:0:
256,192,124877,128,2,125050:0:0:0:0:
36,192,124877,128,0,125050:0:0:0:0:
475,192,124877,128,0,125050:0:0:0:0:
329,192,125050,128,2,125222:0:0:0:0:
182,192,125050,128,0,125222:0:0:0:0:
256,192,125222,128,2,125394:0:0:0:0:
109,192,125222,128,8,125394:0:0:0:0:
329,192,125394,128,2,125567:0:0:0:0:
182,192,125394,128,0,125567:0:0:0:0:
256,192,125567,128,2,125739:0:0:0:0:
36,192,125567,128,0,125912:0:0:0:0:
109,192,125567,128,0,125912:0:0:0:0:
182,192,125739,128,2,125912:0:0:0:0:
329,192,125739,128,0,125912:0:0:0:0:
402,192,125912,128,2,126256:0:0:0:0:
475,192,125912,128,8,126256:0:0:0:0:
256,192,125912,128,0,126084:0:0:0:0:
329,192,126084,128,2,126256:0:0:0:0:
182,192,126084,128,0,126256:0:0:0:0:
256,192,126256,128,2,126429:0:0:0:0:
36,192,126256,128,0,126601:0:0:0:0:
109,192,126256,128,0,126601:0:0:0:0:
182,192,126429,128,2,126601:0:0:0:0:
329,192,126429,128,0,126601:0:0:0:0:
402,192,126601,128,2,126774:0:0:0:0:
256,192,126601,128,8,126774:0:0:0:0:
182,192,126774,128,2,126946:0:0:0:0:
329,192,126774,128,0,126946:0:0:0:0:
475,192,126774,128,0,126946:0:0:0:0:
36,192,126946,128,2,127118:0:0:0:0:
256,192,126946,128,0,127118:0:0:0:0:
402,192,126946,128,0,127118:0:0:0:0:
182,192,127118,128,2,127291:0:0:0:0:
329,192,127118,128,0,127291:0:0:0:0:
256,192,127291,128,2,127463:0:0:0:0:
402,192,127291,128,8,127463:0:0:0:0:
109,192,127291,128,0,127463:0:0:0:0:
475,192,127463,128,2,127636:0:0:0:0:
182,192,127463,128,0,127636:0:0:0:0:
109,192,127636,128,2,127808:0:0:0:0:
402,192,127636,128,0,127808:0:0:0:0:
256,192,127636,128,0,127808:0:0:0:0:
475,192,127808,128,2,127981:0:0:0:0:
329,192,127808,128,0,127981:0:0:0:0:
109,192,127981,128,8,128153:0:0:0:0:
36,192,127981,128,2,128153:0:0:0:0:
256,192,127981,128,0,128153:0:0:0:0:
329,192,128153,128,2,128325:0:0:0:0:
182,192,128153,128,0,128325:0:0:0:0:
256,192,128325,128,2,128498:0:0:0:0:
36,192,128325,128,0,128498:0:0:0:0:
402,192,128325,128,0,128498:0:0:0:0:
109,192,128498,128,2,128670:0:0:0:0:
329,192,128498,128,0,128670:0:0:0:0:
475,192,128670,128,8,128843:0:0:0:0:
182,192,128670,128,2,128843:0:0:0:0:
402,192,128670,1,0,0:0:0:0:
329,192,128843,128,2,129015:0:0:0:0:
109,192,128843,128,0,129015:0:0:0:0:
36,192,128843,128,0,129015:0:0:0:0:
182,192,129015,128,2,129187:0:0:0:0:
256,192,129015,128,0,129187:0:0:0:0:
36,192,129187,128,2,129360:0:0:0:0:
402,192,129187,128,0,129360:0:0:0:0:
109,192,129187,128,0,129360:0:0:0:0:
182,192,129360,128,2,129532:0:0:0:0:
329,192,129360,128,8,129532:0:0:0:0:
475,192,129360,128,0,129532:0:0:0:0:
256,192,129532,128,2,129705:0:0:0:0:
109,192,129532,128,0,129705:0:0:0:0:
402,192,129532,128,0,129705:0:0:0:0:
329,192,129705,128,2,129877:0:0:0:0:
475,192,129705,128,0,129877:0:0:0:0:
36,192,129705,128,0,129877:0:0:0:0:
402,192,129877,128,2,130050:0:0:0:0:
182,192,129877,128,0,130050:0:0:0:0:
36,192,130050,128,2,130222:0:0:0:0:
256,192,130050,128,8,130222:0:0:0:0:
475,192,130050,128,0,130222:0:0:0:0:
182,192,130222,128,2,130394:0:0:0:0:
329,192,130222,128,0,130394:0:0:0:0:
36,192,130394,128,2,130567:0:0:0:0:
109,192,130394,128,0,130567:0:0:0:0:
256,192,130394,128,0,130567:0:0:0:0:
402,192,130567,128,2,130739:0:0:0:0:
182,192,130567,128,0,130739:0:0:0:0:
109,192,130739,128,8,130912:0:0:0:0:
256,192,130739,128,2,130912:0:0:0:0:
329,192,130912,128,2,131084:0:0:0:0:
402,192,130912,128,0,131084:0:0:0:0:
182,192,131084,1,2,0:0:0:0:
109,192,131084,1,8,0:0:0:0:
402,192,131170,1,2,0:0:0:0:
329,192,131170,1,8,0:0:0:0:
182,192,131256,1,2,0:0:0:0:
109,192,131256,1,8,0:0:0:0:
402,192,131343,1,8,0:0:0:0:
329,192,131343,1,2,0:0:0:0:
182,192,131429,1,2,0:0:0:0:
109,192,131429,1,8,0:0:0:0:
36,192,131601,1,2,0:0:0:0:
256,192,131601,1,0,0:0:0:0:
109,192,131774,1,8,0:0:0:0:
329,192,131774,1,2,0:0:0:0:
402,192,131774,1,0,0:0:0:0:
402,192,131946,1,2,0:0:0:0:
329,192,131946,1,0,0:0:0:0:
109,192,131946,1,0,0:0:0:0:
402,192,132118,1,2,0:0:0:0:
329,192,132118,1,8,0:0:0:0:
182,192,132118,1,0,0:0:0:0:
109,192,132118,1,0,0:0:0:0:
256,192,132118,128,0,132291:0:0:0:0:
329,192,132291,128,0,132463:0:0:0:0:
109,192,132463,128,8,132636:0:0:0:0:
36,192,132463,128,4,132636:0:0:0:0:
402,192,132463,128,0,132636:0:0:0:0:
475,192,132463,128,0,132636:0:0:0:0:
182,192,132636,128,2,132808:0:0:0:0:
329,192,132636,128,0,132808:0:0:0:0:
109,192,132808,128,8,132981:0:0:0:0:
256,192,132808,128,2,132981:0:0:0:0:
36,192,132808,128,0,132981:0:0:0:0:
475,192,132981,128,2,133153:0:0:0:0:
329,192,132981,128,0,133153:0:0:0:0:
109,192,133153,128,2,133325:0:0:0:0:
402,192,133153,128,0,133325:0:0:0:0:
256,192,133153,128,0,133325:0:0:0:0:
182,192,133325,128,2,133498:0:0:0:0:
329,192,133325,128,0,133498:0:0:0:0:
256,192,133498,128,8,133670:0:0:0:0:
402,192,133498,128,2,133670:0:0:0:0:
182,192,133670,128,2,133843:0:0:0:0:
475,192,133670,128,0,133843:0:0:0:0:
36,192,133843,128,2,134015:0:0:0:0:
109,192,133843,128,0,134015:0:0:0:0:
256,192,133843,128,0,134015:0:0:0:0:
182,192,134015,128,2,134187:0:0:0:0:
475,192,134015,128,0,134187:0:0:0:0:
256,192,134187,128,2,134360:0:0:0:0:
402,192,134187,128,8,134360:0:0:0:0:
182,192,134360,128,2,134532:0:0:0:0:
109,192,134360,128,0,134532:0:0:0:0:
329,192,134360,128,0,134532:0:0:0:0:
475,192,134532,128,2,134705:0:0:0:0:
256,192,134532,128,0,134705:0:0:0:0:
329,192,134705,128,2,134877:0:0:0:0:
36,192,134705,128,0,134877:0:0:0:0:
109,192,134705,128,0,134877:0:0:0:0:
475,192,134877,128,2,135050:0:0:0:0:
256,192,134877,128,8,135050:0:0:0:0:
402,192,135050,128,2,135222:0:0:0:0:
36,192,135050,128,0,135222:0:0:0:0:
329,192,135222,128,2,135394:0:0:0:0:
182,192,135222,128,0,135394:0:0:0:0:
256,192,135394,128,2,135567:0:0:0:0:
109,192,135394,128,0,135567:0:0:0:0:
329,192,135567,128,8,135739:0:0:0:0:
475,192,135567,128,2,135739:0:0:0:0:
36,192,135567,128,0,135739:0:0:0:0:
182,192,135739,128,2,135912:0:0:0:0:
402,192,135739,128,0,135912:0:0:0:0:
256,192,135912,128,2,136084:0:0:0:0:
475,192,135912,128,0,136084:0:0:0:0:
36,192,135912,128,0,136084:0:0:0:0:
329,192,136084,128,2,136256:0:0:0:0:
182,192,136084,128,0,136256:0:0:0:0:
109,192,136256,128,2,136429:0:0:0:0:
256,192,136256,128,8,136429:0:0:0:0:
475,192,136429,128,2,136601:0:0:0:0:
182,192,136429,128,0,136601:0:0:0:0:
329,192,136429,128,0,136601:0:0:0:0:
109,192,136601,128,2,136946:0:0:0:0:
36,192,136601,128,0,136946:0:0:0:0:
256,192,136601,128,0,136774:0:0:0:0:
182,192,136774,128,2,136946:0:0:0:0:
329,192,136774,128,0,136946:0:0:0:0:
475,192,136946,128,8,137291:0:0:0:0:
256,192,136946,128,2,137118:0:0:0:0:
402,192,136946,128,0,137291:0:0:0:0:
329,192,137118,128,2,137291:0:0:0:0:
182,192,137118,128,0,137291:0:0:0:0:
256,192,137291,128,2,137463:0:0:0:0:
109,192,137291,128,0,137636:0:0:0:0:
36,192,137291,128,0,137636:0:0:0:0:
329,192,137463,128,2,137636:0:0:0:0:
182,192,137463,128,0,137636:0:0:0:0:
402,192,137636,128,2,137808:0:0:0:0:
256,192,137636,128,8,137808:0:0:0:0:
475,192,137636,128,0,137808:0:0:0:0:
182,192,137808,128,2,137981:0:0:0:0:
329,192,137808,128,0,137981:0:0:0:0:
256,192,137981,128,2,138153:0:0:0:0:
36,192,137981,128,0,138153:0:0:0:0:
402,192,137981,128,0,138153:0:0:0:0:
109,192,138153,128,2,138325:0:0:0:0:
475,192,138153,128,0,138325:0:0:0:0:
182,192,138325,128,8,138498:0:0:0:0:
256,192,138325,128,2,138498:0:0:0:0:
402,192,138325,128,0,138498:0:0:0:0:
475,192,138498,128,2,138670:0:0:0:0:
36,192,138498,128,0,138670:0:0:0:0:
402,192,138670,128,2,138843:0:0:0:0:
329,192,138670,128,0,138843:0:0:0:0:
109,192,138670,128,0,138843:0:0:0:0:
256,192,138843,128,2,139015:0:0:0:0:
182,192,138843,128,0,139015:0:0:0:0:
475,192,139015,128,8,139187:0:0:0:0:
36,192,139015,128,2,139187:0:0:0:0:
402,192,139187,128,2,139360:0:0:0:0:
256,192,139187,128,0,139360:0:0:0:0:
329,192,139360,128,2,139532:0:0:0:0:
36,192,139360,128,0,139532:0:0:0:0:
109,192,139360,128,0,139532:0:0:0:0:
182,192,139532,128,2,139705:0:0:0:0:
402,192,139532,128,0,139705:0:0:0:0:
36,192,139705,128,8,139877:0:0:0:0:
256,192,139705,128,2,139877:0:0:0:0:
109,192,139877,128,2,140050:0:0:0:0:
402,192,139877,128,0,140050:0:0:0:0:
475,192,139877,128,0,140050:0:0:0:0:
329,192,140050,128,2,140222:0:0:0:0:
182,192,140050,128,0,140222:0:0:0:0:
256,192,140222,128,2,140394:0:0:0:0:
109,192,140222,128,0,140394:0:0:0:0:
475,192,140222,128,0,140394:0:0:0:0:
402,192,140394,128,8,140567:0:0:0:0:
182,192,140394,128,2,140567:0:0:0:0:
256,192,140567,128,2,140739:0:0:0:0:
36,192,140567,128,0,140739:0:0:0:0:
329,192,140567,128,0,140739:0:0:0:0:
402,192,140739,128,2,140912:0:0:0:0:
182,192,140739,128,0,140912:0:0:0:0:
109,192,140912,128,2,141084:0:0:0:0:
256,192,140912,128,0,141084:0:0:0:0:
402,192,141084,128,8,141256:0:0:0:0:
329,192,141084,128,2,141256:0:0:0:0:
182,192,141084,128,0,141256:0:0:0:0:
256,192,141256,128,2,141429:0:0:0:0:
36,192,141256,128,0,141429:0:0:0:0:
109,192,141429,128,2,141601:0:0:0:0:
402,192,141429,128,0,141601:0:0:0:0:
475,192,141429,128,0,141601:0:0:0:0:
36,192,141601,128,2,141774:0:0:0:0:
329,192,141601,128,0,141774:0:0:0:0:
256,192,141774,128,8,141946:0:0:0:0:
182,192,141774,128,2,141946:0:0:0:0:
402,192,141774,128,0,141946:0:0:0:0:
109,192,141946,128,2,142118:0:0:0:0:
329,192,141946,128,0,142118:0:0:0:0:
402,192,142118,1,2,0:0:0:0:
256,192,142118,1,0,0:0:0:0:
182,192,142118,1,0,0:0:0:0:
402,192,142291,1,2,0:0:0:0:
256,192,142291,1,0,0:0:0:0:
182,192,142291,1,0,0:0:0:0:
475,192,142463,1,8,0:0:0:0:
329,192,142463,1,2,0:0:0:0:
109,192,142463,1,0,0:0:0:0:
36,192,142463,1,0,0:0:0:0:
36,192,142636,1,2,0:0:0:0:
109,192,142636,1,8,0:0:0:0:
329,192,142636,1,0,0:0:0:0:
475,192,142636,1,0,0:0:0:0:
402,192,142808,1,2,0:0:0:0:
256,192,142808,1,0,0:0:0:0:
182,192,142808,1,0,0:0:0:0:
256,192,142981,1,2,0:0:0:0:
182,192,142981,1,0,0:0:0:0:
402,192,142981,1,0,0:0:0:0:
475,192,143153,1,2,0:0:0:0:
402,192,143153,1,8,0:0:0:0:
329,192,143153,1,0,0:0:0:0:
182,192,143239,1,8,0:0:0:0:
109,192,143239,1,2,0:0:0:0:
36,192,143239,1,0,0:0:0:0:
475,192,143325,1,8,0:0:0:0:
402,192,143325,1,2,0:0:0:0:
329,192,143325,1,0,0:0:0:0:
182,192,143412,1,2,0:0:0:0:
109,192,143412,1,8,0:0:0:0:
36,192,143412,1,0,0:0:0:0:
329,192,143498,1,0,0:0:0:0:
329,192,144187,128,0,144877:0:0:0:0:
182,192,144877,1,0,0:0:0:0:
182,192,145222,1,0,0:0:0:0:
182,192,145567,128,0,146601:0:0:0:0:
329,192,146601,1,0,0:0:0:0:
329,192,146946,128,0,147291:0:0:0:0:
182,192,147291,1,0,0:0:0:0:
329,192,147377,1,0,0:0:0:0:
109,192,147463,1,0,0:0:0:0:
402,192,147550,1,0,0:0:0:0:
182,192,147636,1,0,0:0:0:0:
329,192,147722,1,0,0:0:0:0:
36,192,147808,1,0,0:0:0:0:
475,192,147894,1,0,0:0:0:0:
256,192,147981,1,0,0:0:0:0:
109,192,148325,128,0,149015:0:0:0:0:
475,192,149015,1,0,0:0:0:0:
402,192,149360,1,0,0:0:0:0:
329,192,149705,128,0,150050:0:0:0:0:
182,192,150050,1,0,0:0:0:0:
182,192,150136,1,0,0:0:0:0:
329,192,150222,1,0,0:0:0:0:
329,192,150308,1,0,0:0:0:0:
36,192,150394,1,0,0:0:0:0:
109,192,150739,1,0,0:0:0:0:
182,192,151084,128,0,151774:0:0:0:0:
329,192,151774,1,0,0:0:0:0:
329,192,152118,1,0,0:0:0:0:
329,192,152463,128,0,152894:0:0:0:0:
36,192,152808,1,0,0:0:0:0:
109,192,152851,1,0,0:0:0:0:
182,192,152894,1,0,0:0:0:0:
475,192,152937,1,0,0:0:0:0:
402,192,152981,1,0,0:0:0:0:
329,192,153024,1,0,0:0:0:0:
36,192,153067,1,0,0:0:0:0:
109,192,153110,1,0,0:0:0:0:
182,192,153153,1,0,0:0:0:0:
402,192,153153,1,0,0:0:0:0:
329,192,153239,1,0,0:0:0:0:
402,192,153325,1,0,0:0:0:0:
256,192,153498,1,0,0:0:0:0:
182,192,153843,128,0,154187:0:0:0:0:
329,192,154187,1,0,0:0:0:0:
329,192,154274,1,0,0:0:0:0:
182,192,154360,1,0,0:0:0:0:
182,192,154446,1,0,0:0:0:0:
329,192,154532,128,0,155050:0:0:0:0:
256,192,155050,1,0,0:0:0:0:
182,192,155222,128,0,155567:0:0:0:0:
329,192,155567,1,0,0:0:0:0:
329,192,155653,1,0,0:0:0:0:
182,192,155739,1,0,0:0:0:0:
182,192,155825,1,0,0:0:0:0:
329,192,155912,1,0,0:0:0:0:
256,192,156084,1,0,0:0:0:0:
329,192,156256,1,0,0:0:0:0:
329,192,156601,128,0,157291:0:0:0:0:
182,192,157636,1,0,0:0:0:0:
182,192,157981,128,0,158584:0:0:0:0:
329,192,158325,1,0,0:0:0:0:
402,192,158412,1,0,0:0:0:0:
329,192,158498,1,0,0:0:0:0:
402,192,158584,1,0,0:0:0:0:
329,192,158670,1,0,0:0:0:0:
182,192,158670,1,0,0:0:0:0:
402,192,158843,1,0,0:0:0:0:
329,192,159015,1,0,0:0:0:0:
182,192,159015,1,0,0:0:0:0:
329,192,159360,128,0,160050:0:0:0:0:
36,192,160050,128,0,160739:0:0:0:0:
256,192,160394,128,0,160739:0:0:0:0:
475,192,160739,128,0,161429:0:0:0:0:
329,192,161084,1,0,0:0:0:0:
329,192,161170,1,0,0:0:0:0:
182,192,161256,1,0,0:0:0:0:
182,192,161343,1,0,0:0:0:0:
36,192,161429,128,0,162118:0:0:0:0:
256,192,161429,1,0,0:0:0:0:
329,192,161601,1,0,0:0:0:0:
256,192,161774,128,0,162118:0:0:0:0:
475,192,162118,128,0,162808:0:0:0:0:
36,192,162808,128,0,163498:0:0:0:0:
256,192,163153,128,0,163498:0:0:0:0:
475,192,163498,128,0,164187:0:0:0:0:
182,192,163843,128,0,164187:0:0:0:0:
36,192,164187,128,0,164877:0:0:0:0:
256,192,164187,1,0,0:0:0:0:
256,192,164532,1,0,0:0:0:0:
475,192,164877,128,0,165567:0:0:0:0:
182,192,164877,128,0,165567:0:0:0:0:
36,192,165222,1,0,0:0:0:0:
36,192,165308,1,0,0:0:0:0:
329,192,165394,1,0,0:0:0:0:
329,192,165481,1,0,0:0:0:0:
256,192,165567,128,0,166256:0:0:0:0:
182,192,166256,128,0,166946:0:0:0:0:
402,192,166946,128,0,167636:0:0:0:0:
256,192,167636,128,0,172463:0:0:0:0:
402,192,168325,1,2,0:0:0:0:
329,192,168412,1,2,0:0:0:0:
402,192,168498,1,2,0:0:0:0:
329,192,168584,1,2,0:0:0:0:
402,192,168670,1,2,0:0:0:0:
475,192,168670,1,2,0:0:0:0:
109,192,168843,1,2,0:0:0:0:
182,192,168929,1,2,0:0:0:0:
109,192,169015,1,2,0:0:0:0:
182,192,169101,1,2,0:0:0:0:
109,192,169187,1,2,0:0:0:0:
402,192,169360,1,2,0:0:0:0:
36,192,169360,1,2,0:0:0:0:
329,192,169532,1,2,0:0:0:0:
182,192,169705,1,2,0:0:0:0:
475,192,169877,1,2,0:0:0:0:
109,192,170050,1,2,0:0:0:0:
36,192,170050,1,2,0:0:0:0:
402,192,170222,1,2,0:0:0:0:
329,192,170308,1,2,0:0:0:0:
402,192,170394,1,2,0:0:0:0:
329,192,170481,1,2,0:0:0:0:
402,192,170567,1,2,0:0:0:0:
475,192,170739,1,2,0:0:0:0:
109,192,170739,1,2,0:0:0:0:
182,192,170912,1,2,0:0:0:0:
329,192,171084,1,2,0:0:0:0:
36,192,171084,1,2,0:0:0:0:
402,192,171256,1,2,0:0:0:0:
475,192,171429,1,2,0:0:0:0:
182,192,171429,1,2,0:0:0:0:
109,192,171601,1,2,0:0:0:0:
182,192,171687,1,2,0:0:0:0:
109,192,171774,1,2,0:0:0:0:
182,192,171860,1,2,0:0:0:0:
109,192,171946,1,2,0:0:0:0:
402,192,172118,1,2,0:0:0:0:
329,192,172118,1,2,0:0:0:0:
182,192,172291,1,2,0:0:0:0:
475,192,172463,1,2,0:0:0:0:
402,192,172463,1,0,0:0:0:0:
329,192,172463,1,0,0:0:0:0:
109,192,172550,1,2,0:0:0:0:
182,192,172550,1,0,0:0:0:0:
36,192,172550,1,0,0:0:0:0:
402,192,172636,1,2,0:0:0:0:
329,192,172636,1,0,0:0:0:0:
475,192,172636,1,0,0:0:0:0:
182,192,172722,1,2,0:0:0:0:
109,192,172722,1,0,0:0:0:0:
36,192,172722,1,0,0:0:0:0:
475,192,172808,1,2,0:0:0:0:
402,192,172808,1,8,0:0:0:0:
329,192,172808,1,0,0:0:0:0:
475,192,172981,1,2,0:0:0:0:
402,192,172981,1,0,0:0:0:0:
329,192,172981,1,0,0:0:0:0:
256,192,173153,1,8,0:0:0:0:
182,192,173153,1,2,0:0:0:0:
109,192,173153,1,0,0:0:0:0:
256,192,173325,1,2,0:0:0:0:
182,192,173325,1,0,0:0:0:0:
109,192,173325,1,0,0:0:0:0:
256,192,173498,128,8,173800:0:0:0:0:
109,192,173498,128,2,173800:0:0:0:0:
36,192,173498,128,0,173800:0:0:0:0:
402,192,173498,128,0,173800:0:0:0:0:
475,192,173498,128,0,173800:0:0:0:0:
475,192,173843,1,4,0:0:0:0:
402,192,173843,1,8,0:0:0:0:
256,192,173843,1,0,0:0:0:0:
109,192,173843,1,0,0:0:0:0:
36,192,173843,1,0,0:0:0:0:
329,192,174015,1,2,0:0:0:0:
182,192,174015,1,0,0:0:0:0:
475,192,174187,1,2,0:0:0:0:
402,192,174187,1,8,0:0:0:0:
256,192,174187,1,0,0:0:0:0:
36,192,174187,1,0,0:0:0:0:
329,192,174360,1,2,0:0:0:0:
109,192,174360,1,0,0:0:0:0:
402,192,174532,1,2,0:0:0:0:
256,192,174532,1,0,0:0:0:0:
329,192,174618,1,2,0:0:0:0:
182,192,174618,1,0,0:0:0:0:
109,192,174705,1,2,0:0:0:0:
36,192,174705,1,0,0:0:0:0:
402,192,174705,1,0,0:0:0:0:
475,192,174877,1,8,0:0:0:0:
329,192,174877,1,2,0:0:0:0:
182,192,174877,1,0,0:0:0:0:
109,192,174877,1,0,0:0:0:0:
402,192,175050,1,2,0:0:0:0:
256,192,175050,1,0,0:0:0:0:
182,192,175222,1,2,0:0:0:0:
329,192,175222,1,0,0:0:0:0:
256,192,175394,1,2,0:0:0:0:
109,192,175394,1,0,0:0:0:0:
36,192,175394,1,0,0:0:0:0:
475,192,175567,1,2,0:0:0:0:
182,192,175567,1,8,0:0:0:0:
36,192,175567,1,0,0:0:0:0:
402,192,175567,1,0,0:0:0:0:
109,192,175739,1,2,0:0:0:0:
329,192,175739,1,0,0:0:0:0:
182,192,175825,1,2,0:0:0:0:
402,192,175825,1,0,0:0:0:0:
109,192,175912,1,2,0:0:0:0:
329,192,175912,1,0,0:0:0:0:
402,192,176084,1,2,0:0:0:0:
182,192,176084,1,0,0:0:0:0:
36,192,176084,1,0,0:0:0:0:
475,192,176256,1,2,0:0:0:0:
329,192,176256,1,8,0:0:0:0:
256,192,176256,1,0,0:0:0:0:
109,192,176256,1,0,0:0:0:0:
329,192,176429,1,2,0:0:0:0:
182,192,176429,1,0,0:0:0:0:
475,192,176601,1,2,0:0:0:0:
256,192,176601,1,0,0:0:0:0:
36,192,176601,1,0,0:0:0:0:
109,192,176774,1,2,0:0:0:0:
475,192,176946,1,2,0:0:0:0:
402,192,176946,1,8,0:0:0:0:
182,192,176946,1,0,0:0:0:0:
36,192,176946,1,0,0:0:0:0:
109,192,177118,1,2,0:0:0:0:
256,192,177118,1,0,0:0:0:0:
182,192,177205,1,2,0:0:0:0:
329,192,177205,1,0,0:0:0:0:
402,192,177291,1,2,0:0:0:0:
36,192,177291,1,0,0:0:0:0:
329,192,177377,1,2,0:0:0:0:
109,192,177377,1,0,0:0:0:0:
256,192,177463,1,2,0:0:0:0:
475,192,177463,1,0,0:0:0:0:
402,192,177463,1,0,0:0:0:0:
329,192,177636,1,2,0:0:0:0:
182,192,177636,1,8,0:0:0:0:
36,192,177636,1,0,0:0:0:0:
475,192,177636,1,0,0:0:0:0:
256,192,177808,1,2,0:0:0:0:
109,192,177808,1,0,0:0:0:0:
329,192,177981,1,2,0:0:0:0:
182,192,177981,1,0,0:0:0:0:
402,192,178153,1,2,0:0:0:0:
256,192,178153,1,0,0:0:0:0:
36,192,178153,1,0,0:0:0:0:
182,192,178325,1,2,0:0:0:0:
109,192,178325,1,8,0:0:0:0:
475,192,178325,1,0,0:0:0:0:
329,192,178325,1,0,0:0:0:0:
402,192,178498,1,2,0:0:0:0:
256,192,178498,1,0,0:0:0:0:
329,192,178584,1,2,0:0:0:0:
182,192,178584,1,0,0:0:0:0:
109,192,178670,1,2,0:0:0:0:
402,192,178670,1,0,0:0:0:0:
256,192,178843,1,2,0:0:0:0:
36,192,178843,1,0,0:0:0:0:
329,192,178843,1,0,0:0:0:0:
475,192,179015,1,8,0:0:0:0:
182,192,179015,1,2,0:0:0:0:
36,192,179015,1,0,0:0:0:0:
329,192,179015,1,0,0:0:0:0:
402,192,179187,1,2,0:0:0:0:
256,192,179187,1,0,0:0:0:0:
329,192,179360,1,2,0:0:0:0:
109,192,179360,1,0,0:0:0:0:
36,192,179360,1,0,0:0:0:0:
256,192,179532,1,2,0:0:0:0:
182,192,179532,1,0,0:0:0:0:
475,192,179705,1,8,0:0:0:0:
329,192,179705,1,2,0:0:0:0:
182,192,179705,1,0,0:0:0:0:
109,192,179705,1,0,0:0:0:0:
402,192,179877,1,2,0:0:0:0:
256,192,179877,1,0,0:0:0:0:
182,192,179963,1,2,0:0:0:0:
329,192,179963,1,0,0:0:0:0:
109,192,180050,1,2,0:0:0:0:
475,192,180050,1,0,0:0:0:0:
182,192,180136,1,2,0:0:0:0:
329,192,180136,1,0,0:0:0:0:
256,192,180222,1,2,0:0:0:0:
402,192,180222,1,0,0:0:0:0:
36,192,180222,1,0,0:0:0:0:
475,192,180394,1,2,0:0:0:0:
329,192,180394,1,8,0:0:0:0:
109,192,180394,1,0,0:0:0:0:
36,192,180394,1,0,0:0:0:0:
402,192,180567,1,2,0:0:0:0:
256,192,180567,1,0,0:0:0:0:
329,192,180739,1,2,0:0:0:0:
182,192,180739,1,0,0:0:0:0:
256,192,180912,1,2,0:0:0:0:
109,192,180912,1,0,0:0:0:0:
475,192,180912,1,0,0:0:0:0:
475,192,181084,1,8,0:0:0:0:
182,192,181084,1,2,0:0:0:0:
109,192,181084,1,0,0:0:0:0:
329,192,181084,1,0,0:0:0:0:
36,192,181256,1,2,0:0:0:0:
256,192,181256,1,0,0:0:0:0:
109,192,181343,1,2,0:0:0:0:
402,192,181343,1,0,0:0:0:0:
182,192,181429,1,2,0:0:0:0:
329,192,181429,1,0,0:0:0:0:
475,192,181601,1,2,0:0:0:0:
256,192,181601,1,0,0:0:0:0:
109,192,181601,1,0,0:0:0:0:
475,192,181774,1,8,0:0:0:0:
329,192,181774,1,2,0:0:0:0:
182,192,181774,1,0,0:0:0:0:
36,192,181774,1,0,0:0:0:0:
402,192,181946,1,2,0:0:0:0:
256,192,181946,1,0,0:0:0:0:
109,192,182118,1,2,0:0:0:0:
475,192,182118,1,0,0:0:0:0:
329,192,182118,1,0,0:0:0:0:
402,192,182291,1,2,0:0:0:0:
182,192,182291,1,0,0:0:0:0:
475,192,182463,1,2,0:0:0:0:
329,192,182463,1,8,0:0:0:0:
109,192,182463,1,0,0:0:0:0:
256,192,182463,1,0,0:0:0:0:
182,192,182636,1,2,0:0:0:0:
402,192,182636,1,0,0:0:0:0:
36,192,182808,1,2,0:0:0:0:
329,192,182808,1,0,0:0:0:0:
109,192,182894,1,2,0:0:0:0:
256,192,182894,1,0,0:0:0:0:
182,192,182981,1,2,0:0:0:0:
475,192,182981,1,0,0:0:0:0:
329,192,182981,1,0,0:0:0:0:
475,192,183153,1,8,0:0:0:0:
402,192,183153,1,2,0:0:0:0:
256,192,183153,1,0,0:0:0:0:
109,192,183153,1,0,0:0:0:0:
329,192,183325,1,2,0:0:0:0:
182,192,183325,1,0,0:0:0:0:
256,192,183498,1,2,0:0:0:0:
109,192,183498,1,0,0:0:0:0:
402,192,183498,1,0,0:0:0:0:
402,192,183670,1,2,0:0:0:0:
256,192,183670,1,0,0:0:0:0:
109,192,183670,1,0,0:0:0:0:
475,192,183843,1,8,0:0:0:0:
402,192,183843,1,2,0:0:0:0:
109,192,183843,1,0,0:0:0:0:
36,192,183843,1,0,0:0:0:0:
109,192,184015,1,8,0:0:0:0:
36,192,184015,1,2,0:0:0:0:
475,192,184015,1,0,0:0:0:0:
402,192,184015,1,0,0:0:0:0:
329,192,184187,1,2,0:0:0:0:
256,192,184187,1,0,0:0:0:0:
182,192,184187,1,0,0:0:0:0:
329,192,184360,1,2,0:0:0:0:
256,192,184360,1,0,0:0:0:0:
182,192,184360,1,0,0:0:0:0:
475,192,184532,1,8,0:0:0:0:
402,192,184532,1,2,0:0:0:0:
329,192,184532,1,0,0:0:0:0:
182,192,184618,1,8,0:0:0:0:
109,192,184618,1,2,0:0:0:0:
36,192,184618,1,0,0:0:0:0:
475,192,184705,1,2,0:0:0:0:
402,192,184705,1,8,0:0:0:0:
329,192,184705,1,0,0:0:0:0:
182,192,184791,1,8,0:0:0:0:
109,192,184791,1,2,0:0:0:0:
36,192,184791,1,0,0:0:0:0:
475,192,184877,1,8,0:0:0:0:
402,192,184877,1,4,0:0:0:0:
329,192,184877,1,0,0:0:0:0:
256,192,184877,1,0,0:0:0:0:
36,192,185050,1,2,0:0:0:0:
402,192,185050,1,0,0:0:0:0:
329,192,185222,1,8,0:0:0:0:
182,192,185222,1,2,0:0:0:0:
109,192,185222,1,0,0:0:0:0:
475,192,185222,1,0,0:0:0:0:
402,192,185394,1,2,0:0:0:0:
256,192,185394,1,0,0:0:0:0:
36,192,185567,1,2,0:0:0:0:
329,192,185567,1,0,0:0:0:0:
109,192,185653,1,2,0:0:0:0:
402,192,185653,1,0,0:0:0:0:
182,192,185739,1,2,0:0:0:0:
329,192,185739,1,0,0:0:0:0:
256,192,185739,1,0,0:0:0:0:
109,192,185912,1,8,0:0:0:0:
36,192,185912,1,2,0:0:0:0:
475,192,185912,1,0,0:0:0:0:
329,192,185912,1,0,0:0:0:0:
402,192,186084,1,2,0:0:0:0:
256,192,186084,1,0,0:0:0:0:
329,192,186256,1,2,0:0:0:0:
109,192,186256,1,0,0:0:0:0:
182,192,186429,1,2,0:0:0:0:
402,192,186429,1,0,0:0:0:0:
475,192,186429,1,0,0:0:0:0:
475,192,186601,1,8,0:0:0:0:
329,192,186601,1,2,0:0:0:0:
256,192,186601,1,0,0:0:0:0:
109,192,186601,1,0,0:0:0:0:
182,192,186774,1,2,0:0:0:0:
402,192,186774,1,0,0:0:0:0:
329,192,186860,1,2,0:0:0:0:
109,192,186860,1,0,0:0:0:0:
256,192,186946,1,2,0:0:0:0:
36,192,186946,1,0,0:0:0:0:
329,192,187118,1,2,0:0:0:0:
475,192,187118,1,0,0:0:0:0:
182,192,187118,1,0,0:0:0:0:
475,192,187291,1,2,0:0:0:0:
402,192,187291,1,8,0:0:0:0:
256,192,187291,1,0,0:0:0:0:
109,192,187291,1,0,0:0:0:0:
329,192,187463,1,2,0:0:0:0:
182,192,187463,1,0,0:0:0:0:
402,192,187636,1,2,0:0:0:0:
256,192,187636,1,0,0:0:0:0:
36,192,187636,1,0,0:0:0:0:
329,192,187808,1,2,0:0:0:0:
109,192,187808,1,0,0:0:0:0:
475,192,187981,1,8,0:0:0:0:
402,192,187981,1,2,0:0:0:0:
182,192,187981,1,0,0:0:0:0:
36,192,187981,1,0,0:0:0:0:
256,192,188153,1,2,0:0:0:0:
109,192,188153,1,0,0:0:0:0:
475,192,188325,1,2,0:0:0:0:
182,192,188325,1,0,0:0:0:0:
402,192,188412,1,2,0:0:0:0:
109,192,188412,1,0,0:0:0:0:
329,192,188498,1,2,0:0:0:0:
36,192,188498,1,0,0:0:0:0:
256,192,188498,1,0,0:0:0:0:
402,192,188670,1,2,0:0:0:0:
256,192,188670,1,8,0:0:0:0:
109,192,188670,1,0,0:0:0:0:
475,192,188670,1,0,0:0:0:0:
329,192,188843,1,2,0:0:0:0:
182,192,188843,1,0,0:0:0:0:
256,192,189015,1,2,0:0:0:0:
36,192,189015,1,0,0:0:0:0:
329,192,189187,1,2,0:0:0:0:
182,192,189187,1,0,0:0:0:0:
402,192,189187,1,0,0:0:0:0:
475,192,189360,1,2,0:0:0:0:
402,192,189360,1,8,0:0:0:0:
256,192,189360,1,0,0:0:0:0:
109,192,189360,1,0,0:0:0:0:
182,192,189532,1,2,0:0:0:0:
329,192,189532,1,0,0:0:0:0:
109,192,189618,1,2,0:0:0:0:
402,192,189618,1,0,0:0:0:0:
36,192,189705,1,2,0:0:0:0:
256,192,189705,1,0,0:0:0:0:
402,192,189877,1,2,0:0:0:0:
182,192,189877,1,0,0:0:0:0:
256,192,189877,1,0,0:0:0:0:
475,192,190050,1,2,0:0:0:0:
329,192,190050,1,8,0:0:0:0:
182,192,190050,1,0,0:0:0:0:
109,192,190050,1,0,0:0:0:0:
256,192,190222,1,2,0:0:0:0:
402,192,190222,1,0,0:0:0:0:
329,192,190394,1,2,0:0:0:0:
182,192,190394,1,0,0:0:0:0:
36,192,190394,1,0,0:0:0:0:
402,192,190567,1,2,0:0:0:0:
256,192,190567,1,0,0:0:0:0:
475,192,190739,1,8,0:0:0:0:
329,192,190739,1,2,0:0:0:0:
109,192,190739,1,0,0:0:0:0:
36,192,190739,1,0,0:0:0:0:
256,192,190912,1,2,0:0:0:0:
402,192,190912,1,0,0:0:0:0:
475,192,191084,1,2,0:0:0:0:
329,192,191084,1,0,0:0:0:0:
402,192,191170,1,2,0:0:0:0:
256,192,191170,1,0,0:0:0:0:
329,192,191256,1,2,0:0:0:0:
182,192,191256,1,0,0:0:0:0:
109,192,191256,1,0,0:0:0:0:
475,192,191429,1,2,0:0:0:0:
256,192,191429,1,8,0:0:0:0:
36,192,191429,1,0,0:0:0:0:
109,192,191429,1,0,0:0:0:0:
329,192,191601,1,2,0:0:0:0:
182,192,191601,1,0,0:0:0:0:
402,192,191774,1,2,0:0:0:0:
256,192,191774,1,0,0:0:0:0:
329,192,191946,1,2,0:0:0:0:
182,192,191946,1,0,0:0:0:0:
36,192,191946,1,0,0:0:0:0:
109,192,192118,1,8,0:0:0:0:
36,192,192118,1,2,0:0:0:0:
475,192,192118,1,0,0:0:0:0:
256,192,192118,1,0,0:0:0:0:
329,192,192291,1,2,0:0:0:0:
182,192,192291,1,0,0:0:0:0:
256,192,192377,1,2,0:0:0:0:
109,192,192377,1,0,0:0:0:0:
402,192,192463,1,2,0:0:0:0:
36,192,192463,1,0,0:0:0:0:
329,192,192636,1,2,0:0:0:0:
182,192,192636,1,0,0:0:0:0:
475,192,192636,1,0,0:0:0:0:
475,192,192808,1,2,0:0:0:0:
402,192,192808,1,8,0:0:0:0:
256,192,192808,1,0,0:0:0:0:
109,192,192808,1,0,0:0:0:0:
329,192,192981,1,2,0:0:0:0:
182,192,192981,1,0,0:0:0:0:
256,192,193153,1,2,0:0:0:0:
402,192,193153,1,0,0:0:0:0:
256,192,193325,1,0,0:0:0:0:
256,192,193498,1,0,0:0:0:0:
256,192,193843,1,2,0:0:0:0:
109,192,193843,1,0,0:0:0:0:
256,192,194015,1,0,0:0:0:0:
256,192,194187,1,0,0:0:0:0:
256,192,194360,1,0,0:0:0:0:
256,192,194532,1,2,0:0:0:0:
402,192,194532,1,0,0:0:0:0:
256,192,194705,1,0,0:0:0:0:
256,192,194877,1,0,0:0:0:0:
256,192,195050,1,0,0:0:0:0:
402,192,195394,1,0,0:0:0:0:
109,192,195394,1,0,0:0:0:0:
256,192,195394,1,0,0:0:0:0:
475,192,195567,1,8,0:0:0:0:
402,192,195567,1,0,0:0:0:0:
329,192,195567,1,0,0:0:0:0:
182,192,195653,1,8,0:0:0:0:
109,192,195653,1,0,0:0:0:0:
36,192,195653,1,0,0:0:0:0:
475,192,195739,1,8,0:0:0:0:
402,192,195739,1,0,0:0:0:0:
329,192,195739,1,0,0:0:0:0:
182,192,195825,1,8,0:0:0:0:
109,192,195825,1,0,0:0:0:0:
36,192,195825,1,0,0:0:0:0:
475,192,195912,128,8,196084:0:0:0:0:
402,192,195912,128,4,196084:0:0:0:0:
329,192,195912,128,0,196084:0:0:0:0:
256,192,195912,128,0,196084:0:0:0:0:
36,192,196084,128,2,196256:0:0:0:0:
182,192,196084,128,0,196256:0:0:0:0:
109,192,196084,128,0,196256:0:0:0:0:
256,192,196256,128,8,196429:0:0:0:0:
475,192,196256,128,2,196429:0:0:0:0:
402,192,196256,128,0,196429:0:0:0:0:
182,192,196429,128,2,196601:0:0:0:0:
329,192,196429,128,0,196601:0:0:0:0:
36,192,196429,128,0,196601:0:0:0:0:
109,192,196601,128,2,196774:0:0:0:0:
256,192,196601,128,0,196774:0:0:0:0:
402,192,196601,128,0,196774:0:0:0:0:
475,192,196774,128,2,196946:0:0:0:0:
36,192,196774,128,0,196946:0:0:0:0:
329,192,196774,128,0,196946:0:0:0:0:
256,192,196946,128,8,197118:0:0:0:0:
402,192,196946,128,2,197118:0:0:0:0:
109,192,196946,128,0,197118:0:0:0:0:
329,192,197118,128,2,197291:0:0:0:0:
36,192,197118,128,0,197291:0:0:0:0:
182,192,197118,128,0,197291:0:0:0:0:
475,192,197291,128,2,197463:0:0:0:0:
402,192,197291,128,0,197463:0:0:0:0:
256,192,197291,128,0,197463:0:0:0:0:
182,192,197463,128,2,197636:0:0:0:0:
329,192,197463,128,0,197636:0:0:0:0:
36,192,197463,128,0,197636:0:0:0:0:
109,192,197636,128,8,197808:0:0:0:0:
475,192,197636,128,2,197808:0:0:0:0:
256,192,197636,128,0,197808:0:0:0:0:
402,192,197808,128,2,197981:0:0:0:0:
182,192,197808,128,0,197981:0:0:0:0:
329,192,197808,128,0,197981:0:0:0:0:
109,192,197981,128,2,198153:0:0:0:0:
36,192,197981,128,0,198153:0:0:0:0:
256,192,197981,128,0,198153:0:0:0:0:
182,192,198153,128,2,198325:0:0:0:0:
475,192,198153,128,0,198325:0:0:0:0:
402,192,198153,128,0,198325:0:0:0:0:
36,192,198325,128,8,198498:0:0:0:0:
329,192,198325,128,2,198498:0:0:0:0:
256,192,198325,128,0,198498:0:0:0:0:
109,192,198325,1,0,0:0:0:0:
109,192,198498,128,2,198670:0:0:0:0:
475,192,198498,128,0,198670:0:0:0:0:
402,192,198498,128,0,198670:0:0:0:0:
36,192,198670,128,2,198843:0:0:0:0:
329,192,198670,128,0,198843:0:0:0:0:
182,192,198670,128,0,198843:0:0:0:0:
256,192,198843,128,2,199015:0:0:0:0:
402,192,198843,128,0,199015:0:0:0:0:
109,192,198843,128,0,199015:0:0:0:0:
182,192,199015,128,2,199187:0:0:0:0:
36,192,199015,128,8,199187:0:0:0:0:
475,192,199015,128,0,199187:0:0:0:0:
329,192,199187,128,2,199360:0:0:0:0:
402,192,199187,128,0,199360:0:0:0:0:
109,192,199187,128,0,199360:0:0:0:0:
256,192,199360,128,2,199532:0:0:0:0:
475,192,199360,128,0,199532:0:0:0:0:
36,192,199360,128,0,199532:0:0:0:0:
182,192,199532,128,2,199705:0:0:0:0:
329,192,199532,128,0,199705:0:0:0:0:
109,192,199532,128,0,199705:0:0:0:0:
256,192,199705,128,8,199877:0:0:0:0:
402,192,199705,128,2,199877:0:0:0:0:
475,192,199705,128,0,199877:0:0:0:0:
36,192,199877,128,2,200050:0:0:0:0:
182,192,199877,128,0,200050:0:0:0:0:
329,192,199877,128,0,200050:0:0:0:0:
109,192,200050,128,2,200222:0:0:0:0:
475,192,200050,128,0,200222:0:0:0:0:
256,192,200050,128,0,200222:0:0:0:0:
402,192,200222,128,2,200394:0:0:0:0:
182,192,200222,128,0,200394:0:0:0:0:
36,192,200222,128,0,200394:0:0:0:0:
256,192,200394,128,2,200567:0:0:0:0:
109,192,200394,128,8,200567:0:0:0:0:
329,192,200394,128,0,200567:0:0:0:0:
36,192,200567,128,2,200739:0:0:0:0:
475,192,200567,128,0,200739:0:0:0:0:
402,192,200567,128,0,200739:0:0:0:0:
329,192,200739,128,2,200912:0:0:0:0:
182,192,200739,128,0,200912:0:0:0:0:
109,192,200739,128,0,200912:0:0:0:0:
475,192,200912,128,2,201084:0:0:0:0:
256,192,200912,128,0,201084:0:0:0:0:
36,192,200912,128,0,201084:0:0:0:0:
109,192,201084,128,2,201256:0:0:0:0:
402,192,201084,128,8,201256:0:0:0:0:
329,192,201084,128,0,201256:0:0:0:0:
36,192,201256,128,2,201429:0:0:0:0:
182,192,201256,128,0,201429:0:0:0:0:
475,192,201256,128,0,201429:0:0:0:0:
256,192,201429,128,2,201601:0:0:0:0:
109,192,201429,128,0,201601:0:0:0:0:
402,192,201429,128,0,201601:0:0:0:0:
329,192,201601,128,2,201774:0:0:0:0:
36,192,201601,128,0,201774:0:0:0:0:
182,192,201601,128,0,201774:0:0:0:0:
109,192,201774,128,2,201946:0:0:0:0:
256,192,201774,128,8,201946:0:0:0:0:
402,192,201774,128,0,201946:0:0:0:0:
329,192,201946,128,2,202118:0:0:0:0:
475,192,201946,128,0,202118:0:0:0:0:
36,192,201946,128,0,202118:0:0:0:0:
109,192,202118,128,2,202291:0:0:0:0:
402,192,202118,128,0,202291:0:0:0:0:
256,192,202118,128,0,202291:0:0:0:0:
182,192,202291,128,2,202463:0:0:0:0:
36,192,202291,128,0,202463:0:0:0:0:
329,192,202291,128,0,202463:0:0:0:0:
475,192,202463,128,8,202636:0:0:0:0:
402,192,202463,128,2,202636:0:0:0:0:
256,192,202463,128,0,202636:0:0:0:0:
182,192,202636,128,2,202808:0:0:0:0:
329,192,202636,128,0,202808:0:0:0:0:
36,192,202636,128,0,202808:0:0:0:0:
109,192,202808,128,2,202981:0:0:0:0:
256,192,202808,128,0,202981:0:0:0:0:
475,192,202808,128,0,202981:0:0:0:0:
182,192,202981,128,2,203153:0:0:0:0:
402,192,202981,128,0,203153:0:0:0:0:
329,192,202981,128,0,203153:0:0:0:0:
36,192,203153,128,8,203325:0:0:0:0:
256,192,203153,128,2,203325:0:0:0:0:
109,192,203153,128,0,203325:0:0:0:0:
182,192,203325,128,2,203498:0:0:0:0:
402,192,203325,128,0,203498:0:0:0:0:
475,192,203325,128,0,203498:0:0:0:0:
36,192,203498,128,2,203670:0:0:0:0:
329,192,203498,128,0,203670:0:0:0:0:
256,192,203498,128,0,203670:0:0:0:0:
402,192,203670,128,2,203843:0:0:0:0:
109,192,203670,128,0,203843:0:0:0:0:
475,192,203670,128,0,203843:0:0:0:0:
329,192,203843,128,2,204015:0:0:0:0:
182,192,203843,128,8,204015:0:0:0:0:
36,192,203843,128,0,204015:0:0:0:0:
256,192,204015,128,2,204187:0:0:0:0:
109,192,204015,128,0,204187:0:0:0:0:
402,192,204015,128,0,204187:0:0:0:0:
36,192,204187,128,2,204360:0:0:0:0:
475,192,204187,128,0,204360:0:0:0:0:
182,192,204187,128,0,204360:0:0:0:0:
109,192,204360,128,2,204532:0:0:0:0:
402,192,204360,128,0,204532:0:0:0:0:
329,192,204360,128,0,204532:0:0:0:0:
36,192,204532,128,8,204705:0:0:0:0:
475,192,204532,128,2,204705:0:0:0:0:
256,192,204532,128,0,204705:0:0:0:0:
109,192,204705,128,2,204877:0:0:0:0:
329,192,204705,128,0,204877:0:0:0:0:
182,192,204705,128,0,204877:0:0:0:0:
475,192,204877,128,2,205050:0:0:0:0:
402,192,204877,128,0,205050:0:0:0:0:
256,192,204877,128,0,205050:0:0:0:0:
36,192,205050,128,2,205222:0:0:0:0:
329,192,205050,128,0,205222:0:0:0:0:
109,192,205050,128,0,205222:0:0:0:0:
256,192,205222,128,2,205394:0:0:0:0:
402,192,205222,128,8,205394:0:0:0:0:
475,192,205222,128,0,205394:0:0:0:0:
182,192,205394,128,2,205567:0:0:0:0:
36,192,205394,128,0,205567:0:0:0:0:
109,192,205394,128,0,205567:0:0:0:0:
402,192,205567,1,8,0:0:0:0:
475,192,205567,1,2,0:0:0:0:
109,192,205653,1,8,0:0:0:0:
36,192,205653,1,2,0:0:0:0:
475,192,205739,1,2,0:0:0:0:
402,192,205739,1,8,0:0:0:0:
109,192,205825,1,8,0:0:0:0:
36,192,205825,1,2,0:0:0:0:
402,192,205912,1,8,0:0:0:0:
475,192,205912,1,2,0:0:0:0:
329,192,206084,1,2,0:0:0:0:
182,192,206084,1,0,0:0:0:0:
109,192,206256,1,2,0:0:0:0:
36,192,206256,1,8,0:0:0:0:
256,192,206256,1,0,0:0:0:0:
109,192,206429,1,2,0:0:0:0:
36,192,206429,1,0,0:0:0:0:
256,192,206429,1,0,0:0:0:0:
329,192,206601,128,8,206946:0:0:0:0:
402,192,206601,128,2,206946:0:0:0:0:
475,192,206601,128,0,206946:0:0:0:0:
36,192,206946,1,4,0:0:0:0:
256,192,206946,1,8,0:0:0:0:
109,192,207032,1,0,0:0:0:0:
329,192,207032,1,0,0:0:0:0:
182,192,207118,1,2,0:0:0:0:
402,192,207118,1,0,0:0:0:0:
329,192,207205,1,0,0:0:0:0:
109,192,207205,1,0,0:0:0:0:
256,192,207291,1,8,0:0:0:0:
36,192,207291,1,2,0:0:0:0:
475,192,207291,1,0,0:0:0:0:
402,192,207377,1,0,0:0:0:0:
182,192,207377,1,0,0:0:0:0:
329,192,207463,1,2,0:0:0:0:
109,192,207463,1,0,0:0:0:0:
182,192,207550,1,0,0:0:0:0:
475,192,207550,1,0,0:0:0:0:
402,192,207636,1,2,0:0:0:0:
109,192,207636,1,0,0:0:0:0:
329,192,207722,1,0,0:0:0:0:
36,192,207722,1,0,0:0:0:0:
256,192,207808,1,2,0:0:0:0:
109,192,207808,1,0,0:0:0:0:
402,192,207808,1,0,0:0:0:0:
475,192,207894,1,0,0:0:0:0:
182,192,207894,1,0,0:0:0:0:
402,192,207981,1,2,0:0:0:0:
256,192,207981,1,8,0:0:0:0:
36,192,207981,1,0,0:0:0:0:
109,192,208067,1,0,0:0:0:0:
329,192,208067,1,0,0:0:0:0:
182,192,208153,1,2,0:0:0:0:
402,192,208153,1,0,0:0:0:0:
36,192,208239,1,0,0:0:0:0:
256,192,208239,1,0,0:0:0:0:
109,192,208325,1,2,0:0:0:0:
329,192,208325,1,0,0:0:0:0:
402,192,208412,1,0,0:0:0:0:
182,192,208412,1,0,0:0:0:0:
109,192,208498,1,2,0:0:0:0:
475,192,208498,1,0,0:0:0:0:
256,192,208498,1,0,0:0:0:0:
36,192,208584,1,0,0:0:0:0:
329,192,208584,1,0,0:0:0:0:
475,192,208670,1,2,0:0:0:0:
402,192,208670,1,8,0:0:0:0:
182,192,208670,1,0,0:0:0:0:
329,192,208756,1,0,0:0:0:0:
109,192,208756,1,0,0:0:0:0:
256,192,208843,1,2,0:0:0:0:
36,192,208843,1,0,0:0:0:0:
182,192,208929,1,0,0:0:0:0:
402,192,208929,1,0,0:0:0:0:
109,192,209015,1,2,0:0:0:0:
329,192,209015,1,0,0:0:0:0:
36,192,209101,1,0,0:0:0:0:
402,192,209101,1,0,0:0:0:0:
475,192,209187,1,2,0:0:0:0:
109,192,209187,1,0,0:0:0:0:
256,192,209187,1,0,0:0:0:0:
329,192,209274,1,0,0:0:0:0:
182,192,209274,1,0,0:0:0:0:
402,192,209360,1,8,0:0:0:0:
109,192,209360,1,2,0:0:0:0:
475,192,209360,1,0,0:0:0:0:
329,192,209446,1,0,0:0:0:0:
182,192,209446,1,0,0:0:0:0:
402,192,209532,1,2,0:0:0:0:
109,192,209532,1,0,0:0:0:0:
475,192,209618,1,0,0:0:0:0:
36,192,209618,1,0,0:0:0:0:
329,192,209705,1,2,0:0:0:0:
182,192,209705,1,0,0:0:0:0:
256,192,209705,1,0,0:0:0:0:
109,192,209791,1,0,0:0:0:0:
402,192,209791,1,0,0:0:0:0:
36,192,209877,1,2,0:0:0:0:
475,192,209877,1,0,0:0:0:0:
402,192,209963,1,0,0:0:0:0:
109,192,209963,1,0,0:0:0:0:
329,192,210050,1,2,0:0:0:0:
182,192,210050,1,8,0:0:0:0:
256,192,210050,1,0,0:0:0:0:
36,192,210136,1,0,0:0:0:0:
475,192,210136,1,0,0:0:0:0:
109,192,210222,1,2,0:0:0:0:
402,192,210222,1,0,0:0:0:0:
182,192,210308,1,2,0:0:0:0:
329,192,210308,1,0,0:0:0:0:
402,192,210394,1,2,0:0:0:0:
109,192,210394,1,0,0:0:0:0:
329,192,210481,1,0,0:0:0:0:
182,192,210481,1,0,0:0:0:0:
402,192,210567,1,2,0:0:0:0:
109,192,210567,1,0,0:0:0:0:
256,192,210567,1,0,0:0:0:0:
475,192,210653,1,0,0:0:0:0:
36,192,210653,1,0,0:0:0:0:
402,192,210739,1,2,0:0:0:0:
256,192,210739,1,8,0:0:0:0:
109,192,210739,1,0,0:0:0:0:
329,192,210825,1,0,0:0:0:0:
182,192,210825,1,0,0:0:0:0:
36,192,210912,1,2,0:0:0:0:
475,192,210912,1,0,0:0:0:0:
109,192,210998,1,0,0:0:0:0:
402,192,210998,1,0,0:0:0:0:
329,192,211084,1,2,0:0:0:0:
182,192,211084,1,0,0:0:0:0:
36,192,211170,1,0,0:0:0:0:
256,192,211170,1,0,0:0:0:0:
109,192,211256,1,2,0:0:0:0:
402,192,211256,1,0,0:0:0:0:
475,192,211256,1,0,0:0:0:0:
329,192,211343,1,0,0:0:0:0:
182,192,211343,1,0,0:0:0:0:
475,192,211429,1,2,0:0:0:0:
256,192,211429,1,8,0:0:0:0:
36,192,211429,1,0,0:0:0:0:
402,192,211515,1,0,0:0:0:0:
109,192,211515,1,0,0:0:0:0:
329,192,211601,1,2,0:0:0:0:
36,192,211601,1,0,0:0:0:0:
475,192,211687,1,0,0:0:0:0:
182,192,211687,1,0,0:0:0:0:
402,192,211774,1,2,0:0:0:0:
109,192,211774,1,0,0:0:0:0:
182,192,211860,1,0,0:0:0:0:
329,192,211860,1,0,0:0:0:0:
475,192,211946,1,2,0:0:0:0:
36,192,211946,1,0,0:0:0:0:
256,192,211946,1,0,0:0:0:0:
402,192,212032,1,0,0:0:0:0:
109,192,212032,1,0,0:0:0:0:
329,192,212118,1,2,0:0:0:0:
182,192,212118,1,8,0:0:0:0:
256,192,212118,1,0,0:0:0:0:
36,192,212205,1,0,0:0:0:0:
475,192,212205,1,0,0:0:0:0:
109,192,212291,1,2,0:0:0:0:
402,192,212291,1,0,0:0:0:0:
329,192,212377,1,0,0:0:0:0:
182,192,212377,1,0,0:0:0:0:
402,192,212463,1,2,0:0:0:0:
256,192,212463,1,0,0:0:0:0:
475,192,212463,1,0,0:0:0:0:
109,192,212550,1,0,0:0:0:0:
36,192,212550,1,0,0:0:0:0:
329,192,212636,1,2,0:0:0:0:
475,192,212636,1,0,0:0:0:0:
182,192,212722,1,0,0:0:0:0:
109,192,212722,1,0,0:0:0:0:
475,192,212808,1,8,0:0:0:0:
402,192,212808,1,2,0:0:0:0:
329,192,212808,1,0,0:0:0:0:
256,192,212894,1,0,0:0:0:0:
182,192,212894,1,0,0:0:0:0:
475,192,212981,1,2,0:0:0:0:
402,192,212981,1,0,0:0:0:0:
182,192,213067,1,2,0:0:0:0:
109,192,213067,1,0,0:0:0:0:
329,192,213153,1,2,0:0:0:0:
402,192,213153,1,0,0:0:0:0:
109,192,213239,1,2,0:0:0:0:
36,192,213239,1,0,0:0:0:0:
329,192,213325,1,2,0:0:0:0:
256,192,213325,1,0,0:0:0:0:
475,192,213325,1,0,0:0:0:0:
109,192,213412,1,0,0:0:0:0:
36,192,213412,1,0,0:0:0:0:
402,192,213498,1,8,0:0:0:0:
329,192,213498,1,2,0:0:0:0:
256,192,213498,1,0,0:0:0:0:
182,192,213584,1,0,0:0:0:0:
109,192,213584,1,0,0:0:0:0:
475,192,213670,1,2,0:0:0:0:
402,192,213670,1,0,0:0:0:0:
256,192,213756,1,0,0:0:0:0:
182,192,213756,1,0,0:0:0:0:
475,192,213843,1,2,0:0:0:0:
329,192,213843,1,0,0:0:0:0:
182,192,213929,1,0,0:0:0:0:
36,192,213929,1,0,0:0:0:0:
402,192,214015,1,2,0:0:0:0:
256,192,214015,1,0,0:0:0:0:
329,192,214015,1,0,0:0:0:0:
109,192,214101,1,0,0:0:0:0:
36,192,214101,1,0,0:0:0:0:
475,192,214187,1,8,0:0:0:0:
329,192,214187,1,2,0:0:0:0:
402,192,214187,1,0,0:0:0:0:
182,192,214274,1,0,0:0:0:0:
109,192,214274,1,0,0:0:0:0:
475,192,214360,1,2,0:0:0:0:
329,192,214360,1,0,0:0:0:0:
182,192,214446,1,0,0:0:0:0:
36,192,214446,1,0,0:0:0:0:
402,192,214532,1,2,0:0:0:0:
256,192,214532,1,0,0:0:0:0:
182,192,214618,1,0,0:0:0:0:
36,192,214618,1,0,0:0:0:0:
475,192,214705,1,2,0:0:0:0:
329,192,214705,1,0,0:0:0:0:
402,192,214705,1,0,0:0:0:0:
256,192,214791,1,0,0:0:0:0:
109,192,214791,1,0,0:0:0:0:
475,192,214877,1,8,0:0:0:0:
329,192,214877,1,2,0:0:0:0:
402,192,214877,1,0,0:0:0:0:
182,192,214963,1,0,0:0:0:0:
36,192,214963,1,0,0:0:0:0:
402,192,215050,1,2,0:0:0:0:
329,192,215050,1,0,0:0:0:0:
109,192,215136,1,0,0:0:0:0:
182,192,215136,1,0,0:0:0:0:
475,192,215222,1,2,0:0:0:0:
402,192,215222,1,0,0:0:0:0:
256,192,215222,1,0,0:0:0:0:
182,192,215308,1,0,0:0:0:0:
109,192,215308,1,0,0:0:0:0:
402,192,215394,1,2,0:0:0:0:
329,192,215394,1,0,0:0:0:0:
109,192,215481,1,0,0:0:0:0:
36,192,215481,1,0,0:0:0:0:
402,192,215567,1,2,0:0:0:0:
329,192,215567,1,8,0:0:0:0:
256,192,215567,1,0,0:0:0:0:
182,192,215653,1,0,0:0:0:0:
109,192,215653,1,0,0:0:0:0:
475,192,215739,1,2,0:0:0:0:
402,192,215739,1,0,0:0:0:0:
109,192,215825,1,2,0:0:0:0:
36,192,215825,1,0,0:0:0:0:
329,192,215912,1,2,0:0:0:0:
475,192,215912,1,0,0:0:0:0:
36,192,215998,1,2,0:0:0:0:
182,192,215998,1,0,0:0:0:0:
402,192,216084,1,2,0:0:0:0:
256,192,216084,1,0,0:0:0:0:
329,192,216084,1,0,0:0:0:0:
109,192,216170,1,0,0:0:0:0:
36,192,216170,1,0,0:0:0:0:
329,192,216256,1,8,0:0:0:0:
475,192,216256,1,2,0:0:0:0:
402,192,216256,1,0,0:0:0:0:
36,192,216343,1,0,0:0:0:0:
182,192,216343,1,0,0:0:0:0:
475,192,216429,1,2,0:0:0:0:
402,192,216429,1,0,0:0:0:0:
109,192,216515,1,0,0:0:0:0:
256,192,216515,1,0,0:0:0:0:
329,192,216601,1,2,0:0:0:0:
402,192,216601,1,0,0:0:0:0:
475,192,216601,1,0,0:0:0:0:
182,192,216687,1,0,0:0:0:0:
36,192,216687,1,0,0:0:0:0:
329,192,216774,1,2,0:0:0:0:
402,192,216774,1,0,0:0:0:0:
475,192,216774,1,0,0:0:0:0:
182,192,216860,1,0,0:0:0:0:
36,192,216860,1,0,0:0:0:0:
475,192,216946,1,8,0:0:0:0:
402,192,216946,1,2,0:0:0:0:
256,192,216946,1,0,0:0:0:0:
109,192,217032,1,0,0:0:0:0:
182,192,217032,1,0,0:0:0:0:
475,192,217118,1,2,0:0:0:0:
402,192,217118,1,8,0:0:0:0:
256,192,217118,1,0,0:0:0:0:
182,192,217205,1,0,0:0:0:0:
109,192,217205,1,0,0:0:0:0:
475,192,217291,1,2,0:0:0:0:
402,192,217291,1,0,0:0:0:0:
329,192,217291,1,0,0:0:0:0:
182,192,217377,1,0,0:0:0:0:
36,192,217377,1,0,0:0:0:0:
475,192,217463,1,2,0:0:0:0:
329,192,217463,1,0,0:0:0:0:
402,192,217463,1,0,0:0:0:0:
36,192,217550,1,0,0:0:0:0:
182,192,217550,1,0,0:0:0:0:
475,192,217636,1,8,0:0:0:0:
402,192,217636,1,2,0:0:0:0:
329,192,217636,1,0,0:0:0:0:
182,192,217722,1,8,0:0:0:0:
109,192,217722,1,2,0:0:0:0:
36,192,217722,1,0,0:0:0:0:
475,192,217808,1,2,0:0:0:0:
402,192,217808,1,8,0:0:0:0:
329,192,217808,1,0,0:0:0:0:
182,192,217894,1,8,0:0:0:0:
36,192,217894,1,2,0:0:0:0:
109,192,217894,1,0,0:0:0:0:
256,192,217981,128,4,228584:0:0:0:0:
402,192,217981,128,8,218067:0:0:0:0:
475,192,217981,128,0,218067:0:0:0:0:
109,192,218067,128,0,218153:0:0:0:0:
182,192,218067,128,0,218153:0:0:0:0:
475,192,218153,128,2,218239:0:0:0:0:
402,192,218153,128,0,218239:0:0:0:0:
182,192,218239,128,0,218325:0:0:0:0:
109,192,218239,128,0,218325:0:0:0:0:
329,192,218325,128,8,218412:0:0:0:0:
402,192,218325,128,2,218412:0:0:0:0:
109,192,218412,128,0,218498:0:0:0:0:
36,192,218412,128,0,218498:0:0:0:0:
329,192,218498,128,2,218584:0:0:0:0:
402,192,218498,128,0,218584:0:0:0:0:
109,192,218584,128,0,218670:0:0:0:0:
36,192,218584,128,0,218670:0:0:0:0:
475,192,218670,1,2,0:0:0:0:
402,192,218670,1,0,0:0:0:0:
182,192,218756,1,0,0:0:0:0:
109,192,218756,1,0,0:0:0:0:
402,192,218843,1,0,0:0:0:0:
329,192,218843,1,0,0:0:0:0:
109,192,218929,1,0,0:0:0:0:
182,192,218929,1,0,0:0:0:0:
402,192,219015,1,2,0:0:0:0:
329,192,219015,1,8,0:0:0:0:
109,192,219101,1,0,0:0:0:0:
36,192,219101,1,0,0:0:0:0:
402,192,219187,1,2,0:0:0:0:
475,192,219187,1,0,0:0:0:0:
109,192,219274,1,0,0:0:0:0:
36,192,219274,1,0,0:0:0:0:
329,192,219360,128,2,219446:0:0:0:0:
475,192,219360,128,0,219446:0:0:0:0:
182,192,219446,128,0,219532:0:0:0:0:
36,192,219446,128,0,219532:0:0:0:0:
329,192,219532,128,2,219618:0:0:0:0:
475,192,219532,128,0,219618:0:0:0:0:
36,192,219618,128,0,219705:0:0:0:0:
182,192,219618,128,0,219705:0:0:0:0:
402,192,219705,128,8,219791:0:0:0:0:
475,192,219705,128,2,219791:0:0:0:0:
109,192,219791,128,0,219877:0:0:0:0:
36,192,219791,128,0,219877:0:0:0:0:
402,192,219877,128,2,219963:0:0:0:0:
475,192,219877,128,0,219963:0:0:0:0:
109,192,219963,128,0,220050:0:0:0:0:
36,192,219963,128,0,220050:0:0:0:0:
475,192,220050,1,2,0:0:0:0:
329,192,220050,1,0,0:0:0:0:
182,192,220136,1,0,0:0:0:0:
36,192,220136,1,0,0:0:0:0:
475,192,220222,1,2,0:0:0:0:
329,192,220222,1,0,0:0:0:0:
182,192,220308,1,0,0:0:0:0:
36,192,220308,1,0,0:0:0:0:
402,192,220394,1,8,0:0:0:0:
329,192,220394,1,2,0:0:0:0:
182,192,220481,1,0,0:0:0:0:
109,192,220481,1,0,0:0:0:0:
402,192,220567,1,2,0:0:0:0:
329,192,220567,1,0,0:0:0:0:
182,192,220653,1,0,0:0:0:0:
109,192,220653,1,0,0:0:0:0:
475,192,220739,128,2,220825:0:0:0:0:
402,192,220739,128,0,220825:0:0:0:0:
182,192,220825,128,0,220912:0:0:0:0:
109,192,220825,128,0,220912:0:0:0:0:
402,192,220912,128,2,220998:0:0:0:0:
329,192,220912,128,0,220998:0:0:0:0:
109,192,220998,128,0,221084:0:0:0:0:
36,192,220998,128,0,221084:0:0:0:0:
475,192,221084,128,8,221170:0:0:0:0:
402,192,221084,128,2,221170:0:0:0:0:
109,192,221170,128,0,221256:0:0:0:0:
36,192,221170,128,0,221256:0:0:0:0:
402,192,221256,128,2,221343:0:0:0:0:
329,192,221256,128,0,221343:0:0:0:0:
182,192,221343,128,2,221429:0:0:0:0:
109,192,221343,128,0,221429:0:0:0:0:
475,192,221429,1,2,0:0:0:0:
402,192,221429,1,0,0:0:0:0:
182,192,221515,1,0,0:0:0:0:
109,192,221515,1,0,0:0:0:0:
402,192,221601,1,2,0:0:0:0:
329,192,221601,1,0,0:0:0:0:
109,192,221687,1,0,0:0:0:0:
36,192,221687,1,0,0:0:0:0:
475,192,221774,1,8,0:0:0:0:
402,192,221774,1,2,0:0:0:0:
109,192,221860,1,0,0:0:0:0:
36,192,221860,1,0,0:0:0:0:
402,192,221946,1,2,0:0:0:0:
329,192,221946,1,0,0:0:0:0:
182,192,222032,1,0,0:0:0:0:
109,192,222032,1,0,0:0:0:0:
329,192,222118,128,2,222205:0:0:0:0:
475,192,222118,128,0,222205:0:0:0:0:
182,192,222205,128,0,222291:0:0:0:0:
36,192,222205,128,0,222291:0:0:0:0:
475,192,222291,128,2,222377:0:0:0:0:
329,192,222291,128,0,222377:0:0:0:0:
182,192,222377,128,0,222463:0:0:0:0:
36,192,222377,128,0,222463:0:0:0:0:
402,192,222463,1,8,0:0:0:0:
329,192,222463,1,2,0:0:0:0:
182,192,222550,1,0,0:0:0:0:
109,192,222550,1,0,0:0:0:0:
402,192,222636,1,2,0:0:0:0:
329,192,222636,1,0,0:0:0:0:
182,192,222722,1,0,0:0:0:0:
109,192,222722,1,0,0:0:0:0:
475,192,222808,128,2,222894:0:0:0:0:
329,192,222808,128,0,222894:0:0:0:0:
182,192,222894,128,0,222981:0:0:0:0:
36,192,222894,128,0,222981:0:0:0:0:
475,192,222981,128,2,223067:0:0:0:0:
329,192,222981,128,0,223067:0:0:0:0:
182,192,223067,128,0,223153:0:0:0:0:
36,192,223067,128,0,223153:0:0:0:0:
475,192,223153,1,8,0:0:0:0:
402,192,223153,1,2,0:0:0:0:
109,192,223239,1,0,0:0:0:0:
36,192,223239,1,0,0:0:0:0:
475,192,223325,1,2,0:0:0:0:
402,192,223325,1,0,0:0:0:0:
109,192,223412,1,0,0:0:0:0:
36,192,223412,1,0,0:0:0:0:
475,192,223498,1,2,0:0:0:0:
329,192,223498,1,0,0:0:0:0:
182,192,223584,1,0,0:0:0:0:
36,192,223584,1,0,0:0:0:0:
402,192,223670,1,2,0:0:0:0:
329,192,223670,1,0,0:0:0:0:
182,192,223756,1,0,0:0:0:0:
109,192,223756,1,0,0:0:0:0:
475,192,223843,1,8,0:0:0:0:
329,192,223843,1,2,0:0:0:0:
182,192,223929,1,0,0:0:0:0:
36,192,223929,1,0,0:0:0:0:
402,192,224015,1,2,0:0:0:0:
329,192,224015,1,0,0:0:0:0:
182,192,224101,1,2,0:0:0:0:
109,192,224101,1,0,0:0:0:0:
329,192,224187,128,2,224274:0:0:0:0:
475,192,224187,128,0,224274:0:0:0:0:
182,192,224274,128,2,224360:0:0:0:0:
36,192,224274,128,0,224360:0:0:0:0:
402,192,224360,128,2,224446:0:0:0:0:
329,192,224360,128,0,224446:0:0:0:0:
182,192,224446,128,0,224532:0:0:0:0:
109,192,224446,128,0,224532:0:0:0:0:
475,192,224532,128,2,224618:0:0:0:0:
329,192,224532,128,8,224618:0:0:0:0:
182,192,224618,128,0,224705:0:0:0:0:
36,192,224618,128,0,224705:0:0:0:0:
402,192,224705,128,2,224791:0:0:0:0:
329,192,224705,128,0,224791:0:0:0:0:
182,192,224791,128,0,224877:0:0:0:0:
109,192,224791,128,0,224877:0:0:0:0:
475,192,224877,1,2,0:0:0:0:
402,192,224877,1,0,0:0:0:0:
109,192,224963,1,0,0:0:0:0:
36,192,224963,1,0,0:0:0:0:
475,192,225050,1,2,0:0:0:0:
329,192,225050,1,0,0:0:0:0:
36,192,225136,1,0,0:0:0:0:
182,192,225136,1,0,0:0:0:0:
475,192,225222,1,8,0:0:0:0:
402,192,225222,1,2,0:0:0:0:
109,192,225308,1,0,0:0:0:0:
36,192,225308,1,0,0:0:0:0:
475,192,225394,1,2,0:0:0:0:
329,192,225394,1,0,0:0:0:0:
182,192,225481,1,0,0:0:0:0:
36,192,225481,1,0,0:0:0:0:
475,192,225567,128,2,225653:0:0:0:0:
402,192,225567,128,0,225653:0:0:0:0:
109,192,225653,128,0,225739:0:0:0:0:
36,192,225653,128,0,225739:0:0:0:0:
475,192,225739,128,2,225825:0:0:0:0:
329,192,225739,128,0,225825:0:0:0:0:
182,192,225825,128,0,225912:0:0:0:0:
36,192,225825,128,0,225912:0:0:0:0:
475,192,225912,128,2,225998:0:0:0:0:
402,192,225912,128,8,225998:0:0:0:0:
109,192,225998,128,0,226084:0:0:0:0:
36,192,225998,128,0,226084:0:0:0:0:
475,192,226084,128,2,226170:0:0:0:0:
329,192,226084,128,0,226170:0:0:0:0:
182,192,226170,128,0,226256:0:0:0:0:
36,192,226170,128,0,226256:0:0:0:0:
475,192,226256,1,8,0:0:0:0:
402,192,226256,1,0,0:0:0:0:
329,192,226256,1,0,0:0:0:0:
182,192,226343,1,8,0:0:0:0:
109,192,226343,1,0,0:0:0:0:
36,192,226343,1,0,0:0:0:0:
475,192,226429,1,8,0:0:0:0:
402,192,226429,1,0,0:0:0:0:
329,192,226429,1,0,0:0:0:0:
182,192,226515,1,8,0:0:0:0:
109,192,226515,1,0,0:0:0:0:
36,192,226515,1,0,0:0:0:0:
475,192,226601,1,8,0:0:0:0:
402,192,226601,1,0,0:0:0:0:
329,192,226601,1,0,0:0:0:0:
182,192,226687,1,8,0:0:0:0:
36,192,226687,1,0,0:0:0:0:
109,192,226687,1,0,0:0:0:0:
475,192,226774,1,8,0:0:0:0:
402,192,226774,1,0,0:0:0:0:
329,192,226774,1,0,0:0:0:0:
182,192,226860,1,8,0:0:0:0:
109,192,226860,1,0,0:0:0:0:
36,192,226860,1,0,0:0:0:0:
475,192,226946,1,8,0:0:0:0:
402,192,226946,1,0,0:0:0:0:
329,192,226946,1,0,0:0:0:0:
109,192,227032,1,8,0:0:0:0:
36,192,227032,1,0,0:0:0:0:
182,192,227032,1,0,0:0:0:0:
329,192,227118,1,8,0:0:0:0:
402,192,227118,1,0,0:0:0:0:
475,192,227118,1,0,0:0:0:0:
36,192,227205,1,8,0:0:0:0:
109,192,227205,1,0,0:0:0:0:
182,192,227205,1,0,0:0:0:0:
329,192,227291,1,8,0:0:0:0:
402,192,227291,1,0,0:0:0:0:
475,192,227291,1,0,0:0:0:0:
182,192,227377,1,8,0:0:0:0:
36,192,227377,1,0,0:0:0:0:
109,192,227377,1,0,0:0:0:0:
475,192,227463,1,8,0:0:0:0:
402,192,227463,1,0,0:0:0:0:
329,192,227463,1,0,0:0:0:0:
182,192,227550,1,8,0:0:0:0:
109,192,227550,1,0,0:0:0:0:
36,192,227550,1,0,0:0:0:0:
475,192,227636,1,8,0:0:0:0:
402,192,227636,1,0,0:0:0:0:
329,192,227636,1,0,0:0:0:0:
109,192,227722,1,8,0:0:0:0:
36,192,227722,1,0,0:0:0:0:
182,192,227722,1,0,0:0:0:0:
329,192,227808,1,8,0:0:0:0:
402,192,227808,1,0,0:0:0:0:
475,192,227808,1,0,0:0:0:0:
36,192,227894,1,8,0:0:0:0:
109,192,227894,1,0,0:0:0:0:
182,192,227894,1,0,0:0:0:0:
329,192,227981,1,8,0:0:0:0:
402,192,227981,1,0,0:0:0:0:
475,192,227981,1,0,0:0:0:0:
182,192,228067,1,8,0:0:0:0:
36,192,228067,1,0,0:0:0:0:
109,192,228067,1,0,0:0:0:0:
475,192,228153,1,8,0:0:0:0:
402,192,228153,1,0,0:0:0:0:
329,192,228153,1,0,0:0:0:0:
182,192,228239,1,8,0:0:0:0:
109,192,228239,1,0,0:0:0:0:
36,192,228239,1,0,0:0:0:0:
475,192,228325,1,8,0:0:0:0:
402,192,228325,1,0,0:0:0:0:
329,192,228325,1,0,0:0:0:0:
109,192,228412,1,8,0:0:0:0:
36,192,228412,1,0,0:0:0:0:
182,192,228412,1,0,0:0:0:0:
329,192,228498,1,8,0:0:0:0:
402,192,228498,1,0,0:0:0:0:
475,192,228498,1,0,0:0:0:0:
36,192,228584,1,8,0:0:0:0:
109,192,228584,1,0,0:0:0:0:
182,192,228584,1,0,0:0:0:0:
475,192,228670,1,8,0:0:0:0:
402,192,228713,1,8,0:0:0:0:
329,192,228756,1,8,0:0:0:0:
182,192,228756,1,0,0:0:0:0:
109,192,228800,1,8,0:0:0:0:
36,192,228843,1,8,0:0:0:0:
475,192,228843,1,0,0:0:0:0:
402,192,228886,1,8,0:0:0:0:
329,192,228929,1,8,0:0:0:0:
182,192,228929,1,0,0:0:0:0:
109,192,228972,1,8,0:0:0:0:
36,192,229015,1,4,0:0:0:0:
256,192,229015,128,8,239705:0:0:0:0:
475,192,229015,1,0,0:0:0:0:
402,192,229101,1,0,0:0:0:0:
109,192,229101,1,0,0:0:0:0:
329,192,229187,1,0,0:0:0:0:
182,192,229187,1,0,0:0:0:0:
402,192,229274,1,0,0:0:0:0:
109,192,229274,1,0,0:0:0:0:
475,192,229360,1,0,0:0:0:0:
36,192,229360,1,0,0:0:0:0:
109,192,229446,1,0,0:0:0:0:
402,192,229446,1,0,0:0:0:0:
182,192,229532,1,0,0:0:0:0:
329,192,229532,1,0,0:0:0:0:
402,192,229618,1,0,0:0:0:0:
109,192,229618,1,0,0:0:0:0:
475,192,229705,1,0,0:0:0:0:
36,192,229705,1,0,0:0:0:0:
109,192,229791,1,0,0:0:0:0:
402,192,229791,1,0,0:0:0:0:
182,192,229877,1,0,0:0:0:0:
329,192,229877,1,0,0:0:0:0:
109,192,229963,1,0,0:0:0:0:
402,192,229963,1,0,0:0:0:0:
36,192,230050,1,0,0:0:0:0:
475,192,230050,1,0,0:0:0:0:
402,192,230136,1,0,0:0:0:0:
109,192,230136,1,0,0:0:0:0:
329,192,230222,1,0,0:0:0:0:
182,192,230222,1,0,0:0:0:0:
109,192,230308,1,0,0:0:0:0:
402,192,230308,1,0,0:0:0:0:
36,192,230394,1,0,0:0:0:0:
475,192,230394,1,0,0:0:0:0:
182,192,230481,1,0,0:0:0:0:
329,192,230481,1,0,0:0:0:0:
36,192,230567,1,0,0:0:0:0:
475,192,230567,1,0,0:0:0:0:
182,192,230653,1,0,0:0:0:0:
329,192,230653,1,0,0:0:0:0:
109,192,230739,1,0,0:0:0:0:
402,192,230739,1,0,0:0:0:0:
182,192,230825,1,0,0:0:0:0:
329,192,230825,1,0,0:0:0:0:
109,192,230912,1,0,0:0:0:0:
402,192,230912,1,0,0:0:0:0:
182,192,230998,1,0,0:0:0:0:
329,192,230998,1,0,0:0:0:0:
36,192,231084,1,0,0:0:0:0:
475,192,231084,1,0,0:0:0:0:
182,192,231170,1,0,0:0:0:0:
329,192,231170,1,0,0:0:0:0:
109,192,231256,1,0,0:0:0:0:
402,192,231256,1,0,0:0:0:0:
182,192,231343,1,0,0:0:0:0:
329,192,231343,1,0,0:0:0:0:
36,192,231429,1,0,0:0:0:0:
475,192,231429,1,0,0:0:0:0:
182,192,231515,1,0,0:0:0:0:
329,192,231515,1,0,0:0:0:0:
109,192,231601,1,0,0:0:0:0:
402,192,231601,1,0,0:0:0:0:
182,192,231687,1,0,0:0:0:0:
329,192,231687,1,0,0:0:0:0:
475,192,231774,1,0,0:0:0:0:
36,192,231774,1,0,0:0:0:0:
109,192,231860,1,0,0:0:0:0:
402,192,231860,1,0,0:0:0:0:
182,192,231946,1,2,0:0:0:0:
329,192,231946,1,0,0:0:0:0:
109,192,232032,1,0,0:0:0:0:
402,192,232032,1,0,0:0:0:0:
36,192,232118,1,8,0:0:0:0:
475,192,232118,1,2,0:0:0:0:
109,192,232205,1,0,0:0:0:0:
402,192,232205,1,0,0:0:0:0:
36,192,232291,1,2,0:0:0:0:
475,192,232291,1,0,0:0:0:0:
109,192,232377,1,2,0:0:0:0:
402,192,232377,1,0,0:0:0:0:
182,192,232463,1,2,0:0:0:0:
329,192,232463,1,0,0:0:0:0:
36,192,232550,1,0,0:0:0:0:
475,192,232550,1,0,0:0:0:0:
182,192,232636,1,2,0:0:0:0:
329,192,232636,1,0,0:0:0:0:
36,192,232722,1,0,0:0:0:0:
475,192,232722,1,0,0:0:0:0:
109,192,232808,1,8,0:0:0:0:
402,192,232808,1,2,0:0:0:0:
36,192,232894,1,0,0:0:0:0:
475,192,232894,1,0,0:0:0:0:
109,192,232981,1,2,0:0:0:0:
402,192,232981,1,0,0:0:0:0:
36,192,233067,1,0,0:0:0:0:
475,192,233067,1,0,0:0:0:0:
182,192,233153,1,2,0:0:0:0:
329,192,233153,1,0,0:0:0:0:
109,192,233239,1,0,0:0:0:0:
402,192,233239,1,0,0:0:0:0:
182,192,233325,1,2,0:0:0:0:
329,192,233325,1,0,0:0:0:0:
109,192,233412,1,0,0:0:0:0:
402,192,233412,1,0,0:0:0:0:
36,192,233498,1,8,0:0:0:0:
475,192,233498,1,2,0:0:0:0:
109,192,233584,1,0,0:0:0:0:
402,192,233584,1,0,0:0:0:0:
36,192,233670,1,2,0:0:0:0:
475,192,233670,1,0,0:0:0:0:
109,192,233756,1,0,0:0:0:0:
402,192,233756,1,0,0:0:0:0:
182,192,233843,1,2,0:0:0:0:
329,192,233843,1,0,0:0:0:0:
36,192,233929,1,0,0:0:0:0:
475,192,233929,1,0,0:0:0:0:
182,192,234015,1,2,0:0:0:0:
329,192,234015,1,0,0:0:0:0:
36,192,234101,1,0,0:0:0:0:
475,192,234101,1,0,0:0:0:0:
182,192,234187,1,8,0:0:0:0:
329,192,234187,1,2,0:0:0:0:
109,192,234274,1,0,0:0:0:0:
402,192,234274,1,0,0:0:0:0:
182,192,234360,1,2,0:0:0:0:
329,192,234360,1,0,0:0:0:0:
109,192,234446,1,0,0:0:0:0:
402,192,234446,1,0,0:0:0:0:
36,192,234532,1,2,0:0:0:0:
475,192,234532,1,0,0:0:0:0:
182,192,234618,1,0,0:0:0:0:
329,192,234618,1,0,0:0:0:0:
109,192,234705,1,2,0:0:0:0:
402,192,234705,1,0,0:0:0:0:
182,192,234791,1,0,0:0:0:0:
329,192,234791,1,0,0:0:0:0:
475,192,234877,1,8,0:0:0:0:
36,192,234877,1,2,0:0:0:0:
402,192,234963,1,0,0:0:0:0:
109,192,234963,1,0,0:0:0:0:
329,192,235050,1,2,0:0:0:0:
182,192,235050,1,0,0:0:0:0:
109,192,235136,1,2,0:0:0:0:
402,192,235136,1,0,0:0:0:0:
36,192,235222,1,2,0:0:0:0:
475,192,235222,1,0,0:0:0:0:
182,192,235308,1,2,0:0:0:0:
329,192,235308,1,0,0:0:0:0:
109,192,235394,1,2,0:0:0:0:
402,192,235394,1,0,0:0:0:0:
182,192,235481,1,0,0:0:0:0:
329,192,235481,1,0,0:0:0:0:
475,192,235567,1,8,0:0:0:0:
36,192,235567,1,2,0:0:0:0:
109,192,235653,1,0,0:0:0:0:
402,192,235653,1,0,0:0:0:0:
182,192,235739,1,2,0:0:0:0:
329,192,235739,1,0,0:0:0:0:
402,192,235825,1,0,0:0:0:0:
109,192,235825,1,0,0:0:0:0:
475,192,235912,1,2,0:0:0:0:
36,192,235912,1,0,0:0:0:0:
109,192,235998,1,0,0:0:0:0:
402,192,235998,1,0,0:0:0:0:
36,192,236084,1,2,0:0:0:0:
475,192,236084,1,0,0:0:0:0:
109,192,236170,1,0,0:0:0:0:
402,192,236170,1,0,0:0:0:0:
182,192,236256,1,2,0:0:0:0:
329,192,236256,1,8,0:0:0:0:
109,192,236343,1,0,0:0:0:0:
402,192,236343,1,0,0:0:0:0:
182,192,236429,1,2,0:0:0:0:
329,192,236429,1,0,0:0:0:0:
109,192,236515,1,0,0:0:0:0:
402,192,236515,1,0,0:0:0:0:
36,192,236601,1,2,0:0:0:0:
475,192,236601,1,0,0:0:0:0:
182,192,236687,1,0,0:0:0:0:
329,192,236687,1,0,0:0:0:0:
36,192,236774,1,2,0:0:0:0:
475,192,236774,1,0,0:0:0:0:
182,192,236860,1,0,0:0:0:0:
329,192,236860,1,0,0:0:0:0:
36,192,236946,1,8,0:0:0:0:
475,192,236946,1,2,0:0:0:0:
109,192,237032,1,0,0:0:0:0:
402,192,237032,1,0,0:0:0:0:
36,192,237118,1,2,0:0:0:0:
475,192,237118,1,0,0:0:0:0:
109,192,237205,1,0,0:0:0:0:
402,192,237205,1,0,0:0:0:0:
182,192,237291,1,2,0:0:0:0:
329,192,237291,1,0,0:0:0:0:
109,192,237377,1,0,0:0:0:0:
402,192,237377,1,0,0:0:0:0:
36,192,237463,1,2,0:0:0:0:
475,192,237463,1,0,0:0:0:0:
402,192,237550,1,0,0:0:0:0:
109,192,237550,1,0,0:0:0:0:
329,192,237636,1,2,0:0:0:0:
182,192,237636,1,8,0:0:0:0:
36,192,237722,1,0,0:0:0:0:
475,192,237722,1,0,0:0:0:0:
109,192,237808,1,2,0:0:0:0:
402,192,237808,1,0,0:0:0:0:
182,192,237894,1,2,0:0:0:0:
329,192,237894,1,0,0:0:0:0:
36,192,237981,1,2,0:0:0:0:
475,192,237981,1,0,0:0:0:0:
109,192,238067,1,2,0:0:0:0:
402,192,238067,1,0,0:0:0:0:
329,192,238153,1,2,0:0:0:0:
182,192,238153,1,0,0:0:0:0:
402,192,238239,1,0,0:0:0:0:
109,192,238239,1,0,0:0:0:0:
475,192,238325,1,2,0:0:0:0:
36,192,238325,1,8,0:0:0:0:
109,192,238412,1,0,0:0:0:0:
329,192,238412,1,0,0:0:0:0:
182,192,238498,1,2,0:0:0:0:
402,192,238498,1,0,0:0:0:0:
36,192,238584,1,0,0:0:0:0:
329,192,238584,1,0,0:0:0:0:
475,192,238670,1,2,0:0:0:0:
402,192,238670,1,0,0:0:0:0:
109,192,238670,1,0,0:0:0:0:
182,192,238670,1,0,0:0:0:0:
36,192,238756,1,0,0:0:0:0:
475,192,238843,1,2,0:0:0:0:
402,192,238843,1,0,0:0:0:0:
329,192,238843,1,0,0:0:0:0:
182,192,238843,1,0,0:0:0:0:
36,192,238929,1,0,0:0:0:0:
475,192,239015,1,2,0:0:0:0:
402,192,239015,1,8,0:0:0:0:
182,192,239015,1,0,0:0:0:0:
109,192,239101,1,0,0:0:0:0:
475,192,239187,1,8,0:0:0:0:
402,192,239187,1,2,0:0:0:0:
182,192,239187,1,0,0:0:0:0:
109,192,239274,1,0,0:0:0:0:
475,192,239360,1,2,0:0:0:0:
402,192,239360,1,0,0:0:0:0:
329,192,239360,1,0,0:0:0:0:
182,192,239360,1,0,0:0:0:0:
36,192,239446,1,0,0:0:0:0:
475,192,239532,1,2,0:0:0:0:
402,192,239532,1,0,0:0:0:0:
182,192,239532,1,0,0:0:0:0:
36,192,239618,1,0,0:0:0:0:
475,192,239705,1,8,0:0:0:0:
402,192,239705,1,2,0:0:0:0:
329,192,239705,1,0,0:0:0:0:
182,192,239791,1,2,0:0:0:0:
109,192,239791,1,8,0:0:0:0:
36,192,239791,1,0,0:0:0:0:
475,192,239877,1,8,0:0:0:0:
402,192,239877,1,2,0:0:0:0:
329,192,239877,1,0,0:0:0:0:
182,192,239963,1,8,0:0:0:0:
109,192,239963,1,2,0:0:0:0:
36,192,239963,1,0,0:0:0:0:
256,192,240050,128,0,245567:0:0:0:0:
402,192,240394,1,0,0:0:0:0:
402,192,240739,1,0,0:0:0:0:
402,192,241084,1,0,0:0:0:0:
475,192,241256,128,0,242463:0:0:0:0:
109,192,241601,1,0,0:0:0:0:
109,192,241774,1,0,0:0:0:0:
109,192,242118,1,0,0:0:0:0:
36,192,242463,128,0,242808:0:0:0:0:
402,192,242808,1,0,0:0:0:0:
402,192,242981,1,0,0:0:0:0:
402,192,243153,1,0,0:0:0:0:
402,192,243498,1,0,0:0:0:0:
402,192,243843,1,0,0:0:0:0:
475,192,244015,128,0,245222:0:0:0:0:
109,192,244360,1,0,0:0:0:0:
109,192,244532,1,0,0:0:0:0:
109,192,244877,1,0,0:0:0:0:
36,192,245222,128,0,245567:0:0:0:0:
109,192,245567,1,2,0:0:0:0:
402,192,245567,1,8,0:0:0:0:
182,192,245567,1,0,0:0:0:0:
329,192,245567,1,0,0:0:0:0:
329,192,245912,1,0,0:0:0:0:
329,192,246256,1,0,0:0:0:0:
329,192,246601,1,0,0:0:0:0:
475,192,246774,128,0,247981:0:0:0:0:
182,192,247118,1,0,0:0:0:0:
182,192,247291,1,0,0:0:0:0:
182,192,247636,1,0,0:0:0:0:
36,192,247981,128,0,248325:0:0:0:0:
329,192,248325,1,0,0:0:0:0:
329,192,248498,1,0,0:0:0:0:
329,192,248670,1,0,0:0:0:0:
329,192,249015,1,0,0:0:0:0:
329,192,249360,1,0,0:0:0:0:
475,192,249532,128,0,250739:0:0:0:0:
182,192,249877,1,0,0:0:0:0:
182,192,250050,1,0,0:0:0:0:
182,192,250394,1,0,0:0:0:0:
36,192,250739,128,0,251084:0:0:0:0:
182,192,251429,1,4,3:0:0:0:
329,192,251429,1,4,3:0:0:0:
109,192,252118,1,4,3:0:0:0:
402,192,252118,1,4,3:0:0:0:
182,192,252808,1,4,3:0:0:0:
329,192,252808,1,4,3:0:0:0:
36,192,253498,1,4,3:0:0:0:
475,192,253498,1,4,3:0:0:0:
182,192,254187,1,4,3:0:0:0:
329,192,254187,1,4,3:0:0:0:
109,192,254877,1,4,3:0:0:0:
402,192,254877,1,4,3:0:0:0:
182,192,255567,1,4,3:0:0:0:
329,192,255567,1,4,3:0:0:0:
36,192,256256,1,4,3:0:0:0:
475,192,256256,1,4,3:0:0:0:
109,192,256946,1,4,3:0:0:0:
402,192,256946,1,4,3:0:0:0:
182,192,257636,1,4,3:0:0:0:
329,192,257636,1,4,3:0:0:0:
109,192,258325,1,4,3:0:0:0:
402,192,258325,1,4,3:0:0:0:
182,192,259015,1,4,3:0:0:0:
329,192,259015,1,4,3:0:0:0:
36,192,259705,1,4,3:0:0:0:
475,192,259705,1,4,3:0:0:0:
109,192,260394,1,4,3:0:0:0:
402,192,260394,1,4,3:0:0:0:
182,192,261084,1,4,3:0:0:0:
329,192,261084,1,4,3:0:0:0:
109,192,261774,1,4,3:0:0:0:
402,192,261774,1,4,3:0:0:0:
182,192,262118,1,4,3:0:0:0:
329,192,262118,1,4,3:0:0:0:
109,192,262463,1,4,3:0:0:0:
402,192,262463,1,4,3:0:0:0:
182,192,262808,1,4,3:0:0:0:
329,192,262808,1,4,3:0:0:0:
109,192,263153,1,4,3:0:0:0:
402,192,263153,1,4,3:0:0:0:
36,192,263498,1,4,3:0:0:0:
475,192,263498,1,4,3:0:0:0:
109,192,263843,1,4,3:0:0:0:
402,192,263843,1,4,3:0:0:0:
36,192,264187,1,4,3:0:0:0:
475,192,264187,1,4,3:0:0:0:
109,192,264532,1,4,3:0:0:0:
402,192,264532,1,4,3:0:0:0:
475,192,264877,1,4,3:0:0:0:
36,192,264877,1,4,3:0:0:0:
475,192,265222,1,4,3:0:0:0:
36,192,265222,1,4,3:0:0:0:
402,192,265567,1,4,3:0:0:0:
109,192,265567,1,4,3:0:0:0:
402,192,265912,1,4,3:0:0:0:
109,192,265912,1,4,3:0:0:0:
182,192,266256,1,4,3:0:0:0:
329,192,266256,1,4,3:0:0:0:
329,192,266601,1,4,3:0:0:0:
182,192,266601,1,4,3:0:0:0:
402,192,266946,1,4,3:0:0:0:
109,192,266946,1,4,3:0:0:0:
402,192,267291,1,4,3:0:0:0:
109,192,267291,1,4,3:0:0:0:
475,192,267636,1,4,3:0:0:0:
36,192,267636,1,4,3:0:0:0:
402,192,267981,1,4,3:0:0:0:
109,192,267981,1,4,3:0:0:0:
182,192,267981,1,0,0:0:0:0:
329,192,267981,1,0,0:0:0:0:
475,192,268325,1,4,3:0:0:0:
36,192,268325,1,4,3:0:0:0:
402,192,268670,1,4,3:0:0:0:
109,192,268670,1,4,3:0:0:0:
329,192,268670,1,0,0:0:0:0:
182,192,268670,1,0,0:0:0:0:
36,192,269015,1,4,3:0:0:0:
475,192,269015,1,4,3:0:0:0:
402,192,269360,1,4,3:0:0:0:
109,192,269360,1,4,3:0:0:0:
256,192,269360,1,0,0:0:0:0:
329,192,269360,1,0,0:0:0:0:
329,192,269705,1,4,3:0:0:0:
182,192,269705,1,4,3:0:0:0:
402,192,270050,1,8,0:0:0:0:
109,192,270050,1,8,0:0:0:0:
182,192,270050,1,0,0:0:0:0:
256,192,270050,1,0,0:0:0:0:
329,192,270394,1,4,3:0:0:0:
36,192,270394,1,4,3:0:0:0:
402,192,270739,1,4,3:0:0:0:
109,192,270739,1,4,3:0:0:0:
256,192,270739,1,0,0:0:0:0:
475,192,270739,1,0,0:0:0:0:
329,192,271084,1,4,3:0:0:0:
109,192,271084,1,4,3:0:0:0:
36,192,271429,1,4,3:0:0:0:
182,192,271429,1,4,3:0:0:0:
256,192,271429,1,0,0:0:0:0:
475,192,271429,1,0,0:0:0:0:
402,192,271774,1,4,3:0:0:0:
329,192,271774,1,4,3:0:0:0:
182,192,272118,1,4,3:0:0:0:
109,192,272118,1,4,3:0:0:0:
256,192,272118,1,0,0:0:0:0:
36,192,272118,1,0,0:0:0:0:
402,192,272463,1,4,3:0:0:0:
256,192,272463,1,4,3:0:0:0:
402,192,272808,1,8,0:0:0:0:
109,192,272808,1,8,0:0:0:0:
182,192,272808,1,0,0:0:0:0:
475,192,272808,1,0,0:0:0:0:
329,192,273153,1,0,0:0:0:0:
256,192,273153,1,0,0:0:0:0:
182,192,273153,1,0,0:0:0:0:
36,192,273498,1,0,0:0:0:0:
475,192,273498,1,0,0:0:0:0:
256,192,273498,1,0,0:0:0:0:
182,192,273843,1,2,0:0:0:0:
109,192,273843,1,8,0:0:0:0:
402,192,273843,1,0,0:0:0:0:
329,192,273843,1,0,0:0:0:0:
256,192,274187,1,0,0:0:0:0:
36,192,274187,1,0,0:0:0:0:
475,192,274187,1,0,0:0:0:0:
256,192,274532,1,0,0:0:0:0:
36,192,274532,1,0,0:0:0:0:
475,192,274532,1,0,0:0:0:0:
36,192,274877,1,0,0:0:0:0:
256,192,274877,1,0,0:0:0:0:
475,192,274877,1,0,0:0:0:0:
109,192,275222,1,2,0:0:0:0:
329,192,275222,1,8,0:0:0:0:
402,192,275222,1,0,0:0:0:0:
182,192,275222,1,0,0:0:0:0:
256,192,275567,1,0,0:0:0:0:
475,192,275567,1,0,0:0:0:0:
36,192,275567,1,0,0:0:0:0:
36,192,275912,1,0,0:0:0:0:
256,192,275912,1,0,0:0:0:0:
475,192,275912,1,0,0:0:0:0:
475,192,276256,1,0,0:0:0:0:
36,192,276256,1,0,0:0:0:0:
256,192,276256,1,0,0:0:0:0:
182,192,276601,1,8,0:0:0:0:
109,192,276601,1,2,0:0:0:0:
402,192,276601,1,0,0:0:0:0:
329,192,276601,1,0,0:0:0:0:
36,192,276946,1,0,0:0:0:0:
475,192,276946,1,0,0:0:0:0:
256,192,276946,1,0,0:0:0:0:
475,192,277291,1,0,0:0:0:0:
256,192,277291,1,0,0:0:0:0:
36,192,277291,1,0,0:0:0:0:
36,192,277636,1,0,0:0:0:0:
256,192,277636,1,0,0:0:0:0:
475,192,277636,1,0,0:0:0:0:
182,192,277981,1,2,0:0:0:0:
109,192,277981,1,8,0:0:0:0:
402,192,277981,1,0,0:0:0:0:
329,192,277981,1,0,0:0:0:0:
36,192,278325,1,0,0:0:0:0:
475,192,278325,1,0,0:0:0:0:
256,192,278325,1,0,0:0:0:0:
36,192,278670,1,8,0:0:0:0:
402,192,278670,1,2,0:0:0:0:
109,192,278670,1,0,0:0:0:0:
475,192,278670,1,0,0:0:0:0:
402,192,279015,1,0,0:0:0:0:
329,192,279015,1,0,0:0:0:0:
182,192,279015,1,0,0:0:0:0:
109,192,279015,1,0,0:0:0:0:
256,192,279187,1,0,0:0:0:0:
329,192,279274,1,0,0:0:0:0:
109,192,279360,1,2,0:0:0:0:
36,192,279360,1,8,0:0:0:0:
475,192,279360,1,0,0:0:0:0:
402,192,279360,1,0,0:0:0:0:
402,192,279705,1,0,0:0:0:0:
329,192,279705,1,0,0:0:0:0:
182,192,279705,1,0,0:0:0:0:
109,192,279705,1,0,0:0:0:0:
475,192,280050,1,2,0:0:0:0:
109,192,280050,1,8,0:0:0:0:
36,192,280050,1,0,0:0:0:0:
402,192,280050,1,0,0:0:0:0:
182,192,280394,1,0,0:0:0:0:
109,192,280394,1,0,0:0:0:0:
402,192,280394,1,0,0:0:0:0:
329,192,280394,1,0,0:0:0:0:
256,192,280567,1,0,0:0:0:0:
182,192,280653,1,0,0:0:0:0:
36,192,280739,1,8,0:0:0:0:
402,192,280739,1,2,0:0:0:0:
109,192,280739,1,0,0:0:0:0:
475,192,280739,1,0,0:0:0:0:
402,192,281084,1,0,0:0:0:0:
329,192,281084,1,0,0:0:0:0:
182,192,281084,1,0,0:0:0:0:
109,192,281084,1,0,0:0:0:0:
36,192,281429,1,8,0:0:0:0:
475,192,281429,1,2,0:0:0:0:
109,192,281429,1,0,0:0:0:0:
402,192,281429,1,0,0:0:0:0:
109,192,281774,1,0,0:0:0:0:
182,192,281774,1,0,0:0:0:0:
402,192,281774,1,0,0:0:0:0:
329,192,281774,1,0,0:0:0:0:
256,192,281946,1,0,0:0:0:0:
329,192,282032,1,0,0:0:0:0:
36,192,282118,1,2,0:0:0:0:
109,192,282118,1,8,0:0:0:0:
402,192,282118,1,0,0:0:0:0:
475,192,282118,1,0,0:0:0:0:
329,192,282463,1,0,0:0:0:0:
402,192,282463,1,0,0:0:0:0:
182,192,282463,1,0,0:0:0:0:
109,192,282463,1,0,0:0:0:0:
36,192,282808,1,2,0:0:0:0:
475,192,282808,1,8,0:0:0:0:
402,192,282808,1,0,0:0:0:0:
109,192,282808,1,0,0:0:0:0:
109,192,283153,1,0,0:0:0:0:
402,192,283153,1,0,0:0:0:0:
329,192,283153,1,0,0:0:0:0:
182,192,283153,1,0,0:0:0:0:
256,192,283325,1,0,0:0:0:0:
182,192,283412,1,0,0:0:0:0:
402,192,283498,1,8,0:0:0:0:
36,192,283498,1,2,0:0:0:0:
475,192,283498,1,0,0:0:0:0:
109,192,283498,1,0,0:0:0:0:
402,192,283843,1,0,0:0:0:0:
109,192,283843,1,0,0:0:0:0:
182,192,283843,1,0,0:0:0:0:
329,192,283843,1,0,0:0:0:0:
256,192,284015,1,0,0:0:0:0:
109,192,284187,1,8,0:0:0:0:
36,192,284187,1,2,0:0:0:0:
402,192,284187,1,0,0:0:0:0:
475,192,284187,1,0,0:0:0:0:
109,192,284360,1,0,0:0:0:0:
36,192,284360,1,0,0:0:0:0:
475,192,284360,1,0,0:0:0:0:
402,192,284360,1,0,0:0:0:0:
109,192,284532,1,8,0:0:0:0:
36,192,284532,1,2,0:0:0:0:
475,192,284532,1,0,0:0:0:0:
402,192,284532,1,0,0:0:0:0:
475,192,284705,1,0,0:0:0:0:
402,192,284705,1,0,0:0:0:0:
109,192,284705,1,0,0:0:0:0:
36,192,284705,1,0,0:0:0:0:
402,192,284877,1,2,0:0:0:0:
329,192,284877,1,8,0:0:0:0:
182,192,284877,1,0,0:0:0:0:
109,192,284877,1,0,0:0:0:0:
182,192,285050,1,0,0:0:0:0:
109,192,285050,1,0,0:0:0:0:
402,192,285050,1,0,0:0:0:0:
329,192,285050,1,0,0:0:0:0:
402,192,285222,1,8,0:0:0:0:
329,192,285222,1,2,0:0:0:0:
182,192,285222,1,0,0:0:0:0:
109,192,285222,1,0,0:0:0:0:
402,192,285394,1,0,0:0:0:0:
329,192,285394,1,0,0:0:0:0:
182,192,285394,1,0,0:0:0:0:
109,192,285394,1,0,0:0:0:0:
109,192,285567,1,2,0:0:0:0:
402,192,285567,1,8,0:0:0:0:
36,192,285567,1,0,0:0:0:0:
475,192,285567,1,0,0:0:0:0:
475,192,285739,1,0,0:0:0:0:
36,192,285739,1,0,0:0:0:0:
402,192,285739,1,0,0:0:0:0:
109,192,285739,1,0,0:0:0:0:
402,192,285912,1,2,0:0:0:0:
109,192,285912,1,8,0:0:0:0:
36,192,285912,1,0,0:0:0:0:
475,192,285912,1,0,0:0:0:0:
475,192,286084,1,0,0:0:0:0:
402,192,286084,1,0,0:0:0:0:
109,192,286084,1,0,0:0:0:0:
36,192,286084,1,0,0:0:0:0:
402,192,286256,1,8,0:0:0:0:
329,192,286256,1,2,0:0:0:0:
109,192,286256,1,0,0:0:0:0:
182,192,286256,1,0,0:0:0:0:
109,192,286429,1,0,0:0:0:0:
402,192,286429,1,0,0:0:0:0:
329,192,286429,1,0,0:0:0:0:
182,192,286429,1,0,0:0:0:0:
109,192,286601,1,2,0:0:0:0:
329,192,286601,1,8,0:0:0:0:
182,192,286601,1,0,0:0:0:0:
402,192,286601,1,0,0:0:0:0:
109,192,286774,1,0,0:0:0:0:
182,192,286774,1,0,0:0:0:0:
329,192,286774,1,0,0:0:0:0:
402,192,286774,1,0,0:0:0:0:
36,192,286946,1,2,0:0:0:0:
475,192,286946,1,8,0:0:0:0:
109,192,286946,1,0,0:0:0:0:
402,192,286946,1,0,0:0:0:0:
402,192,287118,1,0,0:0:0:0:
109,192,287118,1,0,0:0:0:0:
475,192,287118,1,0,0:0:0:0:
36,192,287118,1,0,0:0:0:0:
36,192,287291,1,8,0:0:0:0:
475,192,287291,1,2,0:0:0:0:
402,192,287291,1,0,0:0:0:0:
109,192,287291,1,0,0:0:0:0:
109,192,287463,1,0,0:0:0:0:
36,192,287463,1,0,0:0:0:0:
475,192,287463,1,0,0:0:0:0:
402,192,287463,1,0,0:0:0:0:
109,192,287636,1,2,0:0:0:0:
182,192,287636,1,8,0:0:0:0:
402,192,287636,1,0,0:0:0:0:
329,192,287636,1,0,0:0:0:0:
329,192,287808,1,0,0:0:0:0:
182,192,287808,1,0,0:0:0:0:
109,192,287808,1,0,0:0:0:0:
402,192,287808,1,0,0:0:0:0:
182,192,287981,1,8,0:0:0:0:
402,192,287981,1,2,0:0:0:0:
109,192,287981,1,0,0:0:0:0:
329,192,287981,1,0,0:0:0:0:
329,192,288153,1,0,0:0:0:0:
402,192,288153,1,0,0:0:0:0:
109,192,288153,1,0,0:0:0:0:
182,192,288153,1,0,0:0:0:0:
109,192,288325,1,8,0:0:0:0:
402,192,288325,1,2,0:0:0:0:
36,192,288325,1,0,0:0:0:0:
475,192,288325,1,0,0:0:0:0:
475,192,288498,1,0,0:0:0:0:
36,192,288498,1,0,0:0:0:0:
402,192,288498,1,0,0:0:0:0:
109,192,288498,1,0,0:0:0:0:
402,192,288670,1,2,0:0:0:0:
109,192,288670,1,8,0:0:0:0:
36,192,288670,1,0,0:0:0:0:
475,192,288670,1,0,0:0:0:0:
475,192,288843,1,0,0:0:0:0:
402,192,288843,1,0,0:0:0:0:
109,192,288843,1,0,0:0:0:0:
36,192,288843,1,0,0:0:0:0:
402,192,289015,1,8,0:0:0:0:
329,192,289015,1,2,0:0:0:0:
109,192,289015,1,0,0:0:0:0:
182,192,289015,1,0,0:0:0:0:
109,192,289187,1,0,0:0:0:0:
402,192,289187,1,0,0:0:0:0:
329,192,289187,1,0,0:0:0:0:
182,192,289187,1,0,0:0:0:0:
109,192,289360,1,2,0:0:0:0:
329,192,289360,1,8,0:0:0:0:
182,192,289360,1,0,0:0:0:0:
402,192,289360,1,0,0:0:0:0:
109,192,289532,1,0,0:0:0:0:
182,192,289532,1,0,0:0:0:0:
329,192,289532,1,0,0:0:0:0:
402,192,289532,1,0,0:0:0:0:
475,192,289705,1,2,0:0:0:0:
402,192,289705,1,0,0:0:0:0:
329,192,289705,1,0,0:0:0:0:
182,192,289791,1,2,0:0:0:0:
36,192,289791,1,0,0:0:0:0:
109,192,289791,1,0,0:0:0:0:
402,192,289877,1,2,0:0:0:0:
329,192,289877,1,0,0:0:0:0:
256,192,289877,1,0,0:0:0:0:
182,192,289963,1,2,0:0:0:0:
109,192,289963,1,0,0:0:0:0:
36,192,289963,1,0,0:0:0:0:
329,192,290050,1,2,0:0:0:0:
402,192,290050,1,0,0:0:0:0:
475,192,290050,1,0,0:0:0:0:
182,192,290136,1,2,0:0:0:0:
109,192,290136,1,0,0:0:0:0:
256,192,290136,1,0,0:0:0:0:
329,192,290222,1,2,0:0:0:0:
402,192,290222,1,0,0:0:0:0:
475,192,290222,1,0,0:0:0:0:
109,192,290308,1,2,0:0:0:0:
182,192,290308,1,0,0:0:0:0:
36,192,290308,1,0,0:0:0:0:
402,192,290394,1,2,0:0:0:0:
256,192,290394,1,0,0:0:0:0:
329,192,290394,1,0,0:0:0:0:
182,192,290481,1,2,0:0:0:0:
109,192,290481,1,0,0:0:0:0:
36,192,290481,1,0,0:0:0:0:
475,192,290567,1,2,0:0:0:0:
402,192,290567,1,0,0:0:0:0:
329,192,290567,1,0,0:0:0:0:
182,192,290653,1,2,0:0:0:0:
256,192,290653,1,0,0:0:0:0:
109,192,290653,1,0,0:0:0:0:
475,192,290739,1,2,0:0:0:0:
402,192,290739,1,0,0:0:0:0:
329,192,290739,1,0,0:0:0:0:
36,192,290825,1,2,0:0:0:0:
182,192,290825,1,0,0:0:0:0:
109,192,290825,1,0,0:0:0:0:
329,192,290912,1,2,0:0:0:0:
256,192,290912,1,0,0:0:0:0:
402,192,290912,1,0,0:0:0:0:
182,192,290998,1,2,0:0:0:0:
36,192,290998,1,0,0:0:0:0:
109,192,290998,1,0,0:0:0:0:
329,192,291084,1,2,0:0:0:0:
475,192,291084,1,0,0:0:0:0:
402,192,291084,1,0,0:0:0:0:
256,192,291170,1,2,0:0:0:0:
109,192,291170,1,0,0:0:0:0:
182,192,291170,1,0,0:0:0:0:
329,192,291256,1,2,0:0:0:0:
475,192,291256,1,0,0:0:0:0:
402,192,291256,1,0,0:0:0:0:
109,192,291343,1,2,0:0:0:0:
182,192,291343,1,0,0:0:0:0:
36,192,291343,1,0,0:0:0:0:
402,192,291429,1,2,0:0:0:0:
329,192,291429,1,0,0:0:0:0:
256,192,291429,1,0,0:0:0:0:
109,192,291515,1,2,0:0:0:0:
182,192,291515,1,0,0:0:0:0:
36,192,291515,1,0,0:0:0:0:
402,192,291601,1,2,0:0:0:0:
329,192,291601,1,0,0:0:0:0:
475,192,291601,1,0,0:0:0:0:
109,192,291687,1,2,0:0:0:0:
256,192,291687,1,0,0:0:0:0:
182,192,291687,1,0,0:0:0:0:
402,192,291774,1,2,0:0:0:0:
329,192,291774,1,0,0:0:0:0:
475,192,291774,1,0,0:0:0:0:
109,192,291860,1,2,0:0:0:0:
182,192,291860,1,0,0:0:0:0:
36,192,291860,1,0,0:0:0:0:
256,192,291946,1,2,0:0:0:0:
329,192,291946,1,0,0:0:0:0:
402,192,291946,1,0,0:0:0:0:
109,192,292032,1,2,0:0:0:0:
182,192,292032,1,0,0:0:0:0:
36,192,292032,1,0,0:0:0:0:
475,192,292118,1,2,0:0:0:0:
329,192,292118,1,0,0:0:0:0:
402,192,292118,1,0,0:0:0:0:
256,192,292205,1,2,0:0:0:0:
109,192,292205,1,0,0:0:0:0:
182,192,292205,1,0,0:0:0:0:
475,192,292291,1,2,0:0:0:0:
329,192,292291,1,0,0:0:0:0:
402,192,292291,1,0,0:0:0:0:
109,192,292377,1,2,0:0:0:0:
36,192,292377,1,0,0:0:0:0:
182,192,292377,1,0,0:0:0:0:
402,192,292463,1,0,0:0:0:0:
475,192,292463,1,0,0:0:0:0:
329,192,292506,1,0,0:0:0:0:
36,192,292550,1,0,0:0:0:0:
109,192,292550,1,0,0:0:0:0:
182,192,292593,1,0,0:0:0:0:
475,192,292636,1,0,0:0:0:0:
402,192,292636,1,0,0:0:0:0:
329,192,292679,1,0,0:0:0:0:
36,192,292722,1,0,0:0:0:0:
109,192,292722,1,0,0:0:0:0:
182,192,292765,1,0,0:0:0:0:
402,192,292808,1,0,0:0:0:0:
475,192,292808,1,0,0:0:0:0:
329,192,292851,1,0,0:0:0:0:
109,192,292894,1,0,0:0:0:0:
36,192,292894,1,0,0:0:0:0:
182,192,292937,1,0,0:0:0:0:
475,192,292981,1,0,0:0:0:0:
402,192,292981,1,0,0:0:0:0:
329,192,293024,1,0,0:0:0:0:
36,192,293067,1,0,0:0:0:0:
109,192,293067,1,0,0:0:0:0:
182,192,293110,1,0,0:0:0:0:
329,192,293153,1,0,0:0:0:0:
402,192,293196,1,0,0:0:0:0:
475,192,293239,1,0,0:0:0:0:
182,192,293239,1,0,0:0:0:0:
109,192,293282,1,0,0:0:0:0:
36,192,293325,1,0,0:0:0:0:
329,192,293325,1,0,0:0:0:0:
402,192,293368,1,0,0:0:0:0:
475,192,293412,1,0,0:0:0:0:
182,192,293412,1,0,0:0:0:0:
109,192,293455,1,0,0:0:0:0:
36,192,293498,1,0,0:0:0:0:
329,192,293498,1,0,0:0:0:0:
402,192,293541,1,0,0:0:0:0:
182,192,293584,1,0,0:0:0:0:
475,192,293584,1,0,0:0:0:0:
109,192,293627,1,0,0:0:0:0:
329,192,293670,1,0,0:0:0:0:
36,192,293670,1,0,0:0:0:0:
402,192,293713,1,0,0:0:0:0:
475,192,293756,1,0,0:0:0:0:
182,192,293756,1,0,0:0:0:0:
109,192,293800,1,0,0:0:0:0:
36,192,293843,1,0,0:0:0:0:
475,192,293843,1,0,0:0:0:0:
402,192,293871,1,0,0:0:0:0:
329,192,293900,1,0,0:0:0:0:
256,192,293929,1,0,0:0:0:0:
36,192,293958,1,0,0:0:0:0:
109,192,293986,1,0,0:0:0:0:
182,192,294015,1,0,0:0:0:0:
329,192,294015,1,0,0:0:0:0:
402,192,294044,1,0,0:0:0:0:
475,192,294072,1,0,0:0:0:0:
256,192,294101,1,0,0:0:0:0:
182,192,294130,1,0,0:0:0:0:
109,192,294159,1,0,0:0:0:0:
36,192,294187,1,0,0:0:0:0:
475,192,294187,1,0,0:0:0:0:
402,192,294216,1,0,0:0:0:0:
329,192,294245,1,0,0:0:0:0:
256,192,294274,1,0,0:0:0:0:
36,192,294302,1,0,0:0:0:0:
109,192,294331,1,0,0:0:0:0:
329,192,294360,1,0,0:0:0:0:
182,192,294360,1,0,0:0:0:0:
402,192,294389,1,0,0:0:0:0:
475,192,294417,1,0,0:0:0:0:
256,192,294446,1,0,0:0:0:0:
182,192,294475,1,0,0:0:0:0:
109,192,294504,1,0,0:0:0:0:
475,192,294532,1,0,0:0:0:0:
36,192,294532,1,0,0:0:0:0:
402,192,294561,1,0,0:0:0:0:
329,192,294590,1,0,0:0:0:0:
256,192,294618,1,0,0:0:0:0:
36,192,294647,1,0,0:0:0:0:
109,192,294676,1,0,0:0:0:0:
329,192,294705,1,0,0:0:0:0:
182,192,294705,1,0,0:0:0:0:
402,192,294733,1,0,0:0:0:0:
475,192,294762,1,0,0:0:0:0:
256,192,294791,1,0,0:0:0:0:
182,192,294820,1,0,0:0:0:0:
109,192,294848,1,0,0:0:0:0:
475,192,294877,1,0,0:0:0:0:
36,192,294877,1,0,0:0:0:0:
402,192,294899,1,0,0:0:0:0:
329,192,294920,1,0,0:0:0:0:
256,192,294942,1,0,0:0:0:0:
182,192,294963,1,0,0:0:0:0:
109,192,294985,1,0,0:0:0:0:
36,192,295006,1,0,0:0:0:0:
475,192,295028,1,0,0:0:0:0:
402,192,295050,1,0,0:0:0:0:
329,192,295071,1,0,0:0:0:0:
256,192,295093,1,0,0:0:0:0:
182,192,295114,1,0,0:0:0:0:
109,192,295136,1,0,0:0:0:0:
36,192,295157,1,0,0:0:0:0:
475,192,295179,1,0,0:0:0:0:
402,192,295200,1,0,0:0:0:0:
329,192,295222,1,0,0:0:0:0:
256,192,295222,1,0,0:0:0:0:
256,192,295567,1,0,0:0:0:0:
256,192,295912,1,0,0:0:0:0:
256,192,296256,1,0,0:0:0:0:
475,192,296601,1,8,0:0:0:0:
402,192,296601,1,0,0:0:0:0:
329,192,296601,1,0,0:0:0:0:
182,192,296687,1,8,0:0:0:0:
109,192,296687,1,0,0:0:0:0:
36,192,296687,1,0,0:0:0:0:
475,192,296774,1,8,0:0:0:0:
402,192,296774,1,0,0:0:0:0:
329,192,296774,1,0,0:0:0:0:
182,192,296860,1,8,0:0:0:0:
109,192,296860,1,0,0:0:0:0:
36,192,296860,1,0,0:0:0:0:
475,192,296946,1,8,0:0:0:0:
402,192,296946,1,2,0:0:0:0:
329,192,296946,1,0,0:0:0:0:
475,192,297118,1,8,0:0:0:0:
402,192,297118,1,0,0:0:0:0:
329,192,297118,1,0,0:0:0:0:
256,192,297291,1,2,0:0:0:0:
109,192,297291,1,8,0:0:0:0:
36,192,297291,1,0,0:0:0:0:
329,192,297463,1,8,0:0:0:0:
182,192,297463,1,0,0:0:0:0:
109,192,297463,1,0,0:0:0:0:
256,192,297636,128,2,297937:0:0:0:0:
36,192,297636,128,8,297937:0:0:0:0:
182,192,297636,128,0,297937:0:0:0:0:
329,192,297636,128,0,297937:0:0:0:0:
475,192,297636,128,0,297937:0:0:0:0:
475,192,297981,1,8,0:0:0:0:
36,192,297981,1,4,0:0:0:0:
256,192,297981,1,0,0:0:0:0:
329,192,297981,1,0,0:0:0:0:
182,192,297981,1,0,0:0:0:0:
402,192,298153,1,2,0:0:0:0:
109,192,298153,1,0,0:0:0:0:
475,192,298325,1,8,0:0:0:0:
36,192,298325,1,2,0:0:0:0:
256,192,298325,1,0,0:0:0:0:
182,192,298325,1,0,0:0:0:0:
402,192,298498,1,2,0:0:0:0:
109,192,298498,1,0,0:0:0:0:
36,192,298670,1,2,0:0:0:0:
256,192,298670,1,0,0:0:0:0:
182,192,298756,1,2,0:0:0:0:
329,192,298756,1,0,0:0:0:0:
402,192,298843,1,2,0:0:0:0:
109,192,298843,1,0,0:0:0:0:
475,192,298843,1,0,0:0:0:0:
402,192,299015,1,2,0:0:0:0:
36,192,299015,1,8,0:0:0:0:
182,192,299015,1,0,0:0:0:0:
329,192,299015,1,0,0:0:0:0:
109,192,299187,1,2,0:0:0:0:
256,192,299187,1,0,0:0:0:0:
182,192,299360,1,2,0:0:0:0:
329,192,299360,1,0,0:0:0:0:
475,192,299532,1,2,0:0:0:0:
402,192,299532,1,0,0:0:0:0:
256,192,299532,1,0,0:0:0:0:
329,192,299705,1,8,0:0:0:0:
109,192,299705,1,2,0:0:0:0:
36,192,299705,1,0,0:0:0:0:
475,192,299705,1,0,0:0:0:0:
182,192,299877,1,2,0:0:0:0:
402,192,299877,1,0,0:0:0:0:
109,192,299963,1,2,0:0:0:0:
329,192,299963,1,0,0:0:0:0:
402,192,300050,1,2,0:0:0:0:
182,192,300050,1,0,0:0:0:0:
329,192,300222,1,2,0:0:0:0:
109,192,300222,1,0,0:0:0:0:
475,192,300222,1,0,0:0:0:0:
36,192,300394,1,2,0:0:0:0:
182,192,300394,1,8,0:0:0:0:
256,192,300394,1,0,0:0:0:0:
402,192,300394,1,0,0:0:0:0:
329,192,300567,1,2,0:0:0:0:
182,192,300567,1,0,0:0:0:0:
36,192,300739,1,2,0:0:0:0:
475,192,300739,1,0,0:0:0:0:
256,192,300739,1,0,0:0:0:0:
402,192,300912,1,2,0:0:0:0:
182,192,300912,1,0,0:0:0:0:
36,192,301084,1,2,0:0:0:0:
329,192,301084,1,8,0:0:0:0:
475,192,301084,1,0,0:0:0:0:
109,192,301084,1,0,0:0:0:0:
402,192,301256,1,2,0:0:0:0:
256,192,301256,1,0,0:0:0:0:
329,192,301343,1,0,0:0:0:0:
182,192,301343,1,0,0:0:0:0:
475,192,301429,1,2,0:0:0:0:
109,192,301429,1,0,0:0:0:0:
402,192,301515,1,2,0:0:0:0:
182,192,301515,1,0,0:0:0:0:
36,192,301601,1,2,0:0:0:0:
109,192,301601,1,0,0:0:0:0:
256,192,301601,1,0,0:0:0:0:
329,192,301774,1,8,0:0:0:0:
182,192,301774,1,2,0:0:0:0:
36,192,301774,1,0,0:0:0:0:
475,192,301774,1,0,0:0:0:0:
109,192,301946,1,2,0:0:0:0:
402,192,301946,1,0,0:0:0:0:
182,192,302118,1,2,0:0:0:0:
329,192,302118,1,0,0:0:0:0:
475,192,302291,1,2,0:0:0:0:
109,192,302291,1,0,0:0:0:0:
256,192,302291,1,0,0:0:0:0:
36,192,302463,1,2,0:0:0:0:
402,192,302463,1,8,0:0:0:0:
182,192,302463,1,0,0:0:0:0:
329,192,302463,1,0,0:0:0:0:
109,192,302636,1,2,0:0:0:0:
256,192,302636,1,0,0:0:0:0:
329,192,302722,1,2,0:0:0:0:
182,192,302722,1,0,0:0:0:0:
402,192,302808,1,2,0:0:0:0:
36,192,302808,1,0,0:0:0:0:
475,192,302981,1,2,0:0:0:0:
256,192,302981,1,0,0:0:0:0:
182,192,302981,1,0,0:0:0:0:
402,192,303153,1,8,0:0:0:0:
475,192,303153,1,2,0:0:0:0:
36,192,303153,1,0,0:0:0:0:
182,192,303153,1,0,0:0:0:0:
329,192,303325,1,2,0:0:0:0:
109,192,303325,1,0,0:0:0:0:
475,192,303498,1,2,0:0:0:0:
402,192,303498,1,0,0:0:0:0:
182,192,303498,1,0,0:0:0:0:
256,192,303670,1,2,0:0:0:0:
329,192,303670,1,0,0:0:0:0:
329,192,303843,1,2,0:0:0:0:
402,192,303843,1,8,0:0:0:0:
182,192,303843,1,0,0:0:0:0:
36,192,303843,1,0,0:0:0:0:
256,192,304015,1,2,0:0:0:0:
109,192,304015,1,0,0:0:0:0:
402,192,304101,1,2,0:0:0:0:
182,192,304101,1,0,0:0:0:0:
329,192,304187,1,2,0:0:0:0:
36,192,304187,1,0,0:0:0:0:
402,192,304274,1,2,0:0:0:0:
182,192,304274,1,0,0:0:0:0:
475,192,304360,1,2,0:0:0:0:
256,192,304360,1,0,0:0:0:0:
109,192,304360,1,0,0:0:0:0:
182,192,304532,1,8,0:0:0:0:
36,192,304532,1,2,0:0:0:0:
475,192,304532,1,0,0:0:0:0:
402,192,304532,1,0,0:0:0:0:
109,192,304705,1,2,0:0:0:0:
256,192,304705,1,0,0:0:0:0:
329,192,304877,1,2,0:0:0:0:
182,192,304877,1,0,0:0:0:0:
256,192,305050,1,2,0:0:0:0:
36,192,305050,1,0,0:0:0:0:
402,192,305050,1,0,0:0:0:0:
329,192,305222,1,2,0:0:0:0:
182,192,305222,1,8,0:0:0:0:
36,192,305222,1,0,0:0:0:0:
402,192,305222,1,0,0:0:0:0:
256,192,305394,1,2,0:0:0:0:
475,192,305394,1,0,0:0:0:0:
402,192,305481,1,2,0:0:0:0:
109,192,305481,1,0,0:0:0:0:
329,192,305567,1,2,0:0:0:0:
182,192,305567,1,0,0:0:0:0:
256,192,305739,1,2,0:0:0:0:
36,192,305739,1,0,0:0:0:0:
402,192,305739,1,0,0:0:0:0:
182,192,305912,1,2,0:0:0:0:
329,192,305912,1,8,0:0:0:0:
36,192,305912,1,0,0:0:0:0:
475,192,305912,1,0,0:0:0:0:
402,192,306084,1,2,0:0:0:0:
109,192,306084,1,0,0:0:0:0:
182,192,306256,1,2,0:0:0:0:
256,192,306256,1,0,0:0:0:0:
36,192,306256,1,0,0:0:0:0:
109,192,306429,1,2,0:0:0:0:
329,192,306429,1,0,0:0:0:0:
36,192,306601,1,2,0:0:0:0:
256,192,306601,1,8,0:0:0:0:
402,192,306601,1,0,0:0:0:0:
182,192,306601,1,0,0:0:0:0:
329,192,306774,1,2,0:0:0:0:
109,192,306774,1,0,0:0:0:0:
475,192,306946,1,2,0:0:0:0:
182,192,306946,1,0,0:0:0:0:
402,192,307032,1,2,0:0:0:0:
256,192,307032,1,0,0:0:0:0:
182,192,307118,1,2,0:0:0:0:
36,192,307118,1,0,0:0:0:0:
329,192,307118,1,0,0:0:0:0:
109,192,307291,1,2,0:0:0:0:
36,192,307291,1,8,0:0:0:0:
402,192,307291,1,0,0:0:0:0:
256,192,307291,1,0,0:0:0:0:
182,192,307463,1,2,0:0:0:0:
329,192,307463,1,0,0:0:0:0:
402,192,307636,1,2,0:0:0:0:
109,192,307636,1,0,0:0:0:0:
256,192,307636,1,0,0:0:0:0:
256,192,307808,1,2,0:0:0:0:
182,192,307808,1,0,0:0:0:0:
329,192,307808,1,0,0:0:0:0:
109,192,307981,1,8,0:0:0:0:
402,192,307981,1,2,0:0:0:0:
36,192,307981,1,0,0:0:0:0:
475,192,307981,1,0,0:0:0:0:
329,192,308153,1,8,0:0:0:0:
182,192,308153,1,2,0:0:0:0:
402,192,308153,1,0,0:0:0:0:
109,192,308153,1,0,0:0:0:0:
256,192,308325,1,2,0:0:0:0:
182,192,308325,1,0,0:0:0:0:
329,192,308325,1,0,0:0:0:0:
182,192,308498,1,2,0:0:0:0:
329,192,308498,1,0,0:0:0:0:
256,192,308498,1,0,0:0:0:0:
109,192,308670,1,2,0:0:0:0:
36,192,308670,1,8,0:0:0:0:
182,192,308670,1,0,0:0:0:0:
475,192,308756,1,8,0:0:0:0:
402,192,308756,1,2,0:0:0:0:
329,192,308756,1,0,0:0:0:0:
182,192,308843,1,2,0:0:0:0:
109,192,308843,1,8,0:0:0:0:
36,192,308843,1,0,0:0:0:0:
402,192,308929,1,2,0:0:0:0:
475,192,308929,1,8,0:0:0:0:
329,192,308929,1,0,0:0:0:0:
36,192,309015,1,4,0:0:0:0:
256,192,309015,1,8,0:0:0:0:
182,192,309015,1,0,0:0:0:0:
109,192,309015,1,0,0:0:0:0:
475,192,309187,1,2,0:0:0:0:
109,192,309187,1,0,0:0:0:0:
36,192,309360,1,2,0:0:0:0:
402,192,309360,1,8,0:0:0:0:
182,192,309360,1,0,0:0:0:0:
329,192,309360,1,0,0:0:0:0:
109,192,309532,1,2,0:0:0:0:
256,192,309532,1,0,0:0:0:0:
182,192,309705,1,2,0:0:0:0:
475,192,309705,1,0,0:0:0:0:
109,192,309791,1,2,0:0:0:0:
402,192,309791,1,0,0:0:0:0:
256,192,309877,1,2,0:0:0:0:
329,192,309877,1,0,0:0:0:0:
182,192,309877,1,0,0:0:0:0:
182,192,310050,1,8,0:0:0:0:
402,192,310050,1,2,0:0:0:0:
475,192,310050,1,0,0:0:0:0:
36,192,310050,1,0,0:0:0:0:
109,192,310222,1,2,0:0:0:0:
256,192,310222,1,0,0:0:0:0:
402,192,310394,1,2,0:0:0:0:
182,192,310394,1,0,0:0:0:0:
109,192,310567,1,2,0:0:0:0:
329,192,310567,1,0,0:0:0:0:
36,192,310567,1,0,0:0:0:0:
256,192,310739,1,8,0:0:0:0:
182,192,310739,1,2,0:0:0:0:
402,192,310739,1,0,0:0:0:0:
36,192,310739,1,0,0:0:0:0:
109,192,310912,1,2,0:0:0:0:
329,192,310912,1,0,0:0:0:0:
182,192,310998,1,2,0:0:0:0:
402,192,310998,1,0,0:0:0:0:
256,192,311084,1,2,0:0:0:0:
475,192,311084,1,0,0:0:0:0:
329,192,311256,1,2,0:0:0:0:
36,192,311256,1,0,0:0:0:0:
182,192,311256,1,0,0:0:0:0:
256,192,311429,1,2,0:0:0:0:
36,192,311429,1,8,0:0:0:0:
109,192,311429,1,0,0:0:0:0:
402,192,311429,1,0,0:0:0:0:
329,192,311601,1,2,0:0:0:0:
182,192,311601,1,0,0:0:0:0:
109,192,311774,1,2,0:0:0:0:
256,192,311774,1,0,0:0:0:0:
475,192,311774,1,0,0:0:0:0:
182,192,311946,1,2,0:0:0:0:
402,192,311946,1,0,0:0:0:0:
36,192,312118,1,8,0:0:0:0:
475,192,312118,1,2,0:0:0:0:
109,192,312118,1,0,0:0:0:0:
329,192,312118,1,0,0:0:0:0:
402,192,312291,1,2,0:0:0:0:
256,192,312291,1,0,0:0:0:0:
329,192,312463,1,2,0:0:0:0:
36,192,312463,1,0,0:0:0:0:
109,192,312550,1,2,0:0:0:0:
402,192,312550,1,0,0:0:0:0:
182,192,312636,1,2,0:0:0:0:
256,192,312636,1,0,0:0:0:0:
475,192,312636,1,0,0:0:0:0:
256,192,312808,1,2,0:0:0:0:
36,192,312808,1,8,0:0:0:0:
402,192,312808,1,0,0:0:0:0:
109,192,312808,1,0,0:0:0:0:
329,192,312981,1,2,0:0:0:0:
182,192,312981,1,0,0:0:0:0:
475,192,313153,1,2,0:0:0:0:
256,192,313153,1,0,0:0:0:0:
182,192,313325,1,2,0:0:0:0:
109,192,313325,1,0,0:0:0:0:
329,192,313325,1,0,0:0:0:0:
256,192,313498,1,8,0:0:0:0:
109,192,313498,1,2,0:0:0:0:
402,192,313498,1,0,0:0:0:0:
36,192,313498,1,0,0:0:0:0:
329,192,313670,1,2,0:0:0:0:
182,192,313670,1,0,0:0:0:0:
402,192,313756,1,0,0:0:0:0:
109,192,313756,1,0,0:0:0:0:
182,192,313843,1,2,0:0:0:0:
475,192,313843,1,0,0:0:0:0:
256,192,314015,1,2,0:0:0:0:
329,192,314015,1,0,0:0:0:0:
109,192,314015,1,0,0:0:0:0:
329,192,314187,1,8,0:0:0:0:
402,192,314187,1,2,0:0:0:0:
182,192,314187,1,0,0:0:0:0:
36,192,314187,1,0,0:0:0:0:
256,192,314360,1,2,0:0:0:0:
109,192,314360,1,0,0:0:0:0:
182,192,314532,1,2,0:0:0:0:
475,192,314532,1,0,0:0:0:0:
329,192,314532,1,0,0:0:0:0:
256,192,314705,1,2,0:0:0:0:
109,192,314705,1,0,0:0:0:0:
182,192,314877,1,8,0:0:0:0:
475,192,314877,1,2,0:0:0:0:
402,192,314877,1,0,0:0:0:0:
36,192,314877,1,0,0:0:0:0:
109,192,315050,1,2,0:0:0:0:
256,192,315050,1,0,0:0:0:0:
36,192,315222,1,2,0:0:0:0:
182,192,315222,1,0,0:0:0:0:
109,192,315308,1,2,0:0:0:0:
256,192,315308,1,0,0:0:0:0:
402,192,315394,1,2,0:0:0:0:
182,192,315394,1,0,0:0:0:0:
329,192,315394,1,0,0:0:0:0:
256,192,315567,1,8,0:0:0:0:
475,192,315567,1,2,0:0:0:0:
36,192,315567,1,0,0:0:0:0:
402,192,315567,1,0,0:0:0:0:
329,192,315739,1,2,0:0:0:0:
182,192,315739,1,0,0:0:0:0:
109,192,315912,1,2,0:0:0:0:
256,192,315912,1,0,0:0:0:0:
182,192,316084,1,2,0:0:0:0:
475,192,316084,1,0,0:0:0:0:
329,192,316084,1,0,0:0:0:0:
475,192,316256,1,2,0:0:0:0:
256,192,316256,1,8,0:0:0:0:
36,192,316256,1,0,0:0:0:0:
402,192,316256,1,0,0:0:0:0:
182,192,316429,1,2,0:0:0:0:
329,192,316429,1,0,0:0:0:0:
256,192,316515,1,2,0:0:0:0:
402,192,316515,1,0,0:0:0:0:
475,192,316601,1,2,0:0:0:0:
109,192,316601,1,0,0:0:0:0:
329,192,316774,1,2,0:0:0:0:
36,192,316774,1,0,0:0:0:0:
182,192,316774,1,0,0:0:0:0:
256,192,316946,1,8,0:0:0:0:
36,192,316946,1,2,0:0:0:0:
109,192,316946,1,0,0:0:0:0:
402,192,316946,1,0,0:0:0:0:
182,192,317118,128,2,317291:0:0:0:0:
329,192,317118,128,0,317291:0:0:0:0:
256,192,319015,128,0,319532:0:0:0:0:
475,192,319532,1,0,0:0:0:0:
402,192,319532,1,0,0:0:0:0:
109,192,319532,1,0,0:0:0:0:
475,192,319705,1,8,0:0:0:0:
402,192,319705,1,0,0:0:0:0:
329,192,319705,1,0,0:0:0:0:
256,192,319791,1,8,0:0:0:0:
182,192,319791,1,0,0:0:0:0:
109,192,319791,1,0,0:0:0:0:
475,192,319877,1,8,0:0:0:0:
402,192,319877,1,0,0:0:0:0:
329,192,319877,1,0,0:0:0:0:
182,192,319963,1,8,0:0:0:0:
109,192,319963,1,0,0:0:0:0:
36,192,319963,1,0,0:0:0:0:
475,192,320050,128,8,320222:0:0:0:0:
402,192,320050,128,4,320222:0:0:0:0:
329,192,320050,128,0,320222:0:0:0:0:
256,192,320050,128,0,320222:0:0:0:0:
182,192,320222,128,2,320394:0:0:0:0:
109,192,320222,128,0,320394:0:0:0:0:
36,192,320222,128,0,320394:0:0:0:0:
475,192,320394,128,2,320567:0:0:0:0:
402,192,320394,128,8,320567:0:0:0:0:
256,192,320394,128,0,320567:0:0:0:0:
329,192,320567,128,2,320739:0:0:0:0:
182,192,320567,128,0,320739:0:0:0:0:
36,192,320567,128,0,320739:0:0:0:0:
109,192,320739,128,2,320912:0:0:0:0:
256,192,320739,128,0,320912:0:0:0:0:
475,192,320739,128,0,320912:0:0:0:0:
402,192,320912,128,2,321084:0:0:0:0:
182,192,320912,128,0,321084:0:0:0:0:
36,192,320912,128,0,321084:0:0:0:0:
329,192,321084,128,8,321256:0:0:0:0:
109,192,321084,128,2,321256:0:0:0:0:
475,192,321084,128,0,321256:0:0:0:0:
182,192,321256,128,2,321429:0:0:0:0:
402,192,321256,128,0,321429:0:0:0:0:
256,192,321256,128,0,321429:0:0:0:0:
329,192,321429,128,2,321601:0:0:0:0:
36,192,321429,128,0,321601:0:0:0:0:
475,192,321429,128,0,321601:0:0:0:0:
402,192,321601,128,2,321774:0:0:0:0:
256,192,321601,128,0,321774:0:0:0:0:
109,192,321601,128,0,321774:0:0:0:0:
182,192,321774,128,2,321946:0:0:0:0:
329,192,321774,128,8,321946:0:0:0:0:
36,192,321774,128,0,321946:0:0:0:0:
256,192,321946,128,2,322118:0:0:0:0:
109,192,321946,128,0,322118:0:0:0:0:
475,192,321946,128,0,322118:0:0:0:0:
182,192,322118,128,2,322291:0:0:0:0:
36,192,322118,128,0,322291:0:0:0:0:
402,192,322118,128,0,322291:0:0:0:0:
329,192,322291,128,2,322463:0:0:0:0:
109,192,322291,128,0,322463:0:0:0:0:
475,192,322291,128,0,322463:0:0:0:0:
256,192,322463,128,2,322636:0:0:0:0:
182,192,322463,128,8,322636:0:0:0:0:
36,192,322463,128,0,322636:0:0:0:0:
109,192,322636,128,2,322808:0:0:0:0:
402,192,322636,128,0,322808:0:0:0:0:
329,192,322636,128,0,322808:0:0:0:0:
182,192,322808,128,2,322981:0:0:0:0:
475,192,322808,128,0,322981:0:0:0:0:
36,192,322808,128,0,322981:0:0:0:0:
109,192,322981,128,2,323153:0:0:0:0:
402,192,322981,128,0,323153:0:0:0:0:
256,192,322981,128,0,323153:0:0:0:0:
329,192,323153,128,2,323325:0:0:0:0:
182,192,323153,128,8,323325:0:0:0:0:
475,192,323153,128,0,323325:0:0:0:0:
256,192,323325,128,2,323498:0:0:0:0:
109,192,323325,128,0,323498:0:0:0:0:
36,192,323325,128,0,323498:0:0:0:0:
475,192,323498,128,2,323670:0:0:0:0:
182,192,323498,128,0,323670:0:0:0:0:
402,192,323498,128,0,323670:0:0:0:0:
329,192,323670,128,2,323843:0:0:0:0:
109,192,323670,128,0,323843:0:0:0:0:
36,192,323670,128,0,323843:0:0:0:0:
182,192,323843,128,2,324015:0:0:0:0:
475,192,323843,128,8,324015:0:0:0:0:
256,192,323843,128,0,324015:0:0:0:0:
402,192,324015,128,2,324187:0:0:0:0:
329,192,324015,128,0,324187:0:0:0:0:
36,192,324015,128,0,324187:0:0:0:0:
109,192,324187,128,2,324360:0:0:0:0:
256,192,324187,128,0,324360:0:0:0:0:
475,192,324187,128,0,324360:0:0:0:0:
36,192,324360,128,2,324532:0:0:0:0:
329,192,324360,128,0,324532:0:0:0:0:
182,192,324360,128,0,324532:0:0:0:0:
475,192,324532,128,8,324705:0:0:0:0:
256,192,324532,128,2,324705:0:0:0:0:
109,192,324532,128,0,324705:0:0:0:0:
402,192,324705,128,2,324877:0:0:0:0:
329,192,324705,128,0,324877:0:0:0:0:
182,192,324705,128,0,324877:0:0:0:0:
36,192,324877,128,2,325050:0:0:0:0:
256,192,324877,128,0,325050:0:0:0:0:
475,192,324877,128,0,325050:0:0:0:0:
109,192,325050,128,2,325222:0:0:0:0:
329,192,325050,128,0,325222:0:0:0:0:
182,192,325050,128,0,325222:0:0:0:0:
256,192,325222,128,2,325394:0:0:0:0:
475,192,325222,128,8,325394:0:0:0:0:
36,192,325222,128,0,325394:0:0:0:0:
402,192,325394,128,2,325567:0:0:0:0:
329,192,325394,128,0,325567:0:0:0:0:
182,192,325394,128,0,325567:0:0:0:0:
109,192,325567,128,2,325739:0:0:0:0:
36,192,325567,128,0,325739:0:0:0:0:
475,192,325567,128,0,325739:0:0:0:0:
402,192,325739,128,2,325912:0:0:0:0:
256,192,325739,128,0,325912:0:0:0:0:
182,192,325739,128,0,325912:0:0:0:0:
329,192,325912,128,2,326084:0:0:0:0:
109,192,325912,128,8,326084:0:0:0:0:
475,192,325912,128,0,326084:0:0:0:0:
402,192,326084,128,2,326256:0:0:0:0:
256,192,326084,128,0,326256:0:0:0:0:
36,192,326084,128,0,326256:0:0:0:0:
329,192,326256,128,2,326429:0:0:0:0:
182,192,326256,128,0,326429:0:0:0:0:
109,192,326256,128,0,326429:0:0:0:0:
475,192,326429,128,2,326601:0:0:0:0:
256,192,326429,128,0,326601:0:0:0:0:
36,192,326429,128,0,326601:0:0:0:0:
402,192,326601,128,2,326774:0:0:0:0:
329,192,326601,128,8,326774:0:0:0:0:
182,192,326601,128,0,326774:0:0:0:0:
256,192,326774,128,2,326946:0:0:0:0:
109,192,326774,128,0,326946:0:0:0:0:
475,192,326774,128,0,326946:0:0:0:0:
182,192,326946,128,2,327118:0:0:0:0:
36,192,326946,128,0,327118:0:0:0:0:
329,192,326946,128,0,327118:0:0:0:0:
475,192,327118,128,2,327291:0:0:0:0:
256,192,327118,128,0,327291:0:0:0:0:
402,192,327118,128,0,327291:0:0:0:0:
329,192,327291,128,2,327463:0:0:0:0:
109,192,327291,128,8,327463:0:0:0:0:
36,192,327291,128,0,327463:0:0:0:0:
182,192,327463,128,2,327636:0:0:0:0:
475,192,327463,128,0,327636:0:0:0:0:
256,192,327463,128,0,327636:0:0:0:0:
402,192,327636,128,2,327808:0:0:0:0:
109,192,327636,128,0,327808:0:0:0:0:
36,192,327636,128,0,327808:0:0:0:0:
182,192,327808,128,2,327981:0:0:0:0:
329,192,327808,128,0,327981:0:0:0:0:
475,192,327808,128,0,327981:0:0:0:0:
402,192,327981,128,8,328153:0:0:0:0:
256,192,327981,128,2,328153:0:0:0:0:
109,192,327981,128,0,328153:0:0:0:0:
182,192,328153,128,2,328325:0:0:0:0:
36,192,328153,128,0,328325:0:0:0:0:
475,192,328153,128,0,328325:0:0:0:0:
329,192,328325,128,2,328498:0:0:0:0:
109,192,328325,128,0,328498:0:0:0:0:
402,192,328325,128,0,328498:0:0:0:0:
256,192,328498,128,2,328670:0:0:0:0:
36,192,328498,128,0,328670:0:0:0:0:
475,192,328498,128,0,328670:0:0:0:0:
402,192,328670,128,8,328843:0:0:0:0:
329,192,328670,128,2,328843:0:0:0:0:
109,192,328670,128,0,328843:0:0:0:0:
256,192,328843,128,2,329015:0:0:0:0:
182,192,328843,128,0,329015:0:0:0:0:
475,192,328843,128,0,329015:0:0:0:0:
329,192,329015,128,2,329187:0:0:0:0:
109,192,329015,128,0,329187:0:0:0:0:
36,192,329015,128,0,329187:0:0:0:0:
402,192,329187,128,2,329360:0:0:0:0:
475,192,329187,128,0,329360:0:0:0:0:
256,192,329187,128,0,329360:0:0:0:0:
36,192,329360,128,8,329532:0:0:0:0:
182,192,329360,128,2,329532:0:0:0:0:
109,192,329360,128,0,329532:0:0:0:0:
402,192,329532,128,2,329705:0:0:0:0:
329,192,329532,128,0,329705:0:0:0:0:
475,192,329532,128,0,329705:0:0:0:0:
182,192,329705,1,2,0:0:0:0:
109,192,329705,1,8,0:0:0:0:
36,192,329705,1,0,0:0:0:0:
475,192,329791,1,8,0:0:0:0:
402,192,329791,1,2,0:0:0:0:
329,192,329791,1,0,0:0:0:0:
182,192,329877,1,8,0:0:0:0:
109,192,329877,1,2,0:0:0:0:
36,192,329877,1,0,0:0:0:0:
475,192,329963,1,2,0:0:0:0:
402,192,329963,1,8,0:0:0:0:
329,192,329963,1,0,0:0:0:0:
182,192,330050,1,8,0:0:0:0:
109,192,330050,1,2,0:0:0:0:
36,192,330050,1,0,0:0:0:0:
329,192,330222,1,2,0:0:0:0:
256,192,330222,1,0,0:0:0:0:
182,192,330222,1,0,0:0:0:0:
475,192,330394,1,8,0:0:0:0:
402,192,330394,1,2,0:0:0:0:
329,192,330394,1,0,0:0:0:0:
329,192,330567,1,2,0:0:0:0:
256,192,330567,1,0,0:0:0:0:
182,192,330567,1,0,0:0:0:0:
109,192,330739,128,2,331084:0:0:0:0:
36,192,330739,128,8,331084:0:0:0:0:
402,192,330739,1,0,0:0:0:0:
256,192,331084,128,4,339015:0:0:0:0:
329,192,331084,128,8,331170:0:0:0:0:
182,192,331084,128,0,331170:0:0:0:0:
402,192,331170,128,0,331256:0:0:0:0:
109,192,331170,128,0,331256:0:0:0:0:
475,192,331256,128,2,331343:0:0:0:0:
36,192,331256,128,0,331343:0:0:0:0:
402,192,331343,128,0,331429:0:0:0:0:
109,192,331343,128,0,331429:0:0:0:0:
329,192,331429,128,2,331515:0:0:0:0:
182,192,331429,128,8,331515:0:0:0:0:
475,192,331515,128,0,331601:0:0:0:0:
36,192,331515,128,0,331601:0:0:0:0:
402,192,331601,128,2,331687:0:0:0:0:
109,192,331601,128,0,331687:0:0:0:0:
329,192,331687,128,0,331774:0:0:0:0:
182,192,331687,128,0,331774:0:0:0:0:
475,192,331774,128,2,331860:0:0:0:0:
36,192,331774,128,0,331860:0:0:0:0:
402,192,331860,128,0,331946:0:0:0:0:
109,192,331860,128,0,331946:0:0:0:0:
475,192,331946,128,2,332032:0:0:0:0:
36,192,331946,128,0,332032:0:0:0:0:
402,192,332032,128,0,332118:0:0:0:0:
109,192,332032,128,0,332118:0:0:0:0:
329,192,332118,128,2,332205:0:0:0:0:
182,192,332118,128,8,332205:0:0:0:0:
475,192,332205,128,0,332291:0:0:0:0:
36,192,332205,128,0,332291:0:0:0:0:
329,192,332291,128,2,332377:0:0:0:0:
182,192,332291,128,0,332377:0:0:0:0:
475,192,332377,128,0,332463:0:0:0:0:
36,192,332377,128,0,332463:0:0:0:0:
329,192,332463,128,2,332550:0:0:0:0:
182,192,332463,128,0,332550:0:0:0:0:
109,192,332550,128,0,332636:0:0:0:0:
402,192,332550,128,0,332636:0:0:0:0:
36,192,332636,128,2,332722:0:0:0:0:
475,192,332636,128,0,332722:0:0:0:0:
182,192,332722,128,0,332808:0:0:0:0:
329,192,332722,128,0,332808:0:0:0:0:
109,192,332808,128,2,332894:0:0:0:0:
402,192,332808,128,8,332894:0:0:0:0:
329,192,332894,128,0,332981:0:0:0:0:
182,192,332894,128,0,332981:0:0:0:0:
36,192,332981,128,2,333067:0:0:0:0:
475,192,332981,128,0,333067:0:0:0:0:
109,192,333067,128,0,333153:0:0:0:0:
402,192,333067,128,0,333153:0:0:0:0:
182,192,333153,128,2,333239:0:0:0:0:
329,192,333153,128,0,333239:0:0:0:0:
36,192,333239,128,0,333325:0:0:0:0:
475,192,333239,128,0,333325:0:0:0:0:
109,192,333325,128,2,333412:0:0:0:0:
402,192,333325,128,0,333412:0:0:0:0:
182,192,333412,128,0,333498:0:0:0:0:
329,192,333412,128,0,333498:0:0:0:0:
36,192,333498,128,2,333584:0:0:0:0:
475,192,333498,128,8,333584:0:0:0:0:
182,192,333584,128,0,333670:0:0:0:0:
329,192,333584,128,0,333670:0:0:0:0:
36,192,333670,128,2,333756:0:0:0:0:
475,192,333670,128,0,333756:0:0:0:0:
182,192,333756,128,0,333843:0:0:0:0:
329,192,333756,128,0,333843:0:0:0:0:
109,192,333843,128,2,333929:0:0:0:0:
402,192,333843,128,0,333929:0:0:0:0:
182,192,333929,128,0,334015:0:0:0:0:
329,192,333929,128,0,334015:0:0:0:0:
36,192,334015,128,2,334101:0:0:0:0:
475,192,334015,128,0,334101:0:0:0:0:
109,192,334101,128,0,334187:0:0:0:0:
402,192,334101,128,0,334187:0:0:0:0:
182,192,334187,128,2,334274:0:0:0:0:
329,192,334187,128,8,334274:0:0:0:0:
109,192,334274,128,0,334360:0:0:0:0:
402,192,334274,128,0,334360:0:0:0:0:
36,192,334360,128,2,334446:0:0:0:0:
475,192,334360,128,0,334446:0:0:0:0:
182,192,334446,128,2,334532:0:0:0:0:
329,192,334446,128,0,334532:0:0:0:0:
109,192,334532,128,2,334618:0:0:0:0:
402,192,334532,128,0,334618:0:0:0:0:
329,192,334618,128,0,334705:0:0:0:0:
182,192,334618,128,0,334705:0:0:0:0:
36,192,334705,128,2,334791:0:0:0:0:
475,192,334705,128,0,334791:0:0:0:0:
109,192,334791,128,0,334877:0:0:0:0:
402,192,334791,128,0,334877:0:0:0:0:
329,192,334877,128,8,334963:0:0:0:0:
182,192,334877,128,2,334963:0:0:0:0:
36,192,334963,128,0,335050:0:0:0:0:
475,192,334963,128,0,335050:0:0:0:0:
109,192,335050,128,2,335136:0:0:0:0:
402,192,335050,128,0,335136:0:0:0:0:
182,192,335136,128,0,335222:0:0:0:0:
329,192,335136,128,0,335222:0:0:0:0:
475,192,335222,128,2,335308:0:0:0:0:
36,192,335222,128,0,335308:0:0:0:0:
329,192,335308,128,0,335394:0:0:0:0:
182,192,335308,128,0,335394:0:0:0:0:
475,192,335394,128,2,335481:0:0:0:0:
36,192,335394,128,0,335481:0:0:0:0:
329,192,335481,128,0,335567:0:0:0:0:
182,192,335481,128,0,335567:0:0:0:0:
402,192,335567,128,8,335653:0:0:0:0:
109,192,335567,128,2,335653:0:0:0:0:
329,192,335653,128,0,335739:0:0:0:0:
182,192,335653,128,0,335739:0:0:0:0:
402,192,335739,128,2,335825:0:0:0:0:
109,192,335739,128,0,335825:0:0:0:0:
329,192,335825,128,0,335912:0:0:0:0:
182,192,335825,128,0,335912:0:0:0:0:
475,192,335912,128,2,335998:0:0:0:0:
36,192,335912,128,0,335998:0:0:0:0:
402,192,335998,128,0,336084:0:0:0:0:
109,192,335998,128,0,336084:0:0:0:0:
475,192,336084,128,2,336170:0:0:0:0:
36,192,336084,128,0,336170:0:0:0:0:
402,192,336170,128,0,336256:0:0:0:0:
109,192,336170,128,0,336256:0:0:0:0:
329,192,336256,128,8,336343:0:0:0:0:
182,192,336256,128,2,336343:0:0:0:0:
402,192,336343,128,0,336429:0:0:0:0:
109,192,336343,128,0,336429:0:0:0:0:
475,192,336429,128,2,336515:0:0:0:0:
36,192,336429,128,0,336515:0:0:0:0:
402,192,336515,128,0,336601:0:0:0:0:
109,192,336515,128,0,336601:0:0:0:0:
329,192,336601,1,2,0:0:0:0:
182,192,336601,128,0,336687:0:0:0:0:
402,192,336687,1,0,0:0:0:0:
109,192,336687,128,0,336774:0:0:0:0:
475,192,336774,1,2,0:0:0:0:
36,192,336774,128,0,336860:0:0:0:0:
182,192,336860,128,0,336946:0:0:0:0:
329,192,336860,1,0,0:0:0:0:
109,192,336946,128,2,337032:0:0:0:0:
402,192,336946,1,8,0:0:0:0:
182,192,337032,128,0,337118:0:0:0:0:
329,192,337032,1,0,0:0:0:0:
36,192,337118,128,2,337205:0:0:0:0:
475,192,337118,1,0,0:0:0:0:
182,192,337205,128,2,337291:0:0:0:0:
329,192,337205,1,0,0:0:0:0:
109,192,337291,128,2,337377:0:0:0:0:
402,192,337291,1,0,0:0:0:0:
36,192,337377,128,2,337463:0:0:0:0:
475,192,337377,1,0,0:0:0:0:
109,192,337463,128,2,337550:0:0:0:0:
402,192,337463,1,0,0:0:0:0:
182,192,337550,128,0,337636:0:0:0:0:
329,192,337550,1,0,0:0:0:0:
36,192,337636,128,8,337722:0:0:0:0:
475,192,337636,1,2,0:0:0:0:
182,192,337722,128,0,337808:0:0:0:0:
329,192,337722,1,0,0:0:0:0:
36,192,337808,128,2,337894:0:0:0:0:
475,192,337808,1,0,0:0:0:0:
182,192,337894,128,0,337981:0:0:0:0:
329,192,337894,1,0,0:0:0:0:
109,192,337981,1,2,0:0:0:0:
402,192,337981,128,0,338067:0:0:0:0:
182,192,338067,1,0,0:0:0:0:
329,192,338067,128,0,338153:0:0:0:0:
109,192,338153,1,2,0:0:0:0:
402,192,338153,128,0,338239:0:0:0:0:
182,192,338239,1,0,0:0:0:0:
329,192,338239,128,0,338325:0:0:0:0:
475,192,338325,128,2,338412:0:0:0:0:
36,192,338325,1,8,0:0:0:0:
402,192,338412,128,0,338498:0:0:0:0:
109,192,338412,1,0,0:0:0:0:
329,192,338498,128,2,338584:0:0:0:0:
182,192,338498,1,0,0:0:0:0:
475,192,338584,128,0,338670:0:0:0:0:
36,192,338584,1,0,0:0:0:0:
402,192,338670,128,2,338756:0:0:0:0:
109,192,338670,1,0,0:0:0:0:
329,192,338756,128,0,338843:0:0:0:0:
182,192,338756,1,0,0:0:0:0:
402,192,338843,128,2,338929:0:0:0:0:
109,192,338843,1,0,0:0:0:0:
329,192,338929,128,0,339015:0:0:0:0:
182,192,338929,1,0,0:0:0:0:
36,192,339015,1,8,0:0:0:0:
475,192,339015,1,2,0:0:0:0:
109,192,339101,1,0,0:0:0:0:
402,192,339101,1,0,0:0:0:0:
36,192,339187,1,2,0:0:0:0:
475,192,339187,1,0,0:0:0:0:
182,192,339274,1,0,0:0:0:0:
329,192,339274,1,0,0:0:0:0:
402,192,339360,1,2,0:0:0:0:
475,192,339360,1,0,0:0:0:0:
256,192,339360,1,0,0:0:0:0:
109,192,339446,1,2,0:0:0:0:
36,192,339446,1,0,0:0:0:0:
402,192,339532,1,2,0:0:0:0:
329,192,339532,1,0,0:0:0:0:
182,192,339618,1,2,0:0:0:0:
109,192,339618,1,0,0:0:0:0:
402,192,339705,1,2,0:0:0:0:
475,192,339705,1,0,0:0:0:0:
182,192,339791,1,2,0:0:0:0:
36,192,339791,1,0,0:0:0:0:
475,192,339877,1,2,0:0:0:0:
329,192,339877,1,0,0:0:0:0:
109,192,339963,1,2,0:0:0:0:
182,192,339963,1,0,0:0:0:0:
329,192,340050,1,2,0:0:0:0:
402,192,340050,1,0,0:0:0:0:
36,192,340136,1,2,0:0:0:0:
109,192,340136,1,0,0:0:0:0:
402,192,340222,1,2,0:0:0:0:
475,192,340222,1,0,0:0:0:0:
36,192,340308,1,2,0:0:0:0:
182,192,340308,1,0,0:0:0:0:
475,192,340394,1,2,0:0:0:0:
329,192,340394,1,0,0:0:0:0:
182,192,340481,1,2,0:0:0:0:
36,192,340481,1,0,0:0:0:0:
329,192,340567,1,2,0:0:0:0:
475,192,340567,1,0,0:0:0:0:
109,192,340653,1,2,0:0:0:0:
182,192,340653,1,0,0:0:0:0:
256,192,340739,1,0,0:0:0:0:
475,192,340739,1,0,0:0:0:0:
402,192,340782,1,0,0:0:0:0:
329,192,340825,1,0,0:0:0:0:
36,192,340825,1,0,0:0:0:0:
109,192,340868,1,0,0:0:0:0:
182,192,340912,1,0,0:0:0:0:
475,192,340912,1,0,0:0:0:0:
402,192,340955,1,0,0:0:0:0:
329,192,340998,1,0,0:0:0:0:
36,192,340998,1,0,0:0:0:0:
109,192,341041,1,0,0:0:0:0:
182,192,341084,1,0,0:0:0:0:
475,192,341084,1,0,0:0:0:0:
402,192,341127,1,0,0:0:0:0:
329,192,341170,1,0,0:0:0:0:
36,192,341170,1,0,0:0:0:0:
109,192,341213,1,0,0:0:0:0:
182,192,341256,1,0,0:0:0:0:
475,192,341256,1,0,0:0:0:0:
402,192,341300,1,0,0:0:0:0:
329,192,341343,1,0,0:0:0:0:
36,192,341343,1,0,0:0:0:0:
109,192,341386,1,0,0:0:0:0:
182,192,341429,1,0,0:0:0:0:
475,192,341429,1,0,0:0:0:0:
402,192,341458,1,0,0:0:0:0:
329,192,341486,1,0,0:0:0:0:
256,192,341515,1,0,0:0:0:0:
182,192,341544,1,0,0:0:0:0:
109,192,341572,1,0,0:0:0:0:
36,192,341601,1,0,0:0:0:0:
475,192,341601,1,0,0:0:0:0:
402,192,341630,1,0,0:0:0:0:
329,192,341659,1,0,0:0:0:0:
256,192,341687,1,0,0:0:0:0:
182,192,341716,1,0,0:0:0:0:
109,192,341745,1,0,0:0:0:0:
36,192,341774,1,0,0:0:0:0:
475,192,341774,128,0,341946:0:0:0:0:
402,192,341774,128,0,341946:0:0:0:0:
36,192,341946,128,0,342118:0:0:0:0:
109,192,341946,128,0,342118:0:0:0:0:
475,192,342118,1,0,0:0:0:0:
475,192,342291,1,0,0:0:0:0:
475,192,342463,1,0,0:0:0:0:
475,192,342808,1,2,0:0:0:0:
402,192,342808,1,8,0:0:0:0:
109,192,342808,1,0,0:0:0:0:
36,192,342808,1,0,0:0:0:0:
182,192,343153,1,0,0:0:0:0:
329,192,343325,1,0,0:0:0:0:
182,192,343498,1,0,0:0:0:0:
329,192,343670,1,0,0:0:0:0:
109,192,343843,1,0,0:0:0:0:
36,192,343843,1,0,0:0:0:0:
475,192,343843,1,0,0:0:0:0:
402,192,343843,1,0,0:0:0:0:
329,192,344187,1,8,0:0:0:0:
402,192,344187,1,2,0:0:0:0:
109,192,344187,1,0,0:0:0:0:
182,192,344187,1,0,0:0:0:0:
475,192,344532,1,0,0:0:0:0:
36,192,344705,1,0,0:0:0:0:
475,192,344877,1,0,0:0:0:0:
36,192,345050,1,0,0:0:0:0:
329,192,345222,1,0,0:0:0:0:
402,192,345222,1,0,0:0:0:0:
109,192,345222,1,0,0:0:0:0:
182,192,345222,1,0,0:0:0:0:
109,192,345567,1,8,0:0:0:0:
36,192,345567,1,2,0:0:0:0:
475,192,345567,1,0,0:0:0:0:
402,192,345567,1,0,0:0:0:0:
256,192,345912,1,0,0:0:0:0:
182,192,346084,1,0,0:0:0:0:
256,192,346256,1,0,0:0:0:0:
329,192,346429,1,0,0:0:0:0:
402,192,346601,128,0,346687:0:0:0:0:
109,192,346601,128,0,346687:0:0:0:0:
36,192,346601,128,0,346687:0:0:0:0:
475,192,346601,128,0,346687:0:0:0:0:
329,192,346946,128,8,347032:0:0:0:0:
402,192,346946,128,2,347032:0:0:0:0:
109,192,346946,128,0,347032:0:0:0:0:
182,192,346946,128,0,347032:0:0:0:0:
182,192,347291,128,0,347377:0:0:0:0:
329,192,347291,128,0,347377:0:0:0:0:
475,192,347636,1,2,0:0:0:0:
402,192,347636,1,0,0:0:0:0:
109,192,347636,1,0,0:0:0:0:
36,192,347636,1,0,0:0:0:0:
182,192,347808,1,0,0:0:0:0:
256,192,347981,1,0,0:0:0:0:
475,192,348325,1,2,0:0:0:0:
402,192,348325,1,0,0:0:0:0:
109,192,348325,128,0,349015:0:0:0:0:
36,192,348325,128,0,349015:0:0:0:0:
475,192,349360,1,0,0:0:0:0:
402,192,349360,1,0,0:0:0:0:
109,192,349360,1,0,0:0:0:0:
36,192,349360,1,0,0:0:0:0:
475,192,349705,1,8,0:0:0:0:
109,192,349705,1,2,0:0:0:0:
36,192,349705,1,0,0:0:0:0:
402,192,349705,128,0,350050:0:0:0:0:
109,192,350050,128,0,350394:0:0:0:0:
329,192,350394,1,0,0:0:0:0:
475,192,350739,1,0,0:0:0:0:
402,192,350739,1,0,0:0:0:0:
109,192,350739,1,0,0:0:0:0:
36,192,350739,1,0,0:0:0:0:
329,192,351084,1,2,0:0:0:0:
402,192,351084,1,8,0:0:0:0:
109,192,351084,1,0,0:0:0:0:
182,192,351084,1,0,0:0:0:0:
256,192,351429,1,0,0:0:0:0:
109,192,351601,1,0,0:0:0:0:
402,192,351774,1,0,0:0:0:0:
256,192,351946,1,0,0:0:0:0:
475,192,352118,1,2,0:0:0:0:
402,192,352118,1,0,0:0:0:0:
109,192,352118,1,0,0:0:0:0:
36,192,352118,1,0,0:0:0:0:
475,192,352463,1,8,0:0:0:0:
402,192,352463,1,0,0:0:0:0:
109,192,352463,1,0,0:0:0:0:
36,192,352463,1,0,0:0:0:0:
182,192,352550,1,0,0:0:0:0:
329,192,352636,1,0,0:0:0:0:
182,192,352722,1,0,0:0:0:0:
402,192,352808,1,8,0:0:0:0:
109,192,352894,1,0,0:0:0:0:
402,192,352981,1,0,0:0:0:0:
182,192,353067,1,0,0:0:0:0:
475,192,353153,1,4,0:0:0:0:
402,192,353153,1,8,0:0:0:0:
109,192,353153,1,0,0:0:0:0:
36,192,353153,1,0,0:0:0:0:
256,192,353153,1,0,0:0:0:0:
182,192,353325,1,0,0:0:0:0:
329,192,353498,1,0,0:0:0:0:
475,192,353843,1,8,0:0:0:0:
402,192,353843,1,2,0:0:0:0:
109,192,353843,1,0,0:0:0:0:
36,192,353843,1,0,0:0:0:0:
329,192,354015,1,0,0:0:0:0:
256,192,354187,1,0,0:0:0:0:
182,192,354360,1,0,0:0:0:0:
256,192,354532,1,0,0:0:0:0:
329,192,354705,1,0,0:0:0:0:
475,192,354877,1,0,0:0:0:0:
402,192,354877,1,0,0:0:0:0:
109,192,354877,1,0,0:0:0:0:
36,192,354877,1,0,0:0:0:0:
329,192,354935,1,0,0:0:0:0:
182,192,354992,1,0,0:0:0:0:
256,192,355050,1,0,0:0:0:0:
182,192,355107,1,0,0:0:0:0:
329,192,355164,1,0,0:0:0:0:
109,192,355222,1,8,0:0:0:0:
475,192,355222,1,2,0:0:0:0:
402,192,355222,1,0,0:0:0:0:
36,192,355222,1,0,0:0:0:0:
182,192,355567,1,0,0:0:0:0:
329,192,355739,1,0,0:0:0:0:
109,192,355912,1,0,0:0:0:0:
256,192,356084,1,0,0:0:0:0:
109,192,356256,1,0,0:0:0:0:
182,192,356256,1,0,0:0:0:0:
329,192,356256,1,0,0:0:0:0:
402,192,356256,1,0,0:0:0:0:
475,192,356601,1,2,0:0:0:0:
402,192,356601,1,8,0:0:0:0:
109,192,356601,1,0,0:0:0:0:
36,192,356601,1,0,0:0:0:0:
329,192,356946,1,0,0:0:0:0:
182,192,357118,1,0,0:0:0:0:
256,192,357291,1,0,0:0:0:0:
329,192,357463,1,0,0:0:0:0:
109,192,357636,128,0,357722:0:0:0:0:
182,192,357636,128,0,357722:0:0:0:0:
402,192,357636,128,0,357722:0:0:0:0:
329,192,357636,128,0,357722:0:0:0:0:
109,192,357981,128,8,358067:0:0:0:0:
36,192,357981,128,2,358067:0:0:0:0:
402,192,357981,128,0,358067:0:0:0:0:
475,192,357981,128,0,358067:0:0:0:0:
475,192,358325,128,0,358412:0:0:0:0:
36,192,358325,128,0,358412:0:0:0:0:
475,192,358670,1,2,0:0:0:0:
402,192,358670,1,0,0:0:0:0:
109,192,358670,1,0,0:0:0:0:
36,192,358670,1,0,0:0:0:0:
256,192,358843,1,0,0:0:0:0:
329,192,359015,1,0,0:0:0:0:
109,192,359360,1,2,0:0:0:0:
36,192,359360,1,0,0:0:0:0:
402,192,359360,128,0,360050:0:0:0:0:
475,192,359360,128,0,360050:0:0:0:0:
182,192,360050,1,0,0:0:0:0:
182,192,360164,1,0,0:0:0:0:
182,192,360279,1,0,0:0:0:0:
329,192,360394,1,0,0:0:0:0:
109,192,360394,1,0,0:0:0:0:
36,192,360394,1,0,0:0:0:0:
475,192,360394,1,0,0:0:0:0:
402,192,360394,1,0,0:0:0:0:
329,192,360509,1,0,0:0:0:0:
329,192,360624,1,0,0:0:0:0:
475,192,360739,1,8,0:0:0:0:
402,192,360739,1,2,0:0:0:0:
36,192,360739,1,0,0:0:0:0:
109,192,360739,128,0,361084:0:0:0:0:
182,192,361084,128,0,361429:0:0:0:0:
475,192,361429,1,0,0:0:0:0:
402,192,361429,1,0,0:0:0:0:
475,192,361774,1,0,0:0:0:0:
402,192,361774,1,0,0:0:0:0:
109,192,361774,1,0,0:0:0:0:
36,192,361774,1,0,0:0:0:0:
475,192,362118,1,8,0:0:0:0:
402,192,362118,1,2,0:0:0:0:
109,192,362118,1,0,0:0:0:0:
36,192,362118,1,0,0:0:0:0:
182,192,362463,1,0,0:0:0:0:
329,192,362636,1,0,0:0:0:0:
256,192,362808,1,0,0:0:0:0:
109,192,363153,1,2,0:0:0:0:
36,192,363153,1,0,0:0:0:0:
475,192,363153,1,0,0:0:0:0:
402,192,363153,1,0,0:0:0:0:
475,192,363498,1,8,0:0:0:0:
402,192,363498,1,0,0:0:0:0:
109,192,363498,1,0,0:0:0:0:
36,192,363498,1,0,0:0:0:0:
109,192,363670,1,0,0:0:0:0:
402,192,363670,1,0,0:0:0:0:
109,192,363843,1,8,0:0:0:0:
402,192,363843,1,0,0:0:0:0:
109,192,364015,1,0,0:0:0:0:
402,192,364015,1,0,0:0:0:0:
475,192,364187,1,4,0:0:0:0:
256,192,364187,1,8,0:0:0:0:
109,192,364187,1,0,0:0:0:0:
36,192,364187,1,0,0:0:0:0:
402,192,364187,128,0,364532:0:0:0:0:
182,192,364532,128,0,365222:0:0:0:0:
329,192,365222,128,0,365912:0:0:0:0:
402,192,365912,128,0,366601:0:0:0:0:
109,192,366601,128,0,367291:0:0:0:0:
256,192,367291,128,0,367981:0:0:0:0:
402,192,367981,128,0,368670:0:0:0:0:
256,192,368670,128,0,369360:0:0:0:0:
475,192,369360,128,0,370050:0:0:0:0:
256,192,370050,128,0,370394:0:0:0:0:
475,192,370739,128,2,371084:0:0:0:0:
329,192,371774,128,2,372118:0:0:0:0:
182,192,372118,128,0,373153:0:0:0:0:
329,192,373153,128,8,373498:0:0:0:0:
182,192,373498,128,0,374187:0:0:0:0:
402,192,375222,128,2,375567:0:0:0:0:
182,192,375567,128,0,376256:0:0:0:0:
329,192,376256,128,0,376946:0:0:0:0:
402,192,376946,128,0,377636:0:0:0:0:
182,192,377636,128,0,378325:0:0:0:0:
36,192,378325,128,0,379015:0:0:0:0:
329,192,379015,128,0,379705:0:0:0:0:
109,192,379705,128,0,380394:0:0:0:0:
402,192,380394,128,0,381084:0:0:0:0:
109,192,381084,128,0,381429:0:0:0:0:
402,192,381774,128,2,382118:0:0:0:0:
475,192,382808,128,2,383153:0:0:0:0:
329,192,383153,128,0,383498:0:0:0:0:
182,192,383498,128,0,383843:0:0:0:0:
36,192,383843,128,0,384877:0:0:0:0:
329,192,384532,1,0,0:0:0:0:
329,192,384705,128,0,384877:0:0:0:0:
109,192,384877,1,0,0:0:0:0:
182,192,385050,1,0,0:0:0:0:
182,192,385222,1,2,0:0:0:0:
402,192,385222,1,0,0:0:0:0:
256,192,385222,1,0,0:0:0:0:
475,192,385222,1,0,0:0:0:0:
402,192,385567,1,8,0:0:0:0:
256,192,385567,1,0,0:0:0:0:
182,192,385567,1,0,0:0:0:0:
109,192,385567,1,0,0:0:0:0:
256,192,385739,1,0,0:0:0:0:
182,192,385912,128,8,385969:0:0:0:0:
402,192,385912,1,0,0:0:0:0:
109,192,385969,128,0,386027:0:0:0:0:
36,192,386027,128,0,386084:0:0:0:0:
256,192,386084,128,0,386141:0:0:0:0:
329,192,386141,128,0,386199:0:0:0:0:
475,192,386199,128,0,386256:0:0:0:0:
