osu file format v14

[General]
AudioFilename: audio.mp3
AudioLeadIn: 0
PreviewTime: 99353
Countdown: 1
SampleSet: Normal
StackLeniency: 0.7
Mode: 0
LetterboxInBreaks: 0
WidescreenStoryboard: 0

[Editor]
Bookmarks: 22109,68661,72109,226247,228661,240041,292454,293144,293834,294523,295213,339351,340730,341420,341765,342109
DistanceSpacing: 0.7
BeatDivisor: 4
GridSize: 4
TimelineZoom: 2

[Metadata]
Title:The Pretender
TitleUnicode:The Pretender
Artist:Infected Mushroom
ArtistUnicode:Infected Mushroom
Creator:luGha
Version:Who are you?
Source:
Tags:
BeatmapID:1806849
BeatmapSetID:863864

[Difficulty]
HPDrainRate:6
CircleSize:4
OverallDifficulty:8.6
ApproachRate:9.2
SliderMultiplier:1.4
SliderTickRate:1

[Events]
//Background and Video events
0,0,"The Pretender.png",0,0
//Break Periods
2,240930,244988
2,245758,250333
//Storyboard Layer 0 (Background)
//Storyboard Layer 1 (Fail)
//Storyboard Layer 2 (Pass)
//Storyboard Layer 3 (Foreground)
//Storyboard Sound Samples

[TimingPoints]
41,344.827586206897,4,1,0,50,1,0
46937,-66.6666666666667,4,1,0,50,0,0
99351,-50,4,1,0,50,0,1
118661,-100,4,1,0,50,0,0
121075,-66.6666666666667,4,1,0,50,0,0
143834,-100,4,1,0,30,0,0
168316,-66.6666666666667,4,1,0,30,0,0
172454,-66.6666666666667,4,1,0,50,0,1
193144,-100,4,1,0,50,0,0
195385,-66.6666666666667,4,1,0,50,0,0
206937,-66.6666666666667,4,1,0,50,0,1
240041,-200,4,1,0,50,0,0
240730,-100,4,1,0,50,0,0
297972,-66.6666666666667,4,1,0,50,0,1
317282,-100,4,1,0,50,0,1
319696,-66.6666666666667,4,1,0,50,0,1
342109,-100,4,1,0,50,0,0
352454,-100,4,1,0,20,0,0
353144,-100,4,1,0,50,0,0
359351,-100,4,1,0,30,0,0
359782,-100,4,1,0,50,0,0
370385,-100,4,1,0,30,0,0
370816,-100,4,1,0,50,0,0
381420,-100,4,1,0,30,0,0
381851,-100,4,1,0,50,0,0
385558,-100,4,1,0,30,0,0

[HitObjects]
427,267,22109,6,0,P|409:205|332:172,1,140
194,117,23144,1,0,0:0:0:0:
218,288,23834,1,0,0:0:0:0:
247,112,24523,2,0,P|309:105|394:151,1,140
419,125,25213,5,0,0:0:0:0:
362,282,25903,1,0,0:0:0:0:
98,267,26592,2,0,P|80:220|122:115,1,140
224,80,27282,1,0,0:0:0:0:
109,106,29696,6,0,P|174:83|253:92,1,140
136,199,33144,6,0,P|167:150|258:118,1,140
444,122,34178,2,0,P|396:153|328:220,1,140
273,270,34868,2,0,L|110:232,1,140
78,90,35558,1,0,0:0:0:0:
262,208,36247,6,0,P|298:151|367:132,1,140
427,256,36937,1,0,0:0:0:0:
121,290,37627,2,0,P|41:247|48:205,1,140
173,121,38316,1,0,0:0:0:0:
116,203,40730,6,0,P|182:99|357:97,2,280
131,164,43834,6,0,P|195:134|202:133,1,70
383,92,44178,1,0,0:0:0:0:
312,238,44523,1,0,0:0:0:0:
159,103,44868,5,0,0:0:0:0:
91,314,45213,2,0,P|147:276|156:268,1,70
137,83,45558,5,0,0:0:0:0:
157,82,45644,1,0,0:0:0:0:
177,84,45730,1,0,0:0:0:0:
197,87,45816,1,0,0:0:0:0:
217,91,45903,1,0,0:0:0:0:
236,98,45989,1,0,0:0:0:0:
255,104,46075,1,0,0:0:0:0:
274,112,46161,1,0,0:0:0:0:
293,120,46247,1,0,0:0:0:0:
311,130,46334,1,0,0:0:0:0:
327,142,46420,1,0,0:0:0:0:
342,156,46506,1,0,0:0:0:0:
356,170,46592,1,0,0:0:0:0:
255,283,46937,6,0,P|217:242|239:194,1,105.000004005432
400,70,47282,1,0,0:0:0:0:
407,96,47368,1,0,0:0:0:0:
410,122,47454,1,0,0:0:0:0:
416,146,47541,1,0,0:0:0:0:
420,171,47627,1,0,0:0:0:0:
327,271,47799,5,0,0:0:0:0:
178,199,47972,1,0,0:0:0:0:
191,47,48144,2,0,P|109:54|67:76,1,105.000004005432
9,217,48489,2,0,P|84:190|136:192,1,105.000004005432
356,227,48834,6,0,L|293:226,2,52.5000020027161
300,79,49178,1,0,0:0:0:0:
223,170,49351,1,0,0:0:0:0:
144,76,49523,1,0,0:0:0:0:
92,172,49696,1,0,0:0:0:0:
23,321,49868,6,0,P|80:324|164:290,1,105.000004005432
242,227,50213,1,0,0:0:0:0:
259,215,50299,1,0,0:0:0:0:
276,207,50385,1,0,0:0:0:0:
296,195,50472,1,0,0:0:0:0:
315,186,50558,1,0,0:0:0:0:
310,47,50730,6,0,L|411:75,1,105.000004005432
388,216,51075,1,0,0:0:0:0:
217,239,51247,1,0,0:0:0:0:
194,75,51420,6,0,L|126:78,1,52.5000020027161
102,212,51592,2,0,L|195:185,1,52.5000020027161
293,137,51765,2,0,P|361:163|381:192,1,105.000004005432
113,299,52109,5,0,0:0:0:0:
217,133,52282,1,0,0:0:0:0:
389,59,52454,2,0,P|430:97|408:150,1,105.000004005432
335,202,52799,5,0,0:0:0:0:
313,217,52885,1,0,0:0:0:0:
291,232,52972,1,0,0:0:0:0:
272,250,53058,1,0,0:0:0:0:
251,266,53144,1,0,0:0:0:0:
73,238,53316,5,0,0:0:0:0:
183,120,53489,1,0,0:0:0:0:
346,172,53661,2,0,L|417:259,1,105.000004005432
309,328,54006,2,0,L|173:325,1,105.000004005432
75,197,54351,6,0,L|140:192,2,52.5000020027161
152,80,54696,2,0,L|264:91,1,105.000004005432
409,144,55041,1,0,0:0:0:0:
316,227,55213,1,0,0:0:0:0:
397,327,55385,2,0,P|437:276|424:225,1,105.000004005432
340,110,55730,1,0,0:0:0:0:
308,113,55816,1,0,0:0:0:0:
276,118,55903,1,0,0:0:0:0:
245,124,55989,1,0,0:0:0:0:
214,130,56075,1,0,0:0:0:0:
119,223,56247,5,0,0:0:0:0:
163,324,56420,2,0,P|230:300|265:270,2,105.000004005432
214,130,56937,1,0,0:0:0:0:
324,176,57109,1,0,0:0:0:0:
223,314,57282,2,0,L|161:302,1,52.5000020027161
174,222,57454,2,0,L|251:241,1,52.5000020027161
296,245,57627,1,0,0:0:0:0:
327,240,57713,1,0,0:0:0:0:
357,231,57799,1,0,0:0:0:0:
385,217,57885,1,0,0:0:0:0:
412,200,57972,1,0,0:0:0:0:
388,79,58144,6,0,P|333:72|267:86,1,105.000004005432
96,156,58489,1,0,0:0:0:0:
228,277,58661,1,0,0:0:0:0:
274,121,58834,2,0,P|342:145|371:171,1,105.000004005432
329,290,59178,1,0,0:0:0:0:
166,271,59351,1,0,0:0:0:0:
169,83,59523,6,0,P|102:105|84:139,1,105.000004005432
83,303,59868,1,0,0:0:0:0:
242,245,60041,1,0,0:0:0:0:
272,236,60127,1,0,0:0:0:0:
300,223,60213,1,0,0:0:0:0:
327,208,60299,1,0,0:0:0:0:
353,191,60385,1,0,0:0:0:0:
395,61,60558,5,0,0:0:0:0:
260,101,60730,1,0,0:0:0:0:
372,242,60903,1,0,0:0:0:0:
209,179,61075,2,0,P|142:201|130:245,1,105.000004005432
271,302,61420,2,0,P|349:274|404:286,1,105.000004005432
404,80,61765,1,0,0:0:0:0:
312,165,61937,1,0,0:0:0:0:
187,67,62109,1,0,0:0:0:0:
119,181,62282,6,0,L|119:316,1,105.000004005432
253,286,62627,1,0,0:0:0:0:
288,276,62713,1,0,0:0:0:0:
317,264,62799,1,0,0:0:0:0:
345,250,62885,1,0,0:0:0:0:
372,234,62972,1,0,0:0:0:0:
333,79,63144,6,0,P|259:92|229:108,1,105.000004005432
131,193,63489,1,0,0:0:0:0:
333,305,63661,6,0,P|259:292|229:276,1,105.000004005432
74,175,64006,6,0,P|105:110|156:94,1,105.000004005432
315,96,64351,1,0,0:0:0:0:
278,212,64523,1,0,0:0:0:0:
111,239,64696,2,0,P|172:294|240:319,1,105.000004005432
422,152,65041,2,0,P|427:227|389:274,1,105.000004005432
260,236,65385,2,0,P|222:175|234:124,1,105.000004005432
389,62,65730,5,0,0:0:0:0:
373,182,65903,1,0,0:0:0:0:
251,171,66075,1,0,0:0:0:0:
191,56,66247,2,0,P|113:82|84:125,1,105.000004005432
87,216,66592,1,0,0:0:0:0:
169,296,66765,2,0,P|235:288|287:248,1,105.000004005432
247,96,67109,1,0,0:0:0:0:
401,121,67282,6,0,P|446:190|448:229,1,105.000004005432
325,314,67627,1,0,0:0:0:0:
158,221,67799,1,0,0:0:0:0:
253,73,67972,2,0,P|168:81|130:101,1,105.000004005432
228,204,68316,2,0,L|313:188,1,52.5000020027161
456,164,68489,2,0,L|384:177,1,52.5000020027161
345,183,68661,1,0,0:0:0:0:
346,214,68747,1,0,0:0:0:0:
351,245,68834,1,0,0:0:0:0:
349,276,68920,1,0,0:0:0:0:
344,307,69006,1,0,0:0:0:0:
207,304,69178,6,0,P|142:285|124:249,1,105.000004005432
95,106,69523,1,0,0:0:0:0:
227,172,69696,2,0,L|282:70,1,105.000004005432
411,88,70041,1,0,0:0:0:0:
355,232,70213,1,0,0:0:0:0:
184,276,70385,6,0,P|102:256|79:222,1,105.000004005432
124,92,70730,1,0,0:0:0:0:
257,93,70903,1,0,0:0:0:0:
397,144,71075,6,0,P|377:230|327:224,1,105.000004005432
220,140,71420,1,0,0:0:0:0:
149,325,71592,1,0,0:0:0:0:
190,229,71765,2,0,P|122:214|90:185,1,105.000004005432
67,76,72109,1,0,0:0:0:0:
104,78,72196,1,0,0:0:0:0:
140,80,72282,1,0,0:0:0:0:
176,84,72368,1,0,0:0:0:0:
212,89,72454,1,0,0:0:0:0:
264,221,72627,5,0,0:0:0:0:
411,119,72799,1,0,0:0:0:0:
458,223,72972,2,0,P|422:290|386:312,1,105.000004005432
271,159,73316,1,0,0:0:0:0:
202,319,73489,1,0,0:0:0:0:
118,219,73661,1,0,0:0:0:0:
102,185,73747,1,0,0:0:0:0:
89,149,73834,1,0,0:0:0:0:
81,113,73920,1,0,0:0:0:0:
77,76,74006,1,0,0:0:0:0:
198,54,74178,6,0,P|276:75|298:102,1,105.000004005432
166,268,74523,2,0,P|264:268|293:237,1,105.000004005432
389,132,74868,1,0,0:0:0:0:
425,263,75041,1,0,0:0:0:0:
398,288,75127,1,0,0:0:0:0:
365,304,75213,1,0,0:0:0:0:
330,316,75299,1,0,0:0:0:0:
294,325,75386,1,0,0:0:0:0:
167,267,75558,1,0,0:0:0:0:
140,136,75730,1,0,0:0:0:0:
365,116,75903,6,0,P|290:97|257:113,1,105.000004005432
184,247,76247,1,0,0:0:0:0:
308,289,76420,1,0,0:0:0:0:
275,179,76592,1,0,0:0:0:0:
209,63,76765,6,0,P|133:98|106:131,1,105.000004005432
54,284,77109,5,0,0:0:0:0:
216,328,77282,1,0,0:0:0:0:
258,184,77454,5,0,0:0:0:0:
98,142,77627,1,0,0:0:0:0:
228,47,77799,2,0,P|313:63|335:100,1,105.000004005432
450,185,78144,1,0,0:0:0:0:
257,167,78316,5,0,0:0:0:0:
276,308,78489,1,0,0:0:0:0:
347,176,78661,5,0,0:0:0:0:
276,308,78834,1,0,0:0:0:0:
136,300,79006,2,0,P|58:271|70:221,1,105.000004005432
104,91,79351,5,0,0:0:0:0:
160,102,79437,1,0,0:0:0:0:
215,117,79523,1,0,0:0:0:0:
218,224,79696,2,0,L|142:225,1,52.5000020027161
72,186,79868,2,0,P|60:268|98:324,1,105.000004005432
178,324,80213,5,0,0:0:0:0:
287,259,80385,1,0,0:0:0:0:
322,121,80558,2,0,P|381:166|408:205,1,105.000004005432
309,307,80903,1,0,0:0:0:0:
202,230,81075,1,0,0:0:0:0:
82,240,81247,1,0,0:0:0:0:
87,104,81420,2,0,P|168:84|210:98,1,105.000004005432
296,206,81765,2,0,L|387:133,1,105.000004005432
329,79,82109,2,0,L|231:153,1,105.000004005432
72,185,82454,5,0,0:0:0:0:
243,291,82627,1,0,0:0:0:0:
422,219,82799,2,0,L|417:99,1,105.000004005432
289,68,83144,2,0,L|164:70,1,105.000004005432
128,156,83489,2,0,P|91:228|98:263,1,105.000004005432
336,273,83834,1,0,0:0:0:0:
247,139,84006,1,0,0:0:0:0:
128,156,84178,2,0,P|91:228|98:263,1,105.000004005432
247,139,84523,2,0,P|299:207|304:246,1,105.000004005432
162,290,84868,2,0,P|241:306|306:305,1,105.000004005432
359,181,85213,5,0,0:0:0:0:
236,79,85385,1,0,0:0:0:0:
97,127,85558,2,0,P|53:184|44:222,1,105.000004005432
152,306,85903,1,0,0:0:0:0:
235,189,86075,1,0,0:0:0:0:
316,80,86247,6,0,P|360:160|356:206,1,105.000004005432
176,105,86592,1,0,0:0:0:0:
240,267,86765,1,0,0:0:0:0:
150,214,86937,2,0,L|260:174,1,105.000004005432
322,87,87282,1,0,0:0:0:0:
367,229,87454,1,0,0:0:0:0:
203,122,87627,2,0,P|140:162|125:195,1,105.000004005432
169,285,87972,1,0,0:0:0:0:
289,217,88144,1,0,0:0:0:0:
407,69,88316,6,0,L|269:108,1,105.000004005432
139,119,88661,1,0,0:0:0:0:
63,235,88834,1,0,0:0:0:0:
313,94,89006,6,0,L|382:205,1,105.000004005432
240,285,89351,1,0,0:0:0:0:
141,217,89523,1,0,0:0:0:0:
152,92,89696,2,0,P|189:138|251:145,1,105.000004005432
442,75,90041,1,0,0:0:0:0:
370,214,90213,1,0,0:0:0:0:
272,307,90385,6,0,P|202:263|207:207,1,105.000004005432
280,79,90730,1,0,0:0:0:0:
131,63,90903,1,0,0:0:0:0:
136,295,91075,5,0,0:0:0:0:
307,148,91765,1,0,0:0:0:0:
443,342,92454,5,0,0:0:0:0:
312,148,93144,5,0,0:0:0:0:
159,139,96592,5,0,0:0:0:0:
213,250,96765,1,0,0:0:0:0:
342,286,96937,1,0,0:0:0:0:
356,141,97109,6,0,L|296:168,4,52.5000020027161
233,80,97627,1,0,0:0:0:0:
133,230,97799,1,0,0:0:0:0:
84,104,97972,1,0,0:0:0:0:
238,180,98144,2,0,L|325:225,2,52.5000020027161
118,278,98489,5,0,0:0:0:0:
250,317,98661,1,0,0:0:0:0:
349,130,98834,2,0,L|461:172,1,105.000004005432
286,263,99351,6,0,P|221:273|134:253,1,140
126,87,99696,1,0,0:0:0:0:
319,100,99868,2,0,P|401:155|418:209,1,140
246,266,100213,1,0,0:0:0:0:
133,75,100385,1,0,0:0:0:0:
360,48,100558,1,0,0:0:0:0:
384,180,100730,6,0,P|394:269|367:324,1,140
222,116,101075,1,0,0:0:0:0:
53,205,101247,5,0,0:0:0:0:
224,292,101420,2,0,P|313:293|369:267,1,140
363,89,101765,1,0,0:0:0:0:
225,241,101937,1,0,0:0:0:0:
132,93,102109,2,0,P|53:192|55:230,1,140
262,114,102454,5,0,0:0:0:0:
377,296,102627,1,0,0:0:0:0:
182,283,102799,1,0,0:0:0:0:
355,192,102972,2,0,P|342:133|294:65,1,140
125,93,103316,1,0,0:0:0:0:
99,268,103489,1,0,0:0:0:0:
256,184,103661,6,0,P|327:268|397:283,1,140
427,81,104006,1,0,0:0:0:0:
238,256,104178,1,0,0:0:0:0:
278,43,104351,1,0,0:0:0:0:
107,141,104523,2,0,P|83:230|107:284,1,140
139,313,104868,5,0,0:0:0:0:
271,116,105041,1,0,0:0:0:0:
292,349,105213,5,0,0:0:0:0:
271,116,105385,1,0,0:0:0:0:
430,293,105558,5,0,0:0:0:0:
271,116,105730,1,0,0:0:0:0:
491,93,105903,1,0,0:0:0:0:
308,260,106075,5,0,0:0:0:0:
246,69,106247,1,0,0:0:0:0:
130,263,106420,1,0,0:0:0:0:
79,107,106592,1,0,0:0:0:0:
283,117,106765,2,0,L|216:256,1,140
173,349,107109,2,0,L|232:213,1,140
429,114,107454,5,0,0:0:0:0:
369,296,107627,1,0,0:0:0:0:
294,152,107799,1,0,0:0:0:0:
190,78,107972,2,0,P|109:114|87:170,1,140
190,308,108316,1,0,0:0:0:0:
396,210,108489,1,0,0:0:0:0:
277,114,108661,1,0,0:0:0:0:
121,86,108834,2,0,P|68:179|90:245,1,140
216,316,109178,5,0,0:0:0:0:
392,161,109351,1,0,0:0:0:0:
263,45,109523,2,0,L|172:178,1,140
89,309,109868,1,0,0:0:0:0:
254,293,110041,1,0,0:0:0:0:
310,265,110127,1,0,0:0:0:0:
362,230,110213,1,0,0:0:0:0:
408,187,110299,1,0,0:0:0:0:
440,133,110385,1,0,0:0:0:0:
279,47,110558,6,0,P|196:94|164:150,1,140
118,299,110903,1,0,0:0:0:0:
353,245,111075,1,0,0:0:0:0:
169,46,111247,5,0,0:0:0:0:
468,69,111420,1,0,0:0:0:0:
316,116,111592,2,0,P|229:177|211:228,1,140
101,296,111937,1,0,0:0:0:0:
331,320,112109,1,0,0:0:0:0:
424,216,112282,6,0,P|463:143|444:89,1,140
304,55,112627,2,0,L|191:176,1,140
107,303,112972,1,0,0:0:0:0:
356,326,113144,1,0,0:0:0:0:
279,114,113316,1,0,0:0:0:0:
100,52,113489,2,0,P|85:157|145:198,1,140
87,310,113834,5,0,0:0:0:0:
202,136,114006,1,0,0:0:0:0:
299,325,114178,1,0,0:0:0:0:
386,164,114351,1,0,0:0:0:0:
309,41,114523,2,0,P|199:89|173:121,1,140
89,285,114868,2,0,P|162:232|246:224,1,140
396,178,115213,1,0,0:0:0:0:
229,72,115385,2,0,P|123:112|91:162,1,140
114,281,115730,1,0,0:0:0:0:
231,288,115903,5,0,0:0:0:0:
344,141,116075,1,0,0:0:0:0:
391,299,116247,1,0,0:0:0:0:
229,140,116420,5,0,0:0:0:0:
437,160,116592,1,0,0:0:0:0:
316,301,116765,1,0,0:0:0:0:
200,237,116937,5,0,0:0:0:0:
331,152,117109,1,0,0:0:0:0:
316,301,117282,1,0,0:0:0:0:
229,115,117454,5,0,0:0:0:0:
210,313,117627,1,0,0:0:0:0:
360,81,117799,2,0,P|431:143|436:208,1,140
180,140,118144,5,0,0:0:0:0:
94,319,118316,2,0,P|190:258|264:256,1,140
253,125,118661,6,0,P|313:169|328:187,1,70
242,303,119006,1,0,0:0:0:0:
133,280,119178,2,0,L|79:215,1,70
80,85,119523,1,0,0:0:0:0:
80,85,119696,1,0,0:0:0:0:
225,106,119868,2,0,L|310:129,1,70
123,225,120213,5,0,0:0:0:0:
263,332,120385,1,0,0:0:0:0:
338,186,120558,2,0,P|353:126|278:64,1,140
165,114,121075,5,0,0:0:0:0:
155,154,121161,1,0,0:0:0:0:
151,195,121247,1,0,0:0:0:0:
151,237,121334,1,0,0:0:0:0:
149,278,121420,1,0,0:0:0:0:
271,283,121592,6,0,L|349:203,1,105.000004005432
292,59,121937,5,0,0:0:0:0:
138,183,122109,1,0,0:0:0:0:
292,59,122282,1,0,0:0:0:0:
378,121,122454,2,0,P|371:190|330:246,1,105.000004005432
177,272,122799,1,0,0:0:0:0:
138,110,122972,1,0,0:0:0:0:
177,272,123144,1,0,0:0:0:0:
244,179,123316,6,0,P|327:172|384:203,1,105.000004005432
353,301,123661,2,0,P|296:259|229:259,1,105.000004005432
93,243,124006,1,0,0:0:0:0:
192,122,124178,1,0,0:0:0:0:
93,243,124351,1,0,0:0:0:0:
249,207,124523,6,0,P|320:206|362:214,1,105.000004005432
384,89,124868,2,0,P|423:157|417:214,1,105.000004005432
386,293,125213,2,0,P|316:324|258:326,1,105.000004005432
69,249,125558,5,0,0:0:0:0:
122,103,125730,1,0,0:0:0:0:
191,246,125903,5,0,0:0:0:0:
122,103,126075,1,0,0:0:0:0:
69,249,126247,1,0,0:0:0:0:
198,97,126420,1,0,0:0:0:0:
313,246,126592,1,0,0:0:0:0:
340,67,126765,6,0,P|278:129|269:168,1,105.000004005432
98,268,127109,1,0,0:0:0:0:
103,103,127282,1,0,0:0:0:0:
235,210,127454,2,0,P|269:263|316:305,1,105.000004005432
364,150,127799,2,0,P|353:83|321:47,1,105.000004005432
143,124,128144,5,0,0:0:0:0:
292,272,128316,2,0,P|225:236|159:244,1,105.000004005432
80,320,128661,2,0,P|142:305|213:312,1,105.000004005432
265,182,129006,1,0,0:0:0:0:
394,296,129178,1,0,0:0:0:0:
393,73,129351,1,0,0:0:0:0:
216,61,129523,6,0,P|158:84|129:114,1,105.000004005432
292,192,129868,1,0,0:0:0:0:
107,220,130041,2,0,P|109:283|150:325,1,105.000004005432
216,291,130385,2,0,P|172:258|181:196,1,105.000004005432
255,87,130730,1,0,0:0:0:0:
420,160,130903,1,0,0:0:0:0:
300,276,131075,5,0,0:0:0:0:
300,276,131161,1,0,0:0:0:0:
300,276,131247,1,0,0:0:0:0:
300,276,131334,1,0,0:0:0:0:
300,276,131420,1,0,0:0:0:0:
272,45,131592,1,0,0:0:0:0:
101,155,131765,1,0,0:0:0:0:
234,317,131937,1,0,0:0:0:0:
401,190,132109,1,0,0:0:0:0:
367,327,132282,6,0,L|250:323,1,105.000004005432
125,171,132627,1,0,0:0:0:0:
293,72,132799,1,0,0:0:0:0:
338,221,132972,2,0,P|240:144|233:141,1,105.000004005432
162,90,133316,1,0,0:0:0:0:
75,219,133489,2,0,L|137:329,1,105.000004005432
238,207,133834,5,0,0:0:0:0:
390,196,134006,2,0,L|387:333,1,105.000004005432
176,253,134351,1,0,0:0:0:0:
333,91,134523,1,0,0:0:0:0:
314,295,134696,1,0,0:0:0:0:
206,112,134868,2,0,P|132:137|92:178,1,105.000004005432
93,308,135213,5,0,0:0:0:0:
266,195,135385,1,0,0:0:0:0:
124,71,135558,2,0,L|198:166,1,105.000004005432
412,74,135903,2,0,L|318:188,1,105.000004005432
102,231,136247,1,0,0:0:0:0:
304,307,136420,1,0,0:0:0:0:
116,332,136592,5,0,0:0:0:0:
186,112,136765,1,0,0:0:0:0:
316,342,136937,1,0,0:0:0:0:
354,123,137109,1,0,0:0:0:0:
116,332,137282,5,0,0:0:0:0:
186,112,137454,1,0,0:0:0:0:
316,342,137627,2,0,L|338:227,1,105.000004005432
355,75,137972,1,0,0:0:0:0:
119,151,138144,1,0,0:0:0:0:
238,316,138316,1,0,0:0:0:0:
65,307,138489,6,0,L|67:191,1,105.000004005432
251,51,138834,2,0,P|318:122|316:165,1,105.000004005432
212,296,139178,2,0,L|347:274,1,105.000004005432
355,108,139523,2,0,L|414:199,1,105.000004005432
213,129,139868,1,0,0:0:0:0:
129,318,140041,1,0,0:0:0:0:
343,273,140213,1,0,0:0:0:0:
414,135,140385,6,0,L|318:41,1,105.000004005432
137,91,140730,1,0,0:0:0:0:
209,283,140903,1,0,0:0:0:0:
337,96,141075,6,0,L|369:230,1,105.000004005432
147,294,141420,2,0,P|172:194|196:177,1,105.000004005432
412,108,141765,1,0,0:0:0:0:
315,284,141937,1,0,0:0:0:0:
151,113,142109,5,0,0:0:0:0:
151,113,142196,1,0,0:0:0:0:
151,113,142282,1,0,0:0:0:0:
65,281,142454,1,0,0:0:0:0:
298,219,142627,1,0,0:0:0:0:
356,42,142799,2,0,L|433:134,1,105.000004005432
367,198,143144,5,0,0:0:0:0:
329,226,143230,1,0,0:0:0:0:
282,234,143316,1,0,0:0:0:0:
234,231,143403,1,0,0:0:0:0:
184,212,143489,1,0,0:0:0:0:
110,71,143834,6,0,L|120:217,1,140
265,297,144523,1,0,0:0:0:0:
346,128,144868,2,0,P|407:161|408:232,2,140
182,108,145903,1,0,0:0:0:0:
149,310,146247,1,0,0:0:0:0:
233,259,146592,6,0,L|293:127,2,140
434,152,147627,1,0,0:0:0:0:
390,314,147972,1,0,0:0:0:0:
252,255,148316,2,0,P|193:221|190:127,1,140
369,70,149006,1,0,0:0:0:0:
298,281,149351,1,0,0:0:0:0:
178,81,149696,1,0,0:0:0:0:
133,249,150041,6,0,L|124:306,4,35
279,139,150730,2,0,P|352:177|390:252,1,140
140,297,151420,2,0,L|149:144,2,140
365,194,152454,1,0,0:0:0:0:
129,84,152799,6,0,P|115:146|119:237,1,140
409,127,153489,2,0,L|346:269,1,140
162,133,154523,5,0,0:0:0:0:
314,285,154868,2,0,L|383:219,1,70
324,99,155213,2,0,L|260:159,1,70
107,176,155558,2,0,P|106:229|116:256,2,70
227,309,156075,2,0,L|347:205,1,140
368,103,157627,6,0,L|338:272,1,140
241,310,158144,1,0,0:0:0:0:
98,207,158489,2,0,L|102:55,1,140
316,90,159178,1,0,0:0:0:0:
388,186,159523,2,0,L|351:274,1,70
156,276,160041,6,0,P|91:234|78:159,1,140
186,81,160730,2,0,P|231:116|253:203,1,140
148,324,161420,2,0,P|207:325|287:290,1,140
272,183,162109,2,0,P|213:168|112:168,1,140
359,61,162799,5,0,0:0:0:0:
124,76,163489,5,0,0:0:0:0:
134,236,164178,2,0,P|208:276|409:254,1,280
347,45,165558,2,0,L|337:199,1,140
214,303,166247,5,0,0:0:0:0:
136,122,166937,5,0,0:0:0:0:
409,142,167627,5,0,0:0:0:0:
136,177,168316,6,0,L|136:105,2,52.5000020027161
247,80,168661,1,0,0:0:0:0:
346,102,168834,1,0,0:0:0:0:
300,224,169006,2,0,L|249:268,2,52.5000020027161
102,154,169351,2,0,L|137:204,2,52.5000020027161
217,93,169696,5,0,0:0:0:0:
319,116,169868,1,0,0:0:0:0:
405,175,170041,1,0,0:0:0:0:
449,270,170213,1,0,0:0:0:0:
353,312,170385,2,0,L|293:321,2,52.5000020027161
161,203,170730,2,0,L|191:267,2,52.5000020027161
248,152,171075,5,0,0:0:0:0:
362,87,171247,1,0,0:0:0:0:
407,193,171420,1,0,0:0:0:0:
304,288,171592,2,0,L|232:309,4,52.5000020027161
141,252,172109,1,0,0:0:0:0:
194,135,172282,1,0,0:0:0:0:
389,75,172454,5,0,0:0:0:0:
392,111,172541,1,0,0:0:0:0:
383,146,172627,1,0,0:0:0:0:
366,178,172713,1,0,0:0:0:0:
347,209,172799,1,0,0:0:0:0:
230,99,172972,6,0,P|167:170|153:223,1,105.000004005432
129,300,173316,2,0,P|224:327|269:310,1,105.000004005432
350,182,173661,1,0,0:0:0:0:
239,39,173834,6,0,P|164:105|161:131,1,105.000004005432
131,335,174178,1,0,0:0:0:0:
352,260,174351,1,0,0:0:0:0:
425,45,174523,2,0,L|438:184,1,105.000004005432
148,83,174868,2,0,P|116:154|109:203,1,105.000004005432
139,325,175213,1,0,0:0:0:0:
311,146,175385,1,0,0:0:0:0:
425,174,175558,6,0,L|340:272,1,105.000004005432
144,80,175903,2,0,L|173:226,1,105.000004005432
275,308,176247,1,0,0:0:0:0:
193,165,176420,2,0,P|213:109|281:91,1,105.000004005432
376,271,176765,1,0,0:0:0:0:
147,240,176937,1,0,0:0:0:0:
140,99,177109,6,0,P|216:78|261:77,1,105.000004005432
422,105,177454,1,0,0:0:0:0:
297,271,177627,1,0,0:0:0:0:
243,101,177799,2,0,P|193:136|144:167,1,105.000004005432
127,312,178144,1,0,0:0:0:0:
318,298,178316,2,0,P|371:250|393:208,1,105.000004005432
322,56,178661,6,0,P|228:83|202:128,1,105.000004005432
116,238,179006,1,0,0:0:0:0:
342,299,179178,1,0,0:0:0:0:
162,148,179351,5,0,0:0:0:0:
384,56,179523,1,0,0:0:0:0:
245,303,179696,5,0,0:0:0:0:
453,175,179868,1,0,0:0:0:0:
267,76,180041,1,0,0:0:0:0:
245,303,180213,1,0,0:0:0:0:
95,94,180385,1,0,0:0:0:0:
356,122,180558,1,0,0:0:0:0:
64,273,180730,5,0,0:0:0:0:
361,296,180903,1,0,0:0:0:0:
262,66,181075,2,0,P|195:151|184:177,1,105.000004005432
239,317,181420,1,0,0:0:0:0:
390,76,181592,1,0,0:0:0:0:
218,166,181765,2,0,L|131:87,1,105.000004005432
384,267,182109,5,0,0:0:0:0:
230,60,182282,1,0,0:0:0:0:
139,278,182454,1,0,0:0:0:0:
155,49,182627,5,0,0:0:0:0:
317,296,182799,1,0,0:0:0:0:
352,59,182972,5,0,0:0:0:0:
99,294,183144,1,0,0:0:0:0:
251,50,183316,1,0,0:0:0:0:
309,296,183489,2,0,L|402:207,1,105.000004005432
361,52,183834,2,0,P|263:89|248:114,1,105.000004005432
124,125,184178,5,0,0:0:0:0:
151,306,184351,1,0,0:0:0:0:
311,112,184523,1,0,0:0:0:0:
344,145,184609,1,0,0:0:0:0:
359,189,184696,1,0,0:0:0:0:
368,235,184782,1,0,0:0:0:0:
365,282,184868,1,0,0:0:0:0:
183,265,185041,6,0,L|171:146,1,105.000004005432
322,67,185385,1,0,0:0:0:0:
429,123,185558,2,0,L|400:230,1,105.000004005432
243,242,185903,1,0,0:0:0:0:
118,98,186075,1,0,0:0:0:0:
71,284,186247,1,0,0:0:0:0:
245,84,186420,6,0,P|320:96|344:124,1,105.000004005432
365,296,186765,2,0,P|294:283|254:236,1,105.000004005432
99,87,187109,1,0,0:0:0:0:
192,227,187282,1,0,0:0:0:0:
268,55,187454,1,0,0:0:0:0:
342,263,187627,2,0,L|225:174,1,105.000004005432
104,243,187972,2,0,L|213:334,1,105.000004005432
389,185,188316,1,0,0:0:0:0:
227,60,188489,5,0,0:0:0:0:
71,144,188661,2,0,P|67:219|89:265,1,105.000004005432
176,256,189006,2,0,P|227:215|245:168,1,105.000004005432
385,50,189351,1,0,0:0:0:0:
369,317,189523,1,0,0:0:0:0:
195,125,189696,1,0,0:0:0:0:
54,172,189868,2,0,P|80:247|96:284,1,105.000004005432
233,261,190213,5,0,0:0:0:0:
336,72,190385,1,0,0:0:0:0:
427,270,190558,1,0,0:0:0:0:
215,107,190730,5,0,0:0:0:0:
467,128,190903,1,0,0:0:0:0:
331,271,191075,1,0,0:0:0:0:
351,76,191247,1,0,0:0:0:0:
436,273,191420,1,0,0:0:0:0:
224,103,191592,1,0,0:0:0:0:
58,134,191765,6,0,P|64:210|74:268,1,105.000004005432
217,252,192109,1,0,0:0:0:0:
332,209,192282,2,0,P|385:148|423:92,1,105.000004005432
261,67,192627,1,0,0:0:0:0:
102,119,192799,2,0,P|81:194|90:236,1,105.000004005432
277,214,193144,6,0,L|324:284,1,70
445,222,193489,1,0,0:0:0:0:
380,96,193661,2,0,L|294:74,1,70
127,115,194006,5,0,0:0:0:0:
182,243,194178,1,0,0:0:0:0:
127,115,194351,1,0,0:0:0:0:
252,86,194523,2,0,L|344:103,1,70
387,204,194868,2,0,L|323:263,2,70
208,163,195385,1,0,0:0:0:0:
120,115,195558,5,0,0:0:0:0:
120,115,195644,1,0,0:0:0:0:
120,115,195730,1,0,0:0:0:0:
120,115,195816,1,0,0:0:0:0:
120,115,195903,2,0,L|105:222,1,105.000004005432
252,123,196247,6,0,L|380:159,1,105.000004005432
359,308,196592,2,0,L|231:284,1,105.000004005432
127,76,196937,2,0,L|87:198,1,105.000004005432
378,156,197282,2,0,L|247:215,1,105.000004005432
320,362,197627,2,0,P|230:332|211:294,1,105.000004005432
156,96,197972,2,0,L|112:196,1,105.000004005432
382,64,198316,2,0,P|418:124|422:170,1,105.000004005432
82,252,198661,5,0,0:0:0:0:
226,127,198834,1,0,0:0:0:0:
245,262,199006,5,0,0:0:0:0:
97,110,199178,1,0,0:0:0:0:
282,56,199351,2,0,P|362:85|392:114,1,105.000004005432
350,258,199696,2,0,P|298:201|238:185,1,105.000004005432
95,98,200041,2,0,L|49:227,1,105.000004005432
167,232,200385,2,0,L|202:115,1,105.000004005432
295,146,200730,2,0,L|249:275,1,105.000004005432
362,271,201074,2,0,L|397:154,1,105.000004005432
151,94,201420,6,0,P|114:179|109:227,1,105.000004005432
213,331,201765,1,0,0:0:0:0:
308,207,201937,1,0,0:0:0:0:
178,72,202109,6,0,L|122:183,1,105.000004005432
127,296,202454,2,0,L|265:274,1,105.000004005432
410,82,202799,2,0,L|381:205,1,105.000004005432
195,294,203144,2,0,L|312:276,1,105.000004005432
408,125,203489,2,0,L|376:245,1,105.000004005432
157,73,203834,6,0,L|118:197,1,105.000004005432
200,288,204178,1,0,0:0:0:0:
256,98,204351,1,0,0:0:0:0:
441,131,204523,1,0,0:0:0:0:
397,334,204696,2,0,L|280:305,1,105.000004005432
150,156,205041,5,0,0:0:0:0:
34,285,205213,2,0,L|169:301,1,105.000004005432
302,214,205558,1,0,0:0:0:0:
336,182,205644,1,0,0:0:0:0:
372,152,205730,1,0,0:0:0:0:
404,117,205816,1,0,0:0:0:0:
433,79,205903,1,0,0:0:0:0:
447,276,206075,5,0,0:0:0:0:
198,279,206247,1,0,0:0:0:0:
275,74,206420,1,0,0:0:0:0:
120,85,206592,2,0,B|151:127|101:152|142:176|181:205,1,105.000004005432
185,185,206937,5,0,0:0:0:0:
216,187,207023,1,0,0:0:0:0:
246,194,207109,1,0,0:0:0:0:
274,206,207196,1,0,0:0:0:0:
297,228,207282,1,0,0:0:0:0:
323,244,207368,1,0,0:0:0:0:
352,255,207454,1,0,0:0:0:0:
383,254,207541,1,0,0:0:0:0:
408,236,207627,1,0,0:0:0:0:
427,211,207713,1,0,0:0:0:0:
441,183,207799,1,0,0:0:0:0:
448,152,207885,1,0,0:0:0:0:
454,120,207972,6,0,L|368:100,3,52.5000020027161
341,105,208316,1,0,0:0:0:0:
309,112,208403,1,0,0:0:0:0:
285,132,208489,1,0,0:0:0:0:
273,161,208575,1,0,0:0:0:0:
271,192,208661,1,0,0:0:0:0:
275,223,208747,1,0,0:0:0:0:
284,253,208834,1,0,0:0:0:0:
288,278,208920,1,0,0:0:0:0:
281,303,209006,1,0,0:0:0:0:
263,322,209092,1,0,0:0:0:0:
171,337,209178,6,0,L|129:306,1,52.5000020027161
113,217,209351,2,0,L|202:225,1,52.5000020027161
347,134,209523,2,0,L|342:190,1,52.5000020027161
370,340,209696,2,0,L|323:308,1,52.5000020027161
308,281,209868,1,0,0:0:0:0:
289,262,209954,1,0,0:0:0:0:
267,246,210041,1,0,0:0:0:0:
250,225,210127,1,0,0:0:0:0:
241,200,210213,1,0,0:0:0:0:
244,174,210299,1,0,0:0:0:0:
252,149,210385,1,0,0:0:0:0:
263,125,210472,6,0,L|333:115,1,52.5000020027161
331,193,210644,2,0,L|268:201,1,52.5000020027161
126,140,210816,2,0,L|196:130,1,52.5000020027161
194,208,210988,2,0,L|131:216,1,52.5000020027161
115,220,211161,1,0,0:0:0:0:
98,240,211247,1,0,0:0:0:0:
93,266,211334,1,0,0:0:0:0:
99,296,211420,1,0,0:0:0:0:
121,317,211506,1,0,0:0:0:0:
150,326,211592,1,0,0:0:0:0:
181,328,211678,1,0,0:0:0:0:
212,323,211765,1,0,0:0:0:0:
243,304,211851,1,0,0:0:0:0:
266,276,211937,1,0,0:0:0:0:
282,243,212023,1,0,0:0:0:0:
285,211,212109,6,0,L|251:150,3,52.5000020027161
215,123,212454,1,0,0:0:0:0:
177,114,212541,1,0,0:0:0:0:
147,124,212627,1,0,0:0:0:0:
124,146,212713,1,0,0:0:0:0:
123,177,212799,1,0,0:0:0:0:
137,205,212885,1,0,0:0:0:0:
159,227,212972,1,0,0:0:0:0:
175,253,213058,1,0,0:0:0:0:
177,284,213144,1,0,0:0:0:0:
183,314,213230,1,0,0:0:0:0:
206,334,213316,1,0,0:0:0:0:
236,343,213403,1,0,0:0:0:0:
267,344,213489,1,0,0:0:0:0:
288,329,213575,1,0,0:0:0:0:
302,311,213661,6,0,L|342:256,1,52.5000020027161
411,106,213834,2,0,L|376:181,1,52.5000020027161
236,154,214006,2,0,L|304:185,1,52.5000020027161
260,275,214178,2,0,L|192:276,1,52.5000020027161
183,137,214351,2,0,L|117:195,1,52.5000020027161
121,200,214523,1,0,0:0:0:0:
111,235,214609,1,0,0:0:0:0:
113,271,214696,1,0,0:0:0:0:
134,300,214782,1,0,0:0:0:0:
168,313,214868,1,0,0:0:0:0:
203,320,214954,1,0,0:0:0:0:
239,323,215041,1,0,0:0:0:0:
257,314,215127,1,0,0:0:0:0:
276,305,215213,1,0,0:0:0:0:
294,295,215299,1,0,0:0:0:0:
312,285,215385,1,0,0:0:0:0:
333,270,215472,1,0,0:0:0:0:
351,251,215558,1,0,0:0:0:0:
372,227,215644,5,0,0:0:0:0:
388,200,215730,1,0,0:0:0:0:
399,170,215816,1,0,0:0:0:0:
403,133,215903,1,0,0:0:0:0:
389,99,215989,1,0,0:0:0:0:
357,80,216075,1,0,0:0:0:0:
322,68,216161,1,0,0:0:0:0:
285,67,216247,1,0,0:0:0:0:
250,80,216334,1,0,0:0:0:0:
221,102,216420,1,0,0:0:0:0:
205,126,216506,1,0,0:0:0:0:
184,236,216592,5,0,0:0:0:0:
396,182,216765,1,0,0:0:0:0:
318,334,216937,1,0,0:0:0:0:
129,305,217109,2,0,L|64:288,2,52.5000020027161
130,148,217454,1,0,0:0:0:0:
244,108,217627,2,0,L|323:115,4,52.5000020027161
330,214,218058,6,0,L|308:280,1,52.5000020027161
242,344,218230,2,0,L|257:271,1,52.5000020027161
271,163,218403,2,0,L|249:230,1,52.5000020027161
167,333,218575,2,0,L|189:265,1,52.5000020027161
192,140,218747,2,0,L|162:215,1,52.5000020027161
151,225,218920,1,0,0:0:0:0:
141,265,219006,1,0,0:0:0:0:
157,303,219092,1,0,0:0:0:0:
194,322,219178,1,0,0:0:0:0:
236,325,219265,1,0,0:0:0:0:
274,307,219351,6,0,L|350:268,1,52.5000020027161
349,143,219523,2,0,L|304:203,1,52.5000020027161
282,209,219696,1,0,0:0:0:0:
240,213,219782,1,0,0:0:0:0:
204,191,219868,1,0,0:0:0:0:
189,151,219954,1,0,0:0:0:0:
162,118,220041,1,0,0:0:0:0:
120,119,220127,1,0,0:0:0:0:
82,138,220213,1,0,0:0:0:0:
60,173,220299,1,0,0:0:0:0:
56,214,220385,2,0,L|84:275,3,52.5000020027161
216,292,220730,6,0,L|273:239,1,52.5000020027161
396,111,220903,2,0,L|336:172,1,52.5000020027161
420,316,221075,2,0,L|364:261,1,52.5000020027161
223,118,221247,2,0,L|284:184,1,52.5000020027161
277,182,221420,1,0,0:0:0:0:
285,212,221506,1,0,0:0:0:0:
278,242,221592,1,0,0:0:0:0:
271,272,221678,1,0,0:0:0:0:
249,295,221765,1,0,0:0:0:0:
221,310,221851,1,0,0:0:0:0:
189,312,221937,1,0,0:0:0:0:
158,303,222023,1,0,0:0:0:0:
133,283,222109,1,0,0:0:0:0:
124,252,222196,1,0,0:0:0:0:
123,220,222282,6,0,L|131:159,3,52.5000020027161
140,132,222627,1,0,0:0:0:0:
152,97,222713,1,0,0:0:0:0:
183,77,222799,1,0,0:0:0:0:
219,73,222885,1,0,0:0:0:0:
255,81,222972,1,0,0:0:0:0:
285,101,223058,1,0,0:0:0:0:
307,130,223144,1,0,0:0:0:0:
322,163,223230,1,0,0:0:0:0:
343,192,223316,1,0,0:0:0:0:
367,225,223403,2,0,L|340:273,1,52.5000020027161
311,292,223575,1,0,0:0:0:0:
274,296,223661,1,0,0:0:0:0:
240,281,223747,1,0,0:0:0:0:
231,244,223834,1,0,0:0:0:0:
229,207,223920,1,0,0:0:0:0:
216,172,224006,1,0,0:0:0:0:
192,144,224092,1,0,0:0:0:0:
109,105,224178,6,0,L|96:165,1,52.5000020027161
92,192,224351,1,0,0:0:0:0:
99,227,224437,1,0,0:0:0:0:
123,253,224523,1,0,0:0:0:0:
155,269,224609,2,0,L|209:299,1,52.5000020027161
323,205,224782,2,0,L|306:266,1,52.5000020027161
195,341,224954,2,0,L|258:316,1,52.5000020027161
234,165,225127,2,0,L|240:234,1,52.5000020027161
373,162,225299,2,0,L|358:227,1,52.5000020027161
240,88,225472,2,0,L|230:176,1,52.5000020027161
379,80,225644,2,0,L|371:142,1,52.5000020027161
367,163,225816,5,0,0:0:0:0:
358,193,225903,1,0,0:0:0:0:
345,221,225989,1,0,0:0:0:0:
326,246,226075,1,0,0:0:0:0:
308,272,226161,2,0,L|267:305,1,52.5000020027161
220,312,226334,1,0,0:0:0:0:
172,311,226420,1,0,0:0:0:0:
128,292,226506,1,0,0:0:0:0:
94,259,226592,1,0,0:0:0:0:
72,216,226678,1,0,0:0:0:0:
62,169,226765,1,0,0:0:0:0:
78,124,226851,1,0,0:0:0:0:
115,95,226937,1,0,0:0:0:0:
160,84,227023,1,0,0:0:0:0:
207,80,227109,1,0,0:0:0:0:
254,84,227196,1,0,0:0:0:0:
298,99,227282,1,0,0:0:0:0:
316,142,227368,1,0,0:0:0:0:
305,187,227454,5,0,0:0:0:0:
277,225,227541,1,0,0:0:0:0:
271,271,227627,1,0,0:0:0:0:
289,314,227713,1,0,0:0:0:0:
333,328,227799,1,0,0:0:0:0:
378,316,227885,1,0,0:0:0:0:
411,282,227972,1,0,0:0:0:0:
433,240,228058,1,0,0:0:0:0:
440,198,228144,1,0,0:0:0:0:
432,156,228230,1,0,0:0:0:0:
397,131,228316,1,0,0:0:0:0:
356,117,228403,1,0,0:0:0:0:
314,112,228489,1,0,0:0:0:0:
272,113,228575,1,0,0:0:0:0:
232,110,228661,6,0,L|171:141,7,35.0000013351441
156,170,229178,1,0,0:0:0:0:
154,201,229265,1,0,0:0:0:0:
171,226,229351,1,0,0:0:0:0:
194,246,229437,1,0,0:0:0:0:
223,255,229523,1,0,0:0:0:0:
252,265,229609,1,0,0:0:0:0:
277,283,229696,1,0,0:0:0:0:
307,290,229782,1,0,0:0:0:0:
338,287,229868,1,0,0:0:0:0:
365,272,229954,1,0,0:0:0:0:
382,245,230041,1,0,0:0:0:0:
399,219,230127,1,0,0:0:0:0:
405,188,230213,1,0,0:0:0:0:
405,156,230299,1,0,0:0:0:0:
404,124,230385,2,0,L|334:104,5,52.5000020027161
301,115,230903,1,0,0:0:0:0:
282,149,230989,1,0,0:0:0:0:
282,180,231075,1,0,0:0:0:0:
286,211,231161,1,0,0:0:0:0:
279,241,231247,1,0,0:0:0:0:
262,267,231334,1,0,0:0:0:0:
233,280,231420,1,0,0:0:0:0:
201,279,231506,1,0,0:0:0:0:
169,275,231592,1,0,0:0:0:0:
146,261,231678,1,0,0:0:0:0:
133,237,231765,1,0,0:0:0:0:
132,216,231851,1,0,0:0:0:0:
136,195,231937,1,0,0:0:0:0:
146,176,232023,1,0,0:0:0:0:
162,155,232109,1,0,0:0:0:0:
182,138,232196,1,0,0:0:0:0:
205,126,232282,1,0,0:0:0:0:
230,121,232368,1,0,0:0:0:0:
261,120,232454,1,0,0:0:0:0:
292,121,232541,1,0,0:0:0:0:
321,131,232627,5,0,0:0:0:0:
344,152,232713,1,0,0:0:0:0:
364,182,232799,1,0,0:0:0:0:
376,216,232885,1,0,0:0:0:0:
371,252,232972,1,0,0:0:0:0:
347,279,233058,1,0,0:0:0:0:
317,300,233144,2,0,L|248:344,5,52.5000020027161
221,337,233661,1,0,0:0:0:0:
196,334,233747,1,0,0:0:0:0:
177,314,233834,1,0,0:0:0:0:
162,292,233920,1,0,0:0:0:0:
153,267,234006,1,0,0:0:0:0:
153,240,234092,1,0,0:0:0:0:
159,214,234178,1,0,0:0:0:0:
159,187,234265,1,0,0:0:0:0:
152,161,234351,1,0,0:0:0:0:
160,125,234437,2,0,L|233:114,5,52.5000020027161
325,118,234954,6,0,L|316:198,1,52.5000020027161
292,289,235127,2,0,L|218:256,1,52.5000020027161
195,120,235299,2,0,L|250:181,1,52.5000020027161
252,172,235472,1,0,0:0:0:0:
272,187,235558,1,0,0:0:0:0:
289,206,235644,1,0,0:0:0:0:
297,230,235730,1,0,0:0:0:0:
290,255,235816,1,0,0:0:0:0:
269,271,235903,1,0,0:0:0:0:
243,277,235989,1,0,0:0:0:0:
217,280,236075,2,0,L|131:290,1,52.5000020027161
139,279,236247,1,0,0:0:0:0:
121,259,236334,1,0,0:0:0:0:
118,232,236420,1,0,0:0:0:0:
122,206,236506,1,0,0:0:0:0:
134,183,236592,1,0,0:0:0:0:
151,163,236678,1,0,0:0:0:0:
171,145,236765,6,0,L|235:101,3,52.5000020027161
240,114,237109,1,0,0:0:0:0:
260,117,237196,1,0,0:0:0:0:
278,126,237282,1,0,0:0:0:0:
292,140,237368,1,0,0:0:0:0:
298,159,237454,1,0,0:0:0:0:
306,178,237541,1,0,0:0:0:0:
312,196,237627,1,0,0:0:0:0:
307,217,237713,1,0,0:0:0:0:
293,233,237799,1,0,0:0:0:0:
276,246,237885,1,0,0:0:0:0:
255,251,237972,1,0,0:0:0:0:
228,250,238058,1,0,0:0:0:0:
202,245,238144,1,0,0:0:0:0:
177,235,238230,1,0,0:0:0:0:
153,223,238316,1,0,0:0:0:0:
132,206,238403,1,0,0:0:0:0:
121,182,238489,1,0,0:0:0:0:
114,156,238575,2,0,L|171:130,4,52.5000020027161
62,309,239006,6,0,L|184:265,1,105.000004005432
185,264,239265,1,0,0:0:0:0:
209,255,239351,1,0,0:0:0:0:
232,243,239437,1,0,0:0:0:0:
250,233,239523,1,0,0:0:0:0:
267,220,239609,1,0,0:0:0:0:
282,205,239696,1,0,0:0:0:0:
290,191,239782,1,0,0:0:0:0:
290,180,239868,1,0,0:0:0:0:
288,174,239954,1,0,0:0:0:0:
286,173,240041,2,0,L|136:129,1,140
256,192,245558,5,0,0:0:0:0:
358,99,250903,6,0,L|306:262,1,140
184,251,251420,1,0,0:0:0:0:
91,159,251592,2,0,P|121:112|154:107,2,70
253,170,252109,2,0,L|275:246,1,70
428,191,252627,1,0,0:0:0:0:
288,291,252972,6,0,P|248:294|121:194,1,210
107,95,253834,2,0,L|186:94,2,70
316,110,254351,2,0,L|258:187,1,70
149,241,254696,2,0,L|292:303,1,140
374,81,256420,6,0,L|359:172,1,70
306,239,256765,2,0,L|236:250,1,70
182,90,257109,2,0,L|139:163,1,70
64,296,257454,2,0,L|151:303,2,70
97,164,257972,2,0,L|184:161,1,70
340,130,258316,2,0,P|406:166|352:288,1,210
164,76,259351,6,0,L|164:165,2,70
128,303,259868,2,0,L|207:268,1,70
274,125,260213,1,0,0:0:0:0:
453,77,260385,2,0,L|387:221,1,140
101,71,261937,6,0,L|113:165,1,70
239,289,262282,2,0,L|235:199,1,70
398,74,262627,2,0,L|370:219,1,140
393,372,263316,2,0,L|396:281,1,70
265,152,263661,2,0,L|265:231,1,70
93,333,264006,2,0,L|97:190,1,140
356,87,264696,6,0,L|260:96,1,70
142,180,265041,1,0,0:0:0:0:
225,267,265213,2,0,L|323:261,2,70
236,146,265730,1,0,0:0:0:0:
251,316,265903,5,0,0:0:0:0:
351,174,266247,5,0,0:0:0:0:
157,94,266592,5,0,0:0:0:0:
207,256,266937,5,0,0:0:0:0:
409,84,267282,6,0,L|378:177,1,70
313,292,267627,1,0,0:0:0:0:
229,201,267799,2,0,L|261:119,1,70
78,291,268144,2,0,L|128:206,1,70
333,90,268489,2,0,P|257:92|249:104,1,70
144,169,268834,1,0,0:0:0:0:
234,268,269006,6,0,L|314:231,1,70
371,99,269523,2,0,L|351:251,1,140
261,207,270385,6,0,L|232:303,1,70
124,84,270730,2,0,L|205:103,1,70
378,104,271075,2,0,L|351:198,1,70
76,187,271420,1,0,0:0:0:0:
180,284,271592,2,0,P|242:280|306:210,1,140
396,70,272627,6,0,L|388:169,1,70
258,214,272972,1,0,0:0:0:0:
134,92,273144,2,0,L|128:246,2,140
321,106,274006,2,0,L|305:200,1,70
250,307,274351,2,0,L|104:302,1,140
146,87,274868,6,0,L|273:165,1,140
400,330,275385,2,0,L|383:245,1,70
303,125,275730,1,0,0:0:0:0:
274,225,275903,2,0,L|130:239,2,140
132,336,276765,2,0,L|98:255,1,70
204,119,277109,2,0,P|290:114|357:148,1,140
408,106,278144,6,0,L|376:200,1,70
378,294,278489,2,0,L|298:258,1,70
259,96,278834,2,0,L|243:179,1,70
123,306,279178,2,0,L|196:281,1,70
373,159,279523,2,0,L|347:243,1,70
108,104,279868,2,0,P|110:198|145:263,1,140
364,134,280385,2,0,L|321:225,1,70
215,295,280730,2,0,L|187:225,1,70
313,96,281075,1,0,0:0:0:0:
75,128,281247,6,0,P|82:223|117:263,1,140
305,303,281765,2,0,L|255:252,1,70
490,116,282109,2,0,L|419:156,1,70
129,122,282454,1,0,0:0:0:0:
52,276,282627,2,0,L|208:245,1,140
364,125,283144,2,0,L|340:210,1,70
350,329,283489,6,0,L|279:288,1,70
244,156,283834,1,0,0:0:0:0:
60,116,284006,2,0,L|72:210,1,70
399,166,284351,6,0,L|348:239,1,70
238,139,284696,2,0,L|196:218,1,70
102,313,285041,1,0,0:0:0:0:
172,232,285213,1,0,0:0:0:0:
244,314,285385,1,0,0:0:0:0:
317,247,285558,1,0,0:0:0:0:
396,79,285730,6,0,L|330:116,1,70
103,85,286075,2,0,L|147:170,1,70
189,259,286420,1,0,0:0:0:0:
270,185,286592,1,0,0:0:0:0:
328,283,286765,1,0,0:0:0:0:
404,123,286937,2,0,L|404:223,1,70
226,117,287282,1,0,0:0:0:0:
164,246,287454,1,0,0:0:0:0:
280,228,287627,6,0,P|324:207|340:171,1,70
189,108,287972,1,0,0:0:0:0:
89,281,288144,2,0,L|168:247,1,70
388,149,288489,6,0,L|348:214,1,70
186,261,288834,2,0,L|200:171,1,70
370,276,289178,2,0,L|319:210,1,70
131,148,289523,2,0,L|164:234,1,70
255,146,289868,1,0,0:0:0:0:
391,158,290041,1,0,0:0:0:0:
311,269,290213,1,0,0:0:0:0:
84,132,290385,6,0,L|88:226,1,70
192,317,290730,2,0,L|184:219,1,70
284,103,291075,2,0,L|287:188,1,70
413,329,291420,2,0,L|410:227,1,70
191,152,291765,5,0,0:0:0:0:
95,314,291937,1,0,0:0:0:0:
214,340,292109,5,0,0:0:0:0:
290,187,292282,1,0,0:0:0:0:
147,103,292454,6,0,L|119:156,7,35
203,118,293144,2,0,L|195:145,11,23.3333333333333
251,119,293834,2,0,L|247:150,15,17.5
289,121,294523,2,0,L|287:139,24,11.6666666666667
140,76,296592,5,0,0:0:0:0:
138,96,296678,1,0,0:0:0:0:
138,117,296765,1,0,0:0:0:0:
138,137,296851,1,0,0:0:0:0:
138,157,296937,1,0,0:0:0:0:
237,227,297109,1,0,0:0:0:0:
318,104,297282,1,0,0:0:0:0:
350,253,297454,1,0,0:0:0:0:
416,143,297627,1,0,0:0:0:0:
256,192,297972,5,0,0:0:0:0:
109,167,298144,2,0,L|124:298,1,105.000004005432
357,154,298489,2,0,L|322:266,1,105.000004005432
220,116,298834,1,0,0:0:0:0:
141,307,299006,1,0,0:0:0:0:
254,221,299178,2,0,P|326:224|356:243,1,105.000004005432
322,72,299523,6,0,L|197:147,1,105.000004005432
130,293,299868,2,0,L|87:154,1,105.000004005432
295,204,300213,1,0,0:0:0:0:
158,87,300385,2,0,P|165:181|178:212,1,105.000004005432
394,115,300730,2,0,L|357:237,1,105.000004005432
220,259,301075,1,0,0:0:0:0:
90,125,301247,1,0,0:0:0:0:
242,108,301420,1,0,0:0:0:0:
353,282,301592,6,0,L|373:161,1,105.000004005432
178,162,301937,1,0,0:0:0:0:
96,332,302109,2,0,L|222:273,1,105.000004005432
302,101,302454,2,0,L|302:219,1,105.000004005432
104,123,302799,1,0,0:0:0:0:
77,303,302972,2,0,P|150:260|201:268,1,105.000004005432
310,181,303316,1,0,0:0:0:0:
183,226,303489,5,2,0:0:0:0:
387,48,303661,1,2,0:0:0:0:
398,302,303834,1,2,0:0:0:0:
269,87,304006,1,2,0:0:0:0:
234,350,304178,5,2,0:0:0:0:
100,117,304351,1,2,0:0:0:0:
353,49,304523,1,0,0:0:0:0:
263,289,304696,1,0,0:0:0:0:
93,131,304868,2,0,P|60:200|56:271,1,105.000004005432
207,280,305213,2,0,P|233:224|229:159,1,105.000004005432
160,87,305558,2,0,P|131:154|123:215,1,105.000004005432
233,240,305903,5,0,0:0:0:0:
364,96,306075,1,0,0:0:0:0:
121,115,306247,1,0,0:0:0:0:
148,303,306420,5,0,0:0:0:0:
257,74,306592,1,0,0:0:0:0:
341,301,306765,1,0,0:0:0:0:
109,308,306937,6,0,P|178:261|229:256,1,105.000004005432
342,112,307282,2,0,P|355:189|374:241,1,105.000004005432
56,266,307627,1,0,0:0:0:0:
191,101,307799,1,0,0:0:0:0:
253,272,307972,1,0,0:0:0:0:
353,89,308144,5,0,0:0:0:0:
353,89,308230,1,0,0:0:0:0:
353,89,308316,1,0,0:0:0:0:
265,213,308489,1,0,0:0:0:0:
165,101,308661,1,0,0:0:0:0:
121,247,308747,1,0,0:0:0:0:
121,247,308834,1,0,0:0:0:0:
121,247,308920,1,0,0:0:0:0:
121,247,309006,1,0,0:0:0:0:
379,147,309178,6,0,P|339:224|318:263,1,105.000004005432
217,99,309523,1,0,0:0:0:0:
82,176,309696,2,0,L|137:301,1,105.000004005432
213,274,310041,1,0,0:0:0:0:
351,142,310213,1,0,0:0:0:0:
385,301,310385,2,0,P|306:336|260:312,1,105.000004005432
111,298,310730,2,0,L|98:172,2,105.000004005432
230,240,311247,2,0,P|312:249|337:210,1,105.000004005432
405,53,311592,6,0,L|362:163,1,105.000004005432
151,107,311937,2,0,L|226:198,1,105.000004005432
354,263,312282,1,0,0:0:0:0:
161,292,312454,1,0,0:0:0:0:
354,263,312627,1,0,0:0:0:0:
296,101,312799,2,0,P|242:160|238:204,1,105.000004005432
104,257,313144,1,0,0:0:0:0:
152,98,313316,1,0,0:0:0:0:
377,80,313489,6,0,P|393:156|380:200,1,105.000004005432
387,181,313834,2,0,P|356:263|317:300,1,105.000004005432
345,275,314178,2,0,P|278:326|232:327,1,105.000004005432
78,89,314523,5,0,0:0:0:0:
173,304,314696,1,0,0:0:0:0:
250,100,314868,1,0,0:0:0:0:
173,304,315041,1,0,0:0:0:0:
250,100,315213,1,0,0:0:0:0:
173,304,315385,1,0,0:0:0:0:
250,100,315558,1,0,0:0:0:0:
327,314,315730,1,0,0:0:0:0:
417,85,315903,6,0,P|344:119|317:167,1,105.000004005432
223,241,316247,2,0,P|138:214|114:164,1,105.000004005432
138,87,316592,2,0,L|87:212,1,105.000004005432
109,319,316937,2,0,L|238:265,1,105.000004005432
229,120,317282,6,0,L|350:213,1,140
214,268,317972,1,0,0:0:0:0:
118,93,318316,2,0,L|105:241,1,140
38,286,319006,2,0,B|96:282|136:256|173:296|189:272,1,140
266,175,319523,1,0,0:0:0:0:
360,310,319696,5,0,0:0:0:0:
368,279,319782,1,0,0:0:0:0:
371,247,319868,1,0,0:0:0:0:
371,215,319954,1,0,0:0:0:0:
364,183,320041,1,0,0:0:0:0:
89,258,320213,5,0,0:0:0:0:
256,114,320385,1,0,0:0:0:0:
290,304,320558,1,0,0:0:0:0:
131,108,320730,2,0,L|222:182,1,105.000004005432
173,301,321075,5,0,0:0:0:0:
366,159,321247,1,0,0:0:0:0:
200,62,321420,2,0,P|209:130|176:172,1,105.000004005432
124,322,321765,1,0,0:0:0:0:
274,243,321937,1,0,0:0:0:0:
352,116,322109,2,0,L|399:225,1,105.000004005432
209,103,322454,5,0,0:0:0:0:
122,261,322627,1,0,0:0:0:0:
245,274,322799,2,0,P|326:248|342:196,1,105.000004005432
327,58,323144,1,0,0:0:0:0:
205,171,323316,1,0,0:0:0:0:
104,325,323489,2,0,L|77:215,1,105.000004005432
30,118,323834,2,0,P|86:73|138:74,1,105.000004005432
153,217,324178,5,0,0:0:0:0:
279,83,324351,1,0,0:0:0:0:
153,217,324523,1,0,0:0:0:0:
382,145,324696,5,0,0:0:0:0:
311,314,324868,1,0,0:0:0:0:
382,145,325041,1,0,0:0:0:0:
311,314,325213,1,0,0:0:0:0:
272,198,325385,6,0,P|245:116|205:121,1,105.000004005432
111,309,325730,1,0,0:0:0:0:
273,184,325903,1,0,0:0:0:0:
88,84,326075,2,0,P|159:156|185:185,1,105.000004005432
386,61,326420,2,0,L|334:179,1,105.000004005432
144,160,326765,5,0,0:0:0:0:
296,292,326937,1,0,0:0:0:0:
317,109,327109,1,0,0:0:0:0:
163,84,327282,2,0,L|245:193,1,105.000004005432
400,227,327627,2,0,L|325:303,1,105.000004005432
127,334,327972,2,0,L|124:225,1,105.000004005432
213,87,328316,5,0,0:0:0:0:
402,135,328489,2,0,P|336:190|299:247,1,105.000004005432
273,346,328834,1,0,0:0:0:0:
113,216,329006,1,0,0:0:0:0:
146,85,329178,2,0,P|220:72|266:80,1,105.000004005432
328,194,329523,1,0,0:0:0:0:
159,296,329696,5,0,0:0:0:0:
178,264,329782,1,0,0:0:0:0:
201,235,329868,1,0,0:0:0:0:
225,207,329954,1,0,0:0:0:0:
246,176,330041,1,0,0:0:0:0:
348,290,330213,1,0,0:0:0:0:
349,81,330385,2,0,P|261:77|211:96,1,105.000004005432
116,68,330730,6,0,L|151:307,1,210.000008010865
254,130,331247,2,0,L|343:162,1,52.5000020027161
322,300,331420,2,0,L|250:265,1,52.5000020027161
136,128,331592,2,0,L|164:211,1,52.5000020027161
136,340,331765,2,0,L|192:287,1,52.5000020027161
318,153,331937,2,0,L|238:170,1,52.5000020027161
70,212,332109,2,0,L|133:161,1,52.5000020027161
182,50,332282,6,0,L|272:94,1,52.5000020027161
372,125,332454,2,0,L|304:186,1,52.5000020027161
180,285,332627,2,0,L|256:296,1,52.5000020027161
412,303,332799,2,0,L|415:236,1,52.5000020027161
438,109,332972,2,0,L|378:58,1,52.5000020027161
272,49,333144,2,0,L|222:123,1,52.5000020027161
220,114,333316,5,0,0:0:0:0:
195,134,333403,1,0,0:0:0:0:
177,160,333489,1,0,0:0:0:0:
171,190,333575,1,0,0:0:0:0:
183,218,333661,1,0,0:0:0:0:
205,240,333747,1,0,0:0:0:0:
230,259,333834,1,0,0:0:0:0:
260,270,333920,1,0,0:0:0:0:
291,268,334006,2,0,L|349:262,4,52.5000020027161
373,255,334437,1,0,0:0:0:0:
394,232,334523,1,0,0:0:0:0:
402,207,334609,1,0,0:0:0:0:
394,181,334696,1,0,0:0:0:0:
375,162,334782,5,0,0:0:0:0:
352,148,334868,1,0,0:0:0:0:
327,138,334954,1,0,0:0:0:0:
301,131,335041,1,0,0:0:0:0:
275,125,335127,1,0,0:0:0:0:
248,125,335213,1,0,0:0:0:0:
222,128,335299,2,0,L|156:139,1,52.5000020027161
64,236,335472,2,0,L|118:269,1,52.5000020027161
214,305,335644,2,0,L|264:259,1,52.5000020027161
368,125,335816,2,0,L|320:183,1,52.5000020027161
309,174,335989,1,0,0:0:0:0:
283,181,336075,1,0,0:0:0:0:
269,203,336161,1,0,0:0:0:0:
259,227,336247,1,0,0:0:0:0:
259,253,336334,1,0,0:0:0:0:
263,278,336420,5,0,0:0:0:0:
259,303,336506,1,0,0:0:0:0:
257,329,336592,2,0,L|196:330,4,52.5000020027161
175,326,337023,1,0,0:0:0:0:
156,307,337109,1,0,0:0:0:0:
161,275,337196,1,0,0:0:0:0:
173,246,337282,1,0,0:0:0:0:
191,220,337368,1,0,0:0:0:0:
213,198,337454,1,0,0:0:0:0:
242,186,337541,1,0,0:0:0:0:
268,187,337627,1,0,0:0:0:0:
291,199,337713,1,0,0:0:0:0:
314,211,337799,2,0,L|300:161,1,52.5000020027161
302,32,337972,2,0,L|256:72,1,52.5000020027161
184,152,338144,2,0,L|102:165,1,52.5000020027161
45,166,338316,2,0,L|64:235,1,52.5000020027161
79,233,338489,5,0,0:0:0:0:
102,245,338575,1,0,0:0:0:0:
127,251,338661,1,0,0:0:0:0:
152,257,338747,1,0,0:0:0:0:
178,257,338834,1,0,0:0:0:0:
203,252,338920,1,0,0:0:0:0:
226,240,339006,1,0,0:0:0:0:
249,228,339092,2,0,L|299:206,3,52.5000020027161
341,168,339437,1,0,0:0:0:0:
359,113,339523,1,0,0:0:0:0:
339,58,339609,1,0,0:0:0:0:
282,43,339696,1,0,0:0:0:0:
225,56,339782,1,0,0:0:0:0:
182,95,339868,1,0,0:0:0:0:
187,152,339954,1,0,0:0:0:0:
218,200,340041,1,0,0:0:0:0:
241,252,340127,1,0,0:0:0:0:
238,309,340213,1,0,0:0:0:0:
195,347,340299,1,0,0:0:0:0:
137,344,340385,1,0,0:0:0:0:
92,306,340472,1,0,0:0:0:0:
84,254,340558,1,0,0:0:0:0:
82,201,340644,1,0,0:0:0:0:
88,149,340730,6,0,L|109:98,11,35.0000013351441
137,165,341420,2,0,L|155:135,7,26.2500010013581
196,179,341765,2,0,L|200:150,12,17.500000667572
338,71,342454,6,0,L|188:88,1,140
116,273,343144,2,0,L|269:258,1,140
184,87,343834,1,0,0:0:0:0:
383,165,344178,1,0,0:0:0:0:
60,190,344523,2,0,L|211:259,1,140
303,264,345213,1,0,0:0:0:0:
213,90,345558,6,0,P|128:125|96:172,1,140
393,92,346247,2,0,L|316:234,1,140
116,155,346937,1,0,0:0:0:0:
280,279,347282,1,0,0:0:0:0:
218,81,347627,2,0,L|163:227,1,140
139,271,348316,6,0,L|182:263,6,23.3333333333333
391,90,349351,6,0,L|350:233,1,140
212,100,350041,2,0,L|179:245,1,140
135,183,350730,1,0,0:0:0:0:
329,258,351075,1,0,0:0:0:0:
133,282,351420,6,0,L|289:317,2,140
147,132,352454,2,0,L|193:144,8,35
350,113,353489,5,0,0:0:0:0:
118,95,353834,2,0,L|142:239,1,140
299,256,354523,1,0,0:0:0:0:
105,101,354868,1,0,0:0:0:0:
149,303,355213,1,0,0:0:0:0:
387,99,355558,6,0,L|333:239,1,140
185,96,356247,2,0,L|218:250,1,140
336,305,356937,2,0,L|191:313,2,140
56,119,357972,1,0,0:0:0:0:
199,259,358316,1,0,0:0:0:0:
247,80,358661,6,0,P|326:77|406:96,1,140
286,240,359351,2,0,L|318:244,6,23.3333333333333
124,142,360385,5,0,0:0:0:0:
339,237,360730,1,0,0:0:0:0:
290,79,361075,2,0,L|453:122,1,140
438,293,361765,1,0,0:0:0:0:
271,294,362109,6,0,L|103:289,1,140
112,170,363144,1,0,0:0:0:0:
263,105,363489,2,0,L|265:196,4,70
348,259,364523,1,0,0:0:0:0:
160,256,364868,1,0,0:0:0:0:
120,107,365213,2,0,P|190:94|261:120,1,140
316,278,365903,5,0,0:0:0:0:
131,176,366247,1,0,0:0:0:0:
166,276,366592,2,0,L|298:190,1,140
102,103,367282,2,0,L|123:267,1,140
391,283,367972,2,0,L|265:181,1,140
287,94,368661,1,0,0:0:0:0:
160,236,369006,1,0,0:0:0:0:
465,64,369351,6,0,P|370:130|339:123,1,140
211,173,370385,2,0,L|255:174,6,23.3333333333333
312,84,371420,5,0,0:0:0:0:
47,121,371765,2,0,L|84:263,2,140
318,132,372799,1,0,0:0:0:0:
156,283,373144,1,0,0:0:0:0:
414,87,374178,2,0,L|354:230,1,140
149,86,375213,5,0,0:0:0:0:
223,268,375558,1,0,0:0:0:0:
384,105,375903,1,0,0:0:0:0:
357,187,376247,6,0,L|293:319,1,140
124,261,376937,1,0,0:0:0:0:
205,71,377282,1,0,0:0:0:0:
441,107,377627,2,0,L|356:230,1,140
254,247,378316,2,0,L|84:252,2,140
89,242,379696,5,0,0:0:0:0:
363,108,380041,1,0,0:0:0:0:
280,306,380385,1,0,0:0:0:0:
169,119,380730,5,0,0:0:0:0:
172,254,381420,6,0,L|212:259,6,23.3333333333333
407,112,382454,5,0,0:0:0:0:
231,99,382799,2,0,L|220:253,1,140
16,253,383834,1,0,0:0:0:0:
204,107,384178,1,0,0:0:0:0:
351,129,385213,5,0,0:0:0:0:
130,118,385558,6,0,L|138:205,3,70
