osu file format v14

[General]
AudioFilename: The Pretender.mp3
AudioLeadIn: 0
PreviewTime: 172455
Countdown: 0
SampleSet: Soft
StackLeniency: 0.4
Mode: 0
LetterboxInBreaks: 0
WidescreenStoryboard: 0

[Editor]
Bookmarks: 44179,57973,69007,80042,91076,99352,110386,121421,132455,143490,168317,173835,184869,195904,206938,217973,221766,229007,240042,251076,262110,297973,309007,320042,331076,336248,342110
DistanceSpacing: 0.6
BeatDivisor: 4
GridSize: 4
TimelineZoom: 3.099999

[Metadata]
Title:The Pretender
TitleUnicode:The Pretender
Artist:Infected Mushroom
ArtistUnicode:Infected Mushroom
Creator:gaston_2199
Version:Lince's Deceived
Source:
Tags:echoes silence patience grace foo fighters cover dnb drum and bass lince cosmico marathon
BeatmapID:1244293
BeatmapSetID:587602

[Difficulty]
HPDrainRate:6.2
CircleSize:4
OverallDifficulty:8.4
ApproachRate:9.5
SliderMultiplier:1.9
SliderTickRate:2

[Events]
//Background and Video events
0,0,"BG.jpg",0,0
//Break Periods
2,245759,250350
//Storyboard Layer 0 (Background)
//Storyboard Layer 1 (Fail)
//Storyboard Layer 2 (Pass)
//Storyboard Layer 3 (Foreground)
//Storyboard Sound Samples

[TimingPoints]
42,344.827586206897,4,2,2,45,1,0
22110,-200,4,2,2,45,0,0
43490,-166.666666666667,4,2,2,45,0,0
44179,-100,4,2,1,45,0,0
45559,-100,4,1,1,45,0,0
46248,-100,4,3,1,45,0,0
46593,-200,4,1,1,45,0,0
46852,-100,4,2,1,45,0,0
46938,-100,4,2,1,70,0,0
99007,-200,4,2,2,70,0,0
99266,-200,4,2,1,40,0,0
99352,-100,4,2,1,70,0,1
110300,-100,4,2,1,70,0,0
110386,-100,4,2,1,70,0,1
118662,-100,4,2,2,70,0,0
121076,-100,4,2,1,70,0,0
121421,-100,4,2,1,70,0,1
132110,-200,4,2,1,70,0,1
132369,-200,4,2,1,40,0,1
132455,-100,4,2,1,70,0,1
143490,-200,4,2,2,45,0,0
144179,-200,4,2,2,20,0,0
144266,-200,4,2,2,45,0,0
145559,-200,4,2,2,20,0,0
145645,-200,4,2,2,45,0,0
146938,-200,4,2,2,20,0,0
147024,-200,4,2,2,45,0,0
148317,-200,4,2,1,20,0,0
148404,-200,4,2,2,45,0,0
149697,-200,4,2,2,20,0,0
149783,-200,4,2,2,45,0,0
151076,-200,4,2,2,20,0,0
151162,-200,4,2,2,45,0,0
152455,-200,4,2,2,20,0,0
152542,-200,4,2,2,45,0,0
153835,-200,4,2,2,20,0,0
153921,-200,4,2,2,45,0,0
154524,-133.333333333333,4,2,2,45,0,0
154869,-200,4,2,2,45,0,0
155214,-200,4,2,2,20,0,0
155300,-200,4,2,2,45,0,0
156593,-200,4,2,2,20,0,0
156679,-200,4,2,2,45,0,0
157973,-200,4,2,2,20,0,0
158059,-200,4,2,2,45,0,0
159352,-200,4,2,2,20,0,0
159438,-200,4,2,2,45,0,0
160731,-200,4,2,2,25,0,0
160817,-200,4,2,2,45,0,0
162110,-200,4,2,2,30,0,0
162197,-200,4,2,2,45,0,0
163490,-200,4,2,2,35,0,0
163576,-200,4,2,2,45,0,0
164869,-200,4,2,2,40,0,0
164955,-200,4,2,2,70,0,0
165559,-200,4,2,2,20,0,0
168317,-200,4,2,1,70,0,0
169697,-166.666666666667,4,2,1,70,0,0
171076,-125,4,2,1,70,0,0
172455,-100,4,2,1,70,0,0
173490,-200,4,2,1,70,0,0
173748,-200,4,2,1,40,0,0
173835,-100,4,2,1,70,0,1
184783,-100,4,2,1,70,0,0
184869,-100,4,2,1,70,0,1
193145,-133.333333333333,4,2,1,70,0,0
195904,-100,4,2,1,70,0,1
206593,-200,4,1,1,70,0,1
206852,-200,4,1,1,40,0,1
206938,-100,4,2,1,70,0,1
216593,-100,4,2,1,70,0,0
217973,-100,4,2,1,70,0,1
226248,-100,4,1,1,60,0,1
227628,-83.3333333333333,4,1,1,80,0,1
229007,-66.6666666666667,4,2,1,70,0,1
229697,-66.6666666666667,4,2,1,75,0,1
229869,-66.6666666666667,4,2,1,80,0,1
230042,-66.6666666666667,4,2,1,85,0,1
230214,-66.6666666666667,4,2,1,90,0,1
230386,-66.6666666666667,4,2,1,70,0,1
240042,-100,4,2,1,70,0,0
245559,-200,4,2,1,70,0,0
245645,-200,4,2,2,70,0,0
250904,-200,4,2,2,70,0,0
262110,-125,4,2,2,70,0,0
262973,-125,4,2,1,70,0,0
263059,-125,4,2,2,70,0,0
264352,-125,4,2,1,70,0,0
264438,-125,4,2,2,70,0,0
267628,-125,4,2,1,70,0,0
267714,-125,4,2,2,70,0,0
269007,-125,4,2,1,70,0,0
269093,-125,4,2,2,70,0,0
271248,-125,4,2,1,70,0,0
271335,-125,4,2,2,70,0,0
272628,-125,4,2,1,70,0,0
272714,-125,4,2,2,70,0,0
273317,-125,4,2,1,70,0,0
273404,-125,4,2,2,70,0,0
274524,-125,4,2,1,70,0,0
274610,-125,4,2,2,70,0,0
275904,-125,4,2,1,70,0,0
275990,-125,4,2,2,70,0,0
277283,-125,4,2,1,70,0,0
277369,-125,4,2,2,70,0,0
280042,-125,4,2,1,70,0,0
280128,-125,4,2,2,70,0,0
281421,-125,4,2,1,70,0,0
281507,-125,4,2,2,70,0,0
282800,-125,4,2,1,70,0,0
282886,-125,4,2,2,70,0,0
284179,-125,4,2,1,70,0,0
286938,-100,4,2,2,70,0,0
289352,-100,4,2,1,50,0,0
289524,-100,4,2,1,90,0,0
289697,-83.3333333333333,4,3,1,20,0,0
290042,-83.3333333333333,4,3,1,35,0,0
290386,-83.3333333333333,4,3,1,50,0,0
292455,-71.4285714285714,4,3,1,70,0,0
293835,-62.5,4,3,1,70,0,0
294179,-58.8235294117647,4,3,1,70,0,0
294524,-55.5555555555556,4,3,1,70,0,0
294869,-50,4,3,1,70,0,0
295214,-50,4,3,1,10,0,0
296593,-100,4,2,1,70,0,0
297973,-100,4,2,1,70,0,1
308921,-100,4,2,1,70,0,0
309007,-100,4,2,1,70,0,1
317283,-200,4,2,2,60,0,0
317628,-200,4,2,2,50,0,0
317973,-200,4,2,2,40,0,0
318317,-200,4,2,2,30,0,0
318662,-200,4,2,2,20,0,0
319524,-100,4,2,1,70,0,0
320042,-100,4,2,1,70,0,1
330731,-200,4,1,1,70,0,1
330990,-200,4,1,1,40,0,1
331076,-66.6666666666667,4,2,1,70,0,1
331766,-66.6666666666667,4,2,1,75,0,1
331938,-66.6666666666667,4,2,1,80,0,1
332110,-66.6666666666667,4,2,1,85,0,1
332283,-66.6666666666667,4,2,1,90,0,1
332455,-66.6666666666667,4,2,1,70,0,1
339352,-66.6666666666667,4,1,1,50,0,1
341421,-58.8235294117647,4,2,1,70,0,1
341766,-50,4,2,1,70,0,1
342024,-50,4,2,1,70,0,0
342110,-125,4,2,2,70,0,0
347283,-125,4,2,2,70,0,0
347628,-125,4,2,2,70,0,0
348317,-100,4,2,2,70,0,0
348490,-100,4,2,2,50,0,0
348662,-100,4,2,2,30,0,0
349007,-125,4,2,2,70,0,0
352455,-125,4,2,2,70,0,0
353145,-125,4,2,2,70,0,0
355042,-125,4,2,2,50,0,0
355214,-125,4,2,2,70,0,0
358317,-125,4,2,2,70,0,0
358662,-125,4,2,2,70,0,0
359352,-100,4,2,2,70,0,0
359524,-100,4,2,2,50,0,0
359697,-100,4,2,2,30,0,0
360042,-125,4,2,2,40,0,0
360386,-125,4,2,2,70,0,0
364179,-200,4,2,2,70,0,0
370386,-100,4,2,2,70,0,0
370559,-100,4,2,2,50,0,0
370731,-100,4,2,2,35,0,0
370904,-100,4,2,2,20,0,0
371076,-200,4,2,2,70,0,0
381421,-100,4,2,2,70,0,0
381593,-100,4,2,2,50,0,0
381766,-100,4,2,2,35,0,0
381938,-100,4,2,2,20,0,0
382110,-200,4,2,2,70,0,0
385559,-166.666666666667,4,2,1,70,0,0

[Colours]
Combo1 : 228,69,69
Combo2 : 222,117,67
Combo3 : 128,64,64
Combo4 : 192,192,192
Combo5 : 128,128,128

[HitObjects]
120,96,22110,6,0,L|116:192,1,95,0|0,0:0|0:0,0:0:0:0:
40,48,22800,2,0,L|32:244,1,190,2|0,0:0|0:0,0:0:0:0:
200,348,24524,6,0,P|248:328|192:236,1,190,0|0,0:0|0:0,0:0:0:0:
266,55,25904,2,0,P|202:110|264:168,1,190,0|0,0:0|0:0,0:0:0:0:
400,108,27283,1,0,0:0:0:0:
400,108,27628,6,0,P|408:156|400:204,1,95,0|0,0:0|0:0,0:0:0:0:
320,252,28317,1,2,0:0:0:0:
244,196,28662,2,0,B|196:208|160:180|160:180|148:196|148:196|112:176|52:196,1,190,0|0,0:0|0:0,0:0:0:0:
104,284,29697,1,2,0:0:0:0:
104,284,30042,6,0,P|112:332|192:280,1,190,0|0,0:0|0:0,0:0:0:0:
220,92,31421,1,0,0:0:0:0:
220,92,32110,1,0,0:0:0:0:
220,92,32455,2,0,P|228:140|220:188,1,95,0|0,0:0|0:0,0:0:0:0:
264,272,33145,5,0,0:0:0:0:
264,272,33490,2,0,B|304:280|304:280|360:272,1,95,0|2,0:0|0:0,0:0:0:0:
452,176,34179,2,0,P|436:256|452:364,1,190,0|0,0:0|0:0,0:0:0:0:
451,362,35559,6,0,L|252:356,1,190,0|0,0:0|0:0,0:0:0:0:
100,269,36938,2,0,L|289:263,1,190,0|0,0:0|0:0,0:0:0:0:
168,356,38317,1,0,0:0:0:0:
290,264,39007,5,0,0:0:0:0:
290,264,39352,2,0,P|298:220|290:168,1,95,0|0,0:0|0:0,0:0:0:0:
218,108,40042,1,0,0:0:0:0:
218,108,40731,1,2,0:0:0:0:
194,200,41076,6,0,B|96:237|106:164|2:200,1,190,0|0,0:0|0:0,0:0:0:0:
127,351,42455,2,0,P|179:319|191:195,1,190,0|0,0:0|0:0,0:0:0:0:
116,88,43490,6,0,P|144:100|176:104,1,56.9999982604981,0|0,0:0|0:0,0:0:0:0:
264,52,43835,2,0,P|292:40|320:36,1,56.9999982604981,0|0,0:0|0:0,0:0:0:0:
424,84,44179,5,2,1:0:0:0:
168,8,44524,1,2,1:0:0:0:
288,224,44697,1,0,0:0:0:0:
304,200,44783,1,0,0:0:0:0:
312,172,44869,5,2,1:0:0:0:
196,256,45042,1,0,0:0:0:0:
400,212,45214,1,2,1:0:0:0:
224,132,45386,1,0,0:0:0:0:
404,296,45559,5,2,0:0:0:0:
412,268,45645,1,0,0:0:0:0:
412,240,45731,1,2,0:0:0:0:
400,212,45817,1,0,0:0:0:0:
356,192,45904,5,2,0:0:0:0:
348,164,45990,1,0,0:0:0:0:
348,136,46076,1,2,0:0:0:0:
356,108,46162,1,0,0:0:0:0:
400,80,46248,5,2,0:0:0:0:
352,80,46335,1,0,0:0:0:0:
304,80,46421,1,2,0:0:0:0:
256,80,46507,1,0,0:0:0:0:
208,80,46593,6,0,P|204:116|208:152,1,71.25,2|0,0:0|0:0,0:0:0:0:
272,224,46938,6,0,P|280:272|272:320,1,95,4|2,1:0|0:2,0:0:0:0:
152,272,47283,1,8,0:0:0:0:
280,132,47455,1,0,0:0:0:0:
308,140,47542,1,0,0:0:0:0:
332,154,47628,1,0,0:0:0:0:
351,175,47714,1,0,0:0:0:0:
361,201,47800,1,0,1:0:0:0:
184,168,47973,5,10,0:0:0:0:
364,80,48145,1,2,0:0:0:0:
336,288,48317,1,2,0:0:0:0:
336,288,48490,1,2,1:2:0:0:
240,64,48662,2,0,L|348:76,1,95,8|0,0:0|0:0,0:0:0:0:
364,80,48921,1,0,0:0:0:0:
392,84,49007,1,0,0:0:0:0:
428,272,49179,1,0,1:0:0:0:
348,184,49352,2,0,B|312:176|312:176|248:188,1,95,8|0,0:0|0:0,0:0:0:0:
180,248,49610,1,0,0:0:0:0:
180,248,49697,6,0,P|177:295|184:348,1,95,0|2,1:0|0:0,0:0:0:0:
305,291,50042,1,8,0:0:0:0:
175,152,50214,1,0,0:0:0:0:
146,154,50300,1,0,0:0:0:0:
117,156,50386,1,0,0:0:0:0:
88,158,50473,1,0,0:0:0:0:
59,160,50559,1,0,1:0:0:0:
180,248,50731,5,10,0:2:0:0:
194,57,50904,1,2,0:2:0:0:
265,202,51076,1,2,0:2:0:0:
81,249,51248,1,2,1:2:0:0:
285,104,51421,2,0,P|331:130|359:165,1,95,8|0,0:0|0:0,0:0:0:0:
366,198,51679,1,0,0:0:0:0:
364,236,51766,1,0,0:0:0:0:
225,364,51938,1,0,1:0:0:0:
170,192,52110,2,0,L|282:203,1,95,8|0,0:0|0:0,0:0:0:0:
454,221,52455,5,2,1:2:0:0:
454,221,52628,1,2,0:2:0:0:
324,110,52800,1,8,0:0:0:0:
278,295,52973,1,0,0:0:0:0:
250,303,53059,1,0,0:0:0:0:
221,304,53145,1,0,0:0:0:0:
193,298,53231,1,0,0:0:0:0:
167,284,53317,1,0,1:0:0:0:
121,98,53490,5,10,0:2:0:0:
56,276,53662,1,2,0:2:0:0:
232,203,53835,1,2,0:2:0:0:
45,168,54007,1,2,1:2:0:0:
238,108,54179,2,0,L|231:215,1,95,8|0,0:0|0:0,0:0:0:0:
231,202,54438,1,0,0:0:0:0:
231,202,54524,1,0,0:0:0:0:
221,335,54697,1,0,1:0:0:0:
368,248,54869,2,0,L|361:153,1,95,8|0,0:0|0:0,0:0:0:0:
223,21,55214,6,0,P|175:44|149:87,1,95,2|2,1:2|0:2,0:0:0:0:
161,263,55559,1,8,0:0:0:0:
302,137,55731,1,0,0:0:0:0:
330,140,55817,1,0,0:0:0:0:
358,143,55904,1,0,0:0:0:0:
386,146,55990,1,0,0:0:0:0:
414,149,56076,1,0,1:0:0:0:
265,232,56248,5,10,0:2:0:0:
302,45,56421,1,2,0:2:0:0:
368,248,56593,1,2,0:2:0:0:
211,149,56766,5,2,1:2:0:0:
184,336,56938,2,0,L|293:331,1,95,8|0,0:0|0:0,0:0:0:0:
440,328,57283,5,0,0:0:0:0:
440,308,57370,1,0,0:0:0:0:
440,288,57456,1,0,1:0:0:0:
440,268,57542,1,0,0:0:0:0:
416,240,57628,5,8,0:0:0:0:
416,212,57715,1,0,0:0:0:0:
416,184,57801,1,0,0:0:0:0:
416,156,57887,1,0,0:0:0:0:
416,128,57973,6,0,B|368:136|344:112|344:112|324:128|324:128|284:112|236:128,1,190,4|8,1:0|0:0,0:0:0:0:
127,282,58490,1,0,0:0:0:0:
152,293,58576,1,0,0:0:0:0:
179,298,58662,1,0,0:0:0:0:
207,294,58748,1,0,0:0:0:0:
232,281,58835,1,0,1:0:0:0:
66,180,59007,1,10,0:2:0:0:
43,359,59179,1,2,0:2:0:0:
180,195,59352,6,0,P|176:144|151:98,1,95,2|2,0:2|1:2,0:0:0:0:
57,74,59697,1,8,0:0:0:0:
244,100,59869,1,0,0:0:0:0:
244,100,59955,1,0,0:0:0:0:
244,100,60042,2,0,P|265:55|265:10,1,95,0|0,0:0|1:0,0:0:0:0:
333,187,60386,2,0,P|333:234|396:306,1,142.5,8|0,0:0|0:0,0:0:0:0:
416,319,60731,6,0,L|313:310,1,95,0|2,1:0|0:2,0:0:0:0:
190,172,61076,1,8,0:0:0:0:
100,328,61248,1,0,0:0:0:0:
132,331,61335,1,0,0:0:0:0:
159,324,61421,1,0,0:0:0:0:
184,310,61507,1,0,0:0:0:0:
201,287,61593,1,0,1:0:0:0:
133,89,61766,1,10,0:2:0:0:
123,237,61938,1,2,0:2:0:0:
297,161,62110,6,0,P|279:108|247:77,1,95,2|2,0:2|1:2,0:0:0:0:
133,89,62455,1,8,0:0:0:0:
244,278,62628,1,0,0:0:0:0:
244,278,62714,1,0,0:0:0:0:
244,278,62800,2,0,L|339:271,1,95,0|0,0:0|1:0,0:0:0:0:
493,382,63145,2,0,L|398:375,1,95,8|0,0:0|0:0,0:0:0:0:
299,185,63490,5,2,1:2:0:0:
318,354,63662,1,2,0:2:0:0:
224,253,63835,1,8,0:0:0:0:
433,258,64008,1,0,0:0:0:0:
446,233,64093,1,0,0:0:0:0:
451,205,64179,1,0,0:0:0:0:
449,176,64266,1,0,0:0:0:0:
444,147,64352,1,0,1:0:0:0:
254,104,64524,6,0,P|269:152|306:189,1,95,10|2,0:2|0:2,0:0:0:0:
395,19,64869,2,0,P|345:7|295:21,1,95,2|2,0:2|1:2,0:0:0:0:
176,160,65214,1,8,0:0:0:0:
343,266,65386,1,0,0:0:0:0:
343,266,65473,1,0,0:0:0:0:
343,266,65559,2,0,P|381:229|390:182,1,95,0|0,0:0|1:0,0:0:0:0:
315,79,65904,1,8,0:0:0:0:
484,94,66076,1,0,0:0:0:0:
298,184,66248,5,2,1:2:0:0:
246,0,66421,1,2,0:2:0:0:
315,79,66593,1,8,0:0:0:0:
148,171,66766,1,0,0:0:0:0:
119,171,66852,1,0,0:0:0:0:
90,171,66938,1,0,0:0:0:0:
61,171,67024,1,0,0:0:0:0:
32,171,67110,1,0,1:0:0:0:
206,94,67283,1,10,0:2:0:0:
180,281,67455,1,2,0:2:0:0:
325,158,67628,5,2,1:2:0:0:
325,158,67800,1,2,1:2:0:0:
180,281,67973,1,8,0:0:0:0:
359,340,68145,1,8,0:0:0:0:
359,340,68231,1,0,0:0:0:0:
359,340,68317,2,0,P|348:294|313:251,1,95,0|0,1:0|1:0,0:0:0:0:
144,180,68662,5,8,0:0:0:0:
96,185,68748,1,8,0:0:0:0:
55,209,68835,1,8,0:0:0:0:
29,249,68921,1,8,0:0:0:0:
23,296,69007,6,0,P|43:338|85:369,1,95,4|2,1:0|0:2,0:0:0:0:
231,215,69352,2,0,P|187:191|139:179,1,95,8|0,0:0|0:0,0:0:0:0:
208,315,69697,1,0,0:0:0:0:
260,120,69869,2,0,P|216:100|170:89,1,95,0|10,1:0|0:2,0:0:0:0:
135,267,70214,5,2,0:2:0:0:
312,208,70386,1,2,0:2:0:0:
170,89,70559,1,2,1:2:0:0:
296,328,70731,2,0,P|316:280|320:236,1,95,8|0,0:0|0:0,0:0:0:0:
312,208,70990,1,0,0:0:0:0:
300,180,71076,1,0,0:0:0:0:
140,128,71248,1,0,1:0:0:0:
140,128,71421,2,0,P|162:169|204:200,1,95,8|0,0:0|0:0,0:0:0:0:
164,28,71766,6,0,P|108:32|60:52,1,95,0|2,1:0|0:2,0:0:0:0:
88,236,72110,1,8,0:0:0:0:
224,128,72283,1,0,0:0:0:0:
252,128,72369,1,0,0:0:0:0:
280,128,72455,1,0,0:0:0:0:
308,128,72542,1,0,0:0:0:0:
336,128,72628,1,0,1:0:0:0:
200,240,72800,5,10,0:2:0:0:
240,48,72973,1,2,0:2:0:0:
392,188,73145,1,2,0:2:0:0:
392,188,73317,1,2,1:2:0:0:
200,156,73490,2,0,P|204:100|224:60,1,95,8|0,0:0|0:0,0:0:0:0:
240,48,73748,1,0,0:0:0:0:
268,36,73835,1,0,0:0:0:0:
296,224,74007,1,0,1:0:0:0:
132,84,74179,1,8,0:0:0:0:
295,129,74352,1,0,0:0:0:0:
295,129,74438,1,0,0:0:0:0:
295,129,74524,6,0,P|299:177|295:225,1,95,2|2,1:2|0:2,0:0:0:0:
124,308,74869,2,0,P|120:260|124:212,1,95,8|0,0:0|0:0,0:0:0:0:
140,188,75128,1,0,0:0:0:0:
160,168,75214,1,0,0:0:0:0:
184,152,75300,1,0,0:0:0:0:
212,140,75386,1,0,1:0:0:0:
224,332,75559,5,10,0:2:0:0:
60,168,75731,1,2,0:2:0:0:
268,204,75904,1,2,0:2:0:0:
268,204,76076,1,2,1:2:0:0:
96,280,76248,2,0,P|68:244|60:184,1,95,8|0,0:0|0:0,0:0:0:0:
60,168,76507,1,0,0:0:0:0:
68,140,76593,1,0,0:0:0:0:
268,204,76766,1,0,1:0:0:0:
268,204,76938,2,0,P|216:212|172:208,1,95,8|0,0:0|0:0,0:0:0:0:
332,104,77283,6,0,P|372:148|356:280,1,190,2|8,1:2|0:0,0:0:0:0:
204,292,77800,1,0,0:0:0:0:
212,264,77886,1,0,0:0:0:0:
224,240,77973,1,0,0:0:0:0:
244,220,78059,1,0,0:0:0:0:
268,204,78145,1,0,1:0:0:0:
284,378,78317,5,10,0:2:0:0:
132,256,78490,1,2,0:2:0:0:
348,184,78662,1,2,0:2:0:0:
348,184,78835,1,2,1:2:0:0:
293,291,79007,1,8,0:0:0:0:
200,132,79179,1,0,0:0:0:0:
200,132,79266,1,0,0:0:0:0:
200,132,79352,6,0,L|144:116,1,47.5,8|8,0:0|0:0,0:0:0:0:
104,184,79524,2,0,L|48:200,1,47.5,0|0,1:0|0:0,0:0:0:0:
4,128,79697,1,8,0:0:0:0:
44,312,79869,1,0,1:0:0:0:
188,220,80042,5,4,1:0:0:0:
188,220,80214,1,2,0:2:0:0:
58,197,80386,1,8,0:2:0:0:
167,352,80559,1,0,0:0:0:0:
195,351,80645,1,0,0:0:0:0:
223,350,80731,1,0,0:0:0:0:
251,349,80817,1,0,0:0:0:0:
279,347,80904,1,0,0:0:0:0:
316,163,81076,5,10,0:2:0:0:
276,249,81248,1,2,0:2:0:0:
195,76,81421,1,2,0:2:0:0:
195,76,81593,1,2,1:2:0:0:
107,200,81766,2,8,L|204:192,1,95,8|0,0:0|0:0,0:2:0:0:
201,192,82024,1,0,0:0:0:0:
201,192,82110,1,0,0:0:0:0:
136,308,82283,1,0,1:0:0:0:
93,115,82455,2,0,P|45:143|21:187,1,95,8|0,0:0|0:0,0:0:0:0:
219,281,82800,6,0,P|218:225|192:182,1,95,0|2,1:0|0:0,0:0:0:0:
120,342,83145,1,8,0:0:0:0:
290,352,83317,1,0,0:0:0:0:
307,328,83404,1,0,0:0:0:0:
316,301,83490,1,0,0:0:0:0:
316,272,83576,1,0,0:0:0:0:
311,243,83662,1,0,0:0:0:0:
191,94,83835,5,10,0:2:0:0:
219,281,84007,1,2,0:2:0:0:
303,111,84179,1,2,0:2:0:0:
126,183,84352,1,2,0:2:0:0:
308,224,84524,2,0,P|356:208|396:176,1,95,8|0,0:0|0:0,0:0:0:0:
408,156,84783,1,0,0:0:0:0:
416,128,84869,1,0,0:0:0:0:
213,130,85042,1,0,1:0:0:0:
392,288,85214,2,0,P|432:260|468:220,1,95,8|0,0:0|0:0,0:0:0:0:
320,88,85559,6,0,B|248:72|184:88|184:88|192:116|220:136,1,190,2|8,1:2|0:0,0:0:0:0:
304,252,86076,1,0,0:0:0:0:
312,280,86162,1,0,0:0:0:0:
312,308,86248,1,2,0:2:0:0:
304,336,86335,1,0,0:0:0:0:
288,360,86421,1,0,0:0:0:0:
200,236,86593,1,8,0:0:0:0:
392,236,86766,1,0,0:0:0:0:
200,364,86938,5,2,0:2:0:0:
280,161,87110,2,0,P|300:209|300:273,1,95,0|8,0:0|0:0,0:0:0:0:
160,124,87455,1,0,0:0:0:0:
188,112,87542,1,0,0:0:0:0:
216,100,87628,1,2,0:2:0:0:
272,284,87800,1,0,1:0:0:0:
120,216,87973,2,0,L|212:188,1,95,8|0,0:0|0:0,0:0:0:0:
76,324,88317,6,0,B|54:336|32:348|32:348|12:284|36:200,1,190,2|8,1:2|0:0,0:0:0:0:
188,112,88835,1,0,0:0:0:0:
210,128,88921,1,0,0:0:0:0:
226,150,89007,1,2,0:2:0:0:
235,176,89093,1,0,0:0:0:0:
239,204,89179,1,0,0:0:0:0:
74,108,89352,1,8,0:0:0:0:
256,55,89524,1,0,0:0:0:0:
96,241,89697,5,2,0:2:0:0:
160,23,89869,2,0,P|183:65|187:113,1,95,0|8,0:0|0:0,0:0:0:0:
78,268,90214,1,0,0:0:0:0:
52,281,90300,1,0,0:0:0:0:
23,281,90386,1,2,0:2:0:0:
130,167,90559,1,0,1:0:0:0:
194,345,90731,2,0,P|242:353|290:345,1,95,8|0,0:0|0:0,0:0:0:0:
354,98,91076,5,4,1:0:0:0:
158,98,91766,5,4,1:0:0:0:
157,298,92455,5,4,1:0:0:0:
354,298,93145,5,4,1:0:0:0:
256,192,93231,12,0,96421,0:0:0:0:
172,256,96593,5,0,3:0:0:0:
172,256,96766,1,0,3:0:0:0:
236,140,96938,1,8,3:0:0:0:
304,252,97110,1,0,3:0:0:0:
152,168,97283,5,0,3:0:0:0:
244,336,97455,1,8,3:0:0:0:
244,336,97628,2,0,P|288:356|340:352,1,95,10|0,3:0|0:0,0:0:0:0:
236,140,97973,5,0,3:0:0:0:
236,140,98145,1,0,3:0:0:0:
304,252,98317,1,8,3:0:0:0:
172,256,98490,1,0,3:0:0:0:
328,160,98662,5,0,3:0:0:0:
136,160,98835,1,8,3:0:0:0:
300,16,99007,6,0,P|304:56|300:88,1,71.25,0|0,0:0|0:0,0:0:0:0:
264,215,99352,6,0,P|256:262|263:309,1,95,4|0,1:0|0:0,0:0:0:0:
404,180,99697,1,8,0:0:0:0:
232,104,99869,1,2,0:2:0:0:
204,112,99955,1,0,0:0:0:0:
176,120,100042,1,0,0:0:0:0:
148,128,100128,1,0,0:0:0:0:
120,136,100214,1,0,1:0:0:0:
284,228,100386,1,10,0:2:0:0:
204,32,100559,1,0,0:0:0:0:
96,216,100731,6,0,L|196:221,1,95,0|0,0:0|1:0,0:0:0:0:
8,136,101076,1,8,0:0:0:0:
96,304,101248,1,0,0:0:0:0:
96,304,101335,1,0,0:0:0:0:
96,304,101421,1,0,0:0:0:0:
176,120,101593,1,0,1:0:0:0:
96,216,101766,1,8,0:0:0:0:
268,140,101938,1,8,0:0:0:0:
104,44,102110,6,0,P|84:92|80:144,1,95,0|0,1:0|0:0,0:0:0:0:
232,272,102455,2,0,P|220:216|204:176,1,95,8|2,0:0|0:2,0:0:0:0:
184,164,102714,1,0,0:0:0:0:
156,156,102800,1,0,0:0:0:0:
128,156,102886,1,0,0:0:0:0:
100,160,102973,1,0,1:0:0:0:
164,340,103145,1,10,0:2:0:0:
300,208,103317,1,0,0:0:0:0:
176,76,103490,5,0,0:0:0:0:
148,240,103662,1,0,1:0:0:0:
344,116,103835,5,8,0:0:0:0:
372,280,104007,1,0,0:0:0:0:
92,148,104179,5,0,0:0:0:0:
64,312,104351,1,0,1:0:0:0:
412,188,104524,5,8,0:0:0:0:
440,352,104696,1,8,0:0:0:0:
256,136,104869,5,8,0:0:0:0:
256,240,105041,1,2,0:0:0:0:
256,344,105214,1,8,0:0:0:0:
168,188,105386,5,0,0:0:0:0:
340,188,105559,1,10,0:0:0:0:
256,36,105731,1,0,0:0:0:0:
256,240,105904,5,0,0:0:0:0:
92,148,106076,1,0,1:0:0:0:
260,80,106248,6,0,P|288:120|292:180,1,95,2|2,0:2|0:0,0:0:0:0:
196,160,106593,1,8,0:2:0:0:
320,16,106766,1,2,0:2:0:0:
339,36,106852,1,0,0:0:0:0:
356,59,106938,1,0,0:0:0:0:
256,240,107110,1,2,1:2:0:0:
172,76,107283,2,0,P|124:68|72:80,1,95,8|10,0:0|0:2,0:0:0:0:
164,256,107628,5,0,1:0:0:0:
260,80,107800,1,2,0:2:0:0:
116,172,107973,1,10,0:2:0:0:
316,164,108145,1,0,0:0:0:0:
104,48,108317,1,2,0:2:0:0:
104,48,108404,1,0,0:0:0:0:
104,48,108490,1,2,1:2:0:0:
176,272,108662,2,0,P|212:232|224:180,1,95,8|2,0:0|0:2,0:0:0:0:
180,96,109007,5,2,1:2:0:0:
288,272,109179,1,0,1:0:0:0:
288,88,109352,5,10,0:2:0:0:
176,272,109524,1,10,0:2:0:0:
352,180,109697,5,0,1:0:0:0:
104,180,109869,1,4,1:2:0:0:
232,16,110042,5,8,0:0:0:0:
240,64,110128,1,8,0:0:0:0:
232,112,110214,1,12,0:2:0:0:
240,160,110300,1,8,0:0:0:0:
232,208,110386,6,0,P|188:232|136:244,1,95,4|0,1:0|0:0,0:0:0:0:
144,51,110731,2,0,P|188:27|240:15,1,95,8|2,0:0|0:2,0:0:0:0:
260,20,110990,1,0,0:0:0:0:
288,32,111076,1,0,0:0:0:0:
308,52,111162,1,0,0:0:0:0:
324,76,111248,1,0,1:0:0:0:
232,208,111421,1,10,0:2:0:0:
144,52,111593,6,0,L|44:56,1,95,0|0,0:0|0:0,0:0:0:0:
136,228,111938,1,0,0:0:0:0:
232,112,112110,1,8,0:0:0:0:
48,164,112283,1,0,0:0:0:0:
48,164,112369,1,0,0:0:0:0:
48,164,112455,1,0,0:0:0:0:
191,298,112628,1,0,1:0:0:0:
232,112,112800,2,0,L|128:120,1,95,8|8,0:0|0:0,0:0:0:0:
268,280,113145,6,0,P|312:292|368:284,1,95,0|0,1:0|0:0,0:0:0:0:
492,148,113490,1,8,0:0:0:0:
333,47,113662,1,2,0:2:0:0:
305,43,113748,1,0,0:0:0:0:
277,43,113835,1,0,0:0:0:0:
249,47,113921,1,0,0:0:0:0:
221,59,114007,1,0,1:0:0:0:
213,247,114179,1,10,0:2:0:0:
213,247,114352,1,0,0:0:0:0:
361,127,114524,5,0,0:0:0:0:
221,59,114697,1,0,1:0:0:0:
361,127,114869,5,8,0:0:0:0:
213,247,115042,1,0,0:0:0:0:
361,127,115214,5,0,0:0:0:0:
185,39,115386,1,0,1:0:0:0:
361,127,115559,5,8,0:0:0:0:
193,267,115731,1,8,0:0:0:0:
149,23,115904,5,0,1:0:0:0:
137,119,116076,1,2,0:2:0:0:
125,215,116248,1,10,0:2:0:0:
213,175,116421,5,0,0:0:0:0:
213,175,116507,1,0,0:0:0:0:
213,175,116593,1,10,0:2:0:0:
137,119,116766,1,0,0:0:0:0:
49,155,116938,5,0,1:0:0:0:
221,87,117110,1,0,0:0:0:0:
173,287,117283,5,2,0:2:0:0:
137,119,117455,1,0,1:0:0:0:
249,347,117628,1,10,0:2:0:0:
125,215,117800,1,10,0:2:0:0:
153,207,117886,1,0,0:0:0:0:
181,203,117973,1,0,0:0:0:0:
89,347,118145,1,2,1:2:0:0:
137,119,118317,2,0,P|189:111|241:111,1,95,8|8,0:0|0:2,0:0:0:0:
250,87,120904,5,0,1:0:0:0:
332,236,121076,2,0,L|276:248,1,47.5,8|8,0:0|0:0,0:0:0:0:
220,176,121248,2,0,L|164:164,1,47.5,8|8,0:0|0:0,0:0:0:0:
104,232,121421,6,0,P|96:284|108:336,1,95,0|2,1:0|0:0,0:0:0:0:
220,176,121766,2,0,P|228:124|216:72,1,95,8|2,0:0|0:0,0:0:0:0:
200,60,122024,1,0,0:0:0:0:
176,44,122110,1,0,0:0:0:0:
148,36,122197,1,0,0:0:0:0:
120,36,122283,1,0,0:0:0:0:
144,160,122455,1,8,0:0:0:0:
256,8,122628,1,2,0:0:0:0:
49,167,122800,6,0,L|153:159,1,95,0|2,0:0|1:2,0:0:0:0:
0,32,123145,1,8,0:0:0:0:
76,248,123317,1,2,0:0:0:0:
76,248,123404,1,0,0:0:0:0:
76,248,123490,1,0,0:0:0:0:
204,84,123662,1,2,1:2:0:0:
144,160,123835,2,0,P|196:176|248:172,1,95,8|10,0:0|0:0,0:0:0:0:
96,48,124179,6,0,P|40:100|40:220,1,190,0|8,1:0|0:0,0:0:0:0:
220,282,124697,1,2,0:2:0:0:
232,258,124783,1,0,0:0:0:0:
240,230,124869,1,0,0:0:0:0:
240,202,124955,1,0,0:0:0:0:
236,174,125042,1,2,1:2:0:0:
124,328,125214,1,8,0:0:0:0:
320,192,125386,1,0,0:0:0:0:
128,120,125559,5,8,0:0:0:0:
140,252,125731,1,2,0:2:0:0:
380,120,125904,5,8,0:0:0:0:
364,292,126076,1,10,0:2:0:0:
128,120,126248,5,0,0:0:0:0:
144,284,126421,1,2,0:2:0:0:
380,120,126593,5,8,0:0:0:0:
360,324,126766,1,2,0:2:0:0:
128,120,126938,6,0,B|164:124|184:104|184:104|204:120|204:120|232:104|272:120,1,142.5,0|0,1:0|0:0,0:0:0:0:
320,192,127283,2,0,P|364:208|420:204,1,95,8|2,0:0|0:2,0:0:0:0:
316,60,127628,1,0,0:0:0:0:
316,60,127714,1,0,0:0:0:0:
316,60,127800,1,2,1:2:0:0:
232,212,127973,2,0,P|260:256|300:280,1,95,8|2,0:0|0:2,0:0:0:0:
240,100,128317,5,0,0:0:0:0:
222,326,128490,1,0,0:0:0:0:
320,192,128662,1,8,0:0:0:0:
128,184,128835,2,0,P|144:232|180:264,1,95,2|0,1:2|0:0,0:0:0:0:
331,94,129179,2,0,P|315:46|279:14,1,95,2|8,1:2|0:0,0:0:0:0:
248,208,129524,6,0,B|285:217|320:192|320:192|344:208|344:208|380:183|428:198,1,190,10|2,0:2|0:2,0:0:0:0:
393,277,130042,1,8,0:0:0:0:
331,94,130214,1,2,0:2:0:0:
303,94,130300,1,0,0:0:0:0:
275,94,130386,1,0,0:0:0:0:
247,94,130473,1,0,0:0:0:0:
219,94,130559,1,2,1:2:0:0:
328,196,130731,1,8,0:0:0:0:
264,8,130904,1,2,0:2:0:0:
160,164,131076,6,0,L|148:212,1,47.5,8|0,0:0|0:0,0:0:0:0:
228,260,131248,2,0,L|240:308,1,47.5,8|0,0:0|0:0,0:0:0:0:
164,364,131421,1,0,1:0:0:0:
138,81,131593,1,8,0:0:0:0:
312,282,131766,1,0,1:0:0:0:
312,282,131938,1,0,1:0:0:0:
80,244,132110,6,0,P|115:242|152:244,1,71.25,8|0,0:0|0:0,0:0:0:0:
264,356,132455,6,0,P|312:364|364:356,1,95,0|2,1:0|0:2,0:0:0:0:
392,176,132800,2,0,P|344:168|292:176,1,95,8|2,0:0|0:2,0:0:0:0:
272,184,133059,1,0,0:0:0:0:
248,200,133145,1,0,0:0:0:0:
232,224,133231,1,0,0:0:0:0:
224,252,133317,1,0,0:0:0:0:
412,272,133490,1,8,0:0:0:0:
260,108,133662,1,2,0:2:0:0:
280,340,133835,6,0,P|308:304|320:252,1,95,0|2,0:0|1:2,0:0:0:0:
236,84,134179,1,8,0:0:0:0:
136,248,134352,2,0,L|230:244,1,95,0|2,0:0|1:2,0:0:0:0:
339,68,134697,1,2,0:2:0:0:
319,256,134869,1,8,0:0:0:0:
339,68,135042,1,10,0:2:0:0:
298,174,135214,6,0,B|372:201|427:135,1,142.5,0|0,1:0|0:0,0:0:0:0:
502,80,135559,2,0,L|508:188,1,95,8|0,0:0|0:0,0:0:0:0:
436,300,135904,1,0,0:0:0:0:
433,271,135990,1,0,0:0:0:0:
431,242,136076,1,0,0:0:0:0:
339,68,136248,1,8,0:0:0:0:
224,248,136421,1,2,0:2:0:0:
384,156,136593,5,2,0:0:0:0:
216,168,136766,1,0,1:0:0:0:
304,260,136938,5,8,0:0:0:0:
136,248,137111,1,2,0:2:0:0:
292,72,137283,5,0,0:0:0:0:
304,260,137455,1,2,1:2:0:0:
216,168,137628,5,8,0:0:0:0:
208,368,137800,1,0,0:0:0:0:
41,240,137973,6,0,L|141:248,1,95,0|2,1:0|0:2,0:0:0:0:
310,175,138317,2,0,L|210:167,1,95,8|2,0:0|0:2,0:0:0:0:
188,156,138576,1,0,0:0:0:0:
168,136,138662,1,0,0:0:0:0:
156,112,138748,1,0,0:0:0:0:
148,84,138835,1,2,1:2:0:0:
292,72,139007,1,8,0:0:0:0:
180,248,139179,1,2,0:2:0:0:
108,0,139352,6,0,P|136:40|148:88,1,95,0|0,0:0|0:0,0:0:0:0:
80,176,139697,1,8,0:0:0:0:
208,264,139869,2,0,B|268:280|344:280|344:280|300:232,1,190,2|2,0:2|1:2,0:0:0:0:
232,360,140386,1,8,0:0:0:0:
280,156,140559,6,0,B|341:144|379:187|379:187|387:146|425:122,1,190,10|2,0:2|0:2,0:0:0:0:
358,320,141076,2,0,P|322:276|306:232,1,95,8|2,0:0|0:2,0:0:0:0:
332,48,141421,2,0,P|296:92|280:136,1,95,0|2,0:0|1:2,0:0:0:0:
380,188,141766,1,8,0:0:0:0:
184,208,141938,1,2,0:2:0:0:
332,48,142110,5,2,1:0:0:0:
248,300,142283,1,0,0:0:0:0:
136,136,142455,1,8,0:0:0:0:
355,71,142628,5,10,1:0:0:0:
216,298,142801,1,0,0:0:0:0:
144,113,142973,1,8,0:0:0:0:
380,164,143145,1,8,0:0:0:0:
388,212,143231,1,8,0:0:0:0:
396,260,143317,1,8,0:0:0:0:
404,308,143404,1,8,0:0:0:0:
412,352,143490,5,10,3:0:0:0:
412,352,144179,6,0,B|340:356|340:356|292:332|292:332|220:336,1,190,0|0,1:0|3:0,0:0:0:0:
132,380,145214,1,0,3:0:0:0:
60,304,145559,2,0,B|48:240|48:240|70:193|70:193|52:120,1,190,0|0,1:0|3:0,0:0:0:0:
112,48,146593,1,0,3:0:0:0:
184,112,146938,6,0,P|232:116|280:112,1,95,0|0,1:0|0:0,0:0:0:0:
372,92,147628,2,0,P|392:48|396:0,2,95,0|0|0,3:0|3:0|1:0,0:0:0:0:
319,174,148662,1,0,0:0:0:0:
375,254,149007,6,0,P|403:222|355:82,1,190,2|0,0:0|1:0,0:0:0:0:
288,48,150042,2,0,L|264:52,3,23.75,0|0|0|0,0:0|0:0|0:0|0:0,0:0:0:0:
244,80,150386,6,0,P|200:88|144:80,1,95,0|0,3:0|3:0,0:0:0:0:
80,16,151076,1,0,1:0:0:0:
28,96,151421,2,0,B|25:115|28:132|28:132|16:160|16:160|28:188|28:188|4:232|32:292,1,190,0|0,0:0|0:0,0:0:0:0:
92,348,152455,2,0,P|116:312|120:260,1,95,0|0,1:0|0:0,0:0:0:0:
100,160,153145,5,0,3:0:0:0:
100,160,153490,1,0,3:0:0:0:
176,216,153835,2,0,P|220:220|272:216,1,95,0|0,1:0|0:0,0:0:0:0:
292,204,154266,1,0,0:0:0:0:
308,188,154352,1,0,0:0:0:0:
320,168,154438,1,0,0:0:0:0:
328,148,154524,6,0,P|320:88|248:36,1,142.500005435944,2|0,0:0|0:0,0:0:0:0:
176,88,155042,1,0,0:0:0:0:
176,88,155214,2,0,L|120:84,2,47.5,0|0|0,1:0|0:0|0:0,0:0:0:0:
252,144,155731,6,0,P|260:192|252:240,1,95,0|0,0:0|0:0,0:0:0:0:
180,300,156248,1,0,3:0:0:0:
256,360,156421,2,0,L|356:364,1,95,0|0,0:0|0:0,0:0:0:0:
428,304,156938,2,0,P|430:285|428:252,1,47.5,0|0,0:0|0:0,0:0:0:0:
376,176,157283,5,2,0:0:0:0:
376,176,157628,1,0,0:0:0:0:
312,244,157800,2,0,L|264:248,2,47.5,0|0|0,0:0|1:0|0:0,0:0:0:0:
384,304,158317,1,0,0:0:0:0:
300,352,158490,6,0,L|196:360,1,95,0|0,0:0|0:0,0:0:0:0:
132,296,159007,1,0,3:0:0:0:
184,216,159179,2,0,P|192:172|184:112,1,95,0|0,0:0|0:0,0:0:0:0:
132,44,159697,2,0,P|112:60|96:84,1,47.5,0|0,0:0|0:0,0:0:0:0:
186,122,160042,6,0,L|286:118,1,95,2|0,0:0|0:0,0:0:0:0:
142,198,160731,2,0,L|42:194,1,95,0|0,1:0|0:0,0:0:0:0:
218,278,161421,6,0,P|242:246|250:178,1,95,0|0,3:0|3:0,0:0:0:0:
151,36,162110,2,0,P|159:83|186:122,1,95,0|0,1:0|0:0,0:0:0:0:
342,42,162800,6,0,L|242:50,1,95,2|0,0:0|0:0,0:0:0:0:
186,122,163490,2,0,L|286:130,1,95,0|0,1:0|0:0,0:0:0:0:
342,202,164179,6,0,L|242:210,1,95,0|0,3:0|3:0,0:0:0:0:
186,282,164869,2,0,L|286:290,1,95,0|0,1:0|0:0,0:0:0:0:
396,124,165559,5,0,0:0:0:0:
308,124,166248,5,0,0:0:0:0:
308,212,166938,5,0,0:0:0:0:
396,212,167628,5,0,0:0:0:0:
396,212,168317,5,0,0:0:0:0:
308,252,168490,1,0,0:0:0:0:
228,204,168662,1,0,0:0:0:0:
144,248,168835,1,0,0:0:0:0:
140,272,168921,1,0,0:0:0:0:
144,296,169007,1,0,0:0:0:0:
140,320,169093,1,0,0:0:0:0:
144,344,169179,1,0,0:0:0:0:
236,376,169352,2,0,L|288:372,1,47.5,4|0,0:0|0:0,0:0:0:0:
380,312,169697,5,0,0:0:0:0:
308,252,169869,1,0,0:0:0:0:
396,212,170042,1,0,0:0:0:0:
340,140,170214,1,0,0:0:0:0:
340,140,170300,1,0,0:0:0:0:
340,140,170386,1,0,0:0:0:0:
256,172,170559,1,0,0:0:0:0:
400,56,170731,2,0,P|424:80|436:108,1,56.9999982604981,4|0,0:0|0:0,0:0:0:0:
308,252,171076,5,0,0:0:0:0:
396,212,171248,1,0,0:0:0:0:
380,312,171421,1,0,0:0:0:0:
228,332,171593,1,0,0:0:0:0:
208,300,171679,1,0,0:0:0:0:
198,262,171766,1,0,0:0:0:0:
198,224,171852,1,0,0:0:0:0:
213,189,171938,1,0,0:0:0:0:
340,140,172110,1,4,0:0:0:0:
380,312,172283,1,0,0:0:0:0:
224,56,172455,5,8,0:0:0:0:
272,60,172542,1,8,0:0:0:0:
320,64,172628,1,8,0:0:0:0:
368,68,172714,1,0,0:0:0:0:
416,76,172800,1,0,1:0:0:0:
308,252,172973,1,8,0:0:0:0:
220,24,173145,1,0,1:0:0:0:
220,24,173317,1,0,1:0:0:0:
264,160,173490,6,0,P|224:164|192:160,1,71.25,8|0,0:0|0:0,0:0:0:0:
119,103,173835,6,0,P|71:99|19:103,1,95,4|0,1:0|0:0,0:0:0:0:
108,268,174179,1,8,0:0:0:0:
240,132,174352,1,2,0:2:0:0:
244,104,174438,1,0,0:0:0:0:
240,76,174524,1,0,0:0:0:0:
232,48,174610,1,0,0:0:0:0:
220,24,174697,1,0,1:0:0:0:
164,188,174869,1,10,0:2:0:0:
316,76,175042,1,0,0:0:0:0:
122,10,175214,6,0,P|114:58|122:114,1,95,0|0,0:0|1:0,0:0:0:0:
264,224,175559,1,8,0:0:0:0:
328,44,175731,1,0,0:0:0:0:
328,44,175817,1,0,0:0:0:0:
328,44,175904,1,0,0:0:0:0:
240,132,176076,1,0,1:0:0:0:
412,56,176248,1,8,0:0:0:0:
208,24,176421,1,8,0:0:0:0:
336,164,176593,6,0,P|336:108|320:64,1,95,0|0,1:0|0:0,0:0:0:0:
176,192,176938,2,0,P|176:248|192:292,1,95,8|2,0:0|0:2,0:0:0:0:
208,304,177197,1,0,0:0:0:0:
236,316,177283,1,0,0:0:0:0:
264,320,177369,1,0,0:0:0:0:
292,316,177455,1,0,1:0:0:0:
240,132,177628,1,10,0:2:0:0:
104,248,177800,1,0,0:0:0:0:
264,224,177973,5,0,0:0:0:0:
144,80,178145,1,0,1:0:0:0:
320,164,178317,5,8,0:0:0:0:
104,164,178489,1,0,0:0:0:0:
336,80,178662,5,0,0:0:0:0:
104,248,178835,1,0,1:0:0:0:
304,0,179007,5,8,0:0:0:0:
152,320,179179,1,8,0:0:0:0:
320,164,179352,5,8,0:0:0:0:
212,164,179524,1,2,0:2:0:0:
104,164,179697,1,10,0:2:0:0:
268,256,179869,5,0,0:0:0:0:
268,76,180042,1,10,0:0:0:0:
104,164,180214,1,0,1:0:0:0:
212,164,180386,5,8,0:0:0:0:
156,76,180559,1,0,0:0:0:0:
156,264,180731,1,2,0:2:0:0:
320,164,180904,5,0,1:0:0:0:
212,164,181076,1,10,0:2:0:0:
268,256,181248,1,2,0:2:0:0:
156,76,181421,6,0,L|60:76,1,95,0|2,0:0|1:2,0:0:0:0:
224,340,181766,2,0,L|320:340,1,95,8|10,0:0|0:2,0:0:0:0:
212,164,182110,5,0,1:0:0:0:
268,256,182283,1,2,0:2:0:0:
360,92,182455,1,10,0:2:0:0:
212,164,182628,5,0,0:0:0:0:
392,220,182800,1,2,0:2:0:0:
392,220,182886,1,0,0:0:0:0:
392,220,182973,1,2,1:2:0:0:
276,68,183145,2,0,P|280:120|308:164,1,95,8|2,0:0|0:2,0:0:0:0:
480,224,183490,5,2,1:2:0:0:
480,224,183662,1,0,1:0:0:0:
360,92,183835,5,10,0:2:0:0:
268,256,184007,1,10,0:2:0:0:
356,200,184179,5,0,1:0:0:0:
204,112,184352,1,4,1:2:0:0:
228,336,184524,5,8,0:0:0:0:
276,328,184610,1,8,0:0:0:0:
324,340,184697,1,12,0:2:0:0:
372,328,184783,1,8,0:0:0:0:
420,336,184869,6,0,P|428:288|420:240,1,95,4|0,1:0|0:0,0:0:0:0:
360,92,185214,1,8,0:0:0:0:
268,256,185386,1,2,0:2:0:0:
240,256,185473,1,0,0:0:0:0:
212,256,185559,1,0,0:0:0:0:
184,256,185645,1,0,0:0:0:0:
156,256,185731,1,0,1:0:0:0:
256,140,185904,1,10,0:2:0:0:
228,336,186076,6,0,L|116:332,1,95,0|0,0:0|0:0,0:0:0:0:
148,144,186421,1,0,0:0:0:0:
308,328,186593,1,8,0:0:0:0:
376,152,186766,1,0,0:0:0:0:
376,152,186852,1,0,0:0:0:0:
376,152,186938,1,0,0:0:0:0:
416,268,187110,1,0,1:0:0:0:
256,140,187283,2,0,P|272:88|304:56,1,95,8|8,0:0|0:0,0:0:0:0:
324,236,187628,6,0,P|272:256|224:252,1,95,0|0,1:0|0:0,0:0:0:0:
96,124,187973,2,0,P|148:104|196:108,1,95,8|2,0:0|0:2,0:0:0:0:
214,110,188231,1,0,0:0:0:0:
240,120,188317,1,0,0:0:0:0:
256,140,188404,1,0,0:0:0:0:
266,166,188490,1,0,1:0:0:0:
104,220,188662,1,10,0:2:0:0:
128,32,188835,1,0,0:0:0:0:
266,166,189007,5,0,0:0:0:0:
84,120,189179,1,0,1:0:0:0:
289,45,189352,5,8,0:0:0:0:
84,120,189524,1,0,0:0:0:0:
292,188,189697,5,0,0:0:0:0:
84,120,189869,1,0,1:0:0:0:
324,32,190042,5,8,0:0:0:0:
84,120,190214,1,8,0:0:0:0:
192,76,190386,5,8,0:0:0:0:
194,174,190559,1,2,0:2:0:0:
120,240,190731,1,10,0:2:0:0:
192,76,190904,5,0,0:0:0:0:
194,174,191076,1,2,0:0:0:0:
194,174,191162,1,0,0:0:0:0:
194,174,191248,1,0,1:0:0:0:
296,24,191421,1,8,0:0:0:0:
100,24,191593,1,2,0:2:0:0:
124,236,191766,6,0,P|168:208|196:172,1,95,2|0,0:2|1:0,0:0:0:0:
84,120,192110,1,10,0:2:0:0:
232,268,192283,2,0,P|280:272|332:268,1,95,2|0,0:2|0:0,0:0:0:0:
376,84,192628,1,2,1:2:0:0:
280,187,192800,1,8,0:2:0:0:
448,216,192973,1,10,0:0:0:0:
289,29,193145,6,0,L|293:117,1,71.2500027179719
232,268,193490,1,0,3:0:0:0:
232,268,193835,6,0,P|196:272|160:268,1,71.2500027179719,0|0,0:0|0:0,0:0:0:0:
120,176,194179,2,0,P|84:172|48:176,1,71.2500027179719,0|0,3:0|3:0,0:0:0:0:
84,268,194524,5,0,0:0:0:0:
84,268,194697,1,0,0:0:0:0:
212,176,194869,1,0,3:0:0:0:
44,104,195042,6,0,P|44:144|52:188,1,71.2500027179719,0|0,3:0|0:0,0:0:0:0:
161,268,195386,1,0,1:0:0:0:
256,100,195559,1,8,0:0:0:0:
300,96,195645,1,8,0:0:0:0:
344,100,195731,1,8,0:0:0:0:
388,96,195817,1,8,0:0:0:0:
432,100,195904,6,0,L|428:200,1,95,4|0,1:0|0:0,0:0:0:0:
280,316,196248,2,0,L|276:216,1,95,8|0,0:0|0:0,0:0:0:0:
332,24,196593,1,0,0:0:0:0:
428,194,196766,1,0,1:0:0:0:
256,100,196938,1,8,0:0:0:0:
416,16,197110,1,0,0:0:0:0:
304,208,197283,6,0,P|252:216|208:208,1,95,0|0,0:0|1:0,0:0:0:0:
96,56,197628,2,0,P|148:48|192:56,1,95,8|0,0:0|0:0,0:0:0:0:
304,208,197973,1,0,0:0:0:0:
144,156,198145,1,0,1:0:0:0:
296,76,198317,1,8,0:0:0:0:
200,256,198490,1,8,0:0:0:0:
96,56,198662,6,0,L|0:60,1,95,4|0,1:2|0:0,0:0:0:0:
105,259,199007,2,0,L|201:255,1,95,8|0,0:0|0:0,0:0:0:0:
56,140,199352,1,0,0:0:0:0:
40,304,199524,1,0,1:0:0:0:
192,156,199697,1,8,0:0:0:0:
1,59,199869,1,0,0:0:0:0:
156,240,200042,6,0,P|184:200|192:152,1,95,0|0,0:0|1:0,0:0:0:0:
52,28,200386,2,0,P|24:68|16:116,1,95,8|0,0:0|0:0,0:0:0:0:
156,240,200731,2,0,L|260:236,1,95,0|0,0:0|1:0,0:0:0:0:
101,100,201076,2,0,L|196:104,1,95,12|8,0:2|0:0,0:0:0:0:
336,232,201421,5,4,1:2:0:0:
284,148,201593,1,0,0:0:0:0:
216,328,201766,1,8,0:0:0:0:
336,232,201938,5,0,0:0:0:0:
156,240,202110,1,0,0:0:0:0:
216,328,202283,1,0,1:0:0:0:
184,140,202455,2,0,L|88:144,1,95,8|0,0:0|0:0,0:0:0:0:
216,328,202800,5,0,0:0:0:0:
284,148,202973,1,0,1:0:0:0:
89,143,203145,1,8,0:0:0:0:
156,240,203317,5,0,0:0:0:0:
224,60,203490,1,0,0:0:0:0:
29,55,203662,1,0,1:0:0:0:
156,240,203835,2,0,L|260:236,1,95,8|8,0:0|0:0,0:0:0:0:
89,143,204179,5,4,1:2:0:0:
96,332,204352,1,0,0:0:0:0:
156,240,204524,1,8,0:0:0:0:
29,55,204697,5,0,0:0:0:0:
32,236,204869,1,0,0:0:0:0:
89,143,205042,1,0,1:0:0:0:
32,236,205214,5,8,0:0:0:0:
144,56,205386,1,0,0:0:0:0:
250,236,205559,5,0,1:0:0:0:
296,236,205645,1,0,1:0:0:0:
344,236,205731,1,0,1:0:0:0:
392,236,205817,1,0,1:0:0:0:
440,236,205904,1,8,0:0:0:0:
220,104,206076,1,8,0:0:0:0:
272,316,206249,1,4,3:2:0:0:
272,316,206421,1,4,3:2:0:0:
376,152,206593,6,0,P|340:148|304:152,1,71.25,8|0,0:2|0:0,0:0:0:0:
220,196,206938,5,4,1:0:0:0:
184,192,207024,1,0,0:0:0:0:
152,172,207110,1,0,0:0:0:0:
132,140,207197,1,0,0:0:0:0:
128,104,207283,5,8,0:0:0:0:
136,68,207369,1,0,0:0:0:0:
156,36,207455,1,2,0:2:0:0:
192,20,207542,1,0,0:0:0:0:
228,20,207628,6,0,L|280:24,3,47.5,0|0|2|0,0:1|0:0|1:2|0:0,0:0:0:0:
332,100,207973,2,0,L|384:96,3,47.5,10|0|0|0,0:2|0:0|0:0|0:0,0:0:0:0:
452,36,208317,5,4,0:2:0:0:
456,72,208404,1,0,0:0:0:0:
460,108,208490,1,0,1:0:0:0:
464,144,208576,1,0,0:0:0:0:
440,172,208662,5,8,0:0:0:0:
444,208,208748,1,0,0:0:0:0:
448,248,208835,1,2,0:2:0:0:
452,284,208921,1,0,0:0:0:0:
436,316,209007,6,0,L|384:320,3,47.5,0|0|2|0,0:1|0:0|1:2|0:0,0:0:0:0:
328,248,209352,2,0,L|276:244,3,47.5,14|0|8|0,0:2|0:0|0:0|0:0,0:0:0:0:
216,316,209697,5,4,1:2:0:0:
180,300,209783,1,0,0:0:0:0:
144,296,209869,1,0,0:0:0:0:
108,300,209955,1,0,0:0:0:0:
76,320,210042,5,8,0:0:0:0:
56,288,210128,1,0,0:0:0:0:
48,252,210214,1,2,0:2:0:0:
52,216,210300,1,0,0:0:0:0:
68,180,210386,6,0,L|84:132,3,47.5,0|0|2|0,0:1|0:0|1:2|0:0,0:0:0:0:
36,48,210731,2,0,L|24:0,3,47.5,10|0|0|0,0:2|0:0|0:0|0:0,0:0:0:0:
128,48,211076,5,4,0:2:0:0:
172,68,211162,1,0,0:0:0:0:
220,72,211248,1,0,1:0:0:0:
264,56,211335,1,0,0:0:0:0:
288,16,211421,5,8,0:0:0:0:
240,28,211507,1,0,0:0:0:0:
220,72,211593,1,2,0:2:0:0:
224,120,211679,1,0,0:0:0:0:
256,156,211766,5,4,0:2:0:0:
276,200,211852,1,0,0:0:0:0:
272,248,211938,1,6,1:2:0:0:
240,284,212024,1,0,0:0:0:0:
192,288,212110,5,10,0:2:0:0:
224,252,212197,1,0,0:0:0:0:
272,248,212283,1,14,0:2:0:0:
316,268,212369,1,0,0:0:0:0:
328,312,212455,6,0,P|328:340|324:364,7,47.5,4|0|0|0|8|0|2|0,1:2|0:0|0:0|0:0|0:0|0:0|0:2|0:0,0:0:0:0:
272,248,213145,1,0,0:1:0:0:
240,228,213231,1,0,0:0:0:0:
204,224,213317,1,2,1:2:0:0:
164,228,213404,1,0,0:0:0:0:
128,240,213490,1,10,0:2:0:0:
92,248,213576,1,0,0:0:0:0:
56,244,213662,1,0,0:0:0:0:
24,224,213748,1,0,0:0:0:0:
8,188,213835,5,4,0:2:0:0:
40,168,213921,1,0,0:0:0:0:
76,168,214007,1,0,1:0:0:0:
112,184,214093,1,0,0:0:0:0:
136,212,214179,1,8,0:0:0:0:
140,252,214266,1,0,0:0:0:0:
132,288,214352,1,2,0:2:0:0:
104,316,214438,1,0,0:0:0:0:
68,324,214524,6,0,L|20:328,3,47.5,0|0|2|0,0:1|0:0|1:2|0:0,0:0:0:0:
140,252,214869,2,0,L|188:256,3,47.5,14|0|8|0,0:2|0:0|0:0|0:0,0:0:0:0:
76,168,215214,5,4,1:2:0:0:
64,132,215300,1,0,0:0:0:0:
68,96,215386,1,0,0:0:0:0:
84,60,215473,1,0,0:0:0:0:
116,40,215559,1,8,0:0:0:0:
152,36,215645,1,0,0:0:0:0:
188,44,215731,1,2,0:2:0:0:
220,68,215817,1,0,0:0:0:0:
232,104,215904,6,0,L|236:160,3,47.5,0|0|2|0,0:1|0:0|1:2|0:0,0:0:0:0:
156,204,216248,2,0,L|152:260,3,47.5,10|0|0|0,0:2|0:0|0:0|0:0,0:0:0:0:
224,316,216593,5,4,1:2:0:0:
332,160,216766,1,0,1:0:0:0:
148,120,216938,1,8,0:0:0:0:
236,344,217110,5,10,0:2:0:0:
236,344,217197,1,0,0:0:0:0:
236,344,217283,1,4,1:2:0:0:
252,84,217455,1,6,1:2:0:0:
140,244,217628,1,10,0:2:0:0:
192,244,217714,1,8,0:0:0:0:
244,244,217800,1,14,0:2:0:0:
296,244,217886,1,8,0:0:0:0:
348,240,217973,5,4,1:0:0:0:
356,192,218059,1,0,0:0:0:0:
352,140,218145,1,2,0:2:0:0:
320,100,218231,1,0,0:0:0:0:
272,84,218317,1,8,0:0:0:0:
220,96,218404,1,0,0:0:0:0:
180,128,218490,1,2,0:2:0:0:
128,140,218576,1,0,0:0:0:0:
76,132,218662,6,0,L|28:124,3,47.5,2|0|2|0,0:1|0:0|1:2|0:0,0:0:0:0:
132,220,219007,2,0,L|180:212,3,47.5,10|0|0|0,0:2|0:0|0:0|0:0,0:0:0:0:
80,304,219352,5,4,0:2:0:0:
104,352,219438,1,0,0:0:0:0:
156,364,219524,1,2,1:2:0:0:
208,356,219610,1,0,0:0:0:0:
248,320,219697,1,8,0:0:0:0:
288,288,219783,1,0,0:0:0:0:
340,276,219869,1,2,0:2:0:0:
392,288,219955,1,0,0:0:0:0:
428,328,220042,6,0,L|432:380,3,47.5,2|0|2|0,0:1|0:0|1:1|0:0,0:0:0:0:
468,228,220386,2,0,L|472:176,3,47.5,14|0|8|0,0:2|0:0|0:0|0:0,0:0:0:0:
404,112,220731,5,4,1:2:0:0:
356,88,220817,1,0,0:0:0:0:
304,100,220904,1,2,0:0:0:0:
268,140,220990,1,0,0:0:0:0:
272,192,221076,1,4,1:2:0:0:
300,236,221162,1,0,0:0:0:0:
300,288,221248,1,2,0:0:0:0:
268,332,221335,1,0,0:0:0:0:
216,340,221421,6,0,L|164:336,3,47.5,2|0|2|0,0:1|0:0|1:2|0:0,0:0:0:0:
112,260,221766,2,0,L|60:264,3,47.5,10|0|0|0,0:2|0:0|0:0|0:0,0:0:0:0:
44,172,222110,5,4,0:2:0:0:
56,120,222197,1,0,0:0:0:0:
92,84,222283,1,2,1:2:0:0:
140,64,222369,1,0,0:0:0:0:
192,72,222455,5,8,0:0:0:0:
144,96,222542,1,0,0:0:0:0:
92,84,222628,1,2,0:2:0:0:
48,56,222714,1,0,0:0:0:0:
32,8,222800,5,4,0:2:0:0:
80,32,222886,1,0,0:0:0:0:
92,84,222973,1,6,1:2:0:0:
84,136,223059,1,0,0:0:0:0:
44,172,223145,5,10,0:2:0:0:
96,180,223231,1,0,0:0:0:0:
148,188,223317,1,14,0:2:0:0:
200,192,223404,1,0,0:0:0:0:
252,200,223490,6,0,L|312:208,7,47.5,4|0|2|0|8|0|2|0,1:2|0:0|0:2|0:0|0:0|0:0|0:2|0:0,0:0:0:0:
372,148,224179,1,2,0:1:0:0:
380,96,224266,1,0,0:0:0:0:
364,48,224352,1,2,1:2:0:0:
316,28,224438,1,0,0:0:0:0:
264,36,224524,1,10,0:2:0:0:
224,72,224610,1,0,0:0:0:0:
180,100,224697,1,0,0:0:0:0:
128,96,224783,1,0,0:0:0:0:
88,60,224869,5,4,0:2:0:0:
136,40,224955,1,0,0:0:0:0:
188,52,225042,1,2,1:2:0:0:
228,84,225128,1,0,0:0:0:0:
236,136,225214,1,8,0:0:0:0:
216,184,225300,1,0,0:0:0:0:
196,232,225386,1,2,0:2:0:0:
196,284,225473,1,0,0:0:0:0:
228,324,225559,6,0,L|284:332,3,47.5,2|0|2|0,0:1|0:0|1:1|0:0,0:0:0:0:
364,276,225904,6,0,L|368:220,1,47.5,14|0,0:2|0:0,0:0:0:0:
312,152,226076,2,0,L|316:96,1,47.5,8|0,0:0|0:0,0:0:0:0:
264,36,226248,6,0,L|216:40,1,47.5,2|0,0:1|0:0,0:0:0:0:
312,152,226421,2,0,L|360:156,1,47.5,2|0,0:1|0:0,0:0:0:0:
268,264,226593,2,0,L|220:268,1,47.5,2|0,0:1|0:0,0:0:0:0:
312,376,226766,2,0,L|360:380,1,47.5,2|0,0:1|0:0,0:0:0:0:
440,332,226938,5,2,0:1:0:0:
460,280,227024,1,0,0:0:0:0:
452,224,227110,1,2,0:1:0:0:
408,184,227197,1,0,0:0:0:0:
352,180,227283,1,2,0:1:0:0:
304,212,227369,1,0,0:0:0:0:
248,212,227455,1,2,0:1:0:0:
200,180,227542,1,0,0:0:0:0:
196,124,227627,5,2,0:1:0:0:
196,124,227714,1,0,0:0:0:0:
196,124,227800,2,0,L|256:120,1,56.9999982604981,2|0,0:1|0:0,0:0:0:0:
360,215,227972,5,2,0:1:0:0:
360,215,228059,1,0,0:0:0:0:
360,215,228145,2,0,L|300:211,1,56.9999982604981,2|0,0:1|0:0,0:0:0:0:
196,306,228317,5,2,0:1:0:0:
196,306,228404,1,0,0:0:0:0:
196,306,228490,2,0,L|256:302,1,56.9999982604981,2|0,0:1|0:0,0:0:0:0:
360,368,228662,6,0,L|388:371,6,28.4999991302491,0|0|0|0|0|0|0,0:0|0:0|0:0|0:0|0:0|0:0|0:0,0:0:0:0:
196,306,229007,6,0,B|196:342|196:342|204:378,1,71.2500027179719,4|0,1:0|0:0,0:0:0:0:
360,215,229179,2,0,B|360:251|360:251|352:287,1,71.2500027179719,2|0,0:2|0:0,0:0:0:0:
196,124,229352,2,0,B|196:160|196:160|204:196,1,71.2500027179719,8|0,0:0|0:0,0:0:0:0:
360,33,229524,2,0,B|360:69|360:69|352:105,1,71.2500027179719,2|0,0:2|0:0,0:0:0:0:
218,216,229697,6,0,L|138:208,1,71.2500027179719,2|0,0:1|0:0,0:0:0:0:
337,307,229869,2,0,L|407:299,1,71.2500027179719,8|0,0:0|0:0,0:0:0:0:
203,194,230042,2,0,L|132:186,1,71.2500027179719,2|0,1:2|0:0,0:0:0:0:
352,285,230214,2,0,L|422:277,1,71.2500027179719,2|0,0:2|0:0,0:0:0:0:
484,152,230386,5,4,0:2:0:0:
484,96,230473,1,0,0:0:0:0:
452,48,230559,1,2,1:2:0:0:
396,40,230645,1,0,0:0:0:0:
340,56,230731,1,8,0:0:0:0:
304,100,230817,1,0,0:0:0:0:
252,124,230904,1,2,0:2:0:0:
196,112,230990,1,0,0:0:0:0:
156,72,231076,6,0,P|145:38|143:2,3,71.2500027179719,2|0|2|0,0:1|0:0|1:1|0:0,0:0:0:0:
211,195,231421,2,0,P|246:203|281:200,1,71.2500027179719,12|0,0:2|0:0,0:0:0:0:
213,7,231593,2,0,P|178:0|143:2,1,71.2500027179719,10|0,0:2|0:0,0:0:0:0:
56,116,231766,5,4,1:2:0:0:
40,172,231852,1,0,0:0:0:0:
60,224,231938,1,2,0:2:0:0:
108,252,232024,1,0,0:0:0:0:
164,252,232110,1,8,0:0:0:0:
216,228,232197,1,0,0:0:0:0:
248,180,232283,1,2,0:2:0:0:
296,152,232369,1,0,0:0:0:0:
352,152,232455,6,0,L|348:228,1,71.2500027179719,2|0,0:1|0:0,0:0:0:0:
220,384,232628,2,0,L|216:312,1,71.2500027179719,0|0,0:0|0:0,0:0:0:0:
376,156,232800,2,0,L|372:232,1,71.2500027179719,8|0,0:0|0:0,0:0:0:0:
192,384,232973,2,0,L|188:312,1,71.2500027179719,0|0,0:0|0:0,0:0:0:0:
244,73,233145,6,0,P|248:110|244:146,1,71.2500027179719,4|0,0:2|0:0,0:0:0:0:
108,322,233317,2,0,P|104:285|108:249,1,71.2500027179719,4|0,0:2|0:0,0:0:0:0:
276,58,233490,2,0,P|280:95|276:131,1,71.2500027179719,12|0,0:2|0:0,0:0:0:0:
140,310,233662,2,0,P|136:273|140:237,1,71.2500027179719,4|0,0:2|0:0,0:0:0:0:
304,46,233835,6,0,P|312:80|309:116,1,71.2500027179719,4|0,0:2|0:0,0:0:0:0:
390,209,234007,2,0,P|357:219|321:216,1,71.2500027179719,10|0,0:2|0:0,0:0:0:0:
225,290,234180,2,0,P|218:255|221:219,1,71.2500027179719,14|0,0:2|0:0,0:0:0:0:
141,126,234352,2,0,P|176:119|212:122,1,71.2500027179719,2|0,1:2|0:0,0:0:0:0:
432,132,234524,5,4,1:2:0:0:
467,175,234610,1,0,0:0:0:0:
473,232,234697,1,2,0:2:0:0:
448,282,234783,1,0,0:0:0:0:
393,304,234869,1,8,0:0:0:0:
337,303,234955,1,0,0:0:0:0:
293,262,235042,1,2,0:2:0:0:
244,236,235128,1,0,0:0:0:0:
187,235,235214,6,0,P|149:243|116:259,3,71.2500027179719,2|0|2|0,0:1|0:0|1:2|0:0,0:0:0:0:
321,141,235559,2,0,P|328:109|324:68,1,71.2500027179719,8|0,0:0|0:0,0:0:0:0:
125,187,235731,2,0,P|117:218|121:259,1,71.2500027179719,2|0,0:2|0:0,0:0:0:0:
192,361,235904,5,4,0:2:0:0:
248,363,235990,1,0,0:0:0:0:
302,348,236076,1,2,1:2:0:0:
337,303,236162,1,0,0:0:0:0:
353,249,236248,1,8,0:0:0:0:
347,192,236335,1,0,0:0:0:0:
321,141,236421,1,0,0:1:0:0:
271,116,236507,1,0,0:0:0:0:
214,114,236593,6,0,L|141:110,3,71.2500027179719,2|0|2|0,0:1|0:0|1:1|0:0,0:0:0:0:
325,70,236938,2,0,P|336:39|336:1,1,71.2500027179719,12|0,0:2|0:0,0:0:0:0:
143,109,237110,2,0,P|131:139|131:180,1,71.2500027179719,10|0,0:2|0:0,0:0:0:0:
247,302,237283,5,4,1:2:0:0:
303,290,237369,1,0,0:0:0:0:
342,249,237455,1,2,0:2:0:0:
347,192,237542,1,0,0:0:0:0:
321,141,237628,5,8,0:0:0:0:
374,159,237714,1,0,0:0:0:0:
428,144,237800,1,2,0:2:0:0:
461,99,237886,1,0,0:0:0:0:
467,44,237973,6,0,P|436:28|392:24,3,71.2500027179719,2|0|2|0,0:1|0:0|1:2|0:0,0:0:0:0:
321,141,238317,2,0,P|287:149|244:144,3,71.2500027179719,8|0|10|0,0:0|0:0|0:2|0:0,0:0:0:0:
96,32,238662,6,0,L|97:108,1,71.2500027179719,4|0,1:2|0:0,0:0:0:0:
102,324,238835,2,0,L|100:247,1,71.2500027179719,2|0,1:2|0:0,0:0:0:0:
188,30,239007,6,0,L|189:106,1,71.2500027179719,8|0,0:0|0:0,0:0:0:0:
194,323,239180,2,0,L|192:246,1,71.2500027179719,10|0,0:2|0:0,0:0:0:0:
280,30,239351,6,0,L|281:106,1,71.2500027179719,4|0,1:2|0:0,0:0:0:0:
286,322,239524,2,0,L|284:245,1,71.2500027179719,6|0,1:2|0:0,0:0:0:0:
423,179,239697,5,10,0:2:0:0:
367,177,239783,1,8,0:0:0:0:
311,175,239869,1,14,0:2:0:0:
254,173,239955,1,8,0:0:0:0:
198,171,240042,5,0,0:0:0:0:
256,192,240128,12,0,245559,0:0:0:0:
176,88,250904,6,0,L|276:92,1,95
344,152,251421,1,0,3:0:0:0:
344,152,252110,1,0,3:0:0:0:
344,152,252800,1,0,3:0:0:0:
376,280,253490,1,0,3:0:0:0:
344,152,253662,1,0,0:0:0:0:
300,240,253835,6,0,L|252:236,1,47.5,0|0,0:0|0:0,0:0:0:0:
148,128,254179,1,0,3:0:0:0:
148,128,254869,1,0,3:0:0:0:
148,128,255559,1,0,3:0:0:0:
116,260,256248,1,0,3:0:0:0:
148,128,256421,1,0,0:0:0:0:
196,212,256593,6,0,L|248:208,1,47.5,0|0,0:0|0:0,0:0:0:0:
320,152,256938,1,0,3:0:0:0:
320,152,257628,1,0,3:0:0:0:
320,152,258317,1,0,3:0:0:0:
364,236,258490,1,0,0:0:0:0:
364,236,258662,2,0,L|420:232,2,47.5,0|0|0,0:0|0:0|3:0,0:0:0:0:
300,308,259179,1,0,0:0:0:0:
300,308,259352,6,0,L|248:312,1,47.5,0|0,0:0|0:0,0:0:0:0:
172,260,259697,1,0,3:0:0:0:
172,260,260386,1,0,3:0:0:0:
172,260,261076,1,0,3:0:0:0:
244,200,261248,1,0,0:0:0:0:
244,200,261421,2,0,L|296:196,1,47.5,0|0,0:0|0:0,0:0:0:0:
384,224,261766,1,0,0:0:0:0:
384,224,261938,1,0,0:0:0:0:
320,88,262110,6,0,L|232:92,1,76,0|0,3:0|0:0,0:0:0:0:
116,228,262455,2,0,L|191:231,1,76,0|0,3:0|0:0,0:0:0:0:
296,112,262800,2,0,L|220:115,1,76,0|0,3:0|0:0,0:0:0:0:
140,252,263145,2,0,L|215:255,1,76,0|0,3:0|0:0,0:0:0:0:
384,224,263490,6,0,P|392:188|388:144,1,76,0|0,3:0|0:0,0:0:0:0:
224,68,263835,2,0,P|216:104|220:148,1,76,0|0,3:0|0:0,0:0:0:0:
416,240,264179,2,0,P|424:204|420:160,1,76,0|0,3:0|0:0,0:0:0:0:
256,84,264524,2,0,P|248:120|252:164,1,76,0|0,3:0|0:0,0:0:0:0:
304,304,264869,6,0,B|336:312|336:312|380:304,1,76,0|0,3:0|0:0,0:0:0:0:
325,159,265214,2,0,B|293:151|293:151|249:159,1,76,0|0,3:0|0:0,0:0:0:0:
316,332,265559,2,0,B|348:340|348:340|392:332,1,76,0|0,3:0|0:0,0:0:0:0:
337,187,265904,2,0,B|305:179|305:179|261:187,1,76,0|0,3:0|0:0,0:0:0:0:
184,316,266248,5,0,3:0:0:0:
184,316,266593,1,0,3:0:0:0:
88,196,266938,2,0,L|80:112,1,76,0|0,3:0|0:0,0:0:0:0:
200,28,267283,2,0,L|192:103,1,76,0|0,3:0|0:0,0:0:0:0:
268,236,267628,6,0,P|304:240|344:236,1,76,8|0,0:0|0:0,0:0:0:0:
452,128,267973,1,0,3:0:0:0:
452,128,268317,2,0,L|456:48,1,76,0|0,3:0|0:0,0:0:0:0:
343,236,268662,2,0,L|339:160,1,76,0|0,3:0|0:0,0:0:0:0:
208,80,269007,6,0,P|168:76|128:80,1,76,8|0,0:0|0:0,0:0:0:0:
40,200,269352,1,0,3:0:0:0:
40,200,269697,2,0,L|36:276,1,76,0|0,3:0|0:0,0:0:0:0:
132,79,270042,2,0,L|136:155,1,76,0|0,3:0|0:0,0:0:0:0:
200,292,270386,6,0,P|236:300|284:296,1,76,0|0,3:0|0:0,0:0:0:0:
380,188,270731,1,0,3:0:0:0:
380,188,270904,2,0,P|376:144|292:168,1,152,0|0,0:0|0:0,0:0:0:0:
314,238,271421,1,0,3:0:0:0:
380,48,271593,6,0,L|228:56,1,152,0|0,0:0|0:0,0:0:0:0:
140,180,272110,2,0,P|128:144|128:96,1,76,0|0,3:0|0:0,0:0:0:0:
216,232,272455,2,0,P|228:196|228:148,1,76,0|0,3:0|0:0,0:0:0:0:
128,272,272800,1,0,3:0:0:0:
276,316,272973,1,0,0:0:0:0:
276,316,273145,6,0,P|304:280|312:248,1,76,8|0,0:0|0:0,0:0:0:0:
236,120,273490,1,0,3:0:0:0:
236,120,273835,2,0,L|232:40,1,76,10|0,3:0|0:0,0:0:0:0:
308,176,274179,1,0,3:0:0:0:
308,176,274352,6,0,P|264:204|168:180,1,152,8|0,0:0|0:0,0:0:0:0:
80,60,274869,1,0,3:0:0:0:
80,60,275214,2,0,L|76:144,1,76,10|0,3:0|0:0,0:0:0:0:
128,280,275559,1,0,3:0:0:0:
128,280,275731,6,0,B|164:296|201:281|201:281|234:268|280:280,1,152,8|0,0:0|0:0,0:0:0:0:
376,164,276248,1,0,3:0:0:0:
376,164,276593,2,0,L|380:76,1,76,10|0,3:0|0:0,0:0:0:0:
292,212,276938,1,0,0:0:0:0:
292,212,277110,6,0,P|345:258|428:246,1,152,8|0,0:0|0:0,0:0:0:0:
379,88,277628,1,0,3:0:0:0:
379,88,277973,2,0,P|340:84|300:88,1,76,10|0,3:0|0:0,0:0:0:0:
204,204,278317,2,0,P|165:208|125:204,1,76,0|0,3:0|0:0,0:0:0:0:
32,84,278662,6,0,L|28:8,1,76,8|0,0:0|0:0,0:0:0:0:
128,204,279007,2,0,L|132:128,1,76,0|0,3:0|0:0,0:0:0:0:
180,68,279266,1,0,0:0:0:0:
180,68,279352,2,0,B|212:60|212:60|260:68,1,76,2|0,3:0|0:0,0:0:0:0:
304,212,279697,2,0,B|336:220|336:220|384:212,1,76,0|0,3:0|0:0,0:0:0:0:
420,68,280042,6,0,P|412:112|416:144,1,76,8|0,0:0|0:0,0:0:0:0:
504,264,280386,2,0,P|512:308|508:340,1,76,0|0,3:0|0:0,0:0:0:0:
492,356,280645,1,0,0:0:0:0:
472,364,280731,1,2,3:0:0:0:
448,368,280817,1,0,0:0:0:0:
424,368,280904,1,0,0:0:0:0:
308,268,281076,1,0,3:0:0:0:
180,352,281248,1,0,0:0:0:0:
180,352,281421,6,0,L|176:268,1,76,8|0,0:0|0:0,0:0:0:0:
288,172,281766,2,0,L|292:88,1,76,0|0,3:0|0:0,0:0:0:0:
240,40,282024,1,0,0:0:0:0:
240,40,282110,2,0,L|164:36,1,76,2|0,3:0|0:0,0:0:0:0:
288,172,282455,2,0,L|364:168,1,76,0|0,3:0|0:0,0:0:0:0:
500,96,282800,6,0,P|504:56|496:16,1,76,8|0,0:0|0:0,0:0:0:0:
361,93,283145,2,0,P|357:133|365:173,1,76,0|0,3:0|0:0,0:0:0:0:
376,188,283404,1,0,0:0:0:0:
396,200,283490,1,2,3:0:0:0:
416,204,283576,1,0,0:0:0:0:
440,204,283662,1,0,0:0:0:0:
432,52,283835,1,0,3:0:0:0:
292,152,284007,1,0,0:0:0:0:
440,204,284179,5,8,0:0:0:0:
440,204,284352,1,2,0:3:0:0:
352,80,284524,5,8,0:0:0:0:
352,80,284697,1,2,0:3:0:0:
240,212,284869,5,8,0:0:0:0:
240,212,285042,1,2,0:3:0:0:
140,96,285214,5,8,0:0:0:0:
140,96,285386,1,2,0:3:0:0:
76,232,285559,5,8,0:0:0:0:
72,156,285731,1,2,0:3:0:0:
216,48,285904,5,8,0:0:0:0:
220,124,286076,1,2,0:3:0:0:
332,252,286248,5,8,0:0:0:0:
328,176,286420,1,2,0:3:0:0:
432,40,286593,5,8,0:0:0:0:
436,116,286765,1,2,0:3:0:0:
76,232,286938,5,8,0:0:0:0:
76,232,287110,1,2,0:3:0:0:
216,48,287283,5,8,0:0:0:0:
216,48,287455,1,2,0:3:0:0:
332,252,287628,5,8,0:0:0:0:
332,252,287800,1,2,0:3:0:0:
432,40,287973,5,8,0:0:0:0:
432,40,288145,1,2,0:3:0:0:
200,248,288317,6,0,L|192:152,1,95,8|2,0:0|0:3,0:0:0:0:
328,20,288662,2,0,L|320:114,1,95,8|2,0:0|0:3,0:0:0:0:
120,208,289007,1,0,3:0:0:0:
120,208,289093,1,0,0:0:0:0:
120,208,289179,1,2,0:3:0:0:
216,44,289352,1,0,3:0:0:0:
190,283,289524,1,10,2:0:0:0:
296,152,289697,5,2,3:1:0:0:
262,160,289783,1,0,3:0:0:0:
228,157,289869,1,2,3:1:0:0:
198,143,289955,1,0,3:0:0:0:
170,123,290041,1,2,3:1:0:0:
138,110,290128,1,0,3:0:0:0:
104,107,290214,1,2,3:1:0:0:
72,118,290300,1,0,3:0:0:0:
46,141,290386,5,2,3:1:0:0:
27,169,290473,1,0,0:0:0:0:
20,202,290559,1,2,3:1:0:0:
22,236,290645,1,0,0:0:0:0:
34,267,290731,1,2,3:1:0:0:
56,292,290817,1,0,0:0:0:0:
86,307,290904,1,2,3:1:0:0:
119,312,290990,1,0,0:0:0:0:
153,309,291076,5,2,3:1:0:0:
190,283,291162,1,0,0:0:0:0:
214,244,291248,1,2,3:1:0:0:
248,214,291335,1,0,0:0:0:0:
292,205,291421,1,2,3:1:0:0:
334,221,291507,1,0,0:0:0:0:
366,252,291593,1,2,3:1:0:0:
377,295,291679,1,0,0:0:0:0:
375,341,291766,5,2,3:1:0:0:
406,308,291852,1,0,0:0:0:0:
420,264,291938,1,2,3:1:0:0:
417,218,292024,1,0,0:0:0:0:
398,176,292110,1,2,3:1:0:0:
359,150,292197,1,0,3:0:0:0:
313,148,292283,1,2,3:1:0:0:
267,147,292369,1,0,3:0:0:0:
223,130,292455,6,0,L|215:58,15,66.4999979705811,2|0|2|0|2|0|2|0|2|0|2|0|2|0|2|0,0:1|0:0|0:1|0:0|0:1|0:0|0:1|0:0|0:1|0:0|0:1|0:0|0:1|0:0|0:1|0:0,0:0:0:0:
180,212,293835,6,0,L|176:256,6,38,2|0|8|0|2|0|8,0:1|0:0|0:0|0:0|0:1|0:0|0:0,0:0:0:0:
124,124,294179,6,0,L|120:76,6,40.375000770092,2|0|2|0|2|0|2,0:1|0:0|0:1|0:0|0:1|0:0|0:1,0:0:0:0:
80,216,294524,6,0,L|72:264,6,42.7499986953736,2|2|2|2|2|2|2,0:1|0:1|0:1|0:1|0:1|0:1|0:1,0:0:0:0:
32,132,294869,6,0,L|28:100,9,31.6666666666667,2|2|2|2|2|2|2|2|2|2,0:1|0:1|0:1|0:1|0:1|0:1|0:1|0:1|0:1|0:1,0:0:0:0:
132,312,295214,5,0,0:0:0:0:
132,312,295559,1,0,0:0:0:0:
132,312,295904,1,0,0:0:0:0:
132,312,296248,1,0,0:0:0:0:
132,312,296593,6,0,L|176:296,1,47.5,8|8,0:0|0:0,0:0:0:0:
240,360,296766,2,0,L|284:376,1,47.5,8|0,0:0|0:0,0:0:0:0:
360,320,296938,1,0,1:0:0:0:
264,156,297110,1,8,0:0:0:0:
264,156,297197,1,8,0:0:0:0:
264,156,297283,1,8,0:0:0:0:
272,256,297455,5,0,1:0:0:0:
340,72,297628,1,8,1:2:0:0:
144,116,297800,1,0,0:0:0:0:
374,158,297973,6,0,P|366:114|334:66,1,95,4|0,1:0|0:0,0:0:0:0:
144,116,298317,1,10,0:2:0:0:
272,256,298490,1,2,0:2:0:0:
300,256,298576,1,0,0:0:0:0:
328,256,298662,1,0,0:0:0:0:
356,256,298748,1,0,0:0:0:0:
384,256,298835,1,2,1:2:0:0:
264,156,299007,1,10,0:2:0:0:
344,336,299179,1,0,0:0:0:0:
448,176,299352,6,0,P|400:156|356:156,1,95,0|0,0:0|1:0,0:0:0:0:
220,312,299697,1,10,0:2:0:0:
144,116,299869,1,10,0:2:0:0:
144,116,299955,1,2,0:2:0:0:
144,116,300042,1,2,0:2:0:0:
296,176,300214,1,0,1:0:0:0:
136,236,300386,2,0,L|236:228,1,95,10|8,0:2|0:0,0:0:0:0:
52,164,300731,6,0,P|32:208|28:264,1,95,0|0,1:0|0:0,0:0:0:0:
205,318,301076,2,0,P|225:274|229:218,1,95,10|2,0:2|0:2,0:0:0:0:
220,200,301335,1,0,0:0:0:0:
204,176,301421,1,0,0:0:0:0:
180,160,301507,1,0,0:0:0:0:
156,148,301593,1,2,1:2:0:0:
116,316,301766,1,10,0:2:0:0:
304,280,301938,1,0,0:0:0:0:
156,148,302110,5,0,0:0:0:0:
205,318,302283,1,0,1:0:0:0:
296,116,302455,5,10,0:2:0:0:
205,318,302628,1,10,0:2:0:0:
144,112,302800,5,2,0:2:0:0:
205,318,302973,1,0,1:0:0:0:
312,88,303145,5,10,0:2:0:0:
205,318,303317,1,8,0:0:0:0:
108,224,303490,5,8,0:0:0:0:
204,220,303662,1,2,0:2:0:0:
300,220,303835,1,10,0:2:0:0:
252,136,304007,5,0,0:0:0:0:
252,328,304179,1,2,0:2:0:0:
252,136,304352,1,0,1:0:0:0:
108,224,304524,5,8,0:0:0:0:
300,220,304697,1,0,0:0:0:0:
300,220,304869,1,2,0:2:0:0:
152,144,305042,5,0,1:0:0:0:
156,332,305214,1,10,0:2:0:0:
152,144,305386,1,10,0:2:0:0:
204,220,305559,5,0,0:0:0:0:
108,224,305731,1,2,1:2:0:0:
260,115,305904,5,8,0:0:0:0:
156,332,306076,1,10,0:2:0:0:
59,146,306248,6,0,P|105:135|152:144,1,95,8|2,1:0|0:2,0:0:0:0:
460,146,306593,2,0,P|415:136|368:143,1,95,8|2,0:0|0:2,0:0:0:0:
260,304,306938,1,10,0:2:0:0:
260,304,307024,1,8,0:0:0:0:
260,304,307111,1,2,1:2:0:0:
260,20,307283,2,0,L|260:132,1,95,8|2,0:0|0:2,0:0:0:0:
260,304,307628,5,2,1:1:0:0:
260,304,307800,1,2,1:0:0:0:
152,144,307973,5,10,0:2:0:0:
368,144,308145,1,10,0:2:0:0:
260,259,308317,5,2,1:1:0:0:
260,115,308490,1,2,1:0:0:0:
164,352,308662,5,8,0:0:0:0:
212,344,308748,1,8,0:0:0:0:
260,352,308835,1,12,0:2:0:0:
308,344,308921,1,8,0:0:0:0:
356,352,309007,6,0,P|384:304|388:252,1,95,4|0,1:0|0:0,0:0:0:0:
260,136,309352,1,10,0:2:0:0:
428,44,309524,1,2,0:2:0:0:
428,72,309610,1,2,0:2:0:0:
428,100,309697,1,0,0:0:0:0:
428,128,309783,1,2,0:2:0:0:
428,156,309869,1,2,1:2:0:0:
316,28,310042,1,10,0:2:0:0:
508,84,310214,6,0,L|507:178,1,95,0|0,0:0|0:0,0:0:0:0:
344,216,310559,1,0,0:0:0:0:
428,156,310731,1,10,0:2:0:0:
272,268,310904,1,10,0:2:0:0:
272,268,310990,1,10,0:2:0:0:
272,268,311076,1,10,0:2:0:0:
348,96,311248,1,0,1:0:0:0:
371,306,311421,2,0,P|351:258|343:210,1,95,10|8,0:2|0:0,0:0:0:0:
444,56,311766,6,0,L|344:68,1,95,0|0,1:0|0:0,0:0:0:0:
176,180,312110,2,0,L|276:192,1,95,10|4,0:2|0:3,0:0:0:0:
296,204,312369,1,2,0:2:0:0:
316,224,312455,1,4,0:3:0:0:
328,248,312542,1,2,0:2:0:0:
332,276,312628,1,2,1:2:0:0:
160,280,312800,1,10,0:2:0:0:
252,108,312973,1,0,0:0:0:0:
332,276,313145,5,0,0:0:0:0:
176,180,313317,1,0,1:0:0:0:
264,356,313490,5,10,0:2:0:0:
252,108,313662,1,10,0:2:0:0:
164,376,313835,5,0,0:0:0:0:
356,104,314007,1,0,1:0:0:0:
80,312,314179,5,10,0:2:0:0:
428,176,314352,1,8,0:0:0:0:
264,356,314524,5,8,0:0:0:0:
224,268,314697,1,2,0:2:0:0:
284,192,314869,1,10,0:2:0:0:
316,280,315042,5,0,0:0:0:0:
224,268,315214,1,2,0:0:0:0:
188,176,315386,1,0,1:0:0:0:
356,104,315559,5,8,0:0:0:0:
264,356,315731,1,0,0:0:0:0:
140,100,315904,6,0,P|188:92|236:100,1,95,2|0,0:2|1:0,0:0:0:0:
316,280,316248,1,10,0:2:0:0:
188,176,316421,1,10,0:2:0:0:
188,176,316507,1,0,0:0:0:0:
188,176,316593,1,0,0:0:0:0:
356,104,316766,1,2,1:2:0:0:
284,192,316938,1,8,0:2:0:0:
348,16,317110,1,10,0:2:0:0:
253,23,317283,6,0,L|348:16,1,95,0|0,0:0|0:0,0:0:0:0:
450,111,317973,6,0,L|356:104,1,95,0|0,0:0|0:0,0:0:0:0:
284,192,318662,5,0,0:0:0:0:
348,16,319007,5,0,0:0:0:0:
348,16,319524,5,0,1:0:0:0:
284,192,319697,2,0,L|228:204,1,47.5,8|8,0:0|0:0,0:0:0:0:
180,120,319869,2,0,L|124:108,1,47.5,8|8,0:0|0:0,0:0:0:0:
52,172,320042,6,0,L|63:275,1,95,4|0,1:0|0:0,0:0:0:0:
217,375,320386,2,0,L|227:280,1,95,8|8,0:0|0:3,0:0:0:0:
271,95,320731,1,4,0:3:0:0:
139,233,320904,1,0,1:0:0:0:
325,200,321076,1,8,0:0:0:0:
154,116,321248,1,0,0:0:0:0:
242,284,321421,6,0,P|280:291|351:280,1,95,0|0,0:0|1:0,0:0:0:0:
364,96,321766,2,0,P|326:89|255:100,1,95,8|8,0:0|0:3,0:0:0:0:
139,233,322110,1,4,0:3:0:0:
85,50,322283,1,0,1:0:0:0:
154,206,322455,1,12,0:2:0:0:
208,23,322628,1,8,0:0:0:0:
287,195,322800,6,0,L|386:188,1,95,4|0,1:2|0:0,0:0:0:0:
454,364,323145,2,0,L|355:357,1,95,8|8,0:0|0:3,0:0:0:0:
161,336,323490,1,4,0:3:0:0:
287,195,323662,1,0,1:0:0:0:
261,299,323835,1,8,0:0:0:0:
212,115,324007,1,0,0:0:0:0:
56,223,324179,6,0,L|63:326,1,95,0|0,0:0|1:0,0:0:0:0:
181,132,324524,2,0,L|174:235,1,95,8|8,0:0|0:3,0:0:0:0:
104,49,324869,2,0,P|156:22|199:21,1,95,4|4,0:3|1:2,0:0:0:0:
262,197,325214,2,0,P|210:224|167:225,1,95,8|12,0:0|0:2,0:0:0:0:
293,77,325559,5,4,1:2:0:0:
377,246,325731,1,0,0:0:0:0:
262,197,325904,1,8,0:0:0:0:
372,143,326076,5,4,0:3:0:0:
297,316,326248,1,4,0:3:0:0:
262,197,326421,1,0,1:0:0:0:
387,339,326593,2,0,L|282:342,1,95,8|0,0:0|0:0,0:0:0:0:
150,213,326938,5,0,0:0:0:0:
262,197,327110,1,0,1:0:0:0:
219,300,327283,1,8,0:0:0:0:
192,112,327455,5,4,0:3:0:0:
325,282,327628,1,4,0:3:0:0:
113,312,327800,1,0,1:0:0:0:
304,110,327973,2,0,P|342:140|359:182,1,95,12|8,0:2|0:0,0:0:0:0:
150,213,328317,5,4,1:2:0:0:
192,112,328490,1,0,0:0:0:0:
236,331,328662,1,8,0:0:0:0:
113,312,328835,5,4,0:3:0:0:
262,197,329007,1,0,1:0:0:0:
236,331,329179,1,0,1:0:0:0:
86,129,329352,1,8,0:0:0:0:
298,96,329524,1,0,0:0:0:0:
219,300,329697,5,8,0:0:0:0:
171,297,329783,1,8,0:0:0:0:
123,294,329869,1,8,0:0:0:0:
75,291,329955,1,0,0:0:0:0:
27,289,330042,1,0,1:0:0:0:
129,54,330214,1,8,0:0:0:0:
236,331,330386,1,0,1:0:0:0:
236,331,330559,1,0,1:0:0:0:
304,128,330731,6,0,L|232:136,1,71.25,2|0,0:2|0:0,0:0:0:0:
104,248,331076,6,0,L|108:328,1,71.2500027179719,2|0,0:0|0:0,0:0:0:0:
233,135,331248,2,0,L|229:55,1,71.2500027179719,4|0,0:0|0:0,0:0:0:0:
362,248,331421,2,0,L|358:328,1,71.2500027179719,8|0,0:0|0:0,0:0:0:0:
491,135,331593,2,0,L|495:55,1,71.2500027179719,2|0,0:0|0:0,0:0:0:0:
276,289,331766,6,0,L|204:289,1,71.2500027179719,2|0,0:1|0:0,0:0:0:0:
326,91,331938,2,0,L|397:91,1,71.2500027179719,8|0,0:0|0:0,0:0:0:0:
268,270,332110,2,0,L|196:270,1,71.2500027179719,2|0,1:2|0:0,0:0:0:0:
334,111,332283,2,0,L|410:111,1,71.2500027179719,2|0,0:2|0:0,0:0:0:0:
128,264,332455,5,0,0:0:0:0:
76,240,332542,1,0,0:0:0:0:
40,196,332628,1,2,0:0:0:0:
28,140,332714,1,0,0:0:0:0:
34,83,332800,1,8,0:0:0:0:
68,38,332886,1,0,0:0:0:0:
116,7,332973,1,2,0:0:0:0:
172,1,333059,1,0,0:0:0:0:
226,17,333145,6,0,P|256:40|280:68,3,71.2500027179719,2|0|2|0,0:1|0:0|1:1|0:0,0:0:0:0:
68,38,333490,2,0,P|64:76|68:112,1,71.2500027179719,12|0,0:0|0:0,0:0:0:0:
244,208,333662,2,0,P|248:170|244:134,1,71.2500027179719,10|0,0:0|0:0,0:0:0:0:
128,264,333835,5,4,1:2:0:0:
156,312,333921,1,0,0:0:0:0:
208,336,334007,1,2,0:2:0:0:
264,340,334093,1,0,0:0:0:0:
320,324,334179,1,8,0:0:0:0:
356,280,334266,1,0,0:0:0:0:
376,228,334352,1,2,0:2:0:0:
372,172,334438,1,0,0:0:0:0:
344,120,334524,6,0,L|268:124,1,71.2500027179719,2|0,0:1|0:0,0:0:0:0:
128,264,334697,2,0,L|204:260,1,71.2500027179719,0|0,0:0|0:0,0:0:0:0:
368,100,334869,2,0,L|292:104,1,71.2500027179719,8|0,0:0|0:0,0:0:0:0:
152,244,335042,2,0,L|228:240,1,71.2500027179719,0|0,0:0|0:0,0:0:0:0:
144,80,335214,6,0,L|148:156,1,71.2500027179719,4|0,0:2|0:0,0:0:0:0:
332,344,335386,2,0,L|328:268,1,71.2500027179719,4|0,0:2|0:0,0:0:0:0:
128,64,335559,2,0,L|132:140,1,71.2500027179719,12|0,0:2|0:0,0:0:0:0:
320,324,335731,2,0,L|316:248,1,71.2500027179719,4|0,0:2|0:0,0:0:0:0:
112,48,335904,6,0,P|111:83|123:134,1,71.2500027179719,4|0,0:2|0:0,0:0:0:0:
51,224,336076,2,0,P|86:227|121:221,1,71.2500027179719,10|0,0:2|0:0,0:0:0:0:
228,283,336248,2,0,P|235:249|228:214,1,71.2500027179719,14|0,0:2|0:0,0:0:0:0:
289,103,336421,2,0,P|245:101|203:113,1,71.2500027179719,4|0,1:2|0:0,0:0:0:0:
136,300,336593,5,4,1:2:0:0:
162,350,336679,1,0,0:0:0:0:
212,377,336766,1,2,0:2:0:0:
268,369,336852,1,0,0:0:0:0:
310,331,336938,1,8,0:0:0:0:
322,275,337024,1,0,0:0:0:0:
308,220,337110,1,2,0:2:0:0:
260,188,337197,1,0,0:0:0:0:
204,196,337283,6,0,P|198:233|204:272,3,71.2500027179719,2|0|2|0,0:1|0:0|1:2|0:0,0:0:0:0:
289,103,337628,2,0,P|324:96|360:100,1,71.2500027179719,8|0,0:0|0:0,0:0:0:0:
272,263,337800,2,0,P|237:270|201:266,1,71.2500027179719,2|0,0:2|0:0,0:0:0:0:
100,204,337973,5,4,0:2:0:0:
104,148,338059,1,0,0:0:0:0:
140,104,338145,1,2,1:2:0:0:
196,92,338231,1,0,0:0:0:0:
252,104,338317,1,10,0:2:0:0:
300,136,338404,1,0,0:0:0:0:
356,152,338490,1,0,0:2:0:0:
412,140,338576,1,0,0:0:0:0:
460,112,338662,6,0,P|458:77|452:40,3,71.2500027179719,2|0|2|0,0:1|0:0|0:1|0:0,0:0:0:0:
364,272,339007,2,0,P|325:272|292:268,1,71.2500027179719,14|0,0:2|0:0,0:0:0:0:
381,37,339179,2,0,P|419:37|453:41,1,71.2500027179719,2|0,0:2|0:0,0:0:0:0:
293,268,339352,6,0,L|289:196,1,71.2500027179719,6|0,0:1|0:0,0:0:0:0:
197,48,339524,2,0,L|201:120,1,71.2500027179719,2|0,0:1|0:0,0:0:0:0:
145,288,339697,2,0,L|141:216,1,71.2500027179719,2|0,0:1|0:0,0:0:0:0:
49,68,339869,2,0,L|53:140,1,71.2500027179719,2|0,0:1|0:0,0:0:0:0:
56,280,340042,5,2,0:1:0:0:
68,336,340128,1,0,0:0:0:0:
116,368,340214,1,2,0:1:0:0:
165,370,340300,1,0,0:0:0:0:
216,336,340386,1,2,0:1:0:0:
228,280,340473,1,0,0:0:0:0:
216,224,340559,1,2,0:1:0:0:
232,168,340645,1,0,0:0:0:0:
280,140,340731,5,2,0:1:0:0:
280,140,340817,1,0,0:0:0:0:
280,140,340904,2,0,L|356:144,1,71.2500027179719,2|0,0:1|0:0,0:0:0:0:
216,224,341076,5,2,0:1:0:0:
216,224,341162,1,0,0:0:0:0:
216,224,341249,2,0,L|140:228,1,71.2500027179719,2|0,0:1|0:0,0:0:0:0:
296,324,341421,6,0,L|336:328,6,40.375000770092,2|0|0|0|2|0|0,0:1|0:0|0:0|0:0|0:1|0:0|0:0,0:0:0:0:
400,228,341766,6,0,L|436:220,8,31.6666666666667,2|0|0|0|0|0|2|0|0,0:1|0:0|0:0|0:0|0:0|0:0|0:1|0:0|0:0,0:0:0:0:
476,132,342110,5,4,1:2:0:0:
476,132,342283,1,0,0:0:0:0:
476,132,342455,2,0,P|478:98|472:52,1,76,0|0,0:0|0:0,0:0:0:0:
332,0,342800,2,0,P|329:33|336:80,1,76,8|0,0:0|0:0,0:0:0:0:
292,220,343145,1,0,0:0:0:0:
292,220,343317,1,0,0:0:0:0:
292,220,343490,6,0,L|216:216,1,76,0|0,0:0|0:0,0:0:0:0:
334,75,343835,2,0,L|258:79,1,76,0|0,1:0|0:0,0:0:0:0:
376,172,344179,2,0,P|416:144|436:112,1,76,8|0,0:0|0:0,0:0:0:0:
334,75,344524,1,0,0:0:0:0:
292,220,344697,1,0,0:0:0:0:
216,140,344869,6,0,P|176:136|136:140,1,76,0|0,0:0|0:0,0:0:0:0:
36,264,345214,2,0,P|56:228|64:176,1,76,0|0,1:0|0:0,0:0:0:0:
32,36,345559,2,0,P|40:72|59:105,1,76,8|0,0:0|0:0,0:0:0:0:
204,52,345904,1,0,0:0:0:0:
204,52,346076,1,0,0:0:0:0:
144,216,346248,2,0,P|140:252|144:292,1,76,0|0,0:0|0:0,0:0:0:0:
232,192,346593,6,0,P|200:140|180:128,1,76,0|0,1:0|0:0,0:0:0:0:
52,236,346938,2,0,P|84:288|104:300,1,76,8|0,0:0|0:0,0:0:0:0:
84,144,347283,2,0,P|40:140|8:148,1,76,0|0,0:0|0:0,0:0:0:0:
144,216,347628,6,0,P|172:176|152:80,1,152,0|0,1:0|0:0,0:0:0:0:
152,80,348145,1,0,0:0:0:0:
260,236,348317,2,0,L|300:240,8,31.6666666666667,8|0|0|0|0|0|0|0|0,0:0|0:0|0:0|0:0|0:0|0:0|0:0|0:0|0:0,0:0:0:0:
212,168,348835,1,0,0:0:0:0:
184,316,349007,6,0,L|272:320,1,76,0|0,0:0|0:0,0:0:0:0:
364,160,349352,2,0,L|276:164,1,76,0|0,1:0|0:0,0:0:0:0:
416,244,349697,2,0,P|452:200|444:104,1,152,8|0,0:0|0:0,0:0:0:0:
320,20,350214,1,0,0:0:0:0:
272,100,350386,6,0,L|196:96,1,76,0|0,0:0|0:0,0:0:0:0:
56,32,350731,2,0,P|48:67|48:112,1,76,0|0,1:0|0:0,0:0:0:0:
152,196,351076,2,0,P|159:231|160:276,1,76,8|0,0:0|0:0,0:0:0:0:
40,368,351421,6,0,L|136:356,1,76,0|0,0:0|0:0,0:0:0:0:
235,261,351766,2,0,L|139:273,1,76,0|0,0:0|0:0,0:0:0:0:
286,349,352110,2,0,P|322:313|334:269,1,76,0|0,1:0|0:0,0:0:0:0:
284,152,352455,5,8,0:0:0:0:
284,152,352542,1,0,0:0:0:0:
284,152,352628,1,0,0:0:0:0:
416,224,352800,1,0,0:0:0:0:
352,84,352973,1,0,0:0:0:0:
276,236,353145,6,0,B|240:236|212:208|212:208|160:220|156:276,1,152,4|0,1:2|0:0,0:0:0:0:
232,324,353662,1,0,0:0:0:0:
284,152,353835,2,0,P|216:116|144:140,1,152,8|0,0:0|0:0,0:0:0:0:
208,208,354352,1,0,0:0:0:0:
300,68,354524,6,0,P|260:48|224:40,1,76,0|0,0:0|0:0,0:0:0:0:
100,132,354869,2,0,L|64:144,2,38,0|0|0,1:0|0:0|0:0,0:0:0:0:
208,208,355214,2,0,P|216:248|212:288,1,76,8|0,0:0|0:0,0:0:0:0:
84,364,355559,2,0,L|164:360,1,76,0|0,0:0|0:0,0:0:0:0:
289,286,355904,2,0,L|209:282,1,76,0|0,0:0|0:0,0:0:0:0:
344,204,356248,6,0,P|372:236|384:288,1,76,0|0,1:0|0:0,0:0:0:0:
256,200,356593,2,0,P|272:156|292:132,1,76,8|0,0:0|0:0,0:0:0:0:
408,108,356938,1,0,0:0:0:0:
408,108,357110,1,0,0:0:0:0:
284,16,357283,2,0,L|204:20,1,76,0|0,0:0|0:0,0:0:0:0:
112,136,357628,6,0,P|116:96|112:52,1,76,0|0,1:0|0:0,0:0:0:0:
237,250,357973,2,0,P|233:210|237:166,1,76,8|0,0:0|0:0,0:0:0:0:
112,364,358317,2,0,P|116:324|112:280,1,76,0|0,0:0|0:0,0:0:0:0:
31,180,358662,5,0,1:0:0:0:
113,60,358835,1,0,0:0:0:0:
211,175,359007,2,0,P|259:179|291:175,1,76,0|0,0:0|0:0,0:0:0:0:
408,108,359352,2,0,L|412:68,8,31.6666666666667,8|0|0|0|0|0|0|0|0,0:0|0:0|0:0|0:0|0:0|0:0|0:0|0:0|0:0,0:0:0:0:
448,184,359869,1,0,0:0:0:0:
360,292,360042,6,0,L|364:344,2,50.6666666666667,0|0|0,0:0|0:0|0:0,0:0:0:0:
256,200,360386,2,0,L|259:149,2,50.6666666666667,0|0|0,1:0|0:0|0:0,0:0:0:0:
192,280,360731,6,0,P|152:287|116:280,1,76,8|0,0:0|0:0,0:0:0:0:
48,144,361076,2,0,P|56:188|52:224,1,76,0|0,0:0|0:0,0:0:0:0:
8,364,361421,5,0,0:0:0:0:
8,364,361766,2,0,L|88:376,1,76,0|0,1:0|0:0,0:0:0:0:
192,280,362110,2,0,L|272:268,1,76,8|0,0:0|0:0,0:0:0:0:
132,200,362455,2,0,P|104:232|92:268,1,76,0|0,0:0|0:0,0:0:0:0:
228,192,362800,6,0,P|212:144|124:104,1,152,0|0,0:0|1:0,0:0:0:0:
132,200,363317,1,0,0:0:0:0:
268,68,363490,1,8,3:2:0:0:
268,68,363662,1,0,3:0:0:0:
120,24,363835,1,0,3:0:0:0:
120,24,364007,1,0,3:0:0:0:
228,192,364179,6,0,B|268:216|320:192|320:192|368:168|420:192,1,190,4|8,1:2|0:0,0:0:0:0:
411,188,365904,2,0,P|416:216|412:240,1,47.5,0|0,1:0|0:0,0:0:0:0:
320,256,366248,2,0,P|315:284|319:308,1,47.5,8|0,0:0|0:0,0:0:0:0:
396,356,366593,1,0,0:0:0:0:
320,256,366938,6,0,P|272:248|224:256,1,95,0|0,0:0|1:0,0:0:0:0:
88,384,367628,1,8,0:0:0:0:
88,384,368662,5,0,1:0:0:0:
40,200,369007,1,8,0:0:0:0:
204,296,369352,1,0,0:0:0:0:
124,248,369524,1,0,0:0:0:0:
208,200,369697,6,0,P|260:196|304:200,1,95,0|0,1:0|0:0,0:0:0:0:
380,256,370214,1,0,0:0:0:0:
444,140,370386,2,0,L|440:108,16,23.75,8|0|0|0|0|0|0|0|0|0|0|0|0|0|0|0|0,0:0|0:0|0:0|0:0|0:0|0:0|0:0|0:0|0:0|0:0|0:0|0:0|0:0|0:0|0:0|0:0|0:0,0:0:0:0:
444,140,371421,5,0,1:0:0:0:
380,256,371766,1,8,0:0:0:0:
288,92,372110,2,0,P|236:100|288:184,1,190,0|0,0:0|1:0,0:0:0:0:
384,24,373145,1,8,0:0:0:0:
384,24,373490,1,0,0:0:0:0:
424,112,373662,1,0,0:0:0:0:
368,188,373835,6,0,L|304:192,1,47.5,0|0,0:0|0:0,0:0:0:0:
228,164,374179,2,0,P|216:120|224:64,1,95,0|8,1:0|0:0,0:0:0:0:
308,112,374697,1,0,0:0:0:0:
308,112,374783,1,0,0:0:0:0:
308,112,374869,1,0,0:0:0:0:
152,216,375042,1,0,0:0:0:0:
120,128,375214,6,0,P|200:136|244:232,2,190,0|8|0,1:0|0:0|0:0,0:0:0:0:
152,216,376938,1,0,1:0:0:0:
276,72,377283,1,8,0:0:0:0:
320,188,377628,6,0,B|368:208|368:208|512:188,1,190,0|0,0:0|1:0,0:0:0:0:
380,36,378662,2,0,P|372:84|380:132,1,95,8|0,0:0|0:0,0:0:0:0:
448,288,379352,5,0,0:0:0:0:
448,288,379697,2,0,P|408:298|353:282,1,95,0|8,1:0|0:0,0:0:0:0:
240,168,380386,1,0,0:0:0:0:
196,256,380731,6,0,P|236:264|292:252,1,95,0|0,1:0|0:0,0:0:0:0:
268,64,381421,2,0,L|264:32,16,23.75,8|0|0|0|0|0|0|0|0|0|0|0|0|0|0|0|0,0:0|0:0|0:0|0:0|0:0|0:0|0:0|0:0|0:0|0:0|0:0|0:0|0:0|0:0|0:0|0:0|0:0,0:0:0:0:
268,64,382455,5,0,1:0:0:0:
174,183,382800,1,0,0:0:0:0:
174,183,383145,2,0,B|232:160|232:160|368:186,1,190,0|0,0:0|3:0,0:0:0:0:
236,273,384179,1,8,0:0:0:0:
180,68,384524,1,0,0:0:0:0:
180,68,384697,1,0,0:0:0:0:
180,68,384869,6,0,L|128:64,1,47.5,0|0,3:0|0:0,0:0:0:0:
224,151,385214,2,0,L|276:147,1,47.5,0|0,1:0|0:0,0:0:0:0:
364,56,385559,6,0,P|352:92|352:120,1,56.9999982604981,8|0,3:2|3:0,0:0:0:0:
408,272,385904,2,0,P|420:236|420:208,1,56.9999982604981,0|0,3:0|3:0,0:0:0:0:
