osu file format v14

[General]
AudioFilename: The Pretender.mp3
AudioLeadIn: 0
PreviewTime: 172455
Countdown: 0
SampleSet: Normal
StackLeniency: 0.4
Mode: 1
LetterboxInBreaks: 0
WidescreenStoryboard: 0

[Editor]
Bookmarks: 22110,46938,57800,69007,80042,99352,110386,121421,132455,143490,154524,168317,173835,184869,195904,206938,217973,229007,240042,251076,262110,273145,284179,289697,297973,309007,320042,331076,342110,353145,364179,375214
DistanceSpacing: 2
BeatDivisor: 4
GridSize: 32
TimelineZoom: 2.3

[Metadata]
Title:The Pretender
TitleUnicode:The Pretender
Artist:Infected Mushroom
ArtistUnicode:Infected Mushroom
Creator:gaston_2199
Version:Infected Oni
Source:
Tags:echoes silence patience grace foo fighters cover dnb drum and bass lince cosmico marathon
BeatmapID:1244241
BeatmapSetID:587602

[Difficulty]
HPDrainRate:5
CircleSize:2
OverallDifficulty:6.5
ApproachRate:10
SliderMultiplier:1.4
SliderTickRate:2

[Events]
//Background and Video events
0,0,"BG.jpg",0,0
//Break Periods
//Storyboard Layer 0 (Background)
//Storyboard Layer 1 (Fail)
//Storyboard Layer 2 (Pass)
//Storyboard Layer 3 (Foreground)
//Storyboard Sound Samples

[TimingPoints]
42,344.827586206897,4,1,0,50,1,0
22110,-133.333333333333,4,1,0,50,0,0
44524,-125,4,1,0,80,0,0
44697,-120.481927710843,4,1,0,80,0,0
44783,-119.047619047619,4,1,0,80,0,0
44869,-117.647058823529,4,1,0,80,0,0
45042,-113.636363636364,4,1,0,80,0,0
45214,-111.111111111111,4,1,0,80,0,0
45559,-105.263157894737,4,1,0,80,0,0
46938,-100,4,1,0,80,0,0
93835,-100,4,1,0,50,0,0
99352,-90.9090909090909,4,1,0,90,0,1
118662,-90.9090909090909,4,1,0,90,0,0
144179,-133.333333333333,4,1,0,50,0,0
168317,-125,4,1,0,55,0,0
169697,-117.647058823529,4,1,0,60,0,0
171076,-111.111111111111,4,1,0,65,0,0
172455,-90.9090909090909,4,1,0,80,0,0
173835,-90.9090909090909,4,1,0,90,0,1
193145,-90.9090909090909,4,1,0,80,0,0
206938,-90.9090909090909,4,1,0,90,0,1
240042,-90.9090909090909,4,1,0,80,0,0
240386,-95.2380952380952,4,1,0,80,0,0
240731,-100,4,1,0,80,0,0
295386,-100,4,1,0,20,0,0
296593,-90.9090909090909,4,1,0,80,0,0
297973,-90.9090909090909,4,1,0,90,0,1
316421,-96.1538461538461,4,1,0,90,0,1
316507,-99.009900990099,4,1,0,90,0,1
316593,-102.040816326531,4,1,0,90,0,1
316766,-107.52688172043,4,1,0,90,0,1
316938,-114.942528735632,4,1,0,90,0,1
317024,-119.047619047619,4,1,0,90,0,1
317110,-123.456790123457,4,1,0,90,0,1
317197,-128.205128205128,4,1,0,90,0,1
317283,-133.333333333333,4,1,0,50,0,0
319524,-90.9090909090909,4,1,0,80,0,0
320042,-90.9090909090909,4,1,0,90,0,1
342110,-90.9090909090909,4,1,0,80,0,0
342800,-133.333333333333,4,1,0,80,0,0

[Colours]
Combo1 : 63,63,63
Combo2 : 222,117,67
Combo3 : 255,255,255
Combo4 : 212,212,212
Combo5 : 170,170,170
Combo6 : 228,69,69
Combo7 : 127,127,127
Combo8 : 90,90,90

[HitObjects]
256,192,22110,5,0,0:0:0:0:
256,192,22455,1,0,0:0:0:0:
256,192,22800,1,8,0:0:0:0:
256,192,23145,1,0,0:0:0:0:
256,192,23835,1,8,0:0:0:0:
256,192,24524,1,0,0:0:0:0:
256,192,25214,1,0,0:0:0:0:
256,192,25904,1,8,0:0:0:0:
256,192,26593,1,0,0:0:0:0:
256,192,26938,1,8,0:0:0:0:
256,192,27283,1,8,0:0:0:0:
256,192,27628,1,0,0:0:0:0:
256,192,28317,1,8,0:0:0:0:
256,192,29697,1,8,0:0:0:0:
256,192,30042,1,0,0:0:0:0:
256,192,30731,1,0,0:0:0:0:
256,192,31076,1,8,0:0:0:0:
256,192,32455,1,8,0:0:0:0:
256,192,33145,5,0,0:0:0:0:
256,192,33490,1,0,0:0:0:0:
256,192,33835,1,8,0:0:0:0:
256,192,34179,1,0,0:0:0:0:
256,192,34869,1,8,0:0:0:0:
256,192,35559,1,0,0:0:0:0:
256,192,36248,1,0,0:0:0:0:
256,192,36938,1,8,0:0:0:0:
256,192,37628,1,0,0:0:0:0:
256,192,37973,1,8,0:0:0:0:
256,192,38317,1,8,0:0:0:0:
256,192,38662,1,0,0:0:0:0:
256,192,39352,1,8,0:0:0:0:
256,192,40731,1,8,0:0:0:0:
256,192,41076,1,0,0:0:0:0:
256,192,41766,1,0,0:0:0:0:
256,192,42110,1,8,0:0:0:0:
256,192,43490,1,8,0:0:0:0:
256,192,44179,1,8,0:0:0:0:
256,192,44524,1,8,0:0:0:0:
256,192,44697,1,0,0:0:0:0:
256,192,44783,1,0,0:0:0:0:
256,192,44869,1,8,0:0:0:0:
256,192,45042,1,0,0:0:0:0:
256,192,45214,1,8,0:0:0:0:
256,192,45559,1,8,0:0:0:0:
256,192,45645,1,8,0:0:0:0:
256,192,45731,1,0,0:0:0:0:
256,192,45817,1,0,0:0:0:0:
256,192,45904,1,8,0:0:0:0:
256,192,45990,1,0,0:0:0:0:
256,192,46076,1,0,0:0:0:0:
256,192,46162,1,0,0:0:0:0:
256,192,46248,1,8,0:0:0:0:
256,192,46335,1,0,0:0:0:0:
256,192,46421,1,8,0:0:0:0:
256,192,46507,1,0,0:0:0:0:
256,192,46593,1,8,0:0:0:0:
256,192,46938,1,4,0:0:0:0:
256,192,47283,1,8,0:0:0:0:
256,192,47455,1,0,0:0:0:0:
256,192,47542,1,8,0:0:0:0:
256,192,47628,1,0,0:0:0:0:
256,192,47800,1,0,0:0:0:0:
256,192,47973,1,8,0:0:0:0:
256,192,48145,1,0,0:0:0:0:
256,192,48231,1,0,0:0:0:0:
256,192,48317,1,0,0:0:0:0:
256,192,48490,1,0,0:0:0:0:
256,192,48662,1,8,0:0:0:0:
256,192,48835,1,0,0:0:0:0:
256,192,48921,1,0,0:0:0:0:
256,192,49007,1,8,0:0:0:0:
256,192,49179,1,0,0:0:0:0:
256,192,49352,1,8,0:0:0:0:
256,192,49524,1,8,0:0:0:0:
256,192,49697,1,0,0:0:0:0:
256,192,50042,1,8,0:0:0:0:
256,192,50214,1,8,0:0:0:0:
256,192,50300,1,8,0:0:0:0:
256,192,50386,1,0,0:0:0:0:
256,192,50559,1,0,0:0:0:0:
256,192,50731,1,8,0:0:0:0:
256,192,50904,1,0,0:0:0:0:
256,192,50990,1,0,0:0:0:0:
256,192,51076,1,0,0:0:0:0:
256,192,51248,1,0,0:0:0:0:
256,192,51421,1,8,0:0:0:0:
256,192,51593,1,0,0:0:0:0:
256,192,51679,1,0,0:0:0:0:
256,192,51766,1,8,0:0:0:0:
256,192,51938,1,0,0:0:0:0:
256,192,52110,1,8,0:0:0:0:
256,192,52283,1,0,0:0:0:0:
256,192,52455,1,0,0:0:0:0:
256,192,52800,1,8,0:0:0:0:
256,192,52973,1,0,0:0:0:0:
256,192,53059,1,0,0:0:0:0:
256,192,53145,1,0,0:0:0:0:
256,192,53317,1,0,0:0:0:0:
256,192,53490,1,8,0:0:0:0:
256,192,53662,1,0,0:0:0:0:
256,192,53748,1,0,0:0:0:0:
256,192,53835,1,8,0:0:0:0:
256,192,54007,1,0,0:0:0:0:
256,192,54179,1,8,0:0:0:0:
256,192,54352,1,0,0:0:0:0:
256,192,54524,1,8,0:0:0:0:
256,192,54610,1,8,0:0:0:0:
256,192,54697,1,0,0:0:0:0:
256,192,54869,1,8,0:0:0:0:
256,192,55042,1,8,0:0:0:0:
256,192,55214,1,0,0:0:0:0:
256,192,55559,1,8,0:0:0:0:
256,192,55731,1,0,0:0:0:0:
256,192,55817,1,0,0:0:0:0:
256,192,55904,1,0,0:0:0:0:
256,192,56076,1,0,0:0:0:0:
256,192,56248,1,8,0:0:0:0:
256,192,56421,1,0,0:0:0:0:
256,192,56507,1,0,0:0:0:0:
256,192,56593,1,8,0:0:0:0:
256,192,56766,1,0,0:0:0:0:
256,192,56938,1,8,0:0:0:0:
256,192,57110,1,0,0:0:0:0:
256,192,57283,1,8,0:0:0:0:
256,192,57369,1,8,0:0:0:0:
256,192,57455,1,0,0:0:0:0:
256,192,57542,1,0,0:0:0:0:
256,192,57628,1,8,0:0:0:0:
256,192,57800,1,0,0:0:0:0:
256,192,57973,1,4,0:0:0:0:
256,192,58317,1,8,0:0:0:0:
256,192,58490,1,8,0:0:0:0:
256,192,58576,1,8,0:0:0:0:
256,192,58662,1,0,0:0:0:0:
256,192,58835,1,0,0:0:0:0:
256,192,59007,1,8,0:0:0:0:
256,192,59179,1,0,0:0:0:0:
256,192,59266,1,0,0:0:0:0:
256,192,59352,1,0,0:0:0:0:
256,192,59524,1,0,0:0:0:0:
256,192,59697,1,8,0:0:0:0:
256,192,59869,1,0,0:0:0:0:
256,192,59955,1,0,0:0:0:0:
256,192,60042,1,8,0:0:0:0:
256,192,60214,1,0,0:0:0:0:
256,192,60386,1,8,0:0:0:0:
256,192,60559,1,8,0:0:0:0:
256,192,60731,1,0,0:0:0:0:
256,192,61076,1,8,0:0:0:0:
256,192,61248,1,0,0:0:0:0:
256,192,61335,1,8,0:0:0:0:
256,192,61421,1,0,0:0:0:0:
256,192,61593,1,0,0:0:0:0:
256,192,61766,1,8,0:0:0:0:
256,192,61938,1,0,0:0:0:0:
256,192,62024,1,0,0:0:0:0:
256,192,62110,1,0,0:0:0:0:
256,192,62283,1,0,0:0:0:0:
256,192,62455,1,8,0:0:0:0:
256,192,62628,1,0,0:0:0:0:
256,192,62714,1,0,0:0:0:0:
256,192,62800,1,8,0:0:0:0:
256,192,62973,1,0,0:0:0:0:
256,192,63145,1,8,0:0:0:0:
256,192,63317,1,0,0:0:0:0:
256,192,63490,1,0,0:0:0:0:
256,192,63835,1,8,0:0:0:0:
256,192,64007,1,0,0:0:0:0:
256,192,64093,1,0,0:0:0:0:
256,192,64179,1,8,0:0:0:0:
256,192,64266,1,0,0:0:0:0:
256,192,64352,1,0,0:0:0:0:
256,192,64524,1,8,0:0:0:0:
256,192,64697,1,0,0:0:0:0:
256,192,64783,1,0,0:0:0:0:
256,192,64869,1,8,0:0:0:0:
256,192,65042,1,0,0:0:0:0:
256,192,65214,1,8,0:0:0:0:
256,192,65386,1,0,0:0:0:0:
256,192,65473,1,0,0:0:0:0:
256,192,65559,1,8,0:0:0:0:
256,192,65731,1,0,0:0:0:0:
256,192,65904,1,8,0:0:0:0:
256,192,66076,1,8,0:0:0:0:
256,192,66248,1,0,0:0:0:0:
256,192,66593,1,8,0:0:0:0:
256,192,66766,1,0,0:0:0:0:
256,192,66852,1,0,0:0:0:0:
256,192,66938,1,8,0:0:0:0:
256,192,67024,1,0,0:0:0:0:
256,192,67110,1,0,0:0:0:0:
256,192,67283,1,8,0:0:0:0:
256,192,67455,1,0,0:0:0:0:
256,192,67542,1,0,0:0:0:0:
256,192,67628,1,8,0:0:0:0:
256,192,67800,1,0,0:0:0:0:
256,192,67973,1,8,0:0:0:0:
256,192,68145,1,8,0:0:0:0:
256,192,68231,1,8,0:0:0:0:
256,192,68317,1,0,0:0:0:0:
256,192,68490,1,0,0:0:0:0:
256,192,68662,1,8,0:0:0:0:
256,192,68748,1,8,0:0:0:0:
256,192,68835,1,8,0:0:0:0:
256,192,69007,1,4,0:0:0:0:
256,192,69352,1,8,0:0:0:0:
256,192,69524,1,0,0:0:0:0:
256,192,69610,1,0,0:0:0:0:
256,192,69697,1,8,0:0:0:0:
256,192,69783,1,8,0:0:0:0:
256,192,69869,1,0,0:0:0:0:
256,192,70042,1,8,0:0:0:0:
256,192,70214,1,0,0:0:0:0:
256,192,70300,1,0,0:0:0:0:
256,192,70386,1,0,0:0:0:0:
256,192,70559,1,0,0:0:0:0:
256,192,70731,1,8,0:0:0:0:
256,192,70904,1,0,0:0:0:0:
256,192,70990,1,0,0:0:0:0:
256,192,71076,1,8,0:0:0:0:
256,192,71248,1,0,0:0:0:0:
256,192,71421,1,8,0:0:0:0:
256,192,71593,1,8,0:0:0:0:
256,192,71766,1,0,0:0:0:0:
256,192,72110,1,8,0:0:0:0:
256,192,72283,1,0,0:0:0:0:
256,192,72369,1,8,0:0:0:0:
256,192,72455,1,8,0:0:0:0:
256,192,72542,1,8,0:0:0:0:
256,192,72628,1,0,0:0:0:0:
256,192,72800,1,8,0:0:0:0:
256,192,72973,1,0,0:0:0:0:
256,192,73059,1,8,0:0:0:0:
256,192,73145,1,0,0:0:0:0:
256,192,73317,1,0,0:0:0:0:
256,192,73490,1,8,0:0:0:0:
256,192,73662,1,0,0:0:0:0:
256,192,73748,1,0,0:0:0:0:
256,192,73835,1,8,0:0:0:0:
256,192,74007,1,0,0:0:0:0:
256,192,74179,1,8,0:0:0:0:
256,192,74352,1,8,0:0:0:0:
256,192,74524,1,0,0:0:0:0:
256,192,74869,1,8,0:0:0:0:
256,192,75042,1,0,0:0:0:0:
256,192,75128,1,0,0:0:0:0:
256,192,75214,1,8,0:0:0:0:
256,192,75300,1,8,0:0:0:0:
256,192,75386,1,0,0:0:0:0:
256,192,75559,1,8,0:0:0:0:
256,192,75731,1,0,0:0:0:0:
256,192,75817,1,0,0:0:0:0:
256,192,75904,1,8,0:0:0:0:
256,192,76076,1,0,0:0:0:0:
256,192,76248,1,8,0:0:0:0:
256,192,76421,1,0,0:0:0:0:
256,192,76593,1,8,0:0:0:0:
256,192,76679,1,8,0:0:0:0:
256,192,76766,1,0,0:0:0:0:
256,192,76938,1,8,0:0:0:0:
256,192,77110,1,8,0:0:0:0:
256,192,77283,1,0,0:0:0:0:
256,192,77628,1,8,0:0:0:0:
256,192,77800,1,0,0:0:0:0:
256,192,77886,1,8,0:0:0:0:
256,192,77973,1,8,0:0:0:0:
256,192,78059,1,8,0:0:0:0:
256,192,78145,1,0,0:0:0:0:
256,192,78317,1,8,0:0:0:0:
256,192,78490,1,0,0:0:0:0:
256,192,78576,1,0,0:0:0:0:
256,192,78662,1,8,0:0:0:0:
256,192,78835,1,0,0:0:0:0:
256,192,79007,1,8,0:0:0:0:
256,192,79179,1,0,0:0:0:0:
256,192,79352,1,8,0:0:0:0:
256,192,79438,1,8,0:0:0:0:
256,192,79524,1,0,0:0:0:0:
256,192,79610,1,0,0:0:0:0:
256,192,79697,1,8,0:0:0:0:
256,192,79869,1,0,0:0:0:0:
256,192,80042,1,4,0:0:0:0:
256,192,80386,1,8,0:0:0:0:
256,192,80559,1,0,0:0:0:0:
256,192,80645,1,8,0:0:0:0:
256,192,80731,1,8,0:0:0:0:
256,192,80817,1,8,0:0:0:0:
256,192,80904,1,0,0:0:0:0:
256,192,81076,1,8,0:0:0:0:
256,192,81248,1,0,0:0:0:0:
256,192,81335,1,0,0:0:0:0:
256,192,81421,1,0,0:0:0:0:
256,192,81593,1,0,0:0:0:0:
256,192,81766,1,8,0:0:0:0:
256,192,81938,1,0,0:0:0:0:
256,192,82024,1,0,0:0:0:0:
256,192,82110,1,8,0:0:0:0:
256,192,82283,1,0,0:0:0:0:
256,192,82455,1,8,0:0:0:0:
256,192,82628,1,8,0:0:0:0:
256,192,82800,1,0,0:0:0:0:
256,192,83145,1,8,0:0:0:0:
256,192,83317,1,0,0:0:0:0:
256,192,83404,1,0,0:0:0:0:
256,192,83490,1,8,0:0:0:0:
256,192,83576,1,8,0:0:0:0:
256,192,83662,1,0,0:0:0:0:
256,192,83835,1,8,0:0:0:0:
256,192,84007,1,0,0:0:0:0:
256,192,84093,1,8,0:0:0:0:
256,192,84179,1,0,0:0:0:0:
256,192,84352,1,0,0:0:0:0:
256,192,84524,1,8,0:0:0:0:
256,192,84697,1,0,0:0:0:0:
256,192,84783,1,0,0:0:0:0:
256,192,84869,1,8,0:0:0:0:
256,192,85042,1,0,0:0:0:0:
256,192,85214,1,8,0:0:0:0:
256,192,85386,1,8,0:0:0:0:
256,192,85559,1,0,0:0:0:0:
256,192,85904,1,8,0:0:0:0:
256,192,86076,1,0,0:0:0:0:
256,192,86162,1,0,0:0:0:0:
256,192,86248,1,8,0:0:0:0:
256,192,86335,1,8,0:0:0:0:
256,192,86421,1,0,0:0:0:0:
256,192,86593,1,8,0:0:0:0:
256,192,86766,1,0,0:0:0:0:
256,192,86852,1,0,0:0:0:0:
256,192,86938,1,8,0:0:0:0:
256,192,87024,1,0,0:0:0:0:
256,192,87110,1,0,0:0:0:0:
256,192,87283,1,8,0:0:0:0:
256,192,87455,1,0,0:0:0:0:
256,192,87542,1,0,0:0:0:0:
256,192,87628,1,8,0:0:0:0:
256,192,87800,1,0,0:0:0:0:
256,192,87973,1,8,0:0:0:0:
256,192,88145,1,8,0:0:0:0:
256,192,88317,1,0,0:0:0:0:
256,192,88662,1,8,0:0:0:0:
256,192,88835,1,0,0:0:0:0:
256,192,88921,1,8,0:0:0:0:
256,192,89007,1,8,0:0:0:0:
256,192,89093,1,8,0:0:0:0:
256,192,89179,1,0,0:0:0:0:
256,192,89352,1,8,0:0:0:0:
256,192,89524,1,0,0:0:0:0:
256,192,89610,1,0,0:0:0:0:
256,192,89697,1,8,0:0:0:0:
256,192,89783,1,8,0:0:0:0:
256,192,89869,1,0,0:0:0:0:
256,192,90042,1,8,0:0:0:0:
256,192,90214,1,0,0:0:0:0:
256,192,90300,1,0,0:0:0:0:
256,192,90386,1,8,0:0:0:0:
256,192,90559,1,0,0:0:0:0:
256,192,90731,1,8,0:0:0:0:
256,192,90904,1,8,0:0:0:0:
256,192,91076,1,4,0:0:0:0:
256,192,91766,1,4,0:0:0:0:
256,192,92455,1,12,0:0:0:0:
256,192,93145,1,4,0:0:0:0:
256,192,93835,12,0,96421,0:0:0:0:
256,192,96593,5,0,0:0:0:0:
256,192,96766,1,0,0:0:0:0:
256,192,96938,1,8,0:0:0:0:
256,192,97110,1,0,0:0:0:0:
256,192,97455,1,8,0:0:0:0:
256,192,97628,1,0,0:0:0:0:
256,192,97800,1,8,0:0:0:0:
256,192,97886,1,8,0:0:0:0:
256,192,97973,1,0,0:0:0:0:
256,192,98145,1,0,0:0:0:0:
256,192,98317,1,8,0:0:0:0:
256,192,98490,1,0,0:0:0:0:
256,192,98662,1,0,0:0:0:0:
256,192,98835,1,0,0:0:0:0:
256,192,98921,1,0,0:0:0:0:
256,192,99007,1,8,0:0:0:0:
256,192,99352,1,4,0:0:0:0:
256,192,99524,1,0,0:0:0:0:
256,192,99610,1,0,0:0:0:0:
256,192,99697,1,8,0:0:0:0:
256,192,99869,1,0,0:0:0:0:
256,192,100042,1,8,0:0:0:0:
256,192,100128,1,0,0:0:0:0:
256,192,100214,1,0,0:0:0:0:
256,192,100300,1,0,0:0:0:0:
256,192,100386,1,8,0:0:0:0:
256,192,100559,1,8,0:0:0:0:
256,192,100645,1,8,0:0:0:0:
256,192,100731,1,0,0:0:0:0:
256,192,100904,1,0,0:0:0:0:
256,192,101076,1,8,0:0:0:0:
256,192,101248,1,0,0:0:0:0:
256,192,101335,1,0,0:0:0:0:
256,192,101421,1,8,0:0:0:0:
256,192,101593,1,0,0:0:0:0:
256,192,101766,1,8,0:0:0:0:
256,192,102110,1,8,0:0:0:0:
256,192,102283,1,0,0:0:0:0:
256,192,102369,1,0,0:0:0:0:
256,192,102455,1,8,0:0:0:0:
256,192,102628,1,0,0:0:0:0:
256,192,102800,1,8,0:0:0:0:
256,192,102886,1,8,0:0:0:0:
256,192,102973,1,0,0:0:0:0:
256,192,103059,1,0,0:0:0:0:
256,192,103145,1,8,0:0:0:0:
256,192,103317,1,8,0:0:0:0:
256,192,103404,1,8,0:0:0:0:
256,192,103490,1,0,0:0:0:0:
256,192,103662,1,0,0:0:0:0:
256,192,103835,1,8,0:0:0:0:
256,192,104007,1,0,0:0:0:0:
256,192,104093,1,0,0:0:0:0:
256,192,104179,1,8,0:0:0:0:
256,192,104352,1,0,0:0:0:0:
256,192,104524,1,8,0:0:0:0:
256,192,104610,1,8,0:0:0:0:
256,192,104697,1,8,0:0:0:0:
256,192,104783,1,8,0:0:0:0:
256,192,104869,1,0,0:0:0:0:
256,192,105042,1,0,0:0:0:0:
256,192,105214,1,8,0:0:0:0:
256,192,105386,1,0,0:0:0:0:
256,192,105473,1,0,0:0:0:0:
256,192,105559,1,8,0:0:0:0:
256,192,105731,1,0,0:0:0:0:
256,192,105904,1,8,0:0:0:0:
256,192,106076,1,0,0:0:0:0:
256,192,106248,1,8,0:0:0:0:
256,192,106335,1,8,0:0:0:0:
256,192,106421,1,0,0:0:0:0:
256,192,106507,1,0,0:0:0:0:
256,192,106593,1,8,0:0:0:0:
256,192,106766,1,8,0:0:0:0:
256,192,106852,1,8,0:0:0:0:
256,192,106938,1,0,0:0:0:0:
256,192,107110,1,0,0:0:0:0:
256,192,107283,1,8,0:0:0:0:
256,192,107369,1,8,0:0:0:0:
256,192,107455,1,8,0:0:0:0:
256,192,107628,1,0,0:0:0:0:
256,192,107800,1,0,0:0:0:0:
256,192,107973,1,8,0:0:0:0:
256,192,108145,1,0,0:0:0:0:
256,192,108231,1,0,0:0:0:0:
256,192,108317,1,8,0:0:0:0:
256,192,108404,1,0,0:0:0:0:
256,192,108490,1,0,0:0:0:0:
256,192,108662,1,8,0:0:0:0:
256,192,108835,1,0,0:0:0:0:
256,192,109007,1,0,0:0:0:0:
256,192,109093,1,0,0:0:0:0:
256,192,109179,1,0,0:0:0:0:
256,192,109352,1,8,0:0:0:0:
256,192,109524,1,8,0:0:0:0:
256,192,109610,1,8,0:0:0:0:
256,192,109697,1,0,0:0:0:0:
256,192,109869,1,0,0:0:0:0:
256,192,110042,1,8,0:0:0:0:
256,192,110128,1,8,0:0:0:0:
256,192,110214,1,8,0:0:0:0:
256,192,110386,1,4,0:0:0:0:
256,192,110559,1,0,0:0:0:0:
256,192,110645,1,0,0:0:0:0:
256,192,110731,1,8,0:0:0:0:
256,192,110904,1,0,0:0:0:0:
256,192,110990,1,0,0:0:0:0:
256,192,111076,1,8,0:0:0:0:
256,192,111162,1,0,0:0:0:0:
256,192,111248,1,0,0:0:0:0:
256,192,111421,1,8,0:0:0:0:
256,192,111593,1,8,0:0:0:0:
256,192,111679,1,8,0:0:0:0:
256,192,111766,1,0,0:0:0:0:
256,192,111938,1,0,0:0:0:0:
256,192,112110,1,8,0:0:0:0:
256,192,112283,1,0,0:0:0:0:
256,192,112369,1,0,0:0:0:0:
256,192,112455,1,8,0:0:0:0:
256,192,112542,1,8,0:0:0:0:
256,192,112628,1,0,0:0:0:0:
256,192,112800,1,8,0:0:0:0:
256,192,113145,1,8,0:0:0:0:
256,192,113317,1,0,0:0:0:0:
256,192,113404,1,0,0:0:0:0:
256,192,113490,1,8,0:0:0:0:
256,192,113662,1,0,0:0:0:0:
256,192,113748,1,0,0:0:0:0:
256,192,113835,1,8,0:0:0:0:
256,192,113921,1,8,0:0:0:0:
256,192,114007,1,0,0:0:0:0:
256,192,114179,1,8,0:0:0:0:
256,192,114352,1,8,0:0:0:0:
256,192,114438,1,8,0:0:0:0:
256,192,114524,1,0,0:0:0:0:
256,192,114697,1,0,0:0:0:0:
256,192,114869,1,8,0:0:0:0:
256,192,115042,1,0,0:0:0:0:
256,192,115128,1,0,0:0:0:0:
256,192,115214,1,8,0:0:0:0:
256,192,115386,1,0,0:0:0:0:
256,192,115559,1,8,0:0:0:0:
256,192,115645,1,8,0:0:0:0:
256,192,115731,1,8,0:0:0:0:
256,192,115817,1,8,0:0:0:0:
256,192,115904,1,0,0:0:0:0:
256,192,116076,1,0,0:0:0:0:
256,192,116248,1,8,0:0:0:0:
256,192,116421,1,0,0:0:0:0:
256,192,116507,1,0,0:0:0:0:
256,192,116593,1,8,0:0:0:0:
256,192,116766,1,0,0:0:0:0:
256,192,116938,1,8,0:0:0:0:
256,192,117110,1,0,0:0:0:0:
256,192,117283,1,8,0:0:0:0:
256,192,117369,1,8,0:0:0:0:
256,192,117455,1,0,0:0:0:0:
256,192,117542,1,0,0:0:0:0:
256,192,117628,1,8,0:0:0:0:
256,192,117800,1,8,0:0:0:0:
256,192,117886,1,8,0:0:0:0:
256,192,117973,1,0,0:0:0:0:
256,192,118145,1,0,0:0:0:0:
256,192,118317,1,8,0:0:0:0:
256,192,118404,1,8,0:0:0:0:
256,192,118490,1,8,0:0:0:0:
256,192,118662,1,0,0:0:0:0:
256,192,119352,1,0,0:0:0:0:
256,192,120042,1,8,0:0:0:0:
256,192,120904,1,0,0:0:0:0:
256,192,121076,1,8,0:0:0:0:
256,192,121162,1,8,0:0:0:0:
256,192,121248,1,8,0:0:0:0:
256,192,121421,1,4,0:0:0:0:
256,192,121593,1,0,0:0:0:0:
256,192,121679,1,0,0:0:0:0:
256,192,121766,1,8,0:0:0:0:
256,192,121938,1,0,0:0:0:0:
256,192,122110,1,8,0:0:0:0:
256,192,122197,1,0,0:0:0:0:
256,192,122283,1,0,0:0:0:0:
256,192,122455,1,8,0:0:0:0:
256,192,122628,1,0,0:0:0:0:
256,192,122800,1,8,0:0:0:0:
256,192,122886,1,8,0:0:0:0:
256,192,122973,1,0,0:0:0:0:
256,192,123145,1,8,0:0:0:0:
256,192,123317,1,8,0:0:0:0:
256,192,123404,1,8,0:0:0:0:
256,192,123490,1,0,0:0:0:0:
256,192,123662,1,0,0:0:0:0:
256,192,123835,1,8,0:0:0:0:
256,192,124007,1,0,0:0:0:0:
256,192,124179,1,0,0:0:0:0:
256,192,124524,1,8,0:0:0:0:
256,192,124697,1,0,0:0:0:0:
256,192,124783,1,0,0:0:0:0:
256,192,124869,1,8,0:0:0:0:
256,192,125042,1,0,0:0:0:0:
256,192,125214,1,8,0:0:0:0:
256,192,125386,1,0,0:0:0:0:
256,192,125559,1,8,0:0:0:0:
256,192,125645,1,0,0:0:0:0:
256,192,125731,1,0,0:0:0:0:
256,192,125904,1,8,0:0:0:0:
256,192,126076,1,0,0:0:0:0:
256,192,126248,1,8,0:0:0:0:
256,192,126335,1,8,0:0:0:0:
256,192,126421,1,0,0:0:0:0:
256,192,126593,1,8,0:0:0:0:
256,192,126766,1,0,0:0:0:0:
256,192,126938,1,8,0:0:0:0:
256,192,127110,1,0,0:0:0:0:
256,192,127197,1,0,0:0:0:0:
256,192,127283,1,8,0:0:0:0:
256,192,127455,1,0,0:0:0:0:
256,192,127628,1,8,0:0:0:0:
256,192,127714,1,8,0:0:0:0:
256,192,127800,1,0,0:0:0:0:
256,192,127973,1,8,0:0:0:0:
256,192,128145,1,0,0:0:0:0:
256,192,128317,1,8,0:0:0:0:
256,192,128404,1,8,0:0:0:0:
256,192,128490,1,0,0:0:0:0:
256,192,128662,1,8,0:0:0:0:
256,192,128835,1,8,0:0:0:0:
256,192,128921,1,8,0:0:0:0:
256,192,129007,1,0,0:0:0:0:
256,192,129179,1,0,0:0:0:0:
256,192,129352,1,8,0:0:0:0:
256,192,129524,1,8,0:0:0:0:
256,192,129697,1,0,0:0:0:0:
256,192,130042,1,8,0:0:0:0:
256,192,130214,1,0,0:0:0:0:
256,192,130386,1,0,0:0:0:0:
256,192,130473,1,0,0:0:0:0:
256,192,130559,1,0,0:0:0:0:
256,192,130731,1,8,0:0:0:0:
256,192,130904,1,0,0:0:0:0:
256,192,131076,1,8,0:0:0:0:
256,192,131162,1,8,0:0:0:0:
256,192,131248,1,0,0:0:0:0:
256,192,131335,1,0,0:0:0:0:
256,192,131421,1,8,0:0:0:0:
256,192,131593,1,8,0:0:0:0:
256,192,131679,1,8,0:0:0:0:
256,192,131766,1,0,0:0:0:0:
256,192,131938,1,0,0:0:0:0:
256,192,132110,1,8,0:0:0:0:
256,192,132283,1,0,0:0:0:0:
256,192,132455,1,4,0:0:0:0:
256,192,132627,1,0,0:0:0:0:
256,192,132713,1,0,0:0:0:0:
256,192,132800,1,8,0:0:0:0:
256,192,132972,1,0,0:0:0:0:
256,192,133144,1,8,0:0:0:0:
256,192,133231,1,0,0:0:0:0:
256,192,133317,1,0,0:0:0:0:
256,192,133404,1,0,0:0:0:0:
256,192,133489,1,8,0:0:0:0:
256,192,133662,1,0,0:0:0:0:
256,192,133834,1,8,0:0:0:0:
256,192,133921,1,8,0:0:0:0:
256,192,134007,1,0,0:0:0:0:
256,192,134179,1,8,0:0:0:0:
256,192,134351,1,8,0:0:0:0:
256,192,134438,1,8,0:0:0:0:
256,192,134524,1,0,0:0:0:0:
256,192,134696,1,0,0:0:0:0:
256,192,134869,1,8,0:0:0:0:
256,192,135041,1,0,0:0:0:0:
256,192,135213,1,0,0:0:0:0:
256,192,135558,1,8,0:0:0:0:
256,192,135731,1,0,0:0:0:0:
256,192,135817,1,0,0:0:0:0:
256,192,135903,1,8,0:0:0:0:
256,192,136076,1,0,0:0:0:0:
256,192,136248,1,8,0:0:0:0:
256,192,136420,1,0,0:0:0:0:
256,192,136593,1,8,0:0:0:0:
256,192,136679,1,0,0:0:0:0:
256,192,136765,1,0,0:0:0:0:
256,192,136852,1,0,0:0:0:0:
256,192,136938,1,8,0:0:0:0:
256,192,137110,1,0,0:0:0:0:
256,192,137282,1,8,0:0:0:0:
256,192,137369,1,8,0:0:0:0:
256,192,137455,1,0,0:0:0:0:
256,192,137542,1,0,0:0:0:0:
256,192,137627,1,8,0:0:0:0:
256,192,137800,1,0,0:0:0:0:
256,192,137972,1,8,0:0:0:0:
256,192,138144,1,0,0:0:0:0:
256,192,138231,1,0,0:0:0:0:
256,192,138317,1,8,0:0:0:0:
256,192,138489,1,0,0:0:0:0:
256,192,138662,1,8,0:0:0:0:
256,192,138748,1,8,0:0:0:0:
256,192,138834,1,0,0:0:0:0:
256,192,139007,1,8,0:0:0:0:
256,192,139179,1,0,0:0:0:0:
256,192,139351,1,8,0:0:0:0:
256,192,139438,1,8,0:0:0:0:
256,192,139524,1,0,0:0:0:0:
256,192,139610,1,0,0:0:0:0:
256,192,139696,1,8,0:0:0:0:
256,192,139869,1,8,0:0:0:0:
256,192,139955,1,8,0:0:0:0:
256,192,140041,1,0,0:0:0:0:
256,192,140213,1,0,0:0:0:0:
256,192,140386,1,8,0:0:0:0:
256,192,140558,1,8,0:0:0:0:
256,192,140731,1,0,0:0:0:0:
256,192,141076,1,8,0:0:0:0:
256,192,141248,1,0,0:0:0:0:
256,192,141420,1,0,0:0:0:0:
256,192,141507,1,0,0:0:0:0:
256,192,141593,1,0,0:0:0:0:
256,192,141765,1,8,0:0:0:0:
256,192,141938,1,0,0:0:0:0:
256,192,142110,1,8,0:0:0:0:
256,192,142197,1,0,0:0:0:0:
256,192,142282,1,0,0:0:0:0:
256,192,142369,1,0,0:0:0:0:
256,192,142455,1,8,0:0:0:0:
256,192,142627,1,8,0:0:0:0:
256,192,142713,1,0,0:0:0:0:
256,192,142800,1,0,0:0:0:0:
256,192,142972,1,0,0:0:0:0:
256,192,143144,1,8,0:0:0:0:
256,192,143231,1,0,0:0:0:0:
256,192,143317,1,8,0:0:0:0:
256,192,143404,1,8,0:0:0:0:
256,192,143490,1,0,0:0:0:0:
256,192,144179,5,8,0:0:0:0:
256,192,144869,1,0,0:0:0:0:
256,192,145214,1,0,0:0:0:0:
256,192,145559,1,8,0:0:0:0:
256,192,146593,1,0,0:0:0:0:
256,192,146938,1,8,0:0:0:0:
256,192,147628,1,0,0:0:0:0:
256,192,147973,1,0,0:0:0:0:
256,192,148317,1,8,0:0:0:0:
256,192,148662,1,0,0:0:0:0:
256,192,149007,1,0,0:0:0:0:
256,192,149697,1,8,0:0:0:0:
256,192,150042,1,0,0:0:0:0:
256,192,150128,1,0,0:0:0:0:
256,192,150214,1,0,0:0:0:0:
256,192,150300,1,0,0:0:0:0:
256,192,150386,1,0,0:0:0:0:
256,192,150731,1,0,0:0:0:0:
256,192,151076,1,8,0:0:0:0:
256,192,151766,1,0,0:0:0:0:
256,192,152110,1,0,0:0:0:0:
256,192,152455,1,8,0:0:0:0:
256,192,152800,1,8,0:0:0:0:
256,192,152915,1,0,0:0:0:0:
256,192,153030,1,0,0:0:0:0:
256,192,153145,1,8,0:0:0:0:
256,192,153490,1,0,0:0:0:0:
256,192,153835,1,8,0:0:0:0:
256,192,154524,1,0,0:0:0:0:
256,192,155214,1,8,0:0:0:0:
256,192,155904,1,0,0:0:0:0:
256,192,156248,1,0,0:0:0:0:
256,192,156593,1,8,0:0:0:0:
256,192,157628,1,0,0:0:0:0:
256,192,157973,1,8,0:0:0:0:
256,192,158662,1,0,0:0:0:0:
256,192,159007,1,8,0:0:0:0:
256,192,159352,1,8,0:0:0:0:
256,192,159697,1,0,0:0:0:0:
256,192,160042,1,0,0:0:0:0:
256,192,160731,1,8,0:0:0:0:
256,192,161076,1,8,0:0:0:0:
256,192,161162,1,8,0:0:0:0:
256,192,161248,1,8,0:0:0:0:
256,192,161335,1,8,0:0:0:0:
256,192,161421,1,8,0:0:0:0:
256,192,161766,1,0,0:0:0:0:
256,192,162110,1,8,0:0:0:0:
256,192,162800,1,0,0:0:0:0:
256,192,163145,1,0,0:0:0:0:
256,192,163490,1,8,0:0:0:0:
256,192,163835,1,0,0:0:0:0:
256,192,163950,1,8,0:0:0:0:
256,192,164064,1,8,0:0:0:0:
256,192,164179,1,0,0:0:0:0:
256,192,164524,1,0,0:0:0:0:
256,192,164869,1,8,0:0:0:0:
256,192,165559,1,0,0:0:0:0:
256,192,166248,1,0,0:0:0:0:
256,192,166938,1,8,0:0:0:0:
256,192,167628,1,0,0:0:0:0:
256,192,168317,1,8,0:0:0:0:
256,192,168490,1,0,0:0:0:0:
256,192,168662,1,8,0:0:0:0:
256,192,168835,1,0,0:0:0:0:
256,192,168921,1,8,0:0:0:0:
256,192,169007,1,8,0:0:0:0:
256,192,169093,1,8,0:0:0:0:
256,192,169179,1,0,0:0:0:0:
256,192,169352,1,8,0:0:0:0:
256,192,169524,1,0,0:0:0:0:
256,192,169697,1,8,0:0:0:0:
256,192,169869,1,0,0:0:0:0:
256,192,170042,1,8,0:0:0:0:
256,192,170214,1,8,0:0:0:0:
256,192,170300,1,8,0:0:0:0:
256,192,170386,1,8,0:0:0:0:
256,192,170559,1,0,0:0:0:0:
256,192,170731,1,8,0:0:0:0:
256,192,170904,1,0,0:0:0:0:
256,192,171076,1,8,0:0:0:0:
256,192,171248,1,0,0:0:0:0:
256,192,171421,1,8,0:0:0:0:
256,192,171593,1,0,0:0:0:0:
256,192,171679,1,8,0:0:0:0:
256,192,171766,1,8,0:0:0:0:
256,192,171852,1,8,0:0:0:0:
256,192,171938,1,0,0:0:0:0:
256,192,172110,1,8,0:0:0:0:
256,192,172283,1,0,0:0:0:0:
256,192,172455,1,8,0:0:0:0:
256,192,172542,1,0,0:0:0:0:
256,192,172628,1,0,0:0:0:0:
256,192,172714,1,0,0:0:0:0:
256,192,172800,1,8,0:0:0:0:
256,192,172973,1,8,0:0:0:0:
256,192,173059,1,8,0:0:0:0:
256,192,173145,1,0,0:0:0:0:
256,192,173317,1,0,0:0:0:0:
256,192,173490,1,8,0:0:0:0:
256,192,173576,1,8,0:0:0:0:
256,192,173662,1,8,0:0:0:0:
256,192,173835,1,4,0:0:0:0:
256,192,174007,1,0,0:0:0:0:
256,192,174093,1,0,0:0:0:0:
256,192,174179,1,8,0:0:0:0:
256,192,174352,1,0,0:0:0:0:
256,192,174524,1,8,0:0:0:0:
256,192,174610,1,0,0:0:0:0:
256,192,174697,1,0,0:0:0:0:
256,192,174783,1,0,0:0:0:0:
256,192,174869,1,8,0:0:0:0:
256,192,175042,1,8,0:0:0:0:
256,192,175128,1,8,0:0:0:0:
256,192,175214,1,0,0:0:0:0:
256,192,175386,1,0,0:0:0:0:
256,192,175559,1,8,0:0:0:0:
256,192,175731,1,0,0:0:0:0:
256,192,175817,1,0,0:0:0:0:
256,192,175904,1,8,0:0:0:0:
256,192,176076,1,0,0:0:0:0:
256,192,176248,1,8,0:0:0:0:
256,192,176593,1,8,0:0:0:0:
256,192,176766,1,0,0:0:0:0:
256,192,176852,1,0,0:0:0:0:
256,192,176938,1,8,0:0:0:0:
256,192,177110,1,0,0:0:0:0:
256,192,177283,1,8,0:0:0:0:
256,192,177369,1,8,0:0:0:0:
256,192,177455,1,0,0:0:0:0:
256,192,177542,1,0,0:0:0:0:
256,192,177628,1,8,0:0:0:0:
256,192,177800,1,8,0:0:0:0:
256,192,177886,1,8,0:0:0:0:
256,192,177973,1,0,0:0:0:0:
256,192,178145,1,0,0:0:0:0:
256,192,178317,1,8,0:0:0:0:
256,192,178490,1,0,0:0:0:0:
256,192,178576,1,0,0:0:0:0:
256,192,178662,1,8,0:0:0:0:
256,192,178835,1,0,0:0:0:0:
256,192,179007,1,8,0:0:0:0:
256,192,179093,1,8,0:0:0:0:
256,192,179179,1,8,0:0:0:0:
256,192,179266,1,8,0:0:0:0:
256,192,179352,1,0,0:0:0:0:
256,192,179524,1,0,0:0:0:0:
256,192,179697,1,8,0:0:0:0:
256,192,179869,1,0,0:0:0:0:
256,192,179955,1,0,0:0:0:0:
256,192,180042,1,8,0:0:0:0:
256,192,180214,1,0,0:0:0:0:
256,192,180386,1,8,0:0:0:0:
256,192,180559,1,0,0:0:0:0:
256,192,180731,1,8,0:0:0:0:
256,192,180817,1,8,0:0:0:0:
256,192,180904,1,0,0:0:0:0:
256,192,180990,1,0,0:0:0:0:
256,192,181076,1,8,0:0:0:0:
256,192,181248,1,8,0:0:0:0:
256,192,181335,1,8,0:0:0:0:
256,192,181421,1,0,0:0:0:0:
256,192,181593,1,0,0:0:0:0:
256,192,181766,1,8,0:0:0:0:
256,192,181852,1,8,0:0:0:0:
256,192,181938,1,8,0:0:0:0:
256,192,182110,1,0,0:0:0:0:
256,192,182283,1,0,0:0:0:0:
256,192,182455,1,8,0:0:0:0:
256,192,182628,1,0,0:0:0:0:
256,192,182714,1,0,0:0:0:0:
256,192,182800,1,8,0:0:0:0:
256,192,182886,1,0,0:0:0:0:
256,192,182973,1,0,0:0:0:0:
256,192,183145,1,8,0:0:0:0:
256,192,183317,1,0,0:0:0:0:
256,192,183490,1,0,0:0:0:0:
256,192,183576,1,0,0:0:0:0:
256,192,183662,1,0,0:0:0:0:
256,192,183835,1,8,0:0:0:0:
256,192,184007,1,8,0:0:0:0:
256,192,184093,1,8,0:0:0:0:
256,192,184179,1,0,0:0:0:0:
256,192,184352,1,0,0:0:0:0:
256,192,184524,1,8,0:0:0:0:
256,192,184610,1,8,0:0:0:0:
256,192,184697,1,8,0:0:0:0:
256,192,184869,1,4,0:0:0:0:
256,192,185042,1,0,0:0:0:0:
256,192,185128,1,0,0:0:0:0:
256,192,185214,1,8,0:0:0:0:
256,192,185386,1,0,0:0:0:0:
256,192,185473,1,0,0:0:0:0:
256,192,185559,1,8,0:0:0:0:
256,192,185645,1,0,0:0:0:0:
256,192,185731,1,0,0:0:0:0:
256,192,185904,1,8,0:0:0:0:
256,192,185990,1,0,0:0:0:0:
256,192,186076,1,8,0:0:0:0:
256,192,186162,1,8,0:0:0:0:
256,192,186248,1,0,0:0:0:0:
256,192,186421,1,0,0:0:0:0:
256,192,186593,1,8,0:0:0:0:
256,192,186766,1,0,0:0:0:0:
256,192,186852,1,0,0:0:0:0:
256,192,186938,1,8,0:0:0:0:
256,192,187024,1,8,0:0:0:0:
256,192,187110,1,0,0:0:0:0:
256,192,187283,1,8,0:0:0:0:
256,192,187628,1,8,0:0:0:0:
256,192,187800,1,0,0:0:0:0:
256,192,187886,1,0,0:0:0:0:
256,192,187973,1,8,0:0:0:0:
256,192,188145,1,0,0:0:0:0:
256,192,188231,1,0,0:0:0:0:
256,192,188317,1,8,0:0:0:0:
256,192,188404,1,8,0:0:0:0:
256,192,188490,1,0,0:0:0:0:
256,192,188662,1,8,0:0:0:0:
256,192,188748,1,0,0:0:0:0:
256,192,188835,1,8,0:0:0:0:
256,192,188921,1,8,0:0:0:0:
256,192,189007,1,0,0:0:0:0:
256,192,189179,1,0,0:0:0:0:
256,192,189352,1,8,0:0:0:0:
256,192,189524,1,0,0:0:0:0:
256,192,189610,1,0,0:0:0:0:
256,192,189697,1,8,0:0:0:0:
256,192,189869,1,0,0:0:0:0:
256,192,190042,1,8,0:0:0:0:
256,192,190128,1,8,0:0:0:0:
256,192,190214,1,8,0:0:0:0:
256,192,190300,1,8,0:0:0:0:
256,192,190386,1,0,0:0:0:0:
256,192,190559,1,0,0:0:0:0:
256,192,190731,1,8,0:0:0:0:
256,192,190904,1,0,0:0:0:0:
256,192,190990,1,0,0:0:0:0:
256,192,191076,1,8,0:0:0:0:
256,192,191248,1,0,0:0:0:0:
256,192,191421,1,8,0:0:0:0:
256,192,191593,1,0,0:0:0:0:
256,192,191766,1,8,0:0:0:0:
256,192,191852,1,8,0:0:0:0:
256,192,191938,1,0,0:0:0:0:
256,192,192024,1,0,0:0:0:0:
256,192,192110,1,8,0:0:0:0:
256,192,192283,1,8,0:0:0:0:
256,192,192369,1,8,0:0:0:0:
256,192,192455,1,0,0:0:0:0:
256,192,192628,1,0,0:0:0:0:
256,192,192800,5,8,0:0:0:0:
256,192,192886,1,8,0:0:0:0:
256,192,192973,1,8,0:0:0:0:
256,192,193145,5,0,0:0:0:0:
256,192,193490,5,0,0:0:0:0:
256,192,193662,1,0,0:0:0:0:
256,192,193835,1,8,0:0:0:0:
256,192,194179,1,0,0:0:0:0:
256,192,194352,1,0,0:0:0:0:
256,192,194524,1,8,0:0:0:0:
256,192,194869,1,0,0:0:0:0:
256,192,195042,1,8,0:0:0:0:
256,192,195386,1,0,0:0:0:0:
256,192,195559,1,8,0:0:0:0:
256,192,195645,1,8,0:0:0:0:
256,192,195731,1,8,0:0:0:0:
256,192,195904,1,4,0:0:0:0:
256,192,196076,1,8,0:0:0:0:
256,192,196248,1,0,0:0:0:0:
256,192,196421,1,8,0:0:0:0:
256,192,196593,1,0,0:0:0:0:
256,192,196766,1,0,0:0:0:0:
256,192,196938,1,8,0:0:0:0:
256,192,197110,1,8,0:0:0:0:
256,192,197283,1,0,0:0:0:0:
256,192,197455,1,8,0:0:0:0:
256,192,197628,1,0,0:0:0:0:
256,192,197800,1,8,0:0:0:0:
256,192,197973,1,0,0:0:0:0:
256,192,198145,1,0,0:0:0:0:
256,192,198317,1,8,0:0:0:0:
256,192,198490,1,8,0:0:0:0:
256,192,198662,1,0,0:0:0:0:
256,192,198835,1,8,0:0:0:0:
256,192,199007,1,8,0:0:0:0:
256,192,199179,1,0,0:0:0:0:
256,192,199352,1,8,0:0:0:0:
256,192,199524,1,0,0:0:0:0:
256,192,199697,1,8,0:0:0:0:
256,192,199869,1,8,0:0:0:0:
256,192,200042,1,0,0:0:0:0:
256,192,200214,1,8,0:0:0:0:
256,192,200386,1,8,0:0:0:0:
256,192,200559,1,0,0:0:0:0:
256,192,200731,1,8,0:0:0:0:
256,192,200904,1,0,0:0:0:0:
256,192,201076,1,8,0:0:0:0:
256,192,201248,1,0,0:0:0:0:
256,192,201421,1,0,0:0:0:0:
256,192,201593,1,8,0:0:0:0:
256,192,201766,1,8,0:0:0:0:
256,192,201938,1,0,0:0:0:0:
256,192,202110,1,8,0:0:0:0:
256,192,202283,1,0,0:0:0:0:
256,192,202455,1,8,0:0:0:0:
256,192,202628,1,0,0:0:0:0:
256,192,202800,1,0,0:0:0:0:
256,192,202973,1,8,0:0:0:0:
256,192,203145,1,8,0:0:0:0:
256,192,203317,1,0,0:0:0:0:
256,192,203490,1,8,0:0:0:0:
256,192,203662,1,0,0:0:0:0:
256,192,203835,1,8,0:0:0:0:
256,192,204007,1,0,0:0:0:0:
256,192,204179,1,8,0:0:0:0:
256,192,204352,1,8,0:0:0:0:
256,192,204524,1,0,0:0:0:0:
256,192,204697,1,8,0:0:0:0:
256,192,204869,1,8,0:0:0:0:
256,192,205042,1,0,0:0:0:0:
256,192,205214,5,8,0:0:0:0:
256,192,205386,1,0,0:0:0:0:
256,192,205559,1,8,0:0:0:0:
256,192,205645,1,8,0:0:0:0:
256,192,205731,1,8,0:0:0:0:
256,192,205817,1,0,0:0:0:0:
256,192,205904,1,8,0:0:0:0:
256,192,206076,1,8,0:0:0:0:
256,192,206162,1,8,0:0:0:0:
256,192,206248,1,0,0:0:0:0:
256,192,206421,1,0,0:0:0:0:
256,192,206593,1,0,0:0:0:0:
256,192,206651,1,0,0:0:0:0:
256,192,206708,1,0,0:0:0:0:
256,192,206766,1,8,0:0:0:0:
256,192,206938,5,4,0:0:0:0:
256,192,207110,1,0,0:0:0:0:
256,192,207197,1,0,0:0:0:0:
256,192,207283,1,8,0:0:0:0:
256,192,207369,1,0,0:0:0:0:
256,192,207455,1,8,0:0:0:0:
256,192,207542,1,0,0:0:0:0:
256,192,207628,1,8,0:0:0:0:
256,192,207714,1,8,0:0:0:0:
256,192,207800,1,0,0:0:0:0:
256,192,207886,1,0,0:0:0:0:
256,192,207973,1,8,0:0:0:0:
256,192,208059,1,0,0:0:0:0:
256,192,208145,1,8,0:0:0:0:
256,192,208231,1,0,0:0:0:0:
256,192,208317,1,8,0:0:0:0:
256,192,208404,1,8,0:0:0:0:
256,192,208490,1,8,0:0:0:0:
256,192,208576,1,0,0:0:0:0:
256,192,208662,1,8,0:0:0:0:
256,192,208748,1,0,0:0:0:0:
256,192,208835,1,8,0:0:0:0:
256,192,208921,1,0,0:0:0:0:
256,192,209007,1,8,0:0:0:0:
256,192,209093,1,8,0:0:0:0:
256,192,209179,1,0,0:0:0:0:
256,192,209266,1,0,0:0:0:0:
256,192,209352,1,8,0:0:0:0:
256,192,209438,1,0,0:0:0:0:
256,192,209524,1,8,0:0:0:0:
256,192,209610,1,0,0:0:0:0:
256,192,209697,1,8,0:0:0:0:
256,192,209783,1,0,0:0:0:0:
256,192,209869,1,0,0:0:0:0:
256,192,209955,1,0,0:0:0:0:
256,192,210042,1,8,0:0:0:0:
256,192,210128,1,0,0:0:0:0:
256,192,210214,1,8,0:0:0:0:
256,192,210300,1,0,0:0:0:0:
256,192,210386,1,8,0:0:0:0:
256,192,210473,1,8,0:0:0:0:
256,192,210559,1,0,0:0:0:0:
256,192,210645,1,0,0:0:0:0:
256,192,210731,1,8,0:0:0:0:
256,192,210817,1,0,0:0:0:0:
256,192,210904,1,8,0:0:0:0:
256,192,210990,1,0,0:0:0:0:
256,192,211076,1,8,0:0:0:0:
256,192,211162,1,8,0:0:0:0:
256,192,211248,1,8,0:0:0:0:
256,192,211335,1,0,0:0:0:0:
256,192,211421,1,8,0:0:0:0:
256,192,211507,1,8,0:0:0:0:
256,192,211593,1,0,0:0:0:0:
256,192,211679,1,0,0:0:0:0:
256,192,211766,1,8,0:0:0:0:
256,192,211852,1,8,0:0:0:0:
256,192,211938,1,8,0:0:0:0:
256,192,212024,1,0,0:0:0:0:
256,192,212110,1,8,0:0:0:0:
256,192,212197,1,8,0:0:0:0:
256,192,212283,1,0,0:0:0:0:
256,192,212369,1,0,0:0:0:0:
256,192,212455,1,8,0:0:0:0:
256,192,212542,1,8,0:0:0:0:
256,192,212628,1,8,0:0:0:0:
256,192,212714,1,0,0:0:0:0:
256,192,212800,1,8,0:0:0:0:
256,192,212886,1,0,0:0:0:0:
256,192,212973,1,8,0:0:0:0:
256,192,213059,1,0,0:0:0:0:
256,192,213145,1,8,0:0:0:0:
256,192,213231,1,8,0:0:0:0:
256,192,213317,1,0,0:0:0:0:
256,192,213404,1,0,0:0:0:0:
256,192,213490,1,8,0:0:0:0:
256,192,213576,1,0,0:0:0:0:
256,192,213662,1,8,0:0:0:0:
256,192,213748,1,0,0:0:0:0:
256,192,213835,1,8,0:0:0:0:
256,192,213921,1,8,0:0:0:0:
256,192,214007,1,8,0:0:0:0:
256,192,214093,1,0,0:0:0:0:
256,192,214179,1,8,0:0:0:0:
256,192,214266,1,0,0:0:0:0:
256,192,214352,1,8,0:0:0:0:
256,192,214438,1,0,0:0:0:0:
256,192,214524,1,8,0:0:0:0:
256,192,214610,1,0,0:0:0:0:
256,192,214697,1,0,0:0:0:0:
256,192,214783,1,0,0:0:0:0:
256,192,214869,1,8,0:0:0:0:
256,192,214955,1,0,0:0:0:0:
256,192,215042,1,8,0:0:0:0:
256,192,215128,1,0,0:0:0:0:
256,192,215214,1,8,0:0:0:0:
256,192,215300,1,8,0:0:0:0:
256,192,215386,1,8,0:0:0:0:
256,192,215473,1,0,0:0:0:0:
256,192,215559,1,8,0:0:0:0:
256,192,215645,1,0,0:0:0:0:
256,192,215731,1,8,0:0:0:0:
256,192,215817,1,0,0:0:0:0:
256,192,215904,1,8,0:0:0:0:
256,192,215990,1,8,0:0:0:0:
256,192,216076,1,0,0:0:0:0:
256,192,216162,1,0,0:0:0:0:
256,192,216248,1,8,0:0:0:0:
256,192,216335,1,0,0:0:0:0:
256,192,216421,1,8,0:0:0:0:
256,192,216507,1,0,0:0:0:0:
256,192,216593,1,8,0:0:0:0:
256,192,216679,1,8,0:0:0:0:
256,192,216766,1,8,0:0:0:0:
256,192,216852,1,0,0:0:0:0:
256,192,216938,1,8,0:0:0:0:
256,192,217024,1,0,0:0:0:0:
256,192,217110,1,8,0:0:0:0:
256,192,217197,1,8,0:0:0:0:
256,192,217283,1,8,0:0:0:0:
256,192,217369,1,0,0:0:0:0:
256,192,217455,1,8,0:0:0:0:
256,192,217542,1,8,0:0:0:0:
256,192,217628,1,0,0:0:0:0:
256,192,217714,1,0,0:0:0:0:
256,192,217800,1,8,0:0:0:0:
256,192,217973,1,4,0:0:0:0:
256,192,218145,1,0,0:0:0:0:
256,192,218231,1,0,0:0:0:0:
256,192,218317,1,8,0:0:0:0:
256,192,218404,1,0,0:0:0:0:
256,192,218490,1,8,0:0:0:0:
256,192,218576,1,0,0:0:0:0:
256,192,218662,1,8,0:0:0:0:
256,192,218748,1,8,0:0:0:0:
256,192,218835,1,0,0:0:0:0:
256,192,218921,1,0,0:0:0:0:
256,192,219007,1,8,0:0:0:0:
256,192,219093,1,0,0:0:0:0:
256,192,219179,1,0,0:0:0:0:
256,192,219266,1,0,0:0:0:0:
256,192,219352,1,8,0:0:0:0:
256,192,219438,1,8,0:0:0:0:
256,192,219524,1,8,0:0:0:0:
256,192,219610,1,0,0:0:0:0:
256,192,219697,1,8,0:0:0:0:
256,192,219783,1,0,0:0:0:0:
256,192,219869,1,8,0:0:0:0:
256,192,219955,1,0,0:0:0:0:
256,192,220042,1,8,0:0:0:0:
256,192,220128,1,8,0:0:0:0:
256,192,220214,1,0,0:0:0:0:
256,192,220300,1,0,0:0:0:0:
256,192,220386,1,8,0:0:0:0:
256,192,220473,1,0,0:0:0:0:
256,192,220559,1,0,0:0:0:0:
256,192,220645,1,0,0:0:0:0:
256,192,220731,1,8,0:0:0:0:
256,192,220817,1,8,0:0:0:0:
256,192,220904,1,8,0:0:0:0:
256,192,220990,1,0,0:0:0:0:
256,192,221076,1,8,0:0:0:0:
256,192,221162,1,0,0:0:0:0:
256,192,221248,1,8,0:0:0:0:
256,192,221335,1,0,0:0:0:0:
256,192,221421,1,8,0:0:0:0:
256,192,221507,1,8,0:0:0:0:
256,192,221593,1,0,0:0:0:0:
256,192,221679,1,0,0:0:0:0:
256,192,221766,1,8,0:0:0:0:
256,192,221852,1,0,0:0:0:0:
256,192,221938,1,0,0:0:0:0:
256,192,222024,1,0,0:0:0:0:
256,192,222110,1,8,0:0:0:0:
256,192,222197,1,8,0:0:0:0:
256,192,222283,1,8,0:0:0:0:
256,192,222369,1,0,0:0:0:0:
256,192,222455,1,8,0:0:0:0:
256,192,222542,1,8,0:0:0:0:
256,192,222628,1,0,0:0:0:0:
256,192,222714,1,0,0:0:0:0:
256,192,222800,1,8,0:0:0:0:
256,192,222886,1,8,0:0:0:0:
256,192,222973,1,8,0:0:0:0:
256,192,223059,1,0,0:0:0:0:
256,192,223145,1,8,0:0:0:0:
256,192,223231,1,8,0:0:0:0:
256,192,223317,1,0,0:0:0:0:
256,192,223404,1,0,0:0:0:0:
256,192,223490,1,8,0:0:0:0:
256,192,223576,1,0,0:0:0:0:
256,192,223662,1,0,0:0:0:0:
256,192,223748,1,0,0:0:0:0:
256,192,223835,1,8,0:0:0:0:
256,192,223921,1,0,0:0:0:0:
256,192,224007,1,8,0:0:0:0:
256,192,224093,1,0,0:0:0:0:
256,192,224179,1,8,0:0:0:0:
256,192,224266,1,8,0:0:0:0:
256,192,224352,1,0,0:0:0:0:
256,192,224438,1,0,0:0:0:0:
256,192,224524,1,8,0:0:0:0:
256,192,224610,1,8,0:0:0:0:
256,192,224697,1,0,0:0:0:0:
256,192,224783,1,0,0:0:0:0:
256,192,224869,1,8,0:0:0:0:
256,192,224955,1,0,0:0:0:0:
256,192,225042,1,0,0:0:0:0:
256,192,225128,1,0,0:0:0:0:
256,192,225214,1,8,0:0:0:0:
256,192,225300,1,0,0:0:0:0:
256,192,225386,1,8,0:0:0:0:
256,192,225473,1,0,0:0:0:0:
256,192,225559,1,8,0:0:0:0:
256,192,225645,1,8,0:0:0:0:
256,192,225731,1,0,0:0:0:0:
256,192,225817,1,0,0:0:0:0:
256,192,225904,1,8,0:0:0:0:
256,192,225990,1,8,0:0:0:0:
256,192,226076,1,8,0:0:0:0:
256,192,226162,1,0,0:0:0:0:
256,192,226248,1,8,0:0:0:0:
256,192,226335,1,8,0:0:0:0:
256,192,226421,1,8,0:0:0:0:
256,192,226507,1,8,0:0:0:0:
256,192,226593,1,8,0:0:0:0:
256,192,226679,1,8,0:0:0:0:
256,192,226766,1,8,0:0:0:0:
256,192,226852,1,8,0:0:0:0:
256,192,226938,1,8,0:0:0:0:
256,192,227024,1,8,0:0:0:0:
256,192,227110,1,8,0:0:0:0:
256,192,227197,1,8,0:0:0:0:
256,192,227283,1,8,0:0:0:0:
256,192,227369,1,8,0:0:0:0:
256,192,227455,1,8,0:0:0:0:
256,192,227542,1,8,0:0:0:0:
256,192,227628,1,0,0:0:0:0:
256,192,227714,1,8,0:0:0:0:
256,192,227800,1,0,0:0:0:0:
256,192,227886,1,0,0:0:0:0:
256,192,227973,1,8,0:0:0:0:
256,192,228059,1,0,0:0:0:0:
256,192,228145,1,8,0:0:0:0:
256,192,228231,1,8,0:0:0:0:
256,192,228317,1,8,0:0:0:0:
256,192,228404,1,0,0:0:0:0:
256,192,228490,1,8,0:0:0:0:
256,192,228576,1,8,0:0:0:0:
256,192,228662,1,0,0:0:0:0:
256,192,228720,1,0,0:0:0:0:
256,192,228777,1,0,0:0:0:0:
256,192,228835,1,8,0:0:0:0:
256,192,229007,1,4,0:0:0:0:
256,192,229179,1,0,0:0:0:0:
256,192,229266,1,0,0:0:0:0:
256,192,229352,1,8,0:0:0:0:
256,192,229438,1,0,0:0:0:0:
256,192,229524,1,8,0:0:0:0:
256,192,229610,1,0,0:0:0:0:
256,192,229697,1,8,0:0:0:0:
256,192,229783,1,8,0:0:0:0:
256,192,229869,1,0,0:0:0:0:
256,192,229955,1,8,0:0:0:0:
256,192,230042,1,8,0:0:0:0:
256,192,230128,1,0,0:0:0:0:
256,192,230214,1,8,0:0:0:0:
256,192,230300,1,0,0:0:0:0:
256,192,230386,1,8,0:0:0:0:
256,192,230473,1,8,0:0:0:0:
256,192,230559,1,8,0:0:0:0:
256,192,230645,1,0,0:0:0:0:
256,192,230731,1,8,0:0:0:0:
256,192,230817,1,0,0:0:0:0:
256,192,230904,1,8,0:0:0:0:
256,192,230990,1,0,0:0:0:0:
256,192,231076,1,8,0:0:0:0:
256,192,231162,1,0,0:0:0:0:
256,192,231248,1,0,0:0:0:0:
256,192,231335,1,0,0:0:0:0:
256,192,231421,1,8,0:0:0:0:
256,192,231507,1,0,0:0:0:0:
256,192,231593,1,8,0:0:0:0:
256,192,231679,1,0,0:0:0:0:
256,192,231766,1,8,0:0:0:0:
256,192,231852,1,8,0:0:0:0:
256,192,231938,1,0,0:0:0:0:
256,192,232024,1,0,0:0:0:0:
256,192,232110,1,8,0:0:0:0:
256,192,232197,1,0,0:0:0:0:
256,192,232283,1,8,0:0:0:0:
256,192,232369,1,0,0:0:0:0:
256,192,232455,1,8,0:0:0:0:
256,192,232542,1,8,0:0:0:0:
256,192,232628,1,0,0:0:0:0:
256,192,232714,1,8,0:0:0:0:
256,192,232800,1,8,0:0:0:0:
256,192,232886,1,0,0:0:0:0:
256,192,232973,1,8,0:0:0:0:
256,192,233059,1,0,0:0:0:0:
256,192,233145,1,8,0:0:0:0:
256,192,233231,1,8,0:0:0:0:
256,192,233317,1,8,0:0:0:0:
256,192,233404,1,0,0:0:0:0:
256,192,233490,1,8,0:0:0:0:
256,192,233576,1,8,0:0:0:0:
256,192,233662,1,0,0:0:0:0:
256,192,233748,1,0,0:0:0:0:
256,192,233835,1,8,0:0:0:0:
256,192,233921,1,8,0:0:0:0:
256,192,234007,1,8,0:0:0:0:
256,192,234093,1,0,0:0:0:0:
256,192,234179,1,8,0:0:0:0:
256,192,234266,1,8,0:0:0:0:
256,192,234352,1,0,0:0:0:0:
256,192,234438,1,0,0:0:0:0:
256,192,234524,1,8,0:0:0:0:
256,192,234610,1,8,0:0:0:0:
256,192,234697,1,8,0:0:0:0:
256,192,234783,1,0,0:0:0:0:
256,192,234869,1,8,0:0:0:0:
256,192,234955,1,0,0:0:0:0:
256,192,235042,1,8,0:0:0:0:
256,192,235128,1,0,0:0:0:0:
256,192,235214,1,8,0:0:0:0:
256,192,235300,1,8,0:0:0:0:
256,192,235386,1,0,0:0:0:0:
256,192,235473,1,0,0:0:0:0:
256,192,235559,1,8,0:0:0:0:
256,192,235645,1,0,0:0:0:0:
256,192,235731,1,0,0:0:0:0:
256,192,235817,1,0,0:0:0:0:
256,192,235904,1,8,0:0:0:0:
256,192,235990,1,8,0:0:0:0:
256,192,236076,1,8,0:0:0:0:
256,192,236162,1,0,0:0:0:0:
256,192,236248,1,8,0:0:0:0:
256,192,236335,1,0,0:0:0:0:
256,192,236421,1,8,0:0:0:0:
256,192,236507,1,0,0:0:0:0:
256,192,236593,1,8,0:0:0:0:
256,192,236679,1,0,0:0:0:0:
256,192,236766,1,0,0:0:0:0:
256,192,236852,1,0,0:0:0:0:
256,192,236938,1,8,0:0:0:0:
256,192,237024,1,8,0:0:0:0:
256,192,237110,1,0,0:0:0:0:
256,192,237197,1,0,0:0:0:0:
256,192,237283,1,8,0:0:0:0:
256,192,237369,1,8,0:0:0:0:
256,192,237455,1,8,0:0:0:0:
256,192,237542,1,0,0:0:0:0:
256,192,237628,1,8,0:0:0:0:
256,192,237714,1,0,0:0:0:0:
256,192,237800,1,8,0:0:0:0:
256,192,237886,1,0,0:0:0:0:
256,192,237973,1,8,0:0:0:0:
256,192,238059,1,8,0:0:0:0:
256,192,238145,1,0,0:0:0:0:
256,192,238231,1,0,0:0:0:0:
256,192,238317,1,8,0:0:0:0:
256,192,238404,1,0,0:0:0:0:
256,192,238490,1,0,0:0:0:0:
256,192,238576,1,0,0:0:0:0:
256,192,238662,1,8,0:0:0:0:
256,192,238748,1,8,0:0:0:0:
256,192,238835,1,8,0:0:0:0:
256,192,238921,1,0,0:0:0:0:
256,192,239007,1,8,0:0:0:0:
256,192,239093,1,0,0:0:0:0:
256,192,239179,1,8,0:0:0:0:
256,192,239266,1,8,0:0:0:0:
256,192,239352,1,8,0:0:0:0:
256,192,239438,1,0,0:0:0:0:
256,192,239524,1,8,0:0:0:0:
256,192,239610,1,8,0:0:0:0:
256,192,239697,1,0,0:0:0:0:
256,192,239783,1,0,0:0:0:0:
256,192,239869,1,8,0:0:0:0:
256,192,240042,1,4,0:0:0:0:
256,192,240386,1,0,0:0:0:0:
256,192,240731,1,0,0:0:0:0:
256,192,241076,1,8,0:0:0:0:
256,192,241248,1,0,0:0:0:0:
256,192,241593,1,0,0:0:0:0:
256,192,241766,1,8,0:0:0:0:
256,192,242110,1,0,0:0:0:0:
256,192,242455,1,8,0:0:0:0:
256,192,242800,1,0,0:0:0:0:
256,192,243145,1,0,0:0:0:0:
256,192,243490,1,0,0:0:0:0:
256,192,243835,1,8,0:0:0:0:
256,192,244007,1,0,0:0:0:0:
256,192,244352,1,0,0:0:0:0:
256,192,244524,1,8,0:0:0:0:
256,192,244869,1,0,0:0:0:0:
256,192,245214,1,8,0:0:0:0:
256,192,245559,5,4,0:0:0:0:
256,192,245904,1,0,0:0:0:0:
256,192,246248,1,0,0:0:0:0:
256,192,246593,1,8,0:0:0:0:
256,192,246766,1,0,0:0:0:0:
256,192,247110,1,0,0:0:0:0:
256,192,247283,1,8,0:0:0:0:
256,192,247628,1,0,0:0:0:0:
256,192,247973,1,8,0:0:0:0:
256,192,248317,1,0,0:0:0:0:
256,192,248662,1,0,0:0:0:0:
256,192,249007,1,0,0:0:0:0:
256,192,249352,1,8,0:0:0:0:
256,192,249524,1,0,0:0:0:0:
256,192,249869,1,0,0:0:0:0:
256,192,250042,1,8,0:0:0:0:
256,192,250386,1,0,0:0:0:0:
256,192,250731,1,8,0:0:0:0:
256,192,251076,1,8,0:0:0:0:
256,192,251421,1,0,0:0:0:0:
256,192,252110,1,8,0:0:0:0:
256,192,252283,1,0,0:0:0:0:
256,192,252628,1,0,0:0:0:0:
256,192,252800,1,8,0:0:0:0:
256,192,253145,1,0,0:0:0:0:
256,192,253490,1,8,0:0:0:0:
256,192,254179,1,0,0:0:0:0:
256,192,254869,1,8,0:0:0:0:
256,192,255042,1,0,0:0:0:0:
256,192,255386,1,0,0:0:0:0:
256,192,255559,1,8,0:0:0:0:
256,192,255904,1,0,0:0:0:0:
256,192,256248,1,8,0:0:0:0:
256,192,256593,1,8,0:0:0:0:
256,192,256938,1,0,0:0:0:0:
256,192,257628,1,8,0:0:0:0:
256,192,257800,1,0,0:0:0:0:
256,192,258145,1,0,0:0:0:0:
256,192,258317,1,8,0:0:0:0:
256,192,258662,1,0,0:0:0:0:
256,192,259007,1,8,0:0:0:0:
256,192,259697,1,0,0:0:0:0:
256,192,260386,1,8,0:0:0:0:
256,192,260559,1,0,0:0:0:0:
256,192,260904,1,0,0:0:0:0:
256,192,261076,1,8,0:0:0:0:
256,192,261421,1,0,0:0:0:0:
256,192,261766,1,8,0:0:0:0:
256,192,262110,1,8,0:0:0:0:
256,192,262455,1,0,0:0:0:0:
256,192,262800,1,0,0:0:0:0:
256,192,263145,1,8,0:0:0:0:
256,192,263317,1,0,0:0:0:0:
256,192,263662,1,0,0:0:0:0:
256,192,263835,1,8,0:0:0:0:
256,192,264007,1,0,0:0:0:0:
256,192,264179,1,0,0:0:0:0:
256,192,264524,1,8,0:0:0:0:
256,192,264869,1,0,0:0:0:0:
256,192,265214,1,0,0:0:0:0:
256,192,265559,1,0,0:0:0:0:
256,192,265904,1,8,0:0:0:0:
256,192,266076,1,0,0:0:0:0:
256,192,266421,1,0,0:0:0:0:
256,192,266593,1,8,0:0:0:0:
256,192,266766,1,0,0:0:0:0:
256,192,266938,1,0,0:0:0:0:
256,192,267283,1,8,0:0:0:0:
256,192,267628,1,0,0:0:0:0:
256,192,267973,1,8,0:0:0:0:
256,192,268317,1,0,0:0:0:0:
256,192,268490,1,0,0:0:0:0:
256,192,268662,1,8,0:0:0:0:
256,192,268835,1,0,0:0:0:0:
256,192,269179,1,0,0:0:0:0:
256,192,269352,1,8,0:0:0:0:
256,192,269524,1,8,0:0:0:0:
256,192,269697,1,0,0:0:0:0:
256,192,270042,1,8,0:0:0:0:
256,192,270386,1,0,0:0:0:0:
256,192,270731,1,8,0:0:0:0:
256,192,271076,1,0,0:0:0:0:
256,192,271248,1,0,0:0:0:0:
256,192,271421,1,8,0:0:0:0:
256,192,271593,1,0,0:0:0:0:
256,192,271938,1,0,0:0:0:0:
256,192,272110,1,8,0:0:0:0:
256,192,272283,1,8,0:0:0:0:
256,192,272455,1,0,0:0:0:0:
256,192,272800,1,8,0:0:0:0:
256,192,273145,1,0,0:0:0:0:
256,192,273490,1,8,0:0:0:0:
256,192,273662,1,8,0:0:0:0:
256,192,273835,1,8,0:0:0:0:
256,192,274007,1,0,0:0:0:0:
256,192,274179,1,8,0:0:0:0:
256,192,274524,1,0,0:0:0:0:
256,192,274869,1,8,0:0:0:0:
256,192,275042,1,0,0:0:0:0:
256,192,275214,1,8,0:0:0:0:
256,192,275386,1,0,0:0:0:0:
256,192,275559,1,8,0:0:0:0:
256,192,275904,1,0,0:0:0:0:
256,192,276248,1,8,0:0:0:0:
256,192,276421,1,8,0:0:0:0:
256,192,276593,1,8,0:0:0:0:
256,192,276766,1,0,0:0:0:0:
256,192,276938,1,8,0:0:0:0:
256,192,277283,1,0,0:0:0:0:
256,192,277628,1,8,0:0:0:0:
256,192,277800,1,0,0:0:0:0:
256,192,277973,1,8,0:0:0:0:
256,192,278145,1,0,0:0:0:0:
256,192,278317,1,8,0:0:0:0:
256,192,278662,1,0,0:0:0:0:
256,192,279007,1,8,0:0:0:0:
256,192,279179,1,8,0:0:0:0:
256,192,279266,1,8,0:0:0:0:
256,192,279352,1,8,0:0:0:0:
256,192,279524,1,0,0:0:0:0:
256,192,279697,1,8,0:0:0:0:
256,192,280042,1,0,0:0:0:0:
256,192,280386,1,8,0:0:0:0:
256,192,280559,1,0,0:0:0:0:
256,192,280645,1,0,0:0:0:0:
256,192,280731,1,8,0:0:0:0:
256,192,280904,1,0,0:0:0:0:
256,192,281076,1,8,0:0:0:0:
256,192,281421,1,0,0:0:0:0:
256,192,281766,1,8,0:0:0:0:
256,192,281938,1,8,0:0:0:0:
256,192,282024,1,8,0:0:0:0:
256,192,282110,1,8,0:0:0:0:
256,192,282283,1,0,0:0:0:0:
256,192,282455,1,8,0:0:0:0:
256,192,282800,1,0,0:0:0:0:
256,192,283145,1,8,0:0:0:0:
256,192,283317,1,0,0:0:0:0:
256,192,283404,1,0,0:0:0:0:
256,192,283490,1,8,0:0:0:0:
256,192,283662,1,0,0:0:0:0:
256,192,283835,1,8,0:0:0:0:
256,192,284179,1,8,0:0:0:0:
256,192,284352,1,0,0:0:0:0:
256,192,284524,1,8,0:0:0:0:
256,192,284697,1,8,0:0:0:0:
256,192,284783,1,8,0:0:0:0:
256,192,284869,1,8,0:0:0:0:
256,192,285042,1,0,0:0:0:0:
256,192,285214,1,8,0:0:0:0:
256,192,285386,1,8,0:0:0:0:
256,192,285559,1,0,0:0:0:0:
256,192,285731,1,0,0:0:0:0:
256,192,285904,1,8,0:0:0:0:
256,192,286076,1,0,0:0:0:0:
256,192,286162,1,0,0:0:0:0:
256,192,286248,1,8,0:0:0:0:
256,192,286421,1,0,0:0:0:0:
256,192,286593,1,8,0:0:0:0:
256,192,286766,1,0,0:0:0:0:
256,192,286938,1,8,0:0:0:0:
256,192,287110,1,0,0:0:0:0:
256,192,287283,1,8,0:0:0:0:
256,192,287455,1,8,0:0:0:0:
256,192,287542,1,8,0:0:0:0:
256,192,287628,1,8,0:0:0:0:
256,192,287800,1,0,0:0:0:0:
256,192,287973,1,8,0:0:0:0:
256,192,288145,1,8,0:0:0:0:
256,192,288317,1,0,0:0:0:0:
256,192,288490,1,0,0:0:0:0:
256,192,288662,1,8,0:0:0:0:
256,192,288835,1,0,0:0:0:0:
256,192,288921,1,0,0:0:0:0:
256,192,289007,1,8,0:0:0:0:
256,192,289179,1,0,0:0:0:0:
256,192,289352,1,8,0:0:0:0:
256,192,289524,1,0,0:0:0:0:
256,192,289697,1,8,0:0:0:0:
256,192,289783,1,8,0:0:0:0:
256,192,289869,1,0,0:0:0:0:
256,192,289955,1,0,0:0:0:0:
256,192,290042,1,8,0:0:0:0:
256,192,290128,1,0,0:0:0:0:
256,192,290214,1,8,0:0:0:0:
256,192,290300,1,0,0:0:0:0:
256,192,290386,1,8,0:0:0:0:
256,192,290473,1,8,0:0:0:0:
256,192,290559,1,8,0:0:0:0:
256,192,290645,1,0,0:0:0:0:
256,192,290731,1,8,0:0:0:0:
256,192,290817,1,0,0:0:0:0:
256,192,290904,1,8,0:0:0:0:
256,192,290990,1,0,0:0:0:0:
256,192,291076,1,8,0:0:0:0:
256,192,291162,1,8,0:0:0:0:
256,192,291248,1,0,0:0:0:0:
256,192,291335,1,0,0:0:0:0:
256,192,291421,1,8,0:0:0:0:
256,192,291507,1,0,0:0:0:0:
256,192,291593,1,8,0:0:0:0:
256,192,291679,1,0,0:0:0:0:
256,192,291766,1,8,0:0:0:0:
256,192,291852,1,8,0:0:0:0:
256,192,291938,1,8,0:0:0:0:
256,192,292024,1,0,0:0:0:0:
256,192,292110,1,8,0:0:0:0:
256,192,292197,1,0,0:0:0:0:
256,192,292283,1,8,0:0:0:0:
256,192,292369,1,0,0:0:0:0:
256,192,292455,1,8,0:0:0:0:
256,192,292542,1,8,0:0:0:0:
256,192,292628,1,8,0:0:0:0:
256,192,292714,1,0,0:0:0:0:
256,192,292800,1,8,0:0:0:0:
256,192,292886,1,8,0:0:0:0:
256,192,292973,1,8,0:0:0:0:
256,192,293059,1,0,0:0:0:0:
256,192,293145,1,8,0:0:0:0:
256,192,293231,1,8,0:0:0:0:
256,192,293317,1,8,0:0:0:0:
256,192,293404,1,0,0:0:0:0:
256,192,293490,1,8,0:0:0:0:
256,192,293576,1,0,0:0:0:0:
256,192,293662,1,8,0:0:0:0:
256,192,293748,1,8,0:0:0:0:
256,192,293835,1,0,0:0:0:0:
256,192,293921,1,0,0:0:0:0:
256,192,294007,1,0,0:0:0:0:
256,192,294093,1,0,0:0:0:0:
256,192,294179,1,8,0:0:0:0:
256,192,294266,1,8,0:0:0:0:
256,192,294352,1,8,0:0:0:0:
256,192,294438,1,8,0:0:0:0:
256,192,294524,1,0,0:0:0:0:
256,192,294582,1,0,0:0:0:0:
256,192,294639,1,0,0:0:0:0:
256,192,294697,1,0,0:0:0:0:
256,192,294754,1,0,0:0:0:0:
256,192,294812,1,0,0:0:0:0:
256,192,294869,1,8,0:0:0:0:
256,192,294927,1,8,0:0:0:0:
256,192,294984,1,8,0:0:0:0:
256,192,295042,1,8,0:0:0:0:
256,192,295099,1,8,0:0:0:0:
256,192,295156,1,8,0:0:0:0:
256,192,295214,1,0,0:0:0:0:
256,192,295559,1,8,0:0:0:0:
256,192,295904,1,8,0:0:0:0:
256,192,296248,1,8,0:0:0:0:
256,192,296593,1,8,0:0:0:0:
256,192,296679,1,0,0:0:0:0:
256,192,296766,1,0,0:0:0:0:
256,192,296852,1,0,0:0:0:0:
256,192,296938,1,8,0:0:0:0:
256,192,297110,1,8,0:0:0:0:
256,192,297197,1,8,0:0:0:0:
256,192,297283,1,0,0:0:0:0:
256,192,297455,1,0,0:0:0:0:
256,192,297628,1,8,0:0:0:0:
256,192,297714,1,8,0:0:0:0:
256,192,297800,1,8,0:0:0:0:
256,192,297973,1,4,0:0:0:0:
256,192,298145,1,0,0:0:0:0:
256,192,298231,1,0,0:0:0:0:
256,192,298317,1,8,0:0:0:0:
256,192,298490,1,0,0:0:0:0:
256,192,298662,1,8,0:0:0:0:
256,192,298748,1,0,0:0:0:0:
256,192,298835,1,0,0:0:0:0:
256,192,298921,1,0,0:0:0:0:
256,192,299007,1,8,0:0:0:0:
256,192,299093,1,0,0:0:0:0:
256,192,299179,1,8,0:0:0:0:
256,192,299266,1,8,0:0:0:0:
256,192,299352,1,0,0:0:0:0:
256,192,299524,1,0,0:0:0:0:
256,192,299697,1,8,0:0:0:0:
256,192,299869,1,0,0:0:0:0:
256,192,299955,1,0,0:0:0:0:
256,192,300042,1,8,0:0:0:0:
256,192,300128,1,8,0:0:0:0:
256,192,300214,1,0,0:0:0:0:
256,192,300386,1,8,0:0:0:0:
256,192,300559,1,0,0:0:0:0:
256,192,300731,1,8,0:0:0:0:
256,192,300817,1,8,0:0:0:0:
256,192,300904,1,0,0:0:0:0:
256,192,300990,1,0,0:0:0:0:
256,192,301076,1,8,0:0:0:0:
256,192,301248,1,0,0:0:0:0:
256,192,301421,1,8,0:0:0:0:
256,192,301507,1,8,0:0:0:0:
256,192,301593,1,0,0:0:0:0:
256,192,301679,1,0,0:0:0:0:
256,192,301766,1,8,0:0:0:0:
256,192,301852,1,0,0:0:0:0:
256,192,301938,1,8,0:0:0:0:
256,192,302024,1,8,0:0:0:0:
256,192,302110,1,0,0:0:0:0:
256,192,302283,1,0,0:0:0:0:
256,192,302455,1,8,0:0:0:0:
256,192,302628,1,0,0:0:0:0:
256,192,302714,1,0,0:0:0:0:
256,192,302800,1,8,0:0:0:0:
256,192,302973,1,0,0:0:0:0:
256,192,303145,1,8,0:0:0:0:
256,192,303231,1,8,0:0:0:0:
256,192,303317,1,8,0:0:0:0:
256,192,303404,1,8,0:0:0:0:
256,192,303490,1,0,0:0:0:0:
256,192,303662,1,0,0:0:0:0:
256,192,303835,1,8,0:0:0:0:
256,192,304007,1,0,0:0:0:0:
256,192,304093,1,0,0:0:0:0:
256,192,304179,1,8,0:0:0:0:
256,192,304266,1,8,0:0:0:0:
256,192,304352,1,0,0:0:0:0:
256,192,304524,1,8,0:0:0:0:
256,192,304697,1,0,0:0:0:0:
256,192,304869,1,8,0:0:0:0:
256,192,304955,1,8,0:0:0:0:
256,192,305042,1,0,0:0:0:0:
256,192,305128,1,0,0:0:0:0:
256,192,305214,1,8,0:0:0:0:
256,192,305386,1,8,0:0:0:0:
256,192,305473,1,8,0:0:0:0:
256,192,305559,1,0,0:0:0:0:
256,192,305731,1,0,0:0:0:0:
256,192,305904,1,8,0:0:0:0:
256,192,305990,1,8,0:0:0:0:
256,192,306076,1,8,0:0:0:0:
256,192,306248,1,0,0:0:0:0:
256,192,306421,1,0,0:0:0:0:
256,192,306593,1,8,0:0:0:0:
256,192,306766,1,0,0:0:0:0:
256,192,306852,1,0,0:0:0:0:
256,192,306938,1,8,0:0:0:0:
256,192,307024,1,0,0:0:0:0:
256,192,307110,1,0,0:0:0:0:
256,192,307283,1,8,0:0:0:0:
256,192,307455,1,0,0:0:0:0:
256,192,307628,1,0,0:0:0:0:
256,192,307714,1,0,0:0:0:0:
256,192,307800,1,0,0:0:0:0:
256,192,307886,1,0,0:0:0:0:
256,192,307973,1,8,0:0:0:0:
256,192,308145,1,8,0:0:0:0:
256,192,308231,1,8,0:0:0:0:
256,192,308317,1,0,0:0:0:0:
256,192,308490,1,0,0:0:0:0:
256,192,308662,1,8,0:0:0:0:
256,192,308748,1,8,0:0:0:0:
256,192,308835,1,8,0:0:0:0:
256,192,309007,1,4,0:0:0:0:
256,192,309179,1,0,0:0:0:0:
256,192,309266,1,0,0:0:0:0:
256,192,309352,1,8,0:0:0:0:
256,192,309524,1,0,0:0:0:0:
256,192,309610,1,0,0:0:0:0:
256,192,309697,1,8,0:0:0:0:
256,192,309783,1,0,0:0:0:0:
256,192,309869,1,0,0:0:0:0:
256,192,309955,1,0,0:0:0:0:
256,192,310042,1,8,0:0:0:0:
256,192,310128,1,0,0:0:0:0:
256,192,310214,1,8,0:0:0:0:
256,192,310300,1,8,0:0:0:0:
256,192,310386,1,0,0:0:0:0:
256,192,310559,1,0,0:0:0:0:
256,192,310731,1,8,0:0:0:0:
256,192,310904,1,0,0:0:0:0:
256,192,310990,1,0,0:0:0:0:
256,192,311076,1,8,0:0:0:0:
256,192,311162,1,8,0:0:0:0:
256,192,311248,1,0,0:0:0:0:
256,192,311421,1,8,0:0:0:0:
256,192,311593,1,0,0:0:0:0:
256,192,311766,1,8,0:0:0:0:
256,192,311852,1,8,0:0:0:0:
256,192,311938,1,0,0:0:0:0:
256,192,312024,1,0,0:0:0:0:
256,192,312110,1,8,0:0:0:0:
256,192,312283,1,0,0:0:0:0:
256,192,312369,1,0,0:0:0:0:
256,192,312455,1,8,0:0:0:0:
256,192,312542,1,8,0:0:0:0:
256,192,312628,1,0,0:0:0:0:
256,192,312714,1,0,0:0:0:0:
256,192,312800,1,8,0:0:0:0:
256,192,312886,1,0,0:0:0:0:
256,192,312973,1,8,0:0:0:0:
256,192,313059,1,8,0:0:0:0:
256,192,313145,1,0,0:0:0:0:
256,192,313317,1,0,0:0:0:0:
256,192,313490,1,8,0:0:0:0:
256,192,313662,1,0,0:0:0:0:
256,192,313748,1,0,0:0:0:0:
256,192,313835,1,8,0:0:0:0:
256,192,314007,1,0,0:0:0:0:
256,192,314179,1,8,0:0:0:0:
256,192,314266,1,8,0:0:0:0:
256,192,314352,1,8,0:0:0:0:
256,192,314438,1,8,0:0:0:0:
256,192,314524,1,0,0:0:0:0:
256,192,314697,1,0,0:0:0:0:
256,192,314869,1,8,0:0:0:0:
256,192,315042,1,0,0:0:0:0:
256,192,315128,1,0,0:0:0:0:
256,192,315214,1,8,0:0:0:0:
256,192,315300,1,8,0:0:0:0:
256,192,315386,1,0,0:0:0:0:
256,192,315559,1,8,0:0:0:0:
256,192,315731,1,0,0:0:0:0:
256,192,315904,1,8,0:0:0:0:
256,192,315990,1,8,0:0:0:0:
256,192,316076,1,0,0:0:0:0:
256,192,316162,1,0,0:0:0:0:
256,192,316248,1,8,0:0:0:0:
256,192,316421,1,8,0:0:0:0:
256,192,316507,1,8,0:0:0:0:
256,192,316593,1,0,0:0:0:0:
256,192,316766,1,0,0:0:0:0:
256,192,316938,5,8,0:0:0:0:
256,192,317024,1,8,0:0:0:0:
256,192,317110,1,8,0:0:0:0:
256,192,317197,1,8,0:0:0:0:
256,192,317283,5,0,0:0:0:0:
256,192,317628,5,0,0:0:0:0:
256,192,317973,1,8,0:0:0:0:
256,192,318317,1,0,0:0:0:0:
256,192,319007,1,8,0:0:0:0:
256,192,319524,1,0,0:0:0:0:
256,192,319697,1,8,0:0:0:0:
256,192,319783,1,8,0:0:0:0:
256,192,319869,1,8,0:0:0:0:
256,192,320042,1,4,0:0:0:0:
256,192,320214,1,8,0:0:0:0:
256,192,320386,1,0,0:0:0:0:
256,192,320559,1,8,0:0:0:0:
256,192,320731,1,0,0:0:0:0:
256,192,320904,1,0,0:0:0:0:
256,192,321076,1,8,0:0:0:0:
256,192,321248,1,8,0:0:0:0:
256,192,321421,1,0,0:0:0:0:
256,192,321593,1,8,0:0:0:0:
256,192,321766,1,0,0:0:0:0:
256,192,321938,1,8,0:0:0:0:
256,192,322111,1,0,0:0:0:0:
256,192,322283,1,0,0:0:0:0:
256,192,322455,1,8,0:0:0:0:
256,192,322628,1,8,0:0:0:0:
256,192,322800,1,0,0:0:0:0:
256,192,322973,1,8,0:0:0:0:
256,192,323145,1,8,0:0:0:0:
256,192,323317,1,0,0:0:0:0:
256,192,323490,1,8,0:0:0:0:
256,192,323662,1,0,0:0:0:0:
256,192,323835,1,8,0:0:0:0:
256,192,324007,1,8,0:0:0:0:
256,192,324180,1,0,0:0:0:0:
256,192,324352,1,8,0:0:0:0:
256,192,324524,1,8,0:0:0:0:
256,192,324697,1,0,0:0:0:0:
256,192,324869,1,8,0:0:0:0:
256,192,325042,1,0,0:0:0:0:
256,192,325214,1,8,0:0:0:0:
256,192,325386,1,0,0:0:0:0:
256,192,325559,1,0,0:0:0:0:
256,192,325731,1,8,0:0:0:0:
256,192,325904,1,8,0:0:0:0:
256,192,326076,1,0,0:0:0:0:
256,192,326248,1,8,0:0:0:0:
256,192,326421,1,0,0:0:0:0:
256,192,326593,1,8,0:0:0:0:
256,192,326766,1,0,0:0:0:0:
256,192,326938,1,0,0:0:0:0:
256,192,327111,1,8,0:0:0:0:
256,192,327283,1,8,0:0:0:0:
256,192,327455,1,0,0:0:0:0:
256,192,327628,1,8,0:0:0:0:
256,192,327800,1,0,0:0:0:0:
256,192,327973,1,8,0:0:0:0:
256,192,328145,1,0,0:0:0:0:
256,192,328317,1,8,0:0:0:0:
256,192,328490,1,8,0:0:0:0:
256,192,328662,1,0,0:0:0:0:
256,192,328835,1,8,0:0:0:0:
256,192,329007,1,8,0:0:0:0:
256,192,329180,1,0,0:0:0:0:
256,192,329352,5,8,0:0:0:0:
256,192,329524,1,0,0:0:0:0:
256,192,329697,1,8,0:0:0:0:
256,192,329783,1,8,0:0:0:0:
256,192,329869,1,8,0:0:0:0:
256,192,329955,1,0,0:0:0:0:
256,192,330042,1,8,0:0:0:0:
256,192,330214,1,8,0:0:0:0:
256,192,330300,1,8,0:0:0:0:
256,192,330386,1,0,0:0:0:0:
256,192,330559,1,0,0:0:0:0:
256,192,330731,5,0,0:0:0:0:
256,192,330789,1,0,0:0:0:0:
256,192,330846,1,0,0:0:0:0:
256,192,330904,1,8,0:0:0:0:
256,192,331076,5,4,0:0:0:0:
256,192,331248,1,0,0:0:0:0:
256,192,331335,1,0,0:0:0:0:
256,192,331421,1,8,0:0:0:0:
256,192,331507,1,0,0:0:0:0:
256,192,331593,1,8,0:0:0:0:
256,192,331680,1,0,0:0:0:0:
256,192,331766,1,8,0:0:0:0:
256,192,331852,1,8,0:0:0:0:
256,192,331938,1,0,0:0:0:0:
256,192,332024,1,0,0:0:0:0:
256,192,332111,1,8,0:0:0:0:
256,192,332197,1,0,0:0:0:0:
256,192,332283,1,8,0:0:0:0:
256,192,332369,1,0,0:0:0:0:
256,192,332455,1,8,0:0:0:0:
256,192,332542,1,8,0:0:0:0:
256,192,332628,1,8,0:0:0:0:
256,192,332714,1,0,0:0:0:0:
256,192,332800,1,8,0:0:0:0:
256,192,332886,1,0,0:0:0:0:
256,192,332973,1,8,0:0:0:0:
256,192,333059,1,0,0:0:0:0:
256,192,333145,1,8,0:0:0:0:
256,192,333231,1,8,0:0:0:0:
256,192,333317,1,0,0:0:0:0:
256,192,333404,1,0,0:0:0:0:
256,192,333490,1,8,0:0:0:0:
256,192,333576,1,0,0:0:0:0:
256,192,333662,1,8,0:0:0:0:
256,192,333748,1,0,0:0:0:0:
256,192,333835,1,8,0:0:0:0:
256,192,333921,1,0,0:0:0:0:
256,192,334007,1,0,0:0:0:0:
256,192,334093,1,0,0:0:0:0:
256,192,334180,1,8,0:0:0:0:
256,192,334266,1,0,0:0:0:0:
256,192,334352,1,8,0:0:0:0:
256,192,334438,1,0,0:0:0:0:
256,192,334524,1,8,0:0:0:0:
256,192,334611,1,8,0:0:0:0:
256,192,334697,1,0,0:0:0:0:
256,192,334783,1,0,0:0:0:0:
256,192,334869,1,8,0:0:0:0:
256,192,334955,1,0,0:0:0:0:
256,192,335042,1,8,0:0:0:0:
256,192,335128,1,0,0:0:0:0:
256,192,335214,1,8,0:0:0:0:
256,192,335300,1,8,0:0:0:0:
256,192,335386,1,8,0:0:0:0:
256,192,335473,1,0,0:0:0:0:
256,192,335559,1,8,0:0:0:0:
256,192,335645,1,8,0:0:0:0:
256,192,335731,1,0,0:0:0:0:
256,192,335817,1,0,0:0:0:0:
256,192,335904,1,8,0:0:0:0:
256,192,335990,1,8,0:0:0:0:
256,192,336076,1,8,0:0:0:0:
256,192,336162,1,0,0:0:0:0:
256,192,336248,1,8,0:0:0:0:
256,192,336335,1,8,0:0:0:0:
256,192,336421,1,0,0:0:0:0:
256,192,336507,1,0,0:0:0:0:
256,192,336593,1,8,0:0:0:0:
256,192,336680,1,8,0:0:0:0:
256,192,336766,1,8,0:0:0:0:
256,192,336852,1,0,0:0:0:0:
256,192,336938,1,8,0:0:0:0:
256,192,337024,1,0,0:0:0:0:
256,192,337111,1,8,0:0:0:0:
256,192,337197,1,0,0:0:0:0:
256,192,337283,1,8,0:0:0:0:
256,192,337369,1,0,0:0:0:0:
256,192,337455,1,0,0:0:0:0:
256,192,337542,1,0,0:0:0:0:
256,192,337628,1,8,0:0:0:0:
256,192,337714,1,0,0:0:0:0:
256,192,337800,1,8,0:0:0:0:
256,192,337886,1,0,0:0:0:0:
256,192,337973,1,8,0:0:0:0:
256,192,338059,1,8,0:0:0:0:
256,192,338145,1,8,0:0:0:0:
256,192,338231,1,0,0:0:0:0:
256,192,338317,1,8,0:0:0:0:
256,192,338404,1,0,0:0:0:0:
256,192,338490,1,8,0:0:0:0:
256,192,338576,1,0,0:0:0:0:
256,192,338662,1,8,0:0:0:0:
256,192,338748,1,8,0:0:0:0:
256,192,338835,1,0,0:0:0:0:
256,192,338921,1,0,0:0:0:0:
256,192,339007,5,8,0:0:0:0:
256,192,339093,1,0,0:0:0:0:
256,192,339180,1,8,0:0:0:0:
256,192,339266,1,0,0:0:0:0:
256,192,339352,1,8,0:0:0:0:
256,192,339438,5,8,0:0:0:0:
256,192,339524,1,8,0:0:0:0:
256,192,339610,1,8,0:0:0:0:
256,192,339697,1,8,0:0:0:0:
256,192,339783,1,8,0:0:0:0:
256,192,339869,1,8,0:0:0:0:
256,192,339955,1,8,0:0:0:0:
256,192,340042,1,8,0:0:0:0:
256,192,340128,1,8,0:0:0:0:
256,192,340214,1,8,0:0:0:0:
256,192,340300,1,8,0:0:0:0:
256,192,340386,1,8,0:0:0:0:
256,192,340473,1,8,0:0:0:0:
256,192,340559,1,8,0:0:0:0:
256,192,340645,1,8,0:0:0:0:
256,192,340731,1,0,0:0:0:0:
256,192,340817,1,0,0:0:0:0:
256,192,340904,1,0,0:0:0:0:
256,192,340990,1,0,0:0:0:0:
256,192,341076,1,8,0:0:0:0:
256,192,341162,1,8,0:0:0:0:
256,192,341248,1,8,0:0:0:0:
256,192,341335,1,8,0:0:0:0:
256,192,341421,1,0,0:0:0:0:
256,192,341478,1,0,0:0:0:0:
256,192,341536,1,0,0:0:0:0:
256,192,341593,1,0,0:0:0:0:
256,192,341651,1,0,0:0:0:0:
256,192,341708,1,0,0:0:0:0:
256,192,341766,1,8,0:0:0:0:
256,192,341823,1,8,0:0:0:0:
256,192,341881,1,8,0:0:0:0:
256,192,341938,1,8,0:0:0:0:
256,192,341996,1,8,0:0:0:0:
256,192,342053,1,8,0:0:0:0:
256,192,342110,1,0,0:0:0:0:
256,192,342800,1,8,0:0:0:0:
256,192,343835,1,0,0:0:0:0:
256,192,344179,1,8,0:0:0:0:
256,192,345214,1,0,0:0:0:0:
256,192,345559,1,8,0:0:0:0:
256,192,346593,1,0,0:0:0:0:
256,192,346938,1,8,0:0:0:0:
256,192,347283,1,0,0:0:0:0:
256,192,347628,1,0,0:0:0:0:
192,192,348317,2,0,L|224:192,8,26.2500010013581
256,192,349352,1,0,0:0:0:0:
256,192,349697,1,8,0:0:0:0:
256,192,350042,1,0,0:0:0:0:
256,192,350731,1,0,0:0:0:0:
256,192,351076,1,8,0:0:0:0:
256,192,352110,1,0,0:0:0:0:
256,192,352455,1,8,0:0:0:0:
256,192,352628,1,0,0:0:0:0:
256,192,352800,1,8,0:0:0:0:
256,192,352973,1,8,0:0:0:0:
256,192,353145,1,4,0:0:0:0:
256,192,353835,1,8,0:0:0:0:
256,192,354524,1,0,0:0:0:0:
256,192,354869,1,0,0:0:0:0:
256,192,355214,1,8,0:0:0:0:
256,192,355559,1,0,0:0:0:0:
256,192,356248,1,0,0:0:0:0:
256,192,356593,1,8,0:0:0:0:
256,192,357628,1,0,0:0:0:0:
256,192,357973,1,8,0:0:0:0:
256,192,358317,1,8,0:0:0:0:
256,192,358662,1,0,0:0:0:0:
192,192,359352,2,0,L|224:192,8,26.2500010013581
256,192,360386,1,0,0:0:0:0:
256,192,360731,1,8,0:0:0:0:
256,192,361076,1,0,0:0:0:0:
256,192,361766,1,0,0:0:0:0:
256,192,362110,1,8,0:0:0:0:
256,192,363145,1,0,0:0:0:0:
256,192,363490,1,8,0:0:0:0:
256,192,363662,1,0,0:0:0:0:
256,192,363835,1,8,0:0:0:0:
256,192,364007,1,8,0:0:0:0:
256,192,364179,1,4,0:0:0:0:
256,192,364869,1,8,0:0:0:0:
256,192,365904,1,0,0:0:0:0:
256,192,366248,1,8,0:0:0:0:
256,192,367283,1,0,0:0:0:0:
256,192,367628,1,8,0:0:0:0:
256,192,368662,1,0,0:0:0:0:
256,192,369007,1,8,0:0:0:0:
256,192,369352,1,0,0:0:0:0:
256,192,369697,1,0,0:0:0:0:
192,192,370386,2,0,L|224:192,8,26.2500010013581
256,192,371421,1,0,0:0:0:0:
256,192,371766,1,8,0:0:0:0:
256,192,372110,1,0,0:0:0:0:
256,192,372800,1,0,0:0:0:0:
256,192,373145,1,8,0:0:0:0:
256,192,374179,1,0,0:0:0:0:
256,192,374524,1,8,0:0:0:0:
256,192,374697,1,0,0:0:0:0:
256,192,374869,1,8,0:0:0:0:
256,192,375042,1,8,0:0:0:0:
256,192,375214,1,0,0:0:0:0:
256,192,375904,1,8,0:0:0:0:
256,192,376593,1,0,0:0:0:0:
256,192,376938,1,0,0:0:0:0:
256,192,377283,1,8,0:0:0:0:
256,192,377628,1,0,0:0:0:0:
256,192,378317,1,0,0:0:0:0:
256,192,378662,1,8,0:0:0:0:
256,192,379007,1,0,0:0:0:0:
256,192,379697,1,0,0:0:0:0:
256,192,380042,1,8,0:0:0:0:
256,192,380386,1,8,0:0:0:0:
256,192,380731,1,0,0:0:0:0:
192,192,381421,2,0,L|224:192,8,26.2500010013581
256,192,382455,1,0,0:0:0:0:
256,192,382800,1,8,0:0:0:0:
256,192,383145,1,0,0:0:0:0:
256,192,383835,1,0,0:0:0:0:
256,192,384179,1,8,0:0:0:0:
256,192,385214,1,0,0:0:0:0:
256,192,385559,1,8,0:0:0:0:
256,192,385731,1,8,0:0:0:0:
256,192,385904,1,0,0:0:0:0:
256,192,386076,1,0,0:0:0:0:
