osu file format v14

[General]
AudioFilename: audio.mp3
AudioLeadIn: 0
PreviewTime: 173844
Countdown: 1
SampleSet: Soft
StackLeniency: 0.7
Mode: 0
LetterboxInBreaks: 0
EpilepsyWarning: 1
WidescreenStoryboard: 1

[Editor]
Bookmarks: 22119,42119,44188,69016,91085,143499,168326,226257,227637,245568,251085,262119,273154,278671,284188,289706,292464,293844,295223,364188,386257
DistanceSpacing: 1.8
BeatDivisor: 4
GridSize: 4
TimelineZoom: 2.599999

[Metadata]
Title:The Pretender
TitleUnicode:The Pretender
Artist:Infected Mushroom
ArtistUnicode:Infected Mushroom
Creator:DavidEd
Version:Ignorance
Source:
Tags:army of mushrooms foo fighters cover drum and bass bergy
BeatmapID:1391282
BeatmapSetID:646289

[Difficulty]
HPDrainRate:6
CircleSize:3.5
OverallDifficulty:8
ApproachRate:9
SliderMultiplier:1.8
SliderTickRate:1

[Events]
//Background and Video events
0,0,"bg.jpg",0,0
//Break Periods
2,118693,120307
2,245762,250307
//Storyboard Layer 0 (Background)
//Storyboard Layer 1 (Fail)
//Storyboard Layer 2 (Pass)
//Storyboard Layer 3 (Foreground)
//Storyboard Sound Samples

[TimingPoints]
45,344.827586206897,4,2,2,60,1,0
22113,-200,4,2,2,60,0,0
25217,-142.857142857143,4,2,2,60,0,0
25907,-111.111111111111,4,2,2,60,0,0
26596,-200,4,2,2,60,0,0
36251,-142.857142857143,4,2,2,60,0,0
36941,-111.111111111111,4,2,2,60,0,0
37631,-200,4,2,2,60,0,0
44182,-83.3333333333333,4,2,1,70,0,0
45562,-100,4,2,1,50,0,0
46596,-66.6666666666667,4,2,1,70,0,0
46855,-66.6666666666667,4,2,1,5,0,0
46941,-100,4,2,3,80,0,0
47113,-100,4,2,1,80,0,0
57286,-83.3333333333333,4,2,1,80,0,0
57976,-100,4,2,3,80,0,0
58148,-100,4,2,1,80,0,0
69010,-100,4,2,3,80,0,0
69182,-100,4,2,1,80,0,0
80045,-100,4,2,3,80,0,0
80217,-100,4,2,1,80,0,0
91079,-166.666666666667,4,2,3,70,0,0
91682,-166.666666666667,4,2,1,5,0,0
91769,-100,4,2,3,70,0,0
92372,-100,4,2,1,50,0,0
92458,-71.4285714285714,4,2,3,70,0,0
93062,-71.4285714285714,4,2,1,5,0,0
93148,-166.666666666667,4,2,3,70,0,0
93838,-166.666666666667,4,2,1,50,0,0
96510,-166.666666666667,4,2,1,5,0,0
96596,-166.666666666667,4,2,1,45,0,0
99010,-125,4,2,1,50,0,0
99240,-125,4,2,1,20,0,0
99355,-83.3333333333333,4,2,3,90,0,1
99527,-83.3333333333333,4,2,1,90,0,1
110389,-83.3333333333333,4,2,3,90,0,1
110562,-83.3333333333333,4,2,1,90,0,1
118665,-100,4,2,1,70,0,0
121424,-90.9090909090909,4,2,3,80,0,0
121596,-90.9090909090909,4,2,1,80,0,0
126596,-90.9090909090909,4,2,1,60,0,0
126639,-90.9090909090909,4,2,1,50,0,0
126769,-90.9090909090909,4,2,1,60,0,0
126812,-90.9090909090909,4,2,1,80,0,0
126941,-90.9090909090909,4,2,1,80,0,0
132458,-90.9090909090909,4,2,3,80,0,0
132631,-90.9090909090909,4,2,1,80,0,0
137803,-90.9090909090909,4,2,1,60,0,0
137846,-90.9090909090909,4,2,1,50,0,0
137976,-90.9090909090909,4,2,1,80,0,0
143493,-90.9090909090909,4,2,1,60,0,0
143838,-166.666666666667,4,2,1,60,0,0
154096,-166.666666666667,4,2,1,5,0,0
154182,-166.666666666667,4,2,1,60,0,0
154269,-166.666666666667,4,2,1,20,0,0
154527,-166.666666666667,4,2,1,60,0,0
161424,-125,4,2,1,60,0,0
162803,-166.666666666667,4,2,1,60,0,0
165131,-166.666666666667,4,2,1,5,0,0
165217,-166.666666666667,4,2,1,60,0,0
168234,-166.666666666667,4,2,1,5,0,0
168320,-142.857142857143,4,2,1,40,0,0
172458,-100,4,2,1,60,0,0
173838,-90.9090909090909,4,2,3,90,0,1
174010,-90.9090909090909,4,2,1,90,0,1
184872,-90.9090909090909,4,2,3,90,0,1
185045,-90.9090909090909,4,2,1,90,0,1
193148,-142.857142857143,4,2,1,60,0,0
195389,-142.857142857143,4,2,1,80,0,0
195562,-100,4,2,1,80,0,0
195907,-100,4,2,3,80,0,0
196079,-100,4,2,1,80,0,0
206596,-76.9230769230769,4,2,1,80,0,0
206855,-76.9230769230769,4,2,1,5,0,0
206941,-83.3333333333333,4,2,3,90,0,1
207027,-83.3333333333333,4,2,1,90,0,1
217631,-100,4,2,1,90,0,0
217976,-83.3333333333333,4,2,3,90,0,1
218062,-83.3333333333333,4,2,1,90,0,1
226251,-83.3333333333333,4,2,1,60,0,1
228665,-100,4,2,1,60,0,0
229010,-76.9230769230769,4,2,3,90,0,1
229096,-76.9230769230769,4,2,1,90,0,1
240045,-100,4,2,1,60,0,0
250907,-200,4,2,1,60,0,0
262113,-125,4,2,1,60,0,0
266596,-125,4,2,1,60,0,0
266682,-125,4,2,1,40,0,0
266941,-125,4,2,1,60,0,0
267027,-125,4,2,1,40,0,0
267286,-125,4,2,1,60,0,0
269527,-76.9230769230769,4,2,1,60,0,0
269786,-76.9230769230769,4,2,1,60,0,0
269872,-76.9230769230769,4,2,1,60,0,0
270303,-76.9230769230769,4,2,1,60,0,0
270389,-125,4,2,1,60,0,0
284182,-125,4,2,1,50,0,0
293838,-90.9090909090909,4,2,1,50,0,0
295217,-90.9090909090909,4,2,1,40,0,0
296596,-100,4,2,1,60,0,0
297976,-90.9090909090909,4,2,3,90,0,1
298148,-90.9090909090909,4,2,1,90,0,1
309010,-90.9090909090909,4,2,3,90,0,1
309182,-90.9090909090909,4,2,1,90,0,1
317286,-166.666666666667,4,2,1,60,0,0
318320,-166.666666666667,4,2,1,60,0,0
319527,-166.666666666667,4,2,1,80,0,0
319700,-100,4,2,1,80,0,0
320045,-100,4,2,3,80,0,0
320217,-100,4,2,1,80,0,0
330734,-76.9230769230769,4,2,1,80,0,0
330993,-76.9230769230769,4,2,1,5,0,0
331079,-83.3333333333333,4,2,3,90,0,1
331165,-83.3333333333333,4,2,1,90,0,1
339355,-83.3333333333333,4,2,1,60,0,1
342113,-166.666666666667,4,2,3,80,0,0
342458,-166.666666666667,4,2,1,60,0,0
344527,-200,4,2,1,60,0,0
345217,-142.857142857143,4,2,1,60,0,0
345907,-111.111111111111,4,2,1,60,0,0
346596,-200,4,2,1,60,0,0
347286,-166.666666666667,4,2,1,60,0,0
348320,-100,4,2,1,50,0,0
348665,-166.666666666667,4,2,1,60,0,0
353148,-166.666666666667,4,2,3,60,0,0
353493,-166.666666666667,4,2,1,60,0,0
359355,-100,4,2,1,60,0,0
359700,-166.666666666667,4,2,1,60,0,0
364182,-166.666666666667,4,2,3,60,0,0
364527,-166.666666666667,4,2,1,60,0,0
366596,-200,4,2,1,60,0,0
367286,-142.857142857143,4,2,1,60,0,0
367976,-111.111111111111,4,2,1,60,0,0
368665,-199.999999999999,4,2,1,60,0,0
369355,-166.666666666666,4,2,1,60,0,0
370389,-100,4,2,1,60,0,0
370734,-166.666666666667,4,2,1,60,0,0
377631,-200,4,2,1,60,0,0
378320,-142.857142857143,4,2,1,60,0,0
379010,-111.111111111111,4,2,1,60,0,0
379700,-166.666666666667,4,2,1,60,0,0
381424,-100,4,2,1,60,0,0
381769,-166.666666666667,4,2,1,60,0,0
385619,-166.666666666667,4,2,1,5,0,0
385734,-166.666666666667,4,2,1,60,0,0
385792,-166.666666666667,4,2,1,5,0,0
385907,-166.666666666667,4,2,1,60,0,0
385964,-166.666666666667,4,2,1,5,0,0
386079,-166.666666666667,4,2,1,60,0,0
386136,-166.666666666667,4,2,1,5,0,0

[Colours]
Combo1 : 164,164,164
Combo2 : 49,96,101
Combo3 : 113,170,185
Combo4 : 57,65,136
Combo5 : 126,134,201
Combo6 : 141,56,56
Combo7 : 190,97,97
Combo8 : 83,83,83

[HitObjects]
255,190,22113,5,2,0:0:0:0:
167,207,22458,2,0,L|269:188,1,90,2|0,0:0|0:0,0:0:0:0:
136,288,23148,2,0,P|83:223|118:135,1,180,2|2,0:0|0:0,0:0:0:0:
136,288,24527,6,0,L|231:304,1,90,2|0,0:0|0:0,0:0:0:0:
128,212,25217,102,0,L|253:231,1,125.999996154785,2|0,0:0|0:0,0:0:0:0:
120,132,25907,6,0,L|286:158,1,161.999995056153,2|0,0:0|0:0,0:0:0:0:
110,55,26596,102,0,P|64:79|44:116,1,90,2|0,0:0|0:0,0:0:0:0:
150,301,27286,1,2,0:0:0:0:
120,132,27631,6,0,L|136:224,1,90,2|0,0:0|0:0,0:0:0:0:
208,116,28320,2,0,L|116:132,1,90,2|0,0:0|0:0,0:0:0:0:
46,236,29010,2,0,L|134:220,1,90,2|0,0:0|0:0,0:0:0:0:
228,204,29527,1,0,0:0:0:0:
111,87,29700,2,0,L|118:131,1,45,2|0,0:0|0:0,0:0:0:0:
228,204,30045,2,0,L|221:160,1,45,2|0,0:0|0:0,0:0:0:0:
53,191,30389,102,0,P|89:216|134:219,1,90,2|2,0:0|0:0,0:0:0:0:
228,204,30907,2,0,L|253:345,1,135,2|0,0:0|0:0,0:0:0:0:
340,320,31769,2,0,L|252:336,1,90,2|0,0:0|0:0,0:0:0:0:
326,240,32458,2,0,P|371:245|407:275,1,90,2|0,0:0|0:0,0:0:0:0:
251,336,33148,5,2,0:0:0:0:
234,247,33493,2,0,L|250:335,1,90,2|0,0:0|0:0,0:0:0:0:
300,200,34182,2,0,P|220:166|153:234,1,180,2|2,0:0|0:0,0:0:0:0:
156,220,35562,102,0,L|140:124,1,90,2|0,0:0|0:0,0:0:0:0:
232,228,36252,6,0,L|213:103,1,125.999996154785,2|0,0:0|0:0,0:0:0:0:
312,236,36942,102,0,L|286:70,1,161.999995056153,2|0,0:0|0:0,0:0:0:0:
391,248,37631,6,0,P|372:290|336:314,1,90,2|0,0:0|0:0,0:0:0:0:
144,205,38320,1,2,0:0:0:0:
312,236,38665,102,0,L|215:218,1,90,2|0,0:0|0:0,0:0:0:0:
327,147,39355,2,0,L|311:239,1,90,2|0,0:0|0:0,0:0:0:0:
238,131,40045,2,0,L|326:146,1,90,2|0,0:0|0:0,0:0:0:0:
414,161,40562,1,0,0:0:0:0:
303,279,40734,2,0,L|311:231,1,45,2|0,0:0|0:0,0:0:0:0:
414,161,41079,2,0,L|421:205,1,45,2|0,0:0|0:0,0:0:0:0:
380,320,41424,6,0,P|352:352|301:367,1,90,2|2,0:0|0:0,0:0:0:0:
214,294,42113,2,0,L|302:278,1,90,2|0,0:0|0:0,0:0:0:0:
155,226,42803,2,0,L|244:208,1,90,2|0,0:0|0:0,0:0:0:0:
96,158,43493,2,0,L|148:145,1,45,2|2,0:0|0:0,0:0:0:0:
243,208,43838,2,0,L|286:218,1,45,2|2,0:0|0:0,0:0:0:0:
480,96,44182,102,0,P|432:72|373:81,1,107.999996704102,8|0,0:0|0:0,0:0:0:0:
397,266,44527,2,0,L|416:160,1,107.999996704102,8|0,0:0|0:0,0:0:0:0:
256,192,44786,1,0,0:0:0:0:
243,208,44872,2,0,P|195:232|136:223,1,107.999996704102,8|0,0:0|0:0,0:0:0:0:
160,37,45217,2,0,L|178:143,1,107.999996704102,8|0,0:0|0:0,0:0:0:0:
383,308,45562,6,0,P|395:281|395:253,1,45,8|0,0:0|0:0,0:0:0:0:
297,126,45734,2,0,P|285:153|285:181,1,45
421,273,45907,102,0,P|417:243|403:219,1,45,8|0,0:0|0:0,0:0:0:0:
255,158,46079,2,0,P|258:187|272:211,1,45
434,221,46251,6,0,P|416:197|392:183,1,45,8|0,0:0|0:0,0:0:0:0:
232,204,46423,2,0,P|249:227|273:241,1,45
375,121,46596,102,0,P|306:47|224:95,1,202.500007724762,8|0,0:0|0:0,0:0:0:0:
344,232,46941,6,0,L|446:218,1,90,6|0,0:0|0:0,0:0:0:0:
297,126,47286,1,10,0:0:0:0:
176,264,47458,1,2,0:0:0:0:
161,246,47544,1,0,0:0:0:0:
152,226,47630,1,2,0:0:0:0:
149,203,47716,1,0,0:0:0:0:
153,181,47802,1,6,0:0:0:0:
256,288,47976,1,8,0:0:0:0:
104,320,48148,102,0,L|1:301,1,90,2|0,0:0|0:0,0:0:0:0:
153,181,48493,2,0,L|50:162,1,90,6|8,0:0|0:0,0:0:0:0:
256,288,48838,1,2,0:0:0:0:
272,273,48924,1,0,0:0:0:0:
284,254,49010,1,0,0:0:0:0:
280,96,49182,1,4,0:0:0:0:
153,181,49355,2,0,L|108:173,2,45,10|2|2,0:0|0:0|0:0,0:0:0:0:
344,144,49700,6,0,L|359:232,1,90,4|0,0:0|0:0,0:0:0:0:
224,272,50045,1,10,0:0:0:0:
376,328,50217,1,2,0:0:0:0:
397,321,50303,1,0,0:0:0:0:
417,310,50389,1,0,0:0:0:0:
433,295,50475,1,0,0:0:0:0:
444,275,50561,1,6,0:0:0:0:
344,144,50734,1,8,0:0:0:0:
224,272,50907,102,0,L|209:184,1,90,2|0,0:0|0:0,0:0:0:0:
280,81,51251,1,4,0:0:0:0:
359,232,51424,1,10,0:0:0:0:
208,183,51596,1,2,0:0:0:0:
231,179,51682,1,0,0:0:0:0:
253,175,51768,1,0,0:0:0:0:
371,127,51941,1,4,0:0:0:0:
268,264,52113,2,0,L|212:273,2,45,10|2|2,0:0|0:0|0:0,0:0:0:0:
459,143,52458,6,0,L|355:124,1,90,4|0,0:0|0:0,0:0:0:0:
231,179,52803,1,10,0:0:0:0:
348,308,52976,1,2,0:0:0:0:
356,287,53062,1,0,0:0:0:0:
359,265,53148,1,0,0:0:0:0:
357,242,53234,1,0,0:0:0:0:
349,221,53320,1,4,0:0:0:0:
247,90,53493,102,0,L|231:178,1,90,8|0,0:0|0:0,0:0:0:0:
113,281,53838,1,0,0:0:0:0:
160,124,54010,1,4,0:0:0:0:
268,264,54182,1,8,0:0:0:0:
142,203,54355,1,0,0:0:0:0:
119,199,54441,1,0,0:0:0:0:
97,200,54527,2,0,L|-3:218,1,90,2|4,0:0|0:0,0:0:0:0:
160,304,54872,2,0,L|60:322,1,90,10|0,0:0|0:0,0:0:0:0:
160,124,55217,6,0,P|200:145|223:184,1,90,4|2,0:0|0:0,0:0:0:0:
160,304,55562,1,8,0:0:0:0:
296,264,55734,1,0,0:0:0:0:
311,248,55820,1,0,0:0:0:0:
323,228,55906,1,0,0:0:0:0:
329,207,55992,1,0,0:0:0:0:
330,184,56078,1,4,0:0:0:0:
142,203,56251,2,0,L|237:194,1,90,8|0,0:0|0:0,0:0:0:0:
328,88,56596,101,0,0:0:0:0:
231,195,56769,1,4,0:0:0:0:
376,232,56941,2,0,L|472:224,1,90,8|0,0:0|0:0,0:0:0:0:
328,88,57286,5,2,0:0:0:0:
301,83,57372,1,2,0:0:0:0:
274,78,57458,1,6,0:0:0:0:
224,112,57545,1,2,0:0:0:0:
176,152,57631,1,10,0:0:0:0:
151,163,57717,1,2,0:0:0:0:
125,167,57803,1,2,0:0:0:0:
98,165,57889,1,2,0:0:0:0:
73,155,57976,102,0,L|50:34,1,90,6|0,0:0|0:0,0:0:0:0:
224,112,58320,1,10,0:0:0:0:
171,245,58493,1,2,0:0:0:0:
185,262,58579,1,0,0:0:0:0:
204,274,58665,1,0,0:0:0:0:
225,280,58751,1,0,0:0:0:0:
248,279,58837,1,6,0:0:0:0:
392,216,59010,1,8,0:0:0:0:
239,200,59182,6,0,L|223:111,1,90,2|0,0:0|0:0,0:0:0:0:
392,216,59527,2,0,L|376:127,1,90,6|8,0:0|0:0,0:0:0:0:
309,265,59872,1,2,0:0:0:0:
320,284,59958,1,0,0:0:0:0:
336,299,60045,102,0,L|390:308,2,45,2|2|6,0:0|0:0|0:0,0:0:0:0:
436,223,60389,2,0,L|391:215,2,45,10|2|2,0:0|0:0|0:0,0:0:0:0:
264,144,60734,6,0,L|352:128,1,90,4|0,0:0|0:0,0:0:0:0:
472,232,61079,1,10,0:0:0:0:
336,304,61251,1,2,0:0:0:0:
326,283,61337,1,0,0:0:0:0:
320,262,61423,1,0,0:0:0:0:
320,239,61509,1,0,0:0:0:0:
324,217,61595,1,6,0:0:0:0:
440,64,61769,2,0,L|456:152,1,90,8|2,0:0|0:0,0:0:0:0:
336,304,62113,101,0,0:0:0:0:
344,152,62286,1,6,0:0:0:0:
472,232,62458,1,8,0:0:0:0:
336,304,62631,1,2,0:0:0:0:
313,300,62717,1,0,0:0:0:0:
291,296,62803,1,0,0:0:0:0:
408,192,62976,1,6,0:0:0:0:
274,110,63148,2,0,P|263:156|275:196,1,90,8|0,0:0|0:0,0:0:0:0:
472,112,63493,6,0,L|377:95,1,90,6|0,0:0|0:0,0:0:0:0:
274,195,63838,1,8,0:0:0:0:
200,72,64010,1,0,0:0:0:0:
212,53,64096,1,0,0:0:0:0:
229,38,64182,1,2,0:0:0:0:
250,29,64268,1,0,0:0:0:0:
272,26,64354,1,4,0:0:0:0:
362,125,64527,2,0,L|273:109,1,90,8|0,0:0|0:0,0:0:0:0:
128,176,64872,101,2,0:0:0:0:
212,53,65045,1,4,0:0:0:0:
274,195,65217,1,8,0:0:0:0:
128,176,65389,1,0,0:0:0:0:
124,153,65475,1,0,0:0:0:0:
120,131,65561,1,2,0:0:0:0:
273,109,65734,1,4,0:0:0:0:
192,248,65907,2,0,L|103:264,1,90,8|0,0:0|0:0,0:0:0:0:
157,62,66251,6,0,P|192:101|195:153,1,90,6|0,0:0|0:0,0:0:0:0:
103,263,66596,1,8,0:0:0:0:
256,296,66769,1,0,0:0:0:0:
266,276,66855,1,0,0:0:0:0:
271,254,66941,1,2,0:0:0:0:
270,232,67027,1,0,0:0:0:0:
262,210,67113,1,4,0:0:0:0:
80,176,67286,2,0,L|169:192,1,90,8|0,0:0|0:0,0:0:0:0:
336,152,67631,101,6,0:0:0:0:
256,296,67803,1,4,0:0:0:0:
176,104,67976,1,8,0:0:0:0:
296,223,68148,1,8,0:0:0:0:
339,233,68234,1,8,0:0:0:0:
382,220,68320,1,6,0:0:0:0:
293,82,68493,1,4,0:0:0:0:
160,264,68665,2,0,L|149:200,1,45,8|8,0:0|0:0,0:0:0:0:
293,82,68838,2,0,L|300:126,1,45,8|8,0:0|0:0,0:0:0:0:
256,296,69010,6,0,L|237:193,1,90,6|0,0:0|0:0,0:0:0:0:
136,96,69355,1,10,0:0:0:0:
74,252,69527,1,0,0:0:0:0:
93,262,69613,1,0,0:0:0:0:
115,268,69699,1,2,0:0:0:0:
137,268,69785,1,0,0:0:0:0:
159,263,69871,1,6,0:0:0:0:
224,128,70045,1,8,0:0:0:0:
74,252,70217,102,0,L|57:163,1,90,2|0,0:0|0:0,0:0:0:0:
240,216,70562,2,0,L|223:127,1,90,6|8,0:0|0:0,0:0:0:0:
88,40,70907,1,2,0:0:0:0:
65,43,70993,1,0,0:0:0:0:
43,47,71079,1,0,0:0:0:0:
144,160,71251,1,4,0:0:0:0:
272,64,71424,2,0,P|229:47|175:62,1,90,8|0,0:0|0:0,0:0:0:0:
88,248,71769,6,0,L|177:265,1,90,4|0,0:0|0:0,0:0:0:0:
296,176,72113,1,10,0:0:0:0:
244,319,72286,1,0,0:0:0:0:
222,311,72372,1,0,0:0:0:0:
203,299,72458,1,2,0:0:0:0:
187,283,72544,1,0,0:0:0:0:
176,264,72630,1,6,0:0:0:0:
223,127,72803,1,8,0:0:0:0:
328,256,72976,102,0,L|446:235,1,90,2|0,0:0|0:0,0:0:0:0:
223,127,73320,2,0,L|341:106,1,90,6|8,0:0|0:0,0:0:0:0:
448,56,73665,1,2,0:0:0:0:
456,75,73751,1,0,0:0:0:0:
461,97,73837,1,0,0:0:0:0:
360,216,74010,1,6,0:0:0:0:
512,256,74182,2,0,L|485:168,1,90,8|2,0:0|0:0,0:0:0:0:
336,56,74527,6,0,P|312:96|312:144,1,90,4|0,0:0|0:0,0:0:0:0:
408,240,74872,1,8,0:0:0:0:
272,272,75045,1,0,0:0:0:0:
250,264,75131,1,0,0:0:0:0:
231,253,75217,1,0,0:0:0:0:
214,238,75303,1,0,0:0:0:0:
199,221,75389,1,4,0:0:0:0:
264,88,75562,1,8,0:0:0:0:
128,168,75734,1,0,0:0:0:0:
280,176,75907,102,0,P|320:160|352:112,1,90,0|4,0:0|0:0,0:0:0:0:
264,8,76251,1,8,0:0:0:0:
160,88,76424,1,2,0:0:0:0:
137,85,76510,1,0,0:0:0:0:
115,82,76596,2,0,L|4:101,1,90,2|4,0:0|0:0,0:0:0:0:
176,200,76941,2,0,L|65:219,1,90,10|0,0:0|0:0,0:0:0:0:
240,136,77286,6,0,P|264:184|264:224,1,90,4|2,0:0|0:0,0:0:0:0:
152,304,77631,1,8,0:0:0:0:
280,368,77803,1,0,0:0:0:0:
301,365,77889,1,0,0:0:0:0:
323,358,77975,1,0,0:0:0:0:
342,347,78061,1,0,0:0:0:0:
358,332,78147,1,4,0:0:0:0:
416,192,78320,1,8,0:0:0:0:
288,280,78493,1,0,0:0:0:0:
440,280,78665,102,0,P|488:248|504:200,1,90,0|4,0:0|0:0,0:0:0:0:
440,88,79010,2,0,L|346:105,1,90,8|0,0:0|0:0,0:0:0:0:
208,232,79355,2,0,P|222:211|228:187,1,45,8|8,0:0|0:0,0:0:0:0:
255,32,79527,2,0,P|261:53|274:71,1,45,4|4,0:0|0:0,0:0:0:0:
416,192,79700,2,0,L|313:210,1,90,8|4,0:0|0:0,0:0:0:0:
136,96,80045,6,0,P|128:144|144:184,1,90,6|0,0:0|0:0,0:0:0:0:
248,272,80389,1,10,0:0:0:0:
120,312,80562,1,2,0:0:0:0:
97,308,80648,1,0,0:0:0:0:
77,299,80734,1,0,0:0:0:0:
59,285,80820,1,0,0:0:0:0:
45,267,80906,1,6,0:0:0:0:
142,181,81079,1,8,0:0:0:0:
232,312,81251,102,0,L|350:291,1,90,2|0,0:0|0:0,0:0:0:0:
142,181,81596,2,0,L|260:160,1,90,6|8,0:0|0:0,0:0:0:0:
376,104,81941,1,2,0:0:0:0:
387,123,82027,1,0,0:0:0:0:
391,145,82113,1,0,0:0:0:0:
336,272,82286,1,6,0:0:0:0:
480,264,82458,2,0,P|488:216|472:176,1,90,8|0,0:0|0:0,0:0:0:0:
296,152,82803,6,0,L|207:167,1,90,4|0,0:0|0:0,0:0:0:0:
80,96,83148,1,10,0:0:0:0:
120,224,83320,1,2,0:0:0:0:
133,241,83406,1,0,0:0:0:0:
151,255,83492,1,2,0:0:0:0:
171,265,83578,1,0,0:0:0:0:
193,269,83664,1,6,0:0:0:0:
336,248,83838,1,8,0:0:0:0:
192,184,84010,102,0,L|208:95,1,90,2|0,0:0|0:0,0:0:0:0:
336,248,84355,2,0,L|352:159,1,90,6|8,0:0|0:0,0:0:0:0:
215,51,84700,1,2,0:0:0:0:
211,73,84786,1,0,0:0:0:0:
207,95,84872,1,0,0:0:0:0:
248,248,85045,1,6,0:0:0:0:
112,208,85217,2,0,L|17:224,1,90,8|0,0:0|0:0,0:0:0:0:
132,124,85562,6,0,P|180:152|196:184,1,90,6|0,0:0|0:0,0:0:0:0:
120,312,85907,1,8,0:0:0:0:
264,324,86079,1,0,0:0:0:0:
282,311,86165,1,0,0:0:0:0:
297,294,86251,1,2,0:0:0:0:
308,274,86337,1,0,0:0:0:0:
313,253,86423,1,4,0:0:0:0:
214,147,86596,2,0,P|201:191|209:239,1,90,8|0,0:0|0:0,0:0:0:0:
396,304,86941,102,0,P|409:260|401:212,1,90,0|4,0:0|0:0,0:0:0:0:
288,100,87286,1,8,0:0:0:0:
207,234,87458,1,0,0:0:0:0:
187,244,87544,1,0,0:0:0:0:
165,251,87630,1,2,0:0:0:0:
143,252,87716,1,0,0:0:0:0:
121,247,87802,1,4,0:0:0:0:
39,131,87976,2,0,P|87:107|135:107,1,90,8|0,0:0|0:0,0:0:0:0:
296,224,88320,6,0,L|312:131,1,90,4|0,0:0|0:0,0:0:0:0:
232,12,88665,1,8,0:0:0:0:
139,118,88838,1,0,0:0:0:0:
157,131,88924,1,0,0:0:0:0:
178,139,89010,1,2,0:0:0:0:
200,143,89096,1,0,0:0:0:0:
223,142,89182,1,4,0:0:0:0:
368,72,89355,2,0,P|394:115|389:169,1,90,8|0,0:0|0:0,0:0:0:0:
312,288,89700,101,2,0:0:0:0:
312,136,89872,1,4,0:0:0:0:
440,224,90045,1,8,0:0:0:0:
312,288,90217,1,0,0:0:0:0:
289,288,90303,1,0,0:0:0:0:
267,284,90389,1,2,0:0:0:0:
247,275,90475,1,0,0:0:0:0:
229,261,90561,1,4,0:0:0:0:
312,136,90734,2,0,L|400:122,1,90,8|0,0:0|0:0,0:0:0:0:
489,286,91079,6,0,B|411:333|387:237|310:286,1,188.999994232178,6|0,0:0|0:0,0:0:0:0:
355,352,91769,102,0,P|336:211|232:281,1,315,6|0,0:0|0:0,0:0:0:0:
311,286,92458,6,0,B|352:244|352:100|253:189|253:90|270:28|310:-3|384:-12|431:17|446:97,1,440.999986541748,6|0,0:0|0:0,0:0:0:0:
363,94,93148,102,0,L|144:128,1,215.999993408203,6|0,0:0|0:0,0:0:0:0:
256,192,94010,12,0,96510,0:0:0:0:
271,278,96596,5,4,0:0:0:0:
194,246,96769,1,0,0:0:0:0:
320,138,96941,1,8,0:0:0:0:
256,192,97113,1,4,0:0:0:0:
242,110,97286,1,0,0:0:0:0:
338,222,97458,1,8,0:0:0:0:
194,246,97631,1,2,0:0:0:0:
185,235,97717,1,2,0:0:0:0:
178,223,97803,1,2,0:0:0:0:
174,210,97889,1,2,0:0:0:0:
173,197,97976,101,4,0:0:0:0:
242,110,98148,1,0,0:0:0:0:
271,278,98320,1,8,0:0:0:0:
256,192,98493,1,4,0:0:0:0:
338,222,98665,1,0,0:0:0:0:
194,246,98838,1,8,0:0:0:0:
242,110,99010,6,0,L|237:86,5,24,2|2|2|2|2|2,0:0|0:0|0:0|0:0|0:0|0:0,0:0:0:0:
271,278,99355,102,0,P|324:307|381:298,1,107.999996704102,6|2,0:0|0:0,0:0:0:0:
464,136,99700,1,10,0:0:0:0:
338,222,99872,1,0,0:0:0:0:
315,51,100045,1,2,0:0:0:0:
401,177,100217,1,4,0:0:0:0:
315,51,100389,1,10,0:0:0:0:
232,224,100562,6,0,L|126:242,1,107.999996704102,2|0,0:0|0:0,0:0:0:0:
224,72,100907,2,0,L|118:90,1,107.999996704102,6|8,0:0|0:0,0:0:0:0:
264,144,101251,1,2,0:0:0:0:
284,127,101337,1,2,0:0:0:0:
300,104,101423,1,2,0:0:0:0:
136,48,101596,1,6,0:0:0:0:
170,219,101769,2,0,P|208:252|264:264,1,107.999996704102,8|0,0:0|0:0,0:0:0:0:
402,89,102113,101,6,0:0:0:0:
264,144,102286,1,2,0:0:0:0:
402,89,102458,1,10,0:0:0:0:
376,237,102631,1,0,0:0:0:0:
360,259,102717,1,0,0:0:0:0:
340,277,102803,1,2,0:0:0:0:
317,290,102889,1,0,0:0:0:0:
291,296,102975,1,4,0:0:0:0:
128,256,103148,1,10,0:0:0:0:
293,206,103320,6,0,L|312:96,1,107.999996704102,2|0,0:0|0:0,0:0:0:0:
136,160,103665,2,0,L|155:50,1,107.999996704102,6|8,0:0|0:0,0:0:0:0:
212,231,104010,1,2,0:0:0:0:
48,184,104182,1,2,0:0:0:0:
212,231,104355,1,6,0:0:0:0:
66,77,104527,2,0,L|47:183,1,107.999996704102,10|0,0:0|0:0,0:0:0:0:
200,312,104872,101,4,0:0:0:0:
289,203,105045,1,2,0:0:0:0:
151,178,105217,1,10,0:0:0:0:
280,288,105389,1,0,0:0:0:0:
306,286,105475,1,0,0:0:0:0:
331,276,105561,1,2,0:0:0:0:
352,259,105647,1,0,0:0:0:0:
367,236,105733,1,4,0:0:0:0:
336,67,105907,5,8,0:0:0:0:
289,203,106080,1,0,0:0:0:0:
426,175,106252,1,2,0:0:0:0:
262,38,106424,101,6,0:0:0:0:
350,147,106597,1,10,0:0:0:0:
406,19,106769,1,2,0:0:0:0:
289,203,106941,5,0,0:0:0:0:
426,175,107113,1,6,0:0:0:0:
275,119,107286,1,8,0:0:0:0:
416,97,107458,1,0,0:0:0:0:
303,283,107631,101,6,0:0:0:0:
212,174,107804,1,2,0:0:0:0:
350,147,107976,1,10,0:0:0:0:
222,259,108148,1,0,0:0:0:0:
196,258,108234,1,0,0:0:0:0:
172,247,108320,1,2,0:0:0:0:
150,232,108406,1,0,0:0:0:0:
134,209,108492,1,6,0:0:0:0:
256,41,108665,5,10,0:0:0:0:
212,174,108838,1,2,0:0:0:0:
350,147,109010,1,4,0:0:0:0:
212,174,109182,1,4,0:0:0:0:
303,283,109355,1,10,0:0:0:0:
273,113,109527,1,10,0:0:0:0:
275,123,109613,1,8,0:0:0:0:
277,133,109700,1,4,0:0:0:0:
303,283,109872,1,6,0:0:0:0:
152,184,110045,101,8,0:0:0:0:
104,206,110131,1,8,0:0:0:0:
91,257,110217,1,8,0:0:0:0:
120,301,110303,1,8,0:0:0:0:
171,309,110389,6,0,L|277:289,1,107.999996704102,6|2,0:0|0:0,0:0:0:0:
368,145,110734,2,0,P|317:111|262:116,1,107.999996704102,10|0,0:0|0:0,0:0:0:0:
136,232,111079,1,2,0:0:0:0:
296,200,111251,1,4,0:0:0:0:
136,232,111424,1,10,0:0:0:0:
314,306,111596,102,0,L|293:187,1,107.999996704102,2|0,0:0|0:0,0:0:0:0:
154,338,111941,2,0,L|133:219,1,107.999996704102,6|8,0:0|0:0,0:0:0:0:
208,112,112286,1,2,0:0:0:0:
208,138,112372,1,2,0:0:0:0:
199,163,112458,1,2,0:0:0:0:
56,104,112631,1,6,0:0:0:0:
195,31,112803,2,0,P|258:46|288:89,1,107.999996704102,8|0,0:0|0:0,0:0:0:0:
168,240,113148,5,6,0:0:0:0:
56,104,113320,1,2,0:0:0:0:
168,240,113493,1,10,0:0:0:0:
8,264,113665,1,0,0:0:0:0:
13,237,113751,1,0,0:0:0:0:
26,214,113837,1,2,0:0:0:0:
46,196,113923,1,0,0:0:0:0:
71,186,114009,1,4,0:0:0:0:
248,216,114182,1,10,0:0:0:0:
106,370,114355,102,0,L|86:259,1,107.999996704102,2|0,0:0|0:0,0:0:0:0:
266,322,114700,2,0,L|246:211,1,107.999996704102,6|8,0:0|0:0,0:0:0:0:
71,186,115045,1,2,0:0:0:0:
231,130,115217,1,2,0:0:0:0:
71,186,115389,1,6,0:0:0:0:
247,215,115562,2,0,P|300:181|317:133,1,107.999996704102,10|0,0:0|0:0,0:0:0:0:
122,43,115907,5,4,0:0:0:0:
98,178,116080,1,0,0:0:0:0:
231,130,116252,1,10,0:0:0:0:
63,98,116424,1,0,0:0:0:0:
43,115,116510,1,0,0:0:0:0:
26,134,116596,1,2,0:0:0:0:
16,159,116682,1,0,0:0:0:0:
15,188,116768,1,4,0:0:0:0:
197,275,116941,101,8,0:0:0:0:
98,178,117114,1,0,0:0:0:0:
60,311,117286,1,2,0:0:0:0:
252,218,117458,5,6,0:0:0:0:
118,255,117631,1,10,0:0:0:0:
221,353,117803,1,2,0:0:0:0:
176,194,117976,1,0,0:0:0:0:
139,335,118148,1,6,0:0:0:0:
279,295,118320,1,8,0:0:0:0:
176,194,118493,1,0,0:0:0:0:
176,194,120907,117,4,0:0:0:0:
256,88,121079,1,8,0:0:0:0:
263,132,121165,1,8,0:0:0:0:
271,176,121251,1,8,0:0:0:0:
279,220,121337,1,8,0:0:0:0:
287,265,121424,5,6,0:0:0:0:
368,152,121596,1,2,0:0:0:0:
176,194,121769,2,0,L|78:176,1,99.0000030212403,10|0,0:0|0:0,0:0:0:0:
256,88,122113,2,0,L|158:70,1,99.0000030212403,2|4,0:0|0:0,0:0:0:0:
152,276,122458,2,0,P|200:276|252:236,1,99.0000030212403,10|0,0:0|0:0,0:0:0:0:
400,132,122803,6,0,L|418:230,1,99.0000030212403,2|4,0:0|0:0,0:0:0:0:
336,328,123148,1,10,0:0:0:0:
176,194,123320,2,0,P|217:167|266:167,1,99.0000030212403,2|0,0:0|0:0,0:0:0:0:
424,264,123665,1,6,0:0:0:0:
242,249,123838,1,8,0:0:0:0:
424,264,124010,1,2,0:0:0:0:
216,336,124182,101,6,0:0:0:0:
266,167,124355,1,2,0:0:0:0:
444,312,124527,2,0,L|462:214,1,99.0000030212403,10|0,0:0|0:0,0:0:0:0:
318,355,124872,2,0,L|336:257,1,99.0000030212403,2|4,0:0|0:0,0:0:0:0:
368,112,125217,1,10,0:0:0:0:
461,214,125389,1,2,0:0:0:0:
252,164,125562,6,0,L|137:184,1,99.0000030212403,2|4,0:0|0:0,0:0:0:0:
335,257,125907,2,0,P|367:219|378:162,1,99.0000030212403,10|0,0:0|0:0,0:0:0:0:
188,91,126251,2,0,P|160:132|156:190,1,99.0000030212403,2|4,0:0|0:0,0:0:0:0:
232,340,126596,2,0,L|240:376,1,24.7500007553101,10|0,0:0|0:0,0:0:0:0:
252,164,126769,2,0,L|260:128,1,24.7500007553101,2|0,0:0|0:0,0:0:0:0:
68,276,126941,101,6,0:0:0:0:
216,252,127113,1,0,0:0:0:0:
100,92,127286,2,0,L|83:189,1,99.0000030212403,10|0,0:0|0:0,0:0:0:0:
248,68,127631,2,0,L|231:165,1,99.0000030212403,2|4,0:0|0:0,0:0:0:0:
152,312,127976,1,10,0:0:0:0:
83,189,128148,1,2,0:0:0:0:
300,288,128320,6,0,P|344:256|360:212,1,99.0000030212403,2|4,0:0|0:0,0:0:0:0:
332,76,128665,1,10,0:0:0:0:
172,220,128838,2,0,L|270:202,1,99.0000030212403,2|0,0:0|0:0,0:0:0:0:
416,112,129182,1,6,0:0:0:0:
256,40,129355,1,8,0:0:0:0:
416,112,129527,1,2,0:0:0:0:
300,288,129700,101,6,0:0:0:0:
264,120,129872,1,0,0:0:0:0:
448,192,130045,2,0,L|349:209,1,99.0000030212403,10|0,0:0|0:0,0:0:0:0:
476,52,130389,2,0,L|377:69,1,99.0000030212403,2|4,0:0|0:0,0:0:0:0:
264,224,130734,1,10,0:0:0:0:
296,84,130907,1,2,0:0:0:0:
328,288,131079,5,14,0:0:0:0:
284,311,131165,1,8,0:0:0:0:
235,309,131251,1,12,0:0:0:0:
194,282,131337,1,8,0:0:0:0:
173,238,131423,1,10,0:0:0:0:
296,84,131596,102,0,L|284:136,1,49.5000015106202,10|8,0:0|0:0,0:0:0:0:
264,224,131769,1,4,0:0:0:0:
204,88,131941,1,6,0:0:0:0:
380,132,132113,1,8,0:0:0:0:
264,224,132286,1,2,0:0:0:0:
448,340,132458,5,6,0:0:0:0:
352,220,132631,1,2,0:0:0:0:
244,344,132803,2,0,L|358:323,1,99.0000030212403,10|0,0:0|0:0,0:0:0:0:
166,241,133148,2,0,L|280:220,1,99.0000030212403,2|4,0:0|0:0,0:0:0:0:
432,192,133493,1,10,0:0:0:0:
341,326,133665,1,2,0:0:0:0:
196,152,133838,102,0,P|196:104|224:56,1,99.0000030212403,2|4,0:0|0:0,0:0:0:0:
307,133,134182,1,10,0:0:0:0:
166,241,134355,2,0,P|120:212|100:160,1,99.0000030212403,2|0,0:0|0:0,0:0:0:0:
224,64,134700,1,6,0:0:0:0:
263,223,134872,1,8,0:0:0:0:
224,64,135045,1,2,0:0:0:0:
156,292,135217,5,6,0:0:0:0:
196,152,135389,1,0,0:0:0:0:
368,248,135562,2,0,L|465:230,1,99.0000030212403,10|0,0:0|0:0,0:0:0:0:
284,136,135907,2,0,L|381:118,1,99.0000030212403,2|4,0:0|0:0,0:0:0:0:
300,296,136251,1,10,0:0:0:0:
196,152,136423,1,2,0:0:0:0:
368,248,136596,102,0,P|384:296|368:344,1,99.0000030212403,2|4,0:0|0:0,0:0:0:0:
168,340,136941,2,0,P|152:293|165:247,1,99.0000030212403,10|0,0:0|0:0,0:0:0:0:
336,64,137286,2,0,L|355:174,1,99.0000030212403,2|4,0:0|0:0,0:0:0:0:
300,296,137631,1,10,0:0:0:0:
196,152,137803,2,0,L|190:120,1,24.7500007553101,2|0,0:0|0:0,0:0:0:0:
368,248,137976,6,0,P|420:220|436:168,1,99.0000030212403,6|0,0:0|0:0,0:0:0:0:
296,100,138320,2,0,L|277:210,1,99.0000030212403,10|0,0:0|0:0,0:0:0:0:
452,87,138665,2,0,L|433:197,1,99.0000030212403,2|4,0:0|0:0,0:0:0:0:
356,336,139010,1,10,0:0:0:0:
279,197,139182,1,2,0:0:0:0:
432,272,139355,102,0,P|484:256|516:216,1,99.0000030212403,2|4,0:0|0:0,0:0:0:0:
452,87,139700,1,10,0:0:0:0:
279,197,139872,2,0,L|181:180,1,99.0000030212403,2|0,0:0|0:0,0:0:0:0:
352,84,140217,2,0,L|254:67,1,99.0000030212403,6|8,0:0|0:0,0:0:0:0:
96,104,140562,1,2,0:0:0:0:
216,272,140734,5,6,0:0:0:0:
184,116,140907,1,2,0:0:0:0:
32,240,141079,2,0,L|130:257,1,99.0000030212403,10|0,0:0|0:0,0:0:0:0:
0,87,141424,2,0,L|98:104,1,99.0000030212403,2|4,0:0|0:0,0:0:0:0:
236,184,141769,1,10,0:0:0:0:
172,32,141941,1,0,0:0:0:0:
129,256,142113,101,6,0:0:0:0:
184,116,142286,1,4,0:0:0:0:
227,340,142458,1,10,0:0:0:0:
48,244,142631,1,10,0:0:0:0:
67,199,142717,1,8,0:0:0:0:
110,176,142803,1,4,0:0:0:0:
256,224,142976,1,6,0:0:0:0:
142,350,143148,5,10,0:0:0:0:
138,325,143234,1,8,0:0:0:0:
135,300,143320,1,10,0:0:0:0:
131,276,143406,1,8,0:0:0:0:
132,258,143492,69,0,0:0:0:0:
132,258,143838,2,0,L|202:245,1,53.9999983520508,2|2,0:0|0:0,0:0:0:0:
280,332,144182,1,2,0:0:0:0:
280,332,144355,2,0,L|210:319,1,53.9999983520508,2|0,0:0|0:0,0:0:0:0:
207,167,144700,6,0,P|250:198|266:249,1,107.999996704102,2|2,0:0|0:0,0:0:0:0:
265,248,145389,2,0,P|303:211|356:206,1,107.999996704102,2|2,0:0|0:0,0:0:0:0:
426,273,145907,2,0,L|435:331,1,53.9999983520508,2|0,0:0|0:0,0:0:0:0:
342,293,146251,101,2,0:0:0:0:
342,293,146596,2,0,L|333:239,1,53.9999983520508,2|2,0:0|0:0,0:0:0:0:
410,129,146941,1,2,0:0:0:0:
410,129,147113,2,0,L|401:182,1,53.9999983520508,2|0,0:0|0:0,0:0:0:0:
250,227,147458,6,0,P|274:180|322:157,1,107.999996704102,2|2,0:0|0:0,0:0:0:0:
321,157,148148,2,0,P|273:133|249:86,1,107.999996704102,2|2,0:0|0:0,0:0:0:0:
334,73,148665,1,2,0:0:0:0:
398,129,148838,1,2,0:0:0:0:
382,209,149010,102,0,L|363:315,1,107.999996704102,2|0,0:0|0:0,0:0:0:0:
362,315,149700,2,0,L|298:304,1,53.9999983520508,2|0,0:0|0:0,0:0:0:0:
236,264,150045,1,2,0:0:0:0:
247,248,150131,1,2,0:0:0:0:
263,234,150217,1,2,0:0:0:0:
281,225,150303,1,2,0:0:0:0:
300,221,150389,6,0,L|406:240,1,107.999996704102,2|2,0:0|0:0,0:0:0:0:
406,240,151079,2,0,L|416:180,1,53.9999983520508,2|0,0:0|0:0,0:0:0:0:
466,121,151424,2,0,P|434:105|402:105,1,53.9999983520508,2|0,0:0|0:0,0:0:0:0:
346,145,151769,102,0,L|240:126,1,107.999996704102,2|2,0:0|0:0,0:0:0:0:
240,126,152458,2,0,L|230:181,1,53.9999983520508,2|0,0:0|0:0,0:0:0:0:
258,261,152803,1,2,0:0:0:0:
178,246,152976,1,2,0:0:0:0:
246,341,153148,5,2,0:0:0:0:
166,326,153321,1,2,0:0:0:0:
258,261,153493,2,0,P|290:273|310:293,1,53.9999983520508,2|0,0:0|0:0,0:0:0:0:
246,341,153838,2,0,L|158:325,1,80.9999975280763,2|0,0:0|0:0,0:0:0:0:
138,325,154182,2,0,L|114:365,3,26.9999991760254,2|2|2|2,0:0|0:0|0:0|0:0,0:0:0:0:
178,246,154527,102,0,P|178:221|166:189,1,53.9999983520508,2|0,0:0|0:0,0:0:0:0:
98,145,154872,1,2,0:0:0:0:
98,145,155045,2,0,P|146:113|202:117,1,107.999996704102,2|2,0:0|0:0,0:0:0:0:
194,114,155734,6,0,P|194:60|224:17,1,107.999996704102,2|2,0:0|0:0,0:0:0:0:
274,85,156251,1,2,0:0:0:0:
354,113,156424,1,2,0:0:0:0:
434,84,156596,2,0,P|435:138|403:183,1,107.999996704102,2|0,0:0|0:0,0:0:0:0:
405,181,157286,102,0,L|416:247,1,53.9999983520508,2|0,0:0|0:0,0:0:0:0:
473,298,157631,1,2,0:0:0:0:
473,298,157803,2,0,P|425:322|361:306,1,107.999996704102,2|2,0:0|0:0,0:0:0:0:
325,242,158320,1,0,0:0:0:0:
293,318,158493,5,2,0:0:0:0:
289,328,158579,1,2,0:0:0:0:
286,338,158665,2,0,L|227:348,1,53.9999983520508,2|2,0:0|0:0,0:0:0:0:
147,358,159010,2,0,P|146:331|169:290,1,53.9999983520508,2|2,0:0|0:0,0:0:0:0:
229,259,159355,2,0,L|208:141,1,107.999996704102,2|0,0:0|0:0,0:0:0:0:
210,152,160045,102,0,P|258:128|317:135,1,107.999996704102,2|0,0:0|0:0,0:0:0:0:
311,132,160734,2,0,L|324:194,1,53.9999983520508,2|0,0:0|0:0,0:0:0:0:
377,254,161079,1,2,0:0:0:0:
392,240,161165,1,2,0:0:0:0:
403,224,161251,1,2,0:0:0:0:
410,205,161337,1,2,0:0:0:0:
413,185,161424,6,0,L|400:114,1,72
329,56,161769,2,0,P|356:33|391:23,1,72,2|0,0:0|0:0,0:0:0:0:
474,62,162113,2,0,L|501:215,1,144,2|0,0:0|0:0,0:0:0:0:
499,204,162803,102,0,P|447:198|391:225,1,107.999996704102,2|0,0:0|0:0,0:0:0:0:
345,294,163320,1,0,0:0:0:0:
269,250,163493,2,0,L|249:139,1,107.999996704102,2|0,0:0|0:0,0:0:0:0:
250,143,164182,6,0,L|313:131,1,53.9999983520508,2|0,0:0|0:0,0:0:0:0:
373,78,164527,2,0,P|389:114|389:138,1,53.9999983520508,2|0,0:0|0:0,0:0:0:0:
349,210,164872,2,0,L|269:226,1,80.9999975280763,2|0,0:0|0:0,0:0:0:0:
245,234,165217,2,0,L|241:286,3,26.9999991760254,2|2|2|2,0:0|0:0|0:0|0:0,0:0:0:0:
250,143,165562,101,0,0:0:0:0:
256,192,165648,12,0,168234,0:0:0:0:
288,64,168320,5,2,0:0:0:0:
257,147,168493,1,0,0:0:0:0:
344,131,168665,1,2,0:0:0:0:
199,83,168838,1,2,0:0:0:0:
182,99,168924,1,2,0:0:0:0:
171,120,169010,1,2,0:0:0:0:
167,143,169096,1,2,0:0:0:0:
170,167,169182,1,2,0:0:0:0:
231,235,169355,1,2,0:0:0:0:
257,147,169528,1,0,0:0:0:0:
144,255,169700,101,2,0:0:0:0:
205,323,169872,1,0,0:0:0:0:
231,235,170045,1,2,0:0:0:0:
56,240,170217,1,2,0:0:0:0:
54,270,170303,1,2,0:0:0:0:
67,298,170389,1,2,0:0:0:0:
144,255,170562,1,0,0:0:0:0:
111,171,170734,1,2,0:0:0:0:
56,240,170907,1,0,0:0:0:0:
199,186,171079,5,2,0:0:0:0:
166,102,171251,1,0,0:0:0:0:
111,171,171424,1,2,0:0:0:0:
255,115,171596,1,2,0:0:0:0:
255,91,171682,1,2,0:0:0:0:
250,68,171768,1,2,0:0:0:0:
237,48,171854,1,2,0:0:0:0:
220,32,171940,1,2,0:0:0:0:
166,102,172113,1,2,0:0:0:0:
255,115,172286,1,0,0:0:0:0:
88,64,172458,102,0,P|80:92|80:112,1,45,12|8,0:0|0:0,0:0:0:0:
180,188,172631,2,0,P|186:209|188:231,1,45,12|8,0:0|0:0,0:0:0:0:
88,316,172803,1,8,0:0:0:0:
23,172,172976,6,0,L|-8:148,2,30,2|2|2,0:0|0:0|0:0,0:0:0:0:
96,228,173148,1,4,0:0:0:0:
166,102,173320,1,4,0:0:0:0:
315,278,173493,2,0,L|323:322,5,30,8|2|2|2|2|2,0:0|0:0|0:0|0:0|0:0|0:0,0:0:0:0:
288,123,173838,102,0,P|310:80|354:59,1,99.0000030212403,6|2,0:0|0:0,0:0:0:0:
488,244,174182,1,10,0:0:0:0:
368,140,174355,1,0,0:0:0:0:
324,312,174527,1,2,0:0:0:0:
428,192,174700,1,4,0:0:0:0:
324,312,174872,1,10,0:0:0:0:
192,176,175045,6,0,L|306:155,1,99.0000030212403,2|0,0:0|0:0,0:0:0:0:
226,329,175389,2,0,L|340:308,1,99.0000030212403,6|8,0:0|0:0,0:0:0:0:
140,292,175734,1,2,0:0:0:0:
131,315,175820,1,2,0:0:0:0:
131,339,175906,1,2,0:0:0:0:
256,240,176079,1,6,0:0:0:0:
108,182,176251,2,0,L|8:200,1,99.0000030212403,8|0,0:0|0:0,0:0:0:0:
232,80,176596,101,6,0:0:0:0:
256,240,176769,1,2,0:0:0:0:
232,80,176941,1,10,0:0:0:0:
108,182,177113,1,0,0:0:0:0:
97,204,177199,1,0,0:0:0:0:
92,228,177285,1,2,0:0:0:0:
93,253,177371,1,0,0:0:0:0:
99,277,177457,1,4,0:0:0:0:
256,240,177631,1,10,0:0:0:0:
140,92,177803,6,0,L|43:110,1,99.0000030212403,2|0,0:0|0:0,0:0:0:0:
176,260,178148,2,0,L|79:278,1,99.0000030212403,6|8,0:0|0:0,0:0:0:0:
197,176,178493,1,2,0:0:0:0:
19,205,178665,1,2,0:0:0:0:
197,176,178838,1,6,0:0:0:0:
136,353,179010,2,0,P|97:322|78:277,1,99.0000030212403,10|0,0:0|0:0,0:0:0:0:
278,163,179355,101,4,0:0:0:0:
176,260,179528,1,2,0:0:0:0:
143,118,179700,1,10,0:0:0:0:
256,244,179872,1,0,0:0:0:0:
280,247,179958,1,0,0:0:0:0:
304,242,180044,1,2,0:0:0:0:
326,231,180130,1,0,0:0:0:0:
344,214,180216,1,4,0:0:0:0:
356,46,180389,5,8,0:0:0:0:
278,163,180562,1,0,0:0:0:0:
418,178,180734,1,2,0:0:0:0:
290,1,180907,101,6,0:0:0:0:
351,127,181079,1,10,0:0:0:0:
430,16,181252,1,2,0:0:0:0:
278,163,181424,5,0,0:0:0:0:
418,178,181596,1,6,0:0:0:0:
284,81,181769,1,8,0:0:0:0:
424,96,181941,1,0,0:0:0:0:
267,246,182113,101,6,0:0:0:0:
408,256,182286,1,2,0:0:0:0:
351,127,182458,1,10,0:0:0:0:
333,298,182631,1,0,0:0:0:0:
315,315,182717,1,0,0:0:0:0:
293,326,182803,1,2,0:0:0:0:
269,330,182889,1,0,0:0:0:0:
244,328,182975,1,6,0:0:0:0:
113,216,183148,5,10,0:0:0:0:
267,246,183321,1,2,0:0:0:0:
168,366,183493,1,6,0:0:0:0:
267,246,183665,1,6,0:0:0:0:
215,98,183838,1,10,0:0:0:0:
183,278,184010,1,10,0:0:0:0:
185,268,184096,1,8,0:0:0:0:
187,258,184183,1,4,0:0:0:0:
215,98,184355,1,6,0:0:0:0:
111,324,184527,101,8,0:0:0:0:
147,356,184613,1,8,0:0:0:0:
196,362,184699,1,8,0:0:0:0:
240,342,184785,1,8,0:0:0:0:
266,301,184872,6,0,L|284:198,1,99.0000030212403,6|2,0:0|0:0,0:0:0:0:
137,100,185217,1,10,0:0:0:0:
183,278,185389,1,0,0:0:0:0:
306,107,185562,1,2,0:0:0:0:
160,189,185734,1,4,0:0:0:0:
306,107,185907,1,10,0:0:0:0:
340,288,186079,102,0,L|322:185,1,99.0000030212403,2|0,0:0|0:0,0:0:0:0:
177,286,186424,2,0,L|159:183,1,99.0000030212403,6|8,0:0|0:0,0:0:0:0:
260,320,186769,1,2,0:0:0:0:
249,342,186855,1,2,0:0:0:0:
231,359,186941,1,2,0:0:0:0:
92,288,187113,1,6,0:0:0:0:
256,220,187286,6,0,L|358:238,1,99.0000030212403,8|0,0:0|0:0,0:0:0:0:
177,286,187631,1,6,0:0:0:0:
121,128,187803,1,2,0:0:0:0:
177,286,187976,1,10,0:0:0:0:
208,112,188148,1,0,0:0:0:0:
201,88,188234,1,0,0:0:0:0:
187,67,188320,1,2,0:0:0:0:
168,51,188406,1,0,0:0:0:0:
145,42,188492,1,4,0:0:0:0:
52,180,188665,1,10,0:0:0:0:
208,112,188838,102,0,L|226:214,1,99.0000030212403,2|0,0:0|0:0,0:0:0:0:
52,180,189182,2,0,L|70:282,1,99.0000030212403,6|8,0:0|0:0,0:0:0:0:
244,296,189527,1,2,0:0:0:0:
84,360,189700,1,2,0:0:0:0:
244,296,189872,1,6,0:0:0:0:
129,145,190045,2,0,L|147:247,1,99.0000030212403,10|0,0:0|0:0,0:0:0:0:
264,368,190389,5,4,0:0:0:0:
367,253,190562,1,2,0:0:0:0:
224,222,190734,1,10,0:0:0:0:
348,340,190907,1,0,0:0:0:0:
372,341,190993,1,0,0:0:0:0:
396,337,191079,1,2,0:0:0:0:
418,326,191165,1,0,0:0:0:0:
437,309,191251,1,4,0:0:0:0:
332,131,191424,101,8,0:0:0:0:
294,278,191597,1,0,0:0:0:0:
440,229,191769,1,2,0:0:0:0:
244,116,191941,5,6,0:0:0:0:
352,214,192114,1,10,0:0:0:0:
390,67,192286,1,2,0:0:0:0:
294,278,192458,101,0,0:0:0:0:
440,229,192630,1,6,0:0:0:0:
269,196,192803,1,8,0:0:0:0:
415,147,192975,1,0,0:0:0:0:
244,116,193148,6,0,L|153:131,1,62.9999980773926,2|2,0:0|0:0,0:0:0:0:
100,140,193493,1,2,0:0:0:0:
128,64,193665,1,0,0:0:0:0:
152,204,193838,102,0,P|104:224|72:216,1,62.9999980773926,2|2,0:0|0:0,0:0:0:0:
24,176,194182,1,2,0:0:0:0:
100,140,194355,1,2,0:0:0:0:
124,300,194527,5,2,0:0:0:0:
94,223,194700,1,2,0:0:0:0:
124,300,194872,1,2,0:0:0:0:
216,219,195045,2,0,B|164:243|147:196|88:225,1,125.999996154785,2|4,0:0|0:0,0:0:0:0:
192,140,195562,101,8,0:0:0:0:
236,135,195648,1,8,0:0:0:0:
276,155,195734,1,8,0:0:0:0:
299,193,195820,1,8,0:0:0:0:
300,237,195907,21,6,0:0:0:0:
332,96,196079,1,2,0:0:0:0:
216,219,196251,1,10,0:0:0:0:
332,96,196424,1,2,0:0:0:0:
380,256,196596,2,0,P|352:302|304:319,1,90,2|4,0:0|0:0,0:0:0:0:
164,292,196941,1,10,0:0:0:0:
300,237,197113,1,2,0:0:0:0:
93,105,197286,5,2,0:0:0:0:
216,219,197458,1,6,0:0:0:0:
255,57,197631,1,10,0:0:0:0:
216,219,197803,1,2,0:0:0:0:
378,171,197976,2,0,L|472:187,1,90,2|4,0:0|0:0,0:0:0:0:
324,288,198320,1,10,0:0:0:0:
284,148,198493,1,2,0:0:0:0:
88,271,198666,101,6,0:0:0:0:
252,236,198838,1,2,0:0:0:0:
135,112,199010,1,10,0:0:0:0:
252,236,199182,1,2,0:0:0:0:
68,184,199355,2,0,P|44:148|40:96,1,90,2|4,0:0|0:0,0:0:0:0:
220,60,199700,1,10,0:0:0:0:
156,198,199873,1,2,0:0:0:0:
338,156,200045,6,0,L|443:178,1,90,2|6,0:0|0:0,0:0:0:0:
272,224,200389,2,0,P|248:188|248:124,1,90,10|2,0:0|0:0,0:0:0:0:
484,108,200734,2,0,P|508:144|508:208,1,90,2|4,0:0|0:0,0:0:0:0:
360,248,201079,1,10,0:0:0:0:
496,298,201251,1,2,0:0:0:0:
338,156,201424,101,6,0:0:0:0:
293,316,201596,1,2,0:0:0:0:
454,280,201768,1,10,0:0:0:0:
293,316,201941,1,2,0:0:0:0:
428,188,202113,2,0,P|432:144|400:84,1,90,2|4,0:0|0:0,0:0:0:0:
226,153,202458,1,10,0:0:0:0:
360,248,202630,1,2,0:0:0:0:
320,40,202803,5,2,0:0:0:0:
294,202,202975,1,6,0:0:0:0:
161,108,203147,1,10,0:0:0:0:
294,202,203320,1,2,0:0:0:0:
146,270,203493,2,0,L|47:252,1,90,2|4,0:0|0:0,0:0:0:0:
200,192,203838,1,10,0:0:0:0:
34,162,204010,1,2,0:0:0:0:
224,56,204182,101,6,0:0:0:0:
115,179,204354,1,2,0:0:0:0:
284,207,204526,1,10,0:0:0:0:
34,162,204700,1,2,0:0:0:0:
200,192,204872,1,2,0:0:0:0:
140,41,205045,1,6,0:0:0:0:
34,162,205217,2,0,P|36:211|62:243,1,90,10|2,0:0|0:0,0:0:0:0:
289,208,205562,5,14,0:0:0:0:
244,200,205648,1,8,0:0:0:0:
200,192,205734,1,14,0:0:0:0:
156,184,205820,1,8,0:0:0:0:
111,176,205906,1,10,0:0:0:0:
268,76,206079,2,0,L|277:127,1,45,10|8,0:0|0:0,0:0:0:0:
306,298,206251,1,6,0:0:0:0:
360,152,206424,1,6,0:0:0:0:
111,176,206596,102,0,P|141:243|200:190,1,175.499991966248,8|0,0:0|0:0,0:0:0:0:
108,88,206941,37,6,0:0:0:0:
69,98,207027,1,0,0:0:0:0:
39,125,207113,1,2,0:0:0:0:
24,163,207199,1,0,0:0:0:0:
27,203,207286,2,0,L|38:266,1,53.9999983520508,10|0,0:0|0:0,0:0:0:0:
114,178,207458,2,0,L|124:232,1,53.9999983520508,2|0,0:0|0:0,0:0:0:0:
201,153,207631,2,0,L|211:207,1,53.9999983520508,2|0,0:0|0:0,0:0:0:0:
188,296,207803,101,4,0:0:0:0:
188,296,207889,1,0,0:0:0:0:
188,296,207976,2,0,L|242:286,1,53.9999983520508,10|0,0:0|0:0,0:0:0:0:
320,244,208148,2,0,L|329:298,1,53.9999983520508,2|0,0:0|0:0,0:0:0:0:
118,361,208320,5,2,0:0:0:0:
97,327,208406,1,0,0:0:0:0:
92,287,208492,1,6,0:0:0:0:
104,249,208578,1,0,0:0:0:0:
132,220,208665,2,0,L|186:210,1,53.9999983520508,10|0,0:0|0:0,0:0:0:0:
188,296,208838,2,0,L|242:286,1,53.9999983520508,2|0,0:0|0:0,0:0:0:0:
244,372,209010,2,0,L|298:362,1,53.9999983520508,2|0,0:0|0:0,0:0:0:0:
336,284,209182,101,4,0:0:0:0:
336,284,209269,1,0,0:0:0:0:
336,284,209355,2,0,L|326:230,1,53.9999983520508,10|0,0:0|0:0,0:0:0:0:
280,152,209527,2,0,L|334:142,1,53.9999983520508,2|0,0:0|0:0,0:0:0:0:
416,328,209700,5,6,0:0:0:0:
390,358,209786,1,0,0:0:0:0:
353,375,209872,1,2,0:0:0:0:
313,373,209958,1,0,0:0:0:0:
278,354,210045,2,0,L|248:308,1,53.9999983520508,10|0,0:0|0:0,0:0:0:0:
336,284,210217,2,0,L|306:238,1,53.9999983520508,2|0,0:0|0:0,0:0:0:0:
394,214,210389,2,0,L|364:168,1,53.9999983520508,2|0,0:0|0:0,0:0:0:0:
280,152,210562,101,4,0:0:0:0:
280,152,210648,1,0,0:0:0:0:
280,152,210734,2,0,L|234:182,1,53.9999983520508,10|0,0:0|0:0,0:0:0:0:
178,254,210907,2,0,L|148:208,1,53.9999983520508,2|0,0:0|0:0,0:0:0:0:
268,68,211079,5,2,0:0:0:0:
307,72,211165,1,0,0:0:0:0:
341,93,211251,1,6,0:0:0:0:
361,128,211337,1,0,0:0:0:0:
364,168,211424,2,0,L|340:216,1,53.9999983520508,10|0,0:0|0:0,0:0:0:0:
264,268,211596,101,2,0:0:0:0:
288,293,211682,1,0,0:0:0:0:
322,306,211769,2,0,L|400:292,1,53.9999983520508,2|0,0:0|0:0,0:0:0:0:
339,216,211941,1,4,0:0:0:0:
314,190,212027,1,0,0:0:0:0:
281,178,212114,2,0,L|202:191,1,53.9999983520508,10|0,0:0|0:0,0:0:0:0:
148,228,212286,2,0,L|135:149,1,53.9999983520508,2|0,0:0|0:0,0:0:0:0:
340,112,212458,5,6,0:0:0:0:
364,143,212544,1,0,0:0:0:0:
372,183,212630,1,2,0:0:0:0:
361,222,212716,1,0,0:0:0:0:
334,251,212803,2,0,L|255:264,1,53.9999983520508,10|0,0:0|0:0,0:0:0:0:
281,178,212976,2,0,L|202:191,1,53.9999983520508,2|0,0:0|0:0,0:0:0:0:
228,105,213148,2,0,L|149:118,1,53.9999983520508,2|0,0:0|0:0,0:0:0:0:
144,200,213320,101,4,0:0:0:0:
144,200,213407,1,0,0:0:0:0:
144,200,213493,2,0,L|157:279,1,53.9999983520508,10|0,0:0|0:0,0:0:0:0:
196,332,213665,2,0,L|117:345,1,53.9999983520508,2|0,0:0|0:0,0:0:0:0:
52,192,213838,5,2,0:0:0:0:
63,153,213924,1,0,0:0:0:0:
90,123,214010,1,6,0:0:0:0:
127,110,214096,1,0,0:0:0:0:
167,114,214182,2,0,L|220:122,1,53.9999983520508,10|0,0:0|0:0,0:0:0:0:
144,200,214355,2,0,L|197:208,1,53.9999983520508,2|0,0:0|0:0,0:0:0:0:
121,286,214527,2,0,L|174:294,1,53.9999983520508,2|0,0:0|0:0,0:0:0:0:
260,336,214700,101,4,0:0:0:0:
260,336,214786,1,0,0:0:0:0:
260,336,214872,2,0,L|268:283,1,53.9999983520508,10|0,0:0|0:0,0:0:0:0:
256,192,215045,2,0,L|309:200,1,53.9999983520508,2|0,0:0|0:0,0:0:0:0:
476,264,215217,5,6,0:0:0:0:
464,302,215303,1,0,0:0:0:0:
437,332,215389,1,2,0:0:0:0:
400,346,215475,1,0,0:0:0:0:
360,343,215562,2,0,L|308:319,1,53.9999983520508,10|0,0:0|0:0,0:0:0:0:
388,260,215734,2,0,L|336:236,1,53.9999983520508,2|0,0:0|0:0,0:0:0:0:
416,177,215907,102,0,L|364:153,1,53.9999983520508,2|0,0:0|0:0,0:0:0:0:
280,172,216079,2,0,L|201:185,1,53.9999983520508,4|0,0:0|0:0,0:0:0:0:
160,244,216251,1,10,0:0:0:0:
137,210,216337,1,0,0:0:0:0:
132,170,216423,1,2,0:0:0:0:
146,133,216509,1,0,0:0:0:0:
175,105,216596,6,0,L|293:84,1,107.999996704102,6|4,0:0|0:0,0:0:0:0:
96,60,216941,1,10,0:0:0:0:
226,180,217113,2,0,L|280:172,2,53.9999983520508,10|8|4,0:0|0:0|0:0,0:0:0:0:
57,232,217458,1,6,0:0:0:0:
264,304,217631,2,0,P|265:272|254:247,1,45,10|8,0:0|0:0,0:0:0:0:
143,157,217803,2,0,P|140:187|152:213,1,45,10|8,0:0|0:0,0:0:0:0:
343,236,217976,101,6,0:0:0:0:
367,188,218062,1,0,0:0:0:0:
359,135,218148,1,2,0:0:0:0:
323,96,218234,1,0,0:0:0:0:
272,85,218320,2,0,L|192:93,1,53.9999983520508,10|0,0:0|0:0,0:0:0:0:
142,156,218493,2,0,P|127:137|118:108,1,53.9999983520508,2|0,0:0|0:0,0:0:0:0:
88,24,218665,2,0,P|116:19|148:25,1,53.9999983520508,2|0,0:0|0:0,0:0:0:0:
218,90,218838,5,4,0:0:0:0:
218,90,218924,1,0,0:0:0:0:
218,90,219010,2,0,L|271:84,1,53.9999983520508,10|0,0:0|0:0,0:0:0:0:
363,41,219182,2,0,P|373:71|371:104,1,53.9999983520508,2|0,0:0|0:0,0:0:0:0:
261,191,219355,101,2,0:0:0:0:
244,241,219441,1,0,0:0:0:0:
258,292,219527,1,6,0:0:0:0:
299,326,219613,1,0,0:0:0:0:
352,331,219700,2,0,L|405:325,1,53.9999983520508,10|0,0:0|0:0,0:0:0:0:
496,340,219872,2,0,P|496:312|484:280,1,53.9999983520508,2|0,0:0|0:0,0:0:0:0:
412,236,220045,2,0,P|403:210|404:183,1,53.9999983520508,2|0,0:0|0:0,0:0:0:0:
448,100,220217,5,4,0:0:0:0:
448,100,220303,1,0,0:0:0:0:
448,100,220389,2,0,L|384:88,1,53.9999983520508,10|0,0:0|0:0,0:0:0:0:
320,148,220562,2,0,L|266:157,1,53.9999983520508,2|0,0:0|0:0,0:0:0:0:
139,106,220734,101,6,0:0:0:0:
171,64,220820,1,0,0:0:0:0:
221,45,220906,1,2,0:0:0:0:
273,56,220992,1,0,0:0:0:0:
311,94,221079,2,0,L|320:148,1,53.9999983520508,10|0,0:0|0:0,0:0:0:0:
360,232,221251,2,0,P|334:240|307:239,1,53.9999983520508,2|0,0:0|0:0,0:0:0:0:
232,184,221424,2,0,P|205:183|179:191,1,53.9999983520508,2|0,0:0|0:0,0:0:0:0:
132,272,221596,5,4,0:0:0:0:
132,272,221682,1,0,0:0:0:0:
132,272,221769,2,0,L|142:331,1,53.9999983520508,10|0,0:0|0:0,0:0:0:0:
236,324,221941,2,0,L|226:270,1,53.9999983520508,2|0,0:0|0:0,0:0:0:0:
192,104,222113,101,2,0:0:0:0:
232,72,222199,1,0,0:0:0:0:
286,65,222285,1,6,0:0:0:0:
336,88,222371,1,0,0:0:0:0:
362,134,222458,2,0,L|372:188,1,53.9999983520508,10|0,0:0|0:0,0:0:0:0:
332,276,222631,5,2,0:0:0:0:
384,285,222717,1,0,0:0:0:0:
432,263,222803,2,0,L|468:212,1,53.9999983520508,2|0,0:0|0:0,0:0:0:0:
371,187,222976,1,4,0:0:0:0:
318,177,223062,1,0,0:0:0:0:
271,200,223148,2,0,L|235:251,1,53.9999983520508,10|0,0:0|0:0,0:0:0:0:
204,336,223320,2,0,P|177:323|155:290,1,53.9999983520508,2|0,0:0|0:0,0:0:0:0:
215,139,223493,101,6,0:0:0:0:
264,119,223579,1,0,0:0:0:0:
315,132,223665,1,2,0:0:0:0:
348,174,223751,1,0,0:0:0:0:
348,227,223838,2,0,L|338:283,1,53.9999983520508,10|0,0:0|0:0,0:0:0:0:
292,360,224010,2,0,P|320:372|360:372,1,53.9999983520508,2|0,0:0|0:0,0:0:0:0:
424,320,224182,2,0,L|433:263,1,53.9999983520508,2|0,0:0|0:0,0:0:0:0:
480,187,224355,5,4,0:0:0:0:
480,187,224441,1,0,0:0:0:0:
480,187,224527,2,0,P|452:175|412:175,1,53.9999983520508,10|0,0:0|0:0,0:0:0:0:
348,227,224700,2,0,P|320:239|280:239,1,53.9999983520508,2|0,0:0|0:0,0:0:0:0:
140,148,224872,101,2,0:0:0:0:
154,96,224958,1,0,0:0:0:0:
195,64,225044,1,6,0:0:0:0:
248,63,225130,1,0,0:0:0:0:
292,94,225217,2,0,L|304:164,1,53.9999983520508,10|0,0:0|0:0,0:0:0:0:
348,227,225389,2,0,P|320:239|280:239,1,53.9999983520508,2|0,0:0|0:0,0:0:0:0:
216,192,225562,2,0,P|189:195|164:206,1,53.9999983520508,2|0,0:0|0:0,0:0:0:0:
120,288,225734,5,4,0:0:0:0:
120,288,225820,1,0,0:0:0:0:
120,288,225907,2,0,L|132:358,1,53.9999983520508,10|0,0:0|0:0,0:0:0:0:
228,336,226079,2,0,L|218:282,1,53.9999983520508,2|0,0:0|0:0,0:0:0:0:
160,120,226251,101,14,0:0:0:0:
175,83,226337,1,8,0:0:0:0:
208,59,226423,1,10,0:0:0:0:
247,54,226509,1,8,0:0:0:0:
284,69,226596,1,10,0:0:0:0:
316,94,226682,1,8,0:0:0:0:
354,107,226768,1,10,0:0:0:0:
395,107,226854,1,8,0:0:0:0:
432,96,226941,5,10,0:0:0:0:
389,75,227027,1,8,0:0:0:0:
343,78,227113,1,12,0:0:0:0:
304,104,227199,1,8,0:0:0:0:
283,146,227285,1,10,0:0:0:0:
286,193,227372,1,8,0:0:0:0:
312,232,227458,1,10,0:0:0:0:
354,253,227544,1,8,0:0:0:0:
400,250,227631,101,14,0:0:0:0:
367,207,227717,1,8,0:0:0:0:
317,189,227803,1,12,0:0:0:0:
265,200,227889,1,8,0:0:0:0:
228,238,227976,1,10,0:0:0:0:
191,276,228062,1,8,0:0:0:0:
140,293,228148,1,10,0:0:0:0:
88,283,228234,1,8,0:0:0:0:
47,248,228320,5,8,0:0:0:0:
84,210,228407,1,8,0:0:0:0:
135,193,228493,1,14,0:0:0:0:
187,203,228579,1,8,0:0:0:0:
228,238,228665,102,0,L|234:277,6,22.5,8|0|0|0|0|0|0,0:0|0:0|0:0|0:0|0:0|0:0|0:0,0:0:0:0:
213,118,229010,5,6,0:0:0:0:
240,67,229096,1,0,0:0:0:0:
292,43,229182,1,0,0:0:0:0:
349,54,229268,1,0,0:0:0:0:
392,102,229355,2,0,L|404:165,1,58.4999973220826,10|0,0:0|0:0,0:0:0:0:
452,252,229527,2,0,P|424:264|392:264,1,58.4999973220826,2|0,0:0|0:0,0:0:0:0:
316,204,229700,2,0,P|288:192|256:192,1,58.4999973220826,2|0,0:0|0:0,0:0:0:0:
164,232,229872,101,4,0:0:0:0:
164,232,229958,1,0,0:0:0:0:
164,232,230045,2,0,L|152:169,1,58.4999973220826,10|0,0:0|0:0,0:0:0:0:
104,92,230217,2,0,P|132:80|167:80,1,58.4999973220826,2|0,0:0|0:0,0:0:0:0:
272,272,230389,5,2,0:0:0:0:
239,319,230475,1,0,0:0:0:0:
187,345,230561,1,6,0:0:0:0:
129,344,230647,1,0,0:0:0:0:
79,316,230734,2,0,L|67:253,1,58.4999973220826,10|0,0:0|0:0,0:0:0:0:
16,168,230907,2,0,P|44:156|79:156,1,58.4999973220826,2|0,0:0|0:0,0:0:0:0:
160,212,231079,2,0,P|188:224|223:224,1,58.4999973220826,2|0,0:0|0:0,0:0:0:0:
320,180,231251,101,4,0:0:0:0:
320,180,231338,1,0,0:0:0:0:
320,180,231424,2,0,L|332:117,1,58.4999973220826,10|0,0:0|0:0,0:0:0:0:
222,66,231597,2,0,L|212:124,1,58.4999973220826,2|0,0:0|0:0,0:0:0:0:
284,304,231769,5,6,0:0:0:0:
341,308,231855,1,0,0:0:0:0:
393,284,231941,1,2,0:0:0:0:
426,236,232027,1,0,0:0:0:0:
429,178,232113,2,0,L|417:115,1,58.4999973220826,10|0,0:0|0:0,0:0:0:0:
428,16,232286,2,0,P|400:16|360:32,1,58.4999973220826,2|0,0:0|0:0,0:0:0:0:
312,112,232458,2,0,P|284:121|255:121,1,58.4999973220826,2|0,0:0|0:0,0:0:0:0:
156,72,232631,101,4,0:0:0:0:
156,72,232717,1,0,0:0:0:0:
156,72,232803,2,0,L|145:131,1,58.4999973220826,10|0,0:0|0:0,0:0:0:0:
208,216,232976,2,0,L|219:275,1,58.4999973220826,2|0,0:0|0:0,0:0:0:0:
45,344,233148,5,2,0:0:0:0:
27,290,233234,1,0,0:0:0:0:
45,235,233320,1,6,0:0:0:0:
92,202,233406,1,0,0:0:0:0:
150,205,233493,2,0,L|207:215,1,58.4999973220826,10|0,0:0|0:0,0:0:0:0:
304,280,233665,101,2,0:0:0:0:
319,244,233751,1,0,0:0:0:0:
320,205,233838,2,0,L|310:148,1,58.4999973220826,2|0,0:0|0:0,0:0:0:0:
208,216,234010,1,4,0:0:0:0:
192,251,234096,1,0,0:0:0:0:
192,291,234183,2,0,L|202:348,1,58.4999973220826,10|0,0:0|0:0,0:0:0:0:
316,372,234355,2,0,P|344:364|372:340,1,58.4999973220826,2|0,0:0|0:0,0:0:0:0:
436,176,234527,5,6,0:0:0:0:
402,131,234613,1,0,0:0:0:0:
345,122,234699,1,2,0:0:0:0:
298,154,234785,1,0,0:0:0:0:
285,209,234872,2,0,L|296:272,1,58.4999973220826,10|0,0:0|0:0,0:0:0:0:
367,346,235045,2,0,P|343:364|316:372,1,58.4999973220826,2|0,0:0|0:0,0:0:0:0:
216,336,235217,2,0,L|205:273,1,58.4999973220826,2|0,0:0|0:0,0:0:0:0:
134,199,235389,101,4,0:0:0:0:
134,199,235476,1,0,0:0:0:0:
134,199,235562,2,0,P|158:181|185:173,1,58.4999973220826,10|0,0:0|0:0,0:0:0:0:
285,209,235734,2,0,P|312:220|344:216,1,58.4999973220826,2|0,0:0|0:0,0:0:0:0:
486,136,235907,5,2,0:0:0:0:
481,79,235993,1,0,0:0:0:0:
443,37,236079,1,6,0:0:0:0:
386,27,236165,1,0,0:0:0:0:
336,55,236251,2,0,L|325:112,1,58.4999973220826,10|0,0:0|0:0,0:0:0:0:
340,217,236424,2,0,P|311:219|284:208,1,58.4999973220826,2|0,0:0|0:0,0:0:0:0:
224,128,236596,2,0,P|196:117|168:119,1,58.4999973220826,2|0,0:0|0:0,0:0:0:0:
64,120,236769,101,4,0:0:0:0:
64,120,236855,1,0,0:0:0:0:
64,120,236941,2,0,L|75:177,1,58.4999973220826,10|0,0:0|0:0,0:0:0:0:
68,276,237113,2,0,P|97:276|123:264,1,58.4999973220826,2|0,0:0|0:0,0:0:0:0:
224,128,237286,5,6,0:0:0:0:
271,95,237372,1,0,0:0:0:0:
329,99,237458,1,2,0:0:0:0:
373,136,237544,1,0,0:0:0:0:
385,192,237631,2,0,L|373:255,1,58.4999973220826,10|0,0:0|0:0,0:0:0:0:
388,351,237803,2,0,P|358:352|331:343,1,58.4999973220826,2|0,0:0|0:0,0:0:0:0:
264,264,237976,2,0,P|236:255|207:255,1,58.4999973220826,2|0,0:0|0:0,0:0:0:0:
108,304,238148,101,4,0:0:0:0:
108,304,238234,1,0,0:0:0:0:
108,304,238320,2,0,L|96:237,1,58.4999973220826,10|0,0:0|0:0,0:0:0:0:
52,156,238493,2,0,P|79:147|108:147,1,58.4999973220826,2|0,0:0|0:0,0:0:0:0:
264,264,238665,5,6,0:0:0:0:
196,96,238838,1,4,0:0:0:0:
97,246,239010,1,10,0:0:0:0:
345,252,239183,1,10,0:0:0:0:
326,207,239269,1,8,0:0:0:0:
283,184,239355,1,4,0:0:0:0:
97,246,239528,1,6,0:0:0:0:
250,363,239700,101,8,0:0:0:0:
254,338,239786,1,8,0:0:0:0:
257,313,239872,1,8,0:0:0:0:
261,289,239958,1,8,0:0:0:0:
264,264,240044,5,0,0:0:0:0:
256,192,240217,12,8,245562,0:0:0:0:
220,120,250907,38,0,L|238:222,1,90,2|2,0:0|0:0,0:0:0:0:
292,284,251424,1,4,0:0:0:0:
292,284,251596,2,0,P|246:303|192:292,1,90,2|2,0:0|0:0,0:0:0:0:
132,240,252113,1,4,0:0:0:0:
132,240,252286,6,0,L|116:151,1,90,2|2,0:0|0:0,0:0:0:0:
72,68,252803,2,0,P|96:60|128:60,1,45,4|2,0:0|0:0,0:0:0:0:
196,104,253148,2,0,P|240:120|288:116,1,90,0|4,0:0|0:0,0:0:0:0:
282,117,253838,101,2,0:0:0:0:
266,203,254010,1,2,0:0:0:0:
349,174,254182,1,4,0:0:0:0:
333,260,254355,2,0,P|292:288|244:288,1,90,2|2,0:0|0:0,0:0:0:0:
183,232,254872,1,4,0:0:0:0:
183,232,255045,6,0,L|167:141,1,90,2|0,0:0|0:0,0:0:0:0:
176,56,255562,2,0,P|152:56|128:64,1,45,6|0,0:0|0:0,0:0:0:0:
80,136,255907,2,0,L|95:224,1,90,2|6,0:0|0:0,0:0:0:0:
188,320,256424,102,0,L|203:232,1,90,2|2,0:0|0:0,0:0:0:0:
180,148,256941,1,4,0:0:0:0:
180,148,257113,2,0,P|228:148|268:176,1,90,2|2,0:0|0:0,0:0:0:0:
300,248,257631,1,6,0:0:0:0:
424,168,257803,6,0,L|463:174,5,22.5,2|2|2|2|2|2,0:0|0:0|0:0|0:0|0:0|0:0,0:0:0:0:
342,133,258320,1,6,0:0:0:0:
262,169,258493,2,0,P|220:180|172:168,1,90,2|2,0:0|0:0,0:0:0:0:
96,132,259010,1,6,0:0:0:0:
96,132,259355,101,2,0:0:0:0:
168,83,259527,1,2,0:0:0:0:
175,169,259700,1,4,0:0:0:0:
104,216,259872,2,0,P|96:260|108:304,1,90,2|2,0:0|0:0,0:0:0:0:
180,356,260389,1,4,0:0:0:0:
180,356,260562,6,0,L|282:337,1,90,2|0,0:0|0:0,0:0:0:0:
360,340,261079,2,0,P|360:320|348:292,1,45,6|0,0:0|0:0,0:0:0:0:
272,248,261424,2,0,L|255:159,1,90,2|6,0:0|0:0,0:0:0:0:
236,68,261941,1,2,0:0:0:0:
176,224,262113,101,4,0:0:0:0:
176,224,262286,2,0,P|140:244|100:244,1,72,2|4,0:0|0:0,0:0:0:0:
67,113,262631,2,0,P|99:130|120:160,1,72,2|4,0:0|0:0,0:0:0:0:
27,263,262976,2,0,P|27:228|42:195,1,72,0|4,0:0|0:0,0:0:0:0:
219,74,263320,6,0,P|218:115|198:149,1,72,2|4,0:0|0:0,0:0:0:0:
67,113,263665,2,0,P|97:93|134:90,1,72,2|4,0:0|0:0,0:0:0:0:
176,223,264010,2,0,P|145:205|124:176,1,72,2|4,0:0|0:0,0:0:0:0:
219,74,264355,1,0,0:0:0:0:
67,113,264527,1,4,0:0:0:0:
248,160,264700,102,0,B|299:169|299:169|326:198|326:198|383:206,1,144,2|0,0:0|0:0,0:0:0:0:
368,112,265217,1,6,0:0:0:0:
248,248,265389,1,2,0:0:0:0:
219,74,265562,1,6,0:0:0:0:
248,248,265734,2,0,L|260:328,1,72,2|4,0:0|0:0,0:0:0:0:
172,192,266079,6,0,P|228:156|316:184,1,144,2|2,0:0|0:0,0:0:0:0:
400,232,266596,2,0,L|447:223,3,36,6|2|2|2,0:0|0:0|0:0|0:0,0:0:0:0:
412,148,266941,2,0,L|459:139,3,36,6|2|2|2,0:0|0:0|0:0|0:0,0:0:0:0:
424,64,267286,1,6,0:0:0:0:
427,53,267372,1,2,0:0:0:0:
429,42,267458,102,0,B|377:51|377:51|350:80|350:80|293:88,1,144,2|2,0:0|0:0,0:0:0:0:
144,133,267976,1,12,0:0:0:0:
144,133,268148,2,0,P|163:163|192:184,1,72,2|4,0:0|0:0,0:0:0:0:
298,87,268493,2,0,P|262:84|229:97,1,72,2|12,0:0|0:0,0:0:0:0:
256,244,268838,2,0,P|273:213|279:178,1,72,2|4,0:0|0:0,0:0:0:0:
144,133,269182,2,0,P|163:163|192:184,1,72,2|12,0:0|0:0,0:0:0:0:
394,98,269527,6,0,B|355:108|355:108|322:93|322:93|288:104|288:104|251:89|251:89|216:101,1,175.499991966248,2|0,0:0|0:0,0:0:0:0:
144,133,269872,1,2,0:0:0:0:
251,286,270045,2,0,P|291:230|211:190,1,175.499991966248,14|0,0:0|0:0,0:0:0:0:
151,243,270389,101,6,0:0:0:0:
151,243,270562,2,0,P|131:207|131:167,1,72,2|12,0:0|0:0,0:0:0:0:
262,134,270907,2,0,P|245:166|215:187,1,72,2|4,0:0|0:0,0:0:0:0:
112,95,271252,2,0,P|147:95|180:110,1,72,2|12,0:0|0:0,0:0:0:0:
151,243,271596,6,0,B|99:252|99:252|72:281|72:281|15:289,1,144,2|0,0:0|0:0,0:0:0:0:
147,334,272113,2,0,P|187:326|219:302,1,72,12|0,0:0|0:0,0:0:0:0:
235,218,272458,1,4,0:0:0:0:
364,280,272631,2,0,L|377:205,1,72,2|12,0:0|0:0,0:0:0:0:
261,76,272976,102,0,L|235:217,1,144,2|0,0:0|0:0,0:0:0:0:
217,313,273493,1,4,0:0:0:0:
217,313,273838,1,8,0:0:0:0:
132,279,274010,2,0,P|120:247|120:207,1,72,2|4,0:0|0:0,0:0:0:0:
88,60,274355,6,0,L|229:86,1,144,2|0,0:0|0:0,0:0:0:0:
328,104,274872,1,4,0:0:0:0:
328,104,275217,1,8,0:0:0:0:
428,84,275389,2,0,P|428:119|415:153,1,72,2|4,0:0|0:0,0:0:0:0:
268,208,275734,102,0,B|248:288|248:288|272:344,1,144,2|0,0:0|0:0,0:0:0:0:
348,280,276251,1,4,0:0:0:0:
348,280,276596,1,8,0:0:0:0:
436,316,276769,2,0,P|444:280|432:236,1,72,2|4,0:0|0:0,0:0:0:0:
268,208,277113,6,0,L|127:182,1,144,2|0,0:0|0:0,0:0:0:0:
32,164,277631,1,4,0:0:0:0:
32,164,277976,1,8,0:0:0:0:
64,256,278148,2,0,P|97:274|133:278,1,72,2|4,0:0|0:0,0:0:0:0:
268,208,278493,102,0,L|281:133,1,72,2|4,0:0|0:0,0:0:0:0:
332,60,278838,1,0,0:0:0:0:
332,60,279010,2,0,P|296:44|264:44,1,72,4|0,0:0|0:0,0:0:0:0:
196,108,279355,1,12,0:0:0:0:
352,236,279527,2,0,L|365:161,1,72,2|4,0:0|0:0,0:0:0:0:
196,108,279872,6,0,L|183:178,1,72,2|4,0:0|0:0,0:0:0:0:
200,272,280217,1,0,0:0:0:0:
200,272,280389,2,0,P|156:272|120:252,1,72,4|0,0:0|0:0,0:0:0:0:
76,180,280734,1,12,0:0:0:0:
236,68,280907,2,0,L|248:138,1,72,2|4,0:0|0:0,0:0:0:0:
76,180,281251,102,0,L|63:109,1,72,2|4,0:0|0:0,0:0:0:0:
150,88,281596,1,0,0:0:0:0:
150,88,281769,2,0,L|162:158,1,72,4|0,0:0|0:0,0:0:0:0:
180,252,282113,1,12,0:0:0:0:
352,210,282286,2,0,L|364:280,1,72,2|4,0:0|0:0,0:0:0:0:
192,322,282630,6,0,L|179:251,1,72,2|4,0:0|0:0,0:0:0:0:
196,160,282976,1,0,0:0:0:0:
196,160,283148,2,0,P|156:160|124:175,1,72,4|0,0:0|0:0,0:0:0:0:
88,256,283493,1,12,0:0:0:0:
276,298,283665,2,0,L|264:228,1,72,2|4,0:0|0:0,0:0:0:0:
240,84,284010,1,2,0:0:0:0:
179,251,284182,101,12,0:0:0:0:
210,168,284355,1,8,0:0:0:0:
325,303,284527,1,12,0:0:0:0:
266,236,284700,1,8,0:0:0:0:
148,334,284872,1,12,0:0:0:0:
325,303,285045,2,0,L|403:316,1,72,10|12,0:0|0:0,0:0:0:0:
210,168,285389,6,0,L|131:181,1,72,10|12,0:0|0:0,0:0:0:0:
52,192,285734,1,8,0:0:0:0:
196,81,285907,1,12,0:0:0:0:
210,168,286079,1,8,0:0:0:0:
40,112,286251,1,12,0:0:0:0:
196,81,286424,102,0,P|232:81|268:100,1,72,10|12,0:0|0:0,0:0:0:0:
136,264,286769,2,0,P|102:279|59:277,1,72,10|12,0:0|0:0,0:0:0:0:
86,187,287113,1,8,0:0:0:0:
186,341,287286,1,12,0:0:0:0:
228,260,287458,1,8,0:0:0:0:
44,268,287631,1,12,0:0:0:0:
186,341,287803,2,0,L|261:354,1,72,10|12,0:0|0:0,0:0:0:0:
392,228,288148,6,0,L|317:241,1,72,10|12,0:0|0:0,0:0:0:0:
228,260,288493,1,8,0:0:0:0:
378,141,288665,1,12,0:0:0:0:
392,228,288837,1,8,0:0:0:0:
214,173,289010,1,12,0:0:0:0:
378,141,289182,102,0,P|414:142|448:159,1,72,10|12,0:0|0:0,0:0:0:0:
323,299,289527,1,10,0:0:0:0:
214,173,289700,5,12,0:0:0:0:
167,157,289786,1,8,0:0:0:0:
120,168,289872,1,12,0:0:0:0:
85,202,289958,1,8,0:0:0:0:
73,249,290044,1,12,0:0:0:0:
88,296,290131,1,8,0:0:0:0:
125,327,290217,1,12,0:0:0:0:
174,335,290303,1,8,0:0:0:0:
219,316,290389,1,12,0:0:0:0:
250,278,290475,1,8,0:0:0:0:
295,260,290561,1,14,0:0:0:0:
344,265,290647,1,8,0:0:0:0:
385,292,290734,101,12,0:0:0:0:
370,311,290820,1,8,0:0:0:0:
351,328,290906,1,14,0:0:0:0:
330,340,290992,1,8,0:0:0:0:
307,349,291079,5,12,0:0:0:0:
300,299,291165,1,8,0:0:0:0:
294,250,291251,1,12,0:0:0:0:
288,201,291337,1,8,0:0:0:0:
282,152,291424,1,12,0:0:0:0:
293,104,291510,1,8,0:0:0:0:
329,71,291596,1,12,0:0:0:0:
377,64,291682,1,8,0:0:0:0:
421,85,291769,101,12,0:0:0:0:
386,120,291855,1,8,0:0:0:0:
343,143,291941,1,14,0:0:0:0:
294,152,292027,1,8,0:0:0:0:
245,145,292113,1,12,0:0:0:0:
201,125,292200,1,8,0:0:0:0:
153,112,292286,1,14,0:0:0:0:
106,124,292372,1,8,0:0:0:0:
70,158,292458,6,0,L|61:205,3,36,4|0|0|0,0:0|0:0|0:0|0:0,0:0:0:0:
152,200,292803,2,0,L|143:247,3,36,4|0|0|0,0:0|0:0|0:0|0:0,0:0:0:0:
232,233,293148,2,0,L|223:280,3,36,4|0|2|0,0:0|0:0|0:0|0:0,0:0:0:0:
316,268,293493,2,0,L|307:315,3,36,4|0|2|0,0:0|0:0|0:0|0:0,0:0:0:0:
300,176,293838,102,0,L|307:132,7,24.7500007553101,2|0|0|0|0|0|0|0,0:0|0:0|0:0|0:0|0:0|0:0|0:0|0:0,0:0:0:0:
220,140,294182,2,0,L|227:96,7,24.7500007553101,2|0|0|0|0|0|0|0,0:0|0:0|0:0|0:0|0:0|0:0|0:0|0:0,0:0:0:0:
140,104,294527,22,0,L|144:76,10,16.5000005035401,2|0|0|0|0|0|0|0|0|0|0,0:0|0:0|0:0|0:0|0:0|0:0|0:0|0:0|0:0|0:0|0:0,0:0:0:0:
60,68,294872,6,4,L|63:48,14,12.375000377655,2|0|0|0|0|0|0|0|0|0|0|0|0|0|0,0:0|0:0|0:0|0:0|0:0|0:0|0:0|0:0|0:0|0:0|0:0|0:0|0:0|0:0|0:0,0:0:0:0:
70,158,295217,53,0,0:0:0:0:
72,192,295562,1,0,0:0:0:0:
74,226,295907,1,0,0:0:0:0:
76,260,296251,1,0,0:0:0:0:
78,294,296596,6,0,P|106:302|126:302,1,45,12|8,0:0|0:0,0:0:0:0:
224,216,296769,2,0,P|245:210|267:208,1,45,12|8,0:0|0:0,0:0:0:0:
376,296,296941,1,8,0:0:0:0:
233,128,297113,6,0,L|226:88,2,30,2|2|2,0:0|0:0|0:0,0:0:0:0:
260,296,297286,1,4,0:0:0:0:
392,188,297458,1,4,0:0:0:0:
224,216,297631,2,0,L|194:221,5,30,10|2|2|2|2|2,0:0|0:0|0:0|0:0|0:0|0:0,0:0:0:0:
392,188,297976,102,0,P|416:144|416:96,1,99.0000030212403,6|2,0:0|0:0,0:0:0:0:
216,20,298320,1,10,0:0:0:0:
336,124,298493,1,0,0:0:0:0:
168,196,298665,1,2,0:0:0:0:
272,76,298838,1,4,0:0:0:0:
168,196,299010,1,10,0:0:0:0:
352,276,299182,6,0,L|449:258,1,99.0000030212403,2|0,0:0|0:0,0:0:0:0:
252,176,299527,2,0,L|349:158,1,99.0000030212403,6|8,0:0|0:0,0:0:0:0:
252,276,299872,1,2,0:0:0:0:
226,273,299958,1,2,0:0:0:0:
204,262,300044,1,2,0:0:0:0:
216,92,300217,1,6,0:0:0:0:
357,187,300389,2,0,L|454:169,1,99.0000030212403,8|0,0:0|0:0,0:0:0:0:
220,96,300734,101,6,0:0:0:0:
291,246,300907,1,2,0:0:0:0:
220,96,301079,1,10,0:0:0:0:
124,232,301251,1,0,0:0:0:0:
120,256,301337,1,0,0:0:0:0:
122,280,301423,1,2,0:0:0:0:
130,304,301509,1,0,0:0:0:0:
143,325,301595,1,4,0:0:0:0:
216,188,301769,1,10,0:0:0:0:
364,288,301941,6,0,L|461:270,1,99.0000030212403,2|0,0:0|0:0,0:0:0:0:
292,148,302286,2,0,L|389:130,1,99.0000030212403,6|8,0:0|0:0,0:0:0:0:
240,288,302631,1,2,0:0:0:0:
196,96,302803,1,2,0:0:0:0:
240,288,302976,1,6,0:0:0:0:
52,231,303148,2,0,P|52:180|76:140,1,99.0000030212403,10|0,0:0|0:0,0:0:0:0:
256,20,303493,101,4,0:0:0:0:
207,154,303666,1,2,0:0:0:0:
345,129,303838,1,10,0:0:0:0:
184,76,304010,1,0,0:0:0:0:
159,86,304096,1,0,0:0:0:0:
139,104,304182,1,2,0:0:0:0:
126,127,304268,1,0,0:0:0:0:
119,154,304354,1,4,0:0:0:0:
225,299,304528,5,8,0:0:0:0:
207,154,304701,1,0,0:0:0:0:
95,239,304873,1,2,0:0:0:0:
301,291,305045,101,6,0:0:0:0:
174,230,305218,1,10,0:0:0:0:
182,371,305390,1,2,0:0:0:0:
207,154,305562,5,0,0:0:0:0:
95,239,305734,1,6,0:0:0:0:
254,222,305907,1,8,0:0:0:0:
138,305,306079,1,0,0:0:0:0:
291,149,306251,101,6,0:0:0:0:
174,230,306424,1,2,0:0:0:0:
301,287,306596,1,10,0:0:0:0:
207,154,306769,1,0,0:0:0:0:
183,147,306855,1,0,0:0:0:0:
158,148,306941,1,2,0:0:0:0:
135,156,307027,1,0,0:0:0:0:
115,171,307113,1,6,0:0:0:0:
56,329,307286,5,10,0:0:0:0:
174,230,307459,1,2,0:0:0:0:
26,177,307631,2,0,P|32:136|72:92,1,99.0000030212403,6|6,0:0|0:0,0:0:0:0:
228,64,307976,1,10,0:0:0:0:
115,171,308148,1,10,0:0:0:0:
117,181,308235,1,8,0:0:0:0:
119,191,308321,1,4,0:0:0:0:
144,20,308493,1,6,0:0:0:0:
200,216,308665,101,8,0:0:0:0:
172,256,308751,1,8,0:0:0:0:
127,275,308837,1,8,0:0:0:0:
79,268,308923,1,8,0:0:0:0:
42,236,309010,6,0,L|19:109,1,99.0000030212403,6|2,0:0|0:0,0:0:0:0:
228,64,309355,1,10,0:0:0:0:
119,191,309527,1,0,0:0:0:0:
283,221,309700,1,2,0:0:0:0:
156,112,309872,1,4,0:0:0:0:
283,221,310045,1,10,0:0:0:0:
126,277,310217,102,0,L|7:256,1,99.0000030212403,2|0,0:0|0:0,0:0:0:0:
156,112,310562,2,0,L|37:91,1,99.0000030212403,6|8,0:0|0:0,0:0:0:0:
168,196,310907,1,2,0:0:0:0:
192,191,310993,1,2,0:0:0:0:
212,177,311079,1,2,0:0:0:0:
308,48,311251,1,6,0:0:0:0:
371,195,311424,2,0,L|390:305,1,99.0000030212403,8|0,0:0|0:0,0:0:0:0:
448,108,311769,5,6,0:0:0:0:
297,138,311941,1,2,0:0:0:0:
448,108,312113,1,10,0:0:0:0:
292,220,312286,1,0,0:0:0:0:
267,217,312372,1,0,0:0:0:0:
245,206,312458,1,2,0:0:0:0:
228,188,312544,1,0,0:0:0:0:
218,166,312630,1,4,0:0:0:0:
296,48,312803,1,10,0:0:0:0:
376,208,312976,102,0,L|473:190,1,99.0000030212403,2|0,0:0|0:0,0:0:0:0:
297,138,313320,2,0,L|394:120,1,99.0000030212403,6|8,0:0|0:0,0:0:0:0:
244,244,313665,1,2,0:0:0:0:
216,91,313838,1,2,0:0:0:0:
244,244,314010,1,6,0:0:0:0:
97,191,314182,2,0,L|-2:209,1,99.0000030212403,10|0,0:0|0:0,0:0:0:0:
232,325,314527,5,4,0:0:0:0:
321,216,314700,1,2,0:0:0:0:
183,191,314872,1,10,0:0:0:0:
312,301,315044,1,0,0:0:0:0:
338,299,315130,1,0,0:0:0:0:
363,289,315216,1,2,0:0:0:0:
384,272,315302,1,0,0:0:0:0:
399,249,315388,1,4,0:0:0:0:
368,80,315562,101,8,0:0:0:0:
321,216,315735,1,0,0:0:0:0:
458,188,315907,1,2,0:0:0:0:
294,51,316079,5,6,0:0:0:0:
382,160,316252,1,10,0:0:0:0:
438,32,316424,1,2,0:0:0:0:
321,216,316596,101,0,0:0:0:0:
458,188,316768,1,6,0:0:0:0:
307,132,316941,1,8,0:0:0:0:
448,110,317113,1,0,0:0:0:0:
321,216,317286,6,0,P|264:208|228:168,1,107.999996704102,2|2,0:0|0:0,0:0:0:0:
307,132,317976,1,0,0:0:0:0:
321,216,318320,2,0,L|341:330,1,107.999996704102,2|0,0:0|0:0,0:0:0:0:
398,176,319010,2,0,P|359:139|307:132,1,107.999996704102,2|0,0:0|0:0,0:0:0:0:
188,196,319527,1,4,0:0:0:0:
339,322,319700,101,8,0:0:0:0:
335,295,319786,1,8,0:0:0:0:
330,269,319872,1,8,0:0:0:0:
325,242,319958,1,8,0:0:0:0:
320,216,320044,21,6,0:0:0:0:
178,273,320217,1,2,0:0:0:0:
199,123,320389,1,10,0:0:0:0:
178,273,320562,1,2,0:0:0:0:
280,140,320734,2,0,P|280:104|252:60,1,90,2|4,0:0|0:0,0:0:0:0:
76,60,321079,1,10,0:0:0:0:
199,123,321251,1,2,0:0:0:0:
40,272,321424,5,2,0:0:0:0:
114,138,321597,1,6,0:0:0:0:
192,268,321769,1,10,0:0:0:0:
114,138,321941,1,2,0:0:0:0:
116,304,322113,2,0,P|152:344|204:352,1,90,2|4,0:0|0:0,0:0:0:0:
315,331,322458,1,10,0:0:0:0:
192,268,322630,1,2,0:0:0:0:
408,168,322803,101,6,0:0:0:0:
279,250,322976,1,2,0:0:0:0:
271,98,323148,1,10,0:0:0:0:
279,250,323320,1,2,0:0:0:0:
352,108,323493,2,0,P|349:68|311:26,1,90,2|4,0:0|0:0,0:0:0:0:
148,28,323838,1,10,0:0:0:0:
271,98,324010,1,2,0:0:0:0:
124,216,324182,6,0,L|13:196,1,90,2|6,0:0|0:0,0:0:0:0:
200,156,324527,2,0,P|220:200|216:244,1,90,10|2,0:0|0:0,0:0:0:0:
112,124,324872,2,0,P|139:84|179:64,1,90,2|4,0:0|0:0,0:0:0:0:
336,76,325217,1,10,0:0:0:0:
200,156,325389,1,2,0:0:0:0:
424,212,325562,101,6,0:0:0:0:
287,142,325735,1,2,0:0:0:0:
295,294,325907,1,10,0:0:0:0:
287,142,326079,1,2,0:0:0:0:
376,280,326251,2,0,P|372:328|340:364,1,90,2|4,0:0|0:0,0:0:0:0:
175,363,326596,1,10,0:0:0:0:
295,294,326768,1,2,0:0:0:0:
80,216,326941,5,2,0:0:0:0:
215,286,327114,1,6,0:0:0:0:
208,133,327286,1,10,0:0:0:0:
215,286,327458,1,2,0:0:0:0:
124,140,327631,2,0,P|136:88|172:56,1,90,2|4,0:0|0:0,0:0:0:0:
325,60,327976,1,10,0:0:0:0:
208,133,328148,1,2,0:0:0:0:
440,220,328320,101,6,0:0:0:0:
292,135,328492,1,2,0:0:0:0:
296,302,328665,1,10,0:0:0:0:
488,136,328838,5,2,0:0:0:0:
348,220,329010,1,2,0:0:0:0:
492,303,329183,1,6,0:0:0:0:
392,136,329355,1,10,0:0:0:0:
392,300,329527,1,2,0:0:0:0:
488,136,329700,101,14,0:0:0:0:
476,92,329786,1,8,0:0:0:0:
447,58,329872,1,14,0:0:0:0:
407,41,329958,1,8,0:0:0:0:
362,43,330044,1,10,0:0:0:0:
196,168,330217,2,0,L|255:157,1,45,10|8,0:0|0:0,0:0:0:0:
392,136,330389,1,6,0:0:0:0:
204,76,330562,1,6,0:0:0:0:
320,296,330734,6,0,P|380:244|316:204,1,175.499991966248,8|0,0:0|0:0,0:0:0:0:
192,260,331079,21,6,0:0:0:0:
156,277,331165,1,0,0:0:0:0:
115,277,331251,1,2,0:0:0:0:
80,259,331337,1,0,0:0:0:0:
56,226,331424,2,0,L|44:159,1,53.9999983520508,10|0,0:0|0:0,0:0:0:0:
136,192,331596,2,0,L|124:125,1,53.9999983520508,2|0,0:0|0:0,0:0:0:0:
216,158,331769,2,0,L|206:104,1,53.9999983520508,2|0,0:0|0:0,0:0:0:0:
160,29,331941,101,4,0:0:0:0:
160,29,332027,1,0,0:0:0:0:
160,29,332113,2,0,P|185:18|212:15,1,53.9999983520508,10|0,0:0|0:0,0:0:0:0:
288,72,332286,2,0,L|297:125,1,53.9999983520508,2|0,0:0|0:0,0:0:0:0:
213,305,332458,5,2,0:0:0:0:
174,318,332544,1,0,0:0:0:0:
134,314,332630,1,6,0:0:0:0:
101,294,332716,1,0,0:0:0:0:
80,259,332803,2,0,L|69:199,1,53.9999983520508,10|0,0:0|0:0,0:0:0:0:
164,228,332976,2,0,L|152:161,1,53.9999983520508,2|0,0:0|0:0,0:0:0:0:
248,197,333148,2,0,L|238:143,1,53.9999983520508,2|0,0:0|0:0,0:0:0:0:
168,84,333320,101,4,0:0:0:0:
168,84,333407,1,0,0:0:0:0:
168,84,333493,2,0,P|140:84|104:96,1,53.9999983520508,10|0,0:0|0:0,0:0:0:0:
32,140,333665,2,0,P|20:112|20:80,1,53.9999983520508,2|0,0:0|0:0,0:0:0:0:
240,28,333838,5,6,0:0:0:0:
255,65,333924,1,0,0:0:0:0:
255,105,334010,1,2,0:0:0:0:
239,142,334096,1,0,0:0:0:0:
210,170,334182,2,0,L|146:181,1,53.9999983520508,10|0,0:0|0:0,0:0:0:0:
240,252,334355,2,0,L|180:263,1,53.9999983520508,2|0,0:0|0:0,0:0:0:0:
270,334,334527,2,0,L|210:345,1,53.9999983520508,2|0,0:0|0:0,0:0:0:0:
327,264,334700,101,4,0:0:0:0:
327,264,334786,1,0,0:0:0:0:
327,264,334872,2,0,P|327:237|318:211,1,53.9999983520508,10|0,0:0|0:0,0:0:0:0:
256,151,335045,2,0,P|277:135|332:128,1,53.9999983520508,2|0,0:0|0:0,0:0:0:0:
407,305,335217,5,2,0:0:0:0:
381,336,335303,1,0,0:0:0:0:
344,352,335389,1,6,0:0:0:0:
304,351,335475,1,0,0:0:0:0:
269,333,335562,2,0,L|258:273,1,53.9999983520508,10|0,0:0|0:0,0:0:0:0:
204,200,335734,101,2,0:0:0:0:
236,184,335820,1,0,0:0:0:0:
272,183,335907,2,0,L|342:195,1,53.9999983520508,2|0,0:0|0:0,0:0:0:0:
259,279,336079,1,4,0:0:0:0:
226,294,336165,1,0,0:0:0:0:
191,296,336252,2,0,L|120:283,1,53.9999983520508,10|0,0:0|0:0,0:0:0:0:
63,240,336424,2,0,P|52:264|50:291,1,53.9999983520508,2|0,0:0|0:0,0:0:0:0:
204,200,336596,5,6,0:0:0:0:
215,161,336682,1,0,0:0:0:0:
208,121,336768,1,2,0:0:0:0:
185,89,336854,1,0,0:0:0:0:
149,70,336941,2,0,L|93:60,1,53.9999983520508,10|0,0:0|0:0,0:0:0:0:
128,156,337113,2,0,L|72:146,1,53.9999983520508,2|0,0:0|0:0,0:0:0:0:
107,242,337286,2,0,L|51:232,1,53.9999983520508,2|0,0:0|0:0,0:0:0:0:
168,316,337458,101,4,0:0:0:0:
168,316,337545,1,0,0:0:0:0:
168,316,337631,2,0,L|224:306,1,53.9999983520508,10|0,0:0|0:0,0:0:0:0:
300,260,337803,2,0,P|312:292|312:316,1,53.9999983520508,2|0,0:0|0:0,0:0:0:0:
184,220,337976,5,2,0:0:0:0:
170,182,338062,1,0,0:0:0:0:
174,142,338148,1,6,0:0:0:0:
194,107,338234,1,0,0:0:0:0:
228,85,338320,2,0,L|287:74,1,53.9999983520508,10|0,0:0|0:0,0:0:0:0:
262,172,338493,2,0,L|321:161,1,53.9999983520508,2|0,0:0|0:0,0:0:0:0:
300,260,338665,2,0,L|359:249,1,53.9999983520508,2|0,0:0|0:0,0:0:0:0:
412,180,338838,101,4,0:0:0:0:
412,180,338924,1,0,0:0:0:0:
412,180,339010,2,0,L|401:120,1,53.9999983520508,10|0,0:0|0:0,0:0:0:0:
359,48,339182,2,0,P|376:40|411:38,1,53.9999983520508,2|0,0:0|0:0,0:0:0:0:
488,224,339355,5,14,0:0:0:0:
446,257,339441,1,8,0:0:0:0:
393,262,339527,1,10,0:0:0:0:
346,237,339613,1,8,0:0:0:0:
319,191,339700,1,10,0:0:0:0:
292,145,339786,1,8,0:0:0:0:
245,120,339872,1,10,0:0:0:0:
192,125,339958,1,8,0:0:0:0:
151,159,340045,101,10,0:0:0:0:
172,208,340131,1,8,0:0:0:0:
226,208,340217,1,8,0:0:0:0:
240,156,340303,1,8,0:0:0:0:
222,106,340389,1,10,0:0:0:0:
180,74,340475,1,8,0:0:0:0:
127,72,340561,1,10,0:0:0:0:
81,99,340648,1,8,0:0:0:0:
59,148,340734,6,0,L|49:199,5,35.9999989013672,6|0|0|0|0|0,0:0|0:0|0:0|0:0|0:0|0:0,0:0:0:0:
151,159,341079,2,0,L|141:210,5,35.9999989013672,6|0|0|2|0|0,0:0|0:0|0:0|0:0|0:0|0:0,0:0:0:0:
243,170,341424,70,0,L|237:207,6,26.9999991760254,2|0|0|0|2|0|0,0:0|0:0|0:0|0:0|0:0|0:0|0:0,0:0:0:0:
335,181,341769,6,0,L|332:199,10,17.9999994506836,2|0|0|0|0|0|0|0|0|0|0,0:0|0:0|0:0|0:0|0:0|0:0|0:0|0:0|0:0|0:0|0:0,0:0:0:0:
427,192,342113,38,0,P|420:140|376:96,1,107.999996704102,6|2,0:0|0:0,0:0:0:0:
383,100,342803,2,0,L|327:109,1,53.9999983520508,8|0,0:0|0:0,0:0:0:0:
232,204,343148,2,0,L|223:251,7,26.9999991760254,2|2|2|2|2|2|2|2,0:0|0:0|0:0|0:0|0:0|0:0|0:0|0:0,0:0:0:0:
248,124,343838,1,6,0:0:0:0:
360,288,344182,1,8,0:0:0:0:
161,302,344527,6,0,L|66:285,1,90,2|0,0:0|0:0,0:0:0:0:
192,224,345217,102,0,L|58:200,1,125.999996154785,6|8,0:0|0:0,0:0:0:0:
224,148,345907,6,0,L|30:113,1,161.999995056153,2|0,0:0|0:0,0:0:0:0:
256,72,346596,102,0,P|292:100|308:148,1,90,6|8,0:0|0:0,0:0:0:0:
161,302,347286,2,0,L|154:341,3,26.9999991760254,2|2|2|2,0:0|0:0|0:0|0:0,0:0:0:0:
176,224,347631,6,0,L|156:113,1,107.999996704102,4|0,0:0|0:0,0:0:0:0:
157,117,348320,102,0,L|125:111,1,22.5,8|0,0:0|0:0,0:0:0:0:
180,100,348407,2,0,L|155:79,1,22.5
203,92,348493,2,0,L|192:61,1,22.5
230,91,348579,2,0,L|235:59,1,22.5
256,96,348665,6,0,L|276:210,1,107.999996704102,0|0,0:0|0:0,0:0:0:0:
274,202,349355,2,0,L|337:190,1,53.9999983520508,4|0,0:0|0:0,0:0:0:0:
440,98,349700,102,0,L|452:68,3,26.9999991760254,10|2|2|2,0:0|0:0|0:0|0:0,0:0:0:0:
464,240,350045,2,0,L|480:264,3,26.9999991760254,2|2|2|2,0:0|0:0|0:0|0:0,0:0:0:0:
327,191,350389,2,0,L|287:197,3,26.9999991760254,2|2|2|2,0:0|0:0|0:0|0:0,0:0:0:0:
412,176,350734,1,6,0:0:0:0:
384,252,350907,1,2,0:0:0:0:
356,112,351079,2,0,L|337:5,1,107.999996704102,8|0,0:0|0:0,0:0:0:0:
337,5,351769,6,0,L|283:14,1,53.9999983520508,0|0,0:0|0:0,0:0:0:0:
220,140,352113,2,0,L|273:130,1,53.9999983520508,4|0,0:0|0:0,0:0:0:0:
396,80,352458,101,10,0:0:0:0:
400,106,352544,1,2,0:0:0:0:
405,133,352630,1,2,0:0:0:0:
375,171,352717,1,2,0:0:0:0:
344,208,352803,1,2,0:0:0:0:
331,231,352889,1,2,0:0:0:0:
328,258,352975,1,2,0:0:0:0:
333,284,353061,1,2,0:0:0:0:
346,308,353148,6,0,L|460:328,1,107.999996704102,6|0,0:0|0:0,0:0:0:0:
452,326,353838,2,0,L|472:212,1,107.999996704102,10|0,0:0|0:0,0:0:0:0:
470,219,354527,2,0,L|363:200,1,107.999996704102,2|4,0:0|0:0,0:0:0:0:
363,200,355217,2,0,L|372:146,1,53.9999983520508,10|0,0:0|0:0,0:0:0:0:
416,72,355562,2,0,P|384:60|348:64,1,53.9999983520508,2|0,0:0|0:0,0:0:0:0:
292,112,355907,101,0,0:0:0:0:
292,112,356251,2,0,L|238:102,1,53.9999983520508,4|0,0:0|0:0,0:0:0:0:
80,128,356596,2,0,L|71:80,3,26.9999991760254,10|2|2|2,0:0|0:0|0:0|0:0,0:0:0:0:
75,169,356941,2,0,L|85:223,1,53.9999983520508,2|0,0:0|0:0,0:0:0:0:
184,288,357286,6,0,L|174:234,1,53.9999983520508,2|0,0:0|0:0,0:0:0:0:
160,148,357631,1,4,0:0:0:0:
100,304,357803,2,0,P|112:336|192:372,1,107.999996704102,2|0,0:0|0:0,0:0:0:0:
308,340,358320,2,0,L|314:371,3,17.9999994506836,2|2|2|2,0:0|0:0|0:0|0:0,0:0:0:0:
202,181,358665,102,0,L|183:287,1,107.999996704102,4|0,0:0|0:0,0:0:0:0:
182,287,359355,6,0,L|150:293,1,22.5,8|0,0:0|0:0,0:0:0:0:
205,304,359442,2,0,L|180:325,1,22.5
228,312,359528,2,0,L|217:343,1,22.5
255,313,359614,2,0,L|260:345,1,22.5
281,308,359700,102,0,L|291:248,1,53.9999983520508
288,136,360045,2,0,L|294:175,2,35.9999989013672,2|2|2,0:0|0:0|0:0,0:0:0:0:
372,120,360389,2,0,L|378:159,2,35.9999989013672,6|2|2,0:0|0:0|0:0,0:0:0:0:
456,104,360734,6,0,L|451:80,3,17.9999994506836,10|2|2|2,0:0|0:0|0:0|0:0,0:0:0:0:
288,136,361079,2,0,L|283:112,3,17.9999994506836,2|2|2|2,0:0|0:0|0:0|0:0,0:0:0:0:
400,266,361424,1,2,0:0:0:0:
400,266,361769,2,0,L|410:322,1,53.9999983520508,4|0,0:0|0:0,0:0:0:0:
332,212,362113,2,0,P|372:184|444:192,1,107.999996704102,8|0,0:0|0:0,0:0:0:0:
429,184,362803,102,0,L|438:130,1,53.9999983520508
484,60,363148,2,0,P|456:48|428:48,1,53.9999983520508,4|0,0:0|0:0,0:0:0:0:
277,106,363493,5,8,0:0:0:0:
357,118,363665,1,4,0:0:0:0:
265,186,363838,1,4,0:0:0:0:
345,198,364010,1,4,0:0:0:0:
185,174,364182,102,0,L|70:194,1,107.999996704102,6|2,0:0|0:0,0:0:0:0:
78,192,364872,2,0,P|74:167|81:136,1,53.9999983520508,8|0,0:0|0:0,0:0:0:0:
204,60,365217,2,0,L|197:99,7,26.9999991760254,2|2|2|2|2|2|2|2,0:0|0:0|0:0|0:0|0:0|0:0|0:0|0:0,0:0:0:0:
185,174,365907,1,6,0:0:0:0:
369,209,366251,1,8,0:0:0:0:
247,351,366596,6,0,L|140:332,1,90,2|0,0:0|0:0,0:0:0:0:
276,272,367286,102,0,L|138:247,1,125.999996154785,6|8,0:0|0:0,0:0:0:0:
308,196,367976,6,0,L|148:167,1,161.999995056153,2|0,0:0|0:0,0:0:0:0:
340,120,368665,102,0,P|376:148|392:192,1,90,6|8,0:0|0:0,0:0:0:0:
247,351,369355,2,0,L|215:356,3,26.9999991760254,2|2|2|2,0:0|0:0|0:0|0:0,0:0:0:0:
328,340,369700,6,0,L|446:360,1,107.999996704102,4|0,0:0|0:0,0:0:0:0:
434,358,370389,102,0,L|440:390,1,22.5,8|0,0:0|0:0,0:0:0:0:
451,335,370476,2,0,L|472:360,1,22.5
459,312,370562,2,0,L|490:323,1,22.5
460,285,370648,2,0,L|492:280,1,22.5
455,259,370734,6,0,L|341:238,1,107.999996704102,0|0,0:0|0:0,0:0:0:0:
348,239,371424,2,0,L|358:179,1,53.9999983520508,4|0,0:0|0:0,0:0:0:0:
293,54,371769,102,0,L|271:37,3,26.9999991760254,10|2|2|2,0:0|0:0|0:0|0:0,0:0:0:0:
441,69,372114,2,0,L|465:57,3,26.9999991760254,2|2|2|2,0:0|0:0|0:0|0:0,0:0:0:0:
356,185,372458,2,0,L|350:211,3,26.9999991760254,2|2|2|2,0:0|0:0|0:0|0:0,0:0:0:0:
364,106,372803,1,6,0:0:0:0:
432,152,372976,1,2,0:0:0:0:
288,136,373148,2,0,L|176:124,1,107.999996704102,8|0,0:0|0:0,0:0:0:0:
180,124,373838,6,0,L|191:61,1,53.9999983520508,0|0,0:0|0:0,0:0:0:0:
297,82,374182,2,0,L|287:136,1,53.9999983520508,4|0,0:0|0:0,0:0:0:0:
168,236,374527,101,10,0:0:0:0:
194,231,374613,1,2,0:0:0:0:
221,226,374699,1,2,0:0:0:0:
260,256,374786,1,2,0:0:0:0:
300,284,374872,1,2,0:0:0:0:
324,295,374958,1,2,0:0:0:0:
350,300,375044,1,2,0:0:0:0:
377,296,375130,1,2,0:0:0:0:
401,285,375217,6,0,L|419:178,1,107.999996704102,6|2,0:0|0:0,0:0:0:0:
418,178,375907,2,0,L|343:164,1,53.9999983520508,10|0,0:0|0:0,0:0:0:0:
280,148,376251,1,2,0:0:0:0:
280,148,376596,2,0,L|298:41,1,107.999996704102,2|6,0:0|0:0,0:0:0:0:
297,41,377286,2,0,L|269:36,3,17.9999994506836,10|2|2|2,0:0|0:0|0:0|0:0,0:0:0:0:
364,132,377631,102,0,L|458:115,1,90,2|0,0:0|0:0,0:0:0:0:
352,216,378320,6,0,L|489:191,1,125.999996154785,6|8,0:0|0:0,0:0:0:0:
344,300,379010,101,2,0:0:0:0:
503,272,379355,2,0,L|333:301,1,161.999995056153,2|4,0:0|0:0,0:0:0:0:
232,316,379872,6,0,P|203:272|210:214,1,107.999996704102,2|0,0:0|0:0,0:0:0:0:
300,108,380389,2,0,L|294:76,3,17.9999994506836,2|2|2|2,0:0|0:0|0:0|0:0,0:0:0:0:
392,232,380734,102,0,L|265:254,1,107.999996704102,4|0,0:0|0:0,0:0:0:0:
285,250,381424,6,0,L|279:282,1,22.5,8|0,0:0|0:0,0:0:0:0:
268,227,381511,2,0,L|247:252,1,22.5
260,204,381597,2,0,L|229:215,1,22.5
259,177,381683,2,0,L|227:172,1,22.5
264,151,381769,102,0,L|330:139,1,53.9999983520508
416,76,382113,2,0,L|463:67,2,35.9999989013672,2|2|2,0:0|0:0|0:0,0:0:0:0:
432,160,382458,2,0,L|479:151,2,35.9999989013672,6|2|2,0:0|0:0|0:0,0:0:0:0:
448,244,382803,6,0,L|467:240,3,17.9999994506836,10|2|2|2,0:0|0:0|0:0|0:0,0:0:0:0:
416,76,383148,2,0,L|435:72,3,17.9999994506836,2|2|2|2,0:0|0:0|0:0|0:0,0:0:0:0:
286,187,383493,102,0,L|171:166,1,107.999996704102,2|4,0:0|0:0,0:0:0:0:
179,168,384182,2,0,L|160:274,1,107.999996704102,8|0,0:0|0:0,0:0:0:0:
160,274,384872,2,0,L|266:292,1,107.999996704102,0|4,0:0|0:0,0:0:0:0:
266,292,385562,6,0,L|280:316,1,17.9999994506836,8|0,0:0|0:0,0:0:0:0:
286,187,385734,2,0,L|308:172,1,17.9999994506836,4|0,0:0|0:0,0:0:0:0:
160,274,385907,2,0,L|145:284,1,17.9999994506836,4|0,0:0|0:0,0:0:0:0:
179,168,386079,2,0,L|165:144,1,17.9999994506836,4|0,0:0|0:0,0:0:0:0:
