osu file format v14

[General]
AudioFilename: The Messenger 2012.mp3
AudioLeadIn: 0
PreviewTime: 307502
Countdown: 0
SampleSet: Normal
StackLeniency: 0.7
Mode: 3
LetterboxInBreaks: 1
SpecialStyle: 0
WidescreenStoryboard: 1

[Editor]
Bookmarks: 73505,175151,307855,341737,401970,443270,498797,592912
DistanceSpacing: 1
BeatDivisor: 1
GridSize: 4
TimelineZoom: 1.500002

[Metadata]
Title:The Messenger 2012
TitleUnicode:The Messenger 2012
Artist:Infected Mushroom
ArtistUnicode:Infected Mushroom
Creator:Pope Gadget
Version:Original
Source:
Tags:juankristal blocko
BeatmapID:1419295
BeatmapSetID:664041

[Difficulty]
HPDrainRate:7.8
CircleSize:4
OverallDifficulty:8.7
ApproachRate:5
SliderMultiplier:1.4
SliderTickRate:1

[Events]
//Background and Video events
0,0,"The Islands in the Sky Crop.jpg",0,0
//Break Periods
2,402170,442070
//Storyboard Layer 0 (Background)
//Storyboard Layer 1 (Fail)
//Storyboard Layer 2 (Pass)
//Storyboard Layer 3 (Foreground)
//Storyboard Sound Samples

[TimingPoints]
-258,352.941176470941,41,1,0,15,1,0
-258,-133.333333333333,41,1,0,15,0,0
14212,352.941176470941,8,1,0,15,1,0
14212,-133.333333333333,8,1,0,15,0,0
18756,-125,8,1,0,15,0,0
18977,-117.647058823529,8,1,0,15,0,0
19197,-111.111111111111,8,1,0,15,0,0
19462,-105.263157894737,8,1,0,15,0,0
19727,-100,8,1,0,15,0,0
19858,-133.333333333333,8,1,0,15,0,0
24447,-200,8,1,0,15,0,0
24624,-153.846153846154,8,1,0,15,0,0
24667,-117.647058823529,8,1,0,15,0,0
24711,-90.9090909090909,8,1,0,15,0,0
24755,-71.4285714285714,8,1,0,15,0,0
24800,-117.647058823529,8,1,0,15,0,0
25506,-50,8,1,0,15,0,0
25550,-76.9230769230769,8,1,0,15,0,0
25594,-90.9090909090909,8,1,0,15,0,0
25638,-105.263157894737,8,1,0,15,0,0
25682,-117.647058823529,8,1,0,15,0,0
25727,-125,8,1,0,15,0,0
29389,-121.951219512195,8,1,0,15,0,0
29741,-119.047619047619,8,1,0,15,0,0
30095,-116.279069767442,8,1,0,15,0,0
30447,-113.636363636364,8,1,0,15,0,0
30800,-111.111111111111,8,1,0,15,0,0
31153,-20,8,1,0,15,0,0
31159,-95.2380952380952,8,1,0,15,0,0
31285,-99.009900990099,8,1,0,15,0,0
31374,-103.092783505155,8,1,0,15,0,0
31418,-107.52688172043,8,1,0,15,0,0
31462,-112.359550561798,8,1,0,15,0,0
31506,-117.647058823529,8,1,0,15,0,0
33800,-113.636363636364,8,1,0,15,0,0
33859,-108.695652173913,8,1,0,15,0,0
33918,-104.166666666667,8,1,0,15,0,0
33976,-100,8,1,0,15,0,0
34505,-102.040816326531,8,1,0,15,0,0
34565,-104.166666666667,8,1,0,15,0,0
34624,-106.382978723404,8,1,0,15,0,0
34682,-108.695652173913,8,1,0,15,0,0
35211,-106.382978723404,8,1,0,15,0,0
35271,-104.166666666667,8,1,0,15,0,0
35330,-102.040816326531,8,1,0,15,0,0
35388,-100,8,1,0,15,0,0
35917,-102.040816326531,8,1,0,15,0,0
35977,-104.166666666667,8,1,0,15,0,0
36036,-106.382978723404,8,1,0,15,0,0
36094,-108.695652173913,8,1,0,15,0,0
36623,-106.382978723404,8,1,0,15,0,0
36683,-104.166666666667,8,1,0,15,0,0
36741,-102.040816326531,8,1,0,15,0,0
36800,-100,8,1,0,15,0,0
37329,-102.040816326531,8,1,0,15,0,0
37389,-104.166666666667,8,1,0,15,0,0
37447,-106.382978723404,8,1,0,15,0,0
37506,-108.695652173913,8,1,0,15,0,0
38035,-106.382978723404,8,1,0,15,0,0
38095,-104.166666666667,8,1,0,15,0,0
38153,-102.040816326531,8,1,0,15,0,0
38212,-100,8,1,0,15,0,0
38741,-102.040816326531,8,1,0,15,0,0
38801,-104.166666666667,8,1,0,15,0,0
38859,-106.382978723404,8,1,0,15,0,0
38918,-108.695652173913,8,1,0,15,0,0
39447,-111.111111111111,8,1,0,15,0,0
39507,-113.636363636364,8,1,0,15,0,0
39565,-116.279069767442,8,1,0,15,0,0
39624,-117.647058823529,8,1,0,15,0,0
44388,-114.942528735632,8,1,0,15,0,0
44565,-112.359550561798,8,1,0,15,0,0
44742,-109.89010989011,8,1,0,15,0,0
45094,-107.52688172043,8,1,0,15,0,0
45271,-105.263157894737,8,1,0,15,0,0
47565,-107.52688172043,8,1,0,15,0,0
47741,-109.89010989011,8,1,0,15,0,0
47918,-113.636363636364,8,1,0,15,0,0
48094,352.941176470941,4,1,0,15,1,0
48094,-117.647058823529,4,1,0,15,0,0
49505,-111.111111111111,4,1,0,15,0,0
50917,-119.047619047619,4,1,0,15,0,0
62211,-114.942528735632,4,1,0,15,0,0
67858,-111.111111111111,4,1,0,15,0,0
70682,-107.52688172043,4,1,0,15,0,0
73505,352.941176470941,8,1,0,15,1,0
73505,-100,8,1,0,15,0,0
85504,-33.3333333333333,8,1,0,15,0,0
85511,-100,8,1,0,15,0,0
86916,-33.3333333333333,8,1,0,15,0,0
86923,-100,8,1,0,15,0,0
88328,-33.3333333333333,8,1,0,15,0,0
88335,-100,8,1,0,15,0,0
89740,-33.3333333333333,8,1,0,15,0,0
89746,-100,8,1,0,15,0,0
90446,352.941176470941,4,1,0,15,1,0
90446,-33.3333333333333,8,1,0,15,0,0
90452,-100,8,1,0,15,0,0
90798,-50,8,1,0,15,0,0
90805,-100,8,1,0,15,0,0
91150,-50,8,1,0,15,0,0
91157,-100,8,1,0,15,0,0
91504,-50,8,1,0,15,0,0
91510,-100,8,1,0,15,0,0
91856,-50,8,1,0,15,0,0
91863,-100,8,1,0,15,0,0
92210,-50,8,1,0,15,0,0
92216,-100,8,1,0,15,0,0
92562,-50,8,1,0,15,0,0
92569,-100,8,1,0,15,0,0
92916,-50,8,1,0,15,0,0
92922,-100,8,1,0,15,0,0
93268,-50,8,1,0,15,0,0
93275,-100,8,1,0,15,0,0
93622,-50,8,1,0,15,0,0
93628,-100,8,1,0,15,0,0
93974,-50,8,1,0,15,0,0
93980,-100,8,1,0,15,0,0
94328,-50,8,1,0,15,0,0
94334,-100,8,1,0,15,0,0
95386,-20,8,1,0,15,0,0
95408,-200,8,1,0,15,0,0
95739,-166.666666666667,8,1,0,15,0,0
95916,-125,8,1,0,15,0,0
96092,-100,8,1,0,15,0,0
112327,-66.6666666666667,8,1,0,15,0,0
112372,-200,8,1,0,15,0,0
112416,-66.6666666666667,8,1,0,15,0,0
112460,-200,8,1,0,15,0,0
112504,-66.6666666666667,8,1,0,15,0,0
112548,-200,8,1,0,15,0,0
112593,-66.6666666666667,8,1,0,15,0,0
112637,-200,8,1,0,15,0,0
112681,-66.6666666666667,8,1,0,15,0,0
112725,-200,8,1,0,15,0,0
112768,-66.6666666666667,8,1,0,15,0,0
112812,-200,8,1,0,15,0,0
112856,-66.6666666666667,8,1,0,15,0,0
112901,-200,8,1,0,15,0,0
112945,-66.6666666666667,8,1,0,15,0,0
112989,-200,8,1,0,15,0,0
113033,-100,8,1,0,15,0,0
117269,-80,8,1,0,15,0,0
117327,-90.9090909090909,8,1,0,15,0,0
117386,-95.2380952380952,8,1,0,15,0,0
117444,-102.564102564103,8,1,0,15,0,0
117504,-114.285714285714,8,1,0,15,0,0
117562,-125,8,1,0,15,0,0
117621,-129.032258064516,8,1,0,15,0,0
117679,-125,8,1,0,15,0,0
117739,-114.285714285714,8,1,0,15,0,0
117798,-102.564102564103,8,1,0,15,0,0
117856,-95.2380952380952,8,1,0,15,0,0
117915,-90.9090909090909,8,1,0,15,0,0
117975,-88.8888888888889,8,1,0,15,0,0
118327,-108.108108108108,8,1,0,15,0,0
118680,-20,8,1,0,15,0,0
118687,-100,8,1,0,15,0,0
121504,-20,8,1,0,15,0,0
121511,-100,8,1,0,15,0,0
124328,-20,8,1,0,15,0,0
124334,-100,8,1,0,15,0,0
127151,-20,8,1,0,15,0,0
127158,-100,8,1,0,15,0,0
129975,-20,8,1,0,15,0,0
129981,-100,8,1,0,15,0,0
132798,-20,8,1,0,15,0,0
132805,-100,8,1,0,15,0,0
135622,-20,8,1,0,15,0,0
135629,-100,8,1,0,15,0,0
138446,-20,8,1,0,15,0,0
138452,-100,8,1,0,15,0,0
141269,-20,8,1,0,15,0,0
141276,-100,8,1,0,15,0,0
144092,-20,8,1,0,15,0,0
144098,-100,8,1,0,15,0,0
146915,-20,8,1,0,15,0,0
146922,-100,8,1,0,15,0,0
149739,-20,8,1,0,15,0,0
149745,-100,8,1,0,15,0,0
152562,-28.5714285714286,8,1,0,15,0,0
152569,-100,8,1,0,15,0,0
175151,352.941176470941,16,1,0,15,1,0
175151,-100,16,1,0,15,0,0
197739,352.941176470941,4,1,0,15,1,0
197739,-100,4,1,0,15,0,0
265502,352.941176470941,8,1,0,15,1,0
265502,-117.647058823529,8,1,0,15,0,0
267619,-125,8,1,0,15,0,0
268325,-133.333333333333,8,1,0,15,0,0
270442,-125,8,1,0,15,0,0
271148,-117.647058823529,8,1,0,15,0,0
273266,-111.111111111111,8,1,0,15,0,0
273972,-105.263157894737,8,1,0,15,0,0
276796,-117.647058823529,8,1,0,15,0,0
278912,-125,8,1,0,15,0,0
279618,-133.333333333333,8,1,0,15,0,0
281736,-125,8,1,0,15,0,0
282441,-117.647058823529,8,1,0,15,0,0
284559,-111.111111111111,8,1,0,15,0,0
285265,-105.263157894737,8,1,0,15,0,0
307855,470.588235294589,4,1,0,15,1,0
307855,-20,4,1,0,15,0,0
307868,-100,4,1,0,15,0,0
308089,-20,4,1,0,15,0,0
308102,-117.647058823529,4,1,0,15,0,0
308324,-20,4,1,0,15,0,0
308337,-86.9565217391304,4,1,0,15,0,0
308560,-20,4,1,0,15,0,0
308573,-100,4,1,0,15,0,0
308795,-20,4,1,0,15,0,0
308808,-117.647058823529,4,1,0,15,0,0
309030,-20,4,1,0,15,0,0
309043,-86.9565217391304,4,1,0,15,0,0
309266,-20,4,1,0,15,0,0
309279,-117.647058823529,4,1,0,15,0,0
309501,-20,4,1,0,15,0,0
309514,-86.9565217391304,4,1,0,15,0,0
309736,-28.5714285714286,4,1,0,15,0,0
309743,-75.187969924812,4,1,0,15,0,0
310677,-15.3846153846154,4,1,0,15,0,0
310690,-100,4,1,0,15,0,0
310796,-90.0900900900901,4,1,0,15,0,0
310913,-81.9672131147541,4,1,0,15,0,0
311031,-75.187969924812,4,1,0,15,0,0
325737,-81.9672131147541,4,1,0,15,0,0
325972,-90.0900900900901,4,1,0,15,0,0
326207,-100,4,1,0,15,0,0
326501,-95.2380952380952,4,1,0,15,0,0
326561,-86.9565217391304,4,1,0,15,0,0
326619,-76.9230769230769,4,1,0,15,0,0
326678,-28.5714285714286,4,1,0,15,0,0
326691,-75.187969924812,4,1,0,15,0,0
327619,-90.9090909090909,4,1,0,15,0,0
327678,-100,4,1,0,15,0,0
327737,-108.108108108108,4,1,0,15,0,0
327796,-114.285714285714,4,1,0,15,0,0
327854,-111.111111111111,4,1,0,15,0,0
327913,-102.564102564103,4,1,0,15,0,0
327973,-76.9230769230769,4,1,0,15,0,0
328031,-44.4444444444445,4,1,0,15,0,0
328090,-75.187969924812,4,1,0,15,0,0
329501,-90.0900900900901,4,1,0,15,0,0
329620,-94.7867298578199,4,1,0,15,0,0
329737,-100,4,1,0,15,0,0
329795,-102.564102564103,4,1,0,15,0,0
329855,-90.9090909090909,4,1,0,15,0,0
329914,-33.3333333333333,4,1,0,15,0,0
329972,-75.187969924812,4,1,0,15,0,0
331619,-105.263157894737,4,1,0,15,0,0
331678,-102.564102564103,4,1,0,15,0,0
331737,-86.9565217391304,4,1,0,15,0,0
331796,-40,4,1,0,15,0,0
331854,-75.187969924812,4,1,0,15,0,0
333266,-30.03003003003,4,1,0,15,0,0
333325,-151.515151515152,4,1,0,15,0,0
333502,-42.7350427350427,4,1,0,15,0,0
333560,-101.010101010101,4,1,0,15,0,0
333737,-33.3333333333333,4,1,0,15,0,0
333767,-75.187969924812,4,1,0,15,0,0
335030,-81.9672131147541,4,1,0,15,0,0
335149,-90.0900900900901,4,1,0,15,0,0
335266,-100,4,1,0,15,0,0
335384,-94.3396226415094,4,1,0,15,0,0
335442,-89.2857142857143,4,1,0,15,0,0
335501,-82.6446280991736,4,1,0,15,0,0
335561,-75.187969924812,4,1,0,15,0,0
335619,-33.3333333333333,4,1,0,15,0,0
335649,-75.187969924812,4,1,0,15,0,0
337031,-50,4,1,0,15,0,0
337061,-100,4,1,0,15,0,0
337119,-50,4,1,0,15,0,0
337148,-151.515151515152,4,1,0,15,0,0
337178,-50,4,1,0,15,0,0
337208,-100,4,1,0,15,0,0
337266,-50,4,1,0,15,0,0
337325,-58.8235294117647,4,1,0,15,0,0
337383,-71.4285714285714,4,1,0,15,0,0
337443,-100,4,1,0,15,0,0
337502,-75.187969924812,4,1,0,15,0,0
338913,-81.9672131147541,4,1,0,15,0,0
339090,-138.888888888889,4,1,0,15,0,0
339119,-58.1395348837209,4,1,0,15,0,0
339149,-90.0900900900901,4,1,0,15,0,0
339266,-100,4,1,0,15,0,0
339354,-33.3333333333333,4,1,0,15,0,0
339384,-75.187969924812,4,1,0,15,0,0
340325,-81.9672131147541,4,1,0,15,0,0
340796,-90.0900900900901,4,1,0,15,0,0
341266,-100,4,1,0,15,0,0
341707,-40,4,1,0,15,0,0
341737,470.588235294589,2,1,0,15,1,0
341737,-40,2,1,0,15,0,0
341766,-74.9999999999999,2,1,0,15,0,0
356540,-56.1797752808989,2,1,0,15,0,0
356560,-181.818181818182,2,1,0,15,0,0
356579,-56.1797752808989,2,1,0,15,0,0
356599,-181.818181818182,2,1,0,15,0,0
356618,-85.7142857142857,2,1,0,15,0,0
356658,-56.1797752808989,2,1,0,15,0,0
356678,-181.818181818182,2,1,0,15,0,0
356697,-56.1797752808989,2,1,0,15,0,0
356717,-181.818181818182,2,1,0,15,0,0
356736,-85.7142857142857,2,1,0,15,0,0
356795,-54.6448087431694,2,1,0,15,0,0
356834,-100,2,1,0,15,0,0
357030,-54.6448087431694,2,1,0,15,0,0
357069,-100,2,1,0,15,0,0
357149,-54.6448087431694,2,1,0,15,0,0
357188,-100,2,1,0,15,0,0
357266,-54.6448087431694,2,1,0,15,0,0
357305,-100,2,1,0,15,0,0
357384,-54.6448087431694,2,1,0,15,0,0
357423,-100,2,1,0,15,0,0
357619,-54.6448087431694,2,1,0,15,0,0
357658,-100,2,1,0,15,0,0
357854,-54.6448087431694,2,1,0,15,0,0
357893,-100,2,1,0,15,0,0
357971,-54.6448087431694,2,1,0,15,0,0
358010,-100,2,1,0,15,0,0
358090,-54.6448087431694,2,1,0,15,0,0
358129,-100,2,1,0,15,0,0
358207,-54.6448087431694,2,1,0,15,0,0
358246,-100,2,1,0,15,0,0
358325,-54.6448087431694,2,1,0,15,0,0
358364,-100,2,1,0,15,0,0
358560,-54.6448087431694,2,1,0,15,0,0
358599,-100,2,1,0,15,0,0
358796,-54.6448087431694,2,1,0,15,0,0
358835,-100,2,1,0,15,0,0
358913,-54.6448087431694,2,1,0,15,0,0
358952,-100,2,1,0,15,0,0
359031,-54.6448087431694,2,1,0,15,0,0
359070,-100,2,1,0,15,0,0
359148,-54.6448087431694,2,1,0,15,0,0
359187,-100,2,1,0,15,0,0
359266,-54.6448087431694,2,1,0,15,0,0
359305,-100,2,1,0,15,0,0
359502,-54.6448087431694,2,1,0,15,0,0
359541,-100,2,1,0,15,0,0
359737,-54.6448087431694,2,1,0,15,0,0
359776,-100,2,1,0,15,0,0
359854,-54.6448087431694,2,1,0,15,0,0
359893,-100,2,1,0,15,0,0
359972,-54.6448087431694,2,1,0,15,0,0
360011,-100,2,1,0,15,0,0
360207,-54.6448087431694,2,1,0,15,0,0
360246,-100,2,1,0,15,0,0
360324,-54.6448087431694,2,1,0,15,0,0
360363,-100,2,1,0,15,0,0
360443,-54.6448087431694,2,1,0,15,0,0
360482,-100,2,1,0,15,0,0
360560,-54.6448087431694,2,1,0,15,0,0
360599,-100,2,1,0,15,0,0
360795,-54.6448087431694,2,1,0,15,0,0
360834,-100,2,1,0,15,0,0
360913,-54.6448087431694,2,1,0,15,0,0
360952,-100,2,1,0,15,0,0
361030,-54.6448087431694,2,1,0,15,0,0
361069,-100,2,1,0,15,0,0
361149,-54.6448087431694,2,1,0,15,0,0
361188,-100,2,1,0,15,0,0
361266,-54.6448087431694,2,1,0,15,0,0
361305,-100,2,1,0,15,0,0
361501,-54.6448087431694,2,1,0,15,0,0
361540,-100,2,1,0,15,0,0
361736,-54.6448087431694,2,1,0,15,0,0
361775,-100,2,1,0,15,0,0
361855,-54.6448087431694,2,1,0,15,0,0
361894,-100,2,1,0,15,0,0
361972,-54.6448087431694,2,1,0,15,0,0
362011,-100,2,1,0,15,0,0
362207,-54.6448087431694,2,1,0,15,0,0
362246,-100,2,1,0,15,0,0
362325,-54.6448087431694,2,1,0,15,0,0
362364,-100,2,1,0,15,0,0
362442,-54.6448087431694,2,1,0,15,0,0
362481,-100,2,1,0,15,0,0
362560,-54.6448087431694,2,1,0,15,0,0
362599,-100,2,1,0,15,0,0
362677,-54.6448087431694,2,1,0,15,0,0
362716,-100,2,1,0,15,0,0
362796,-54.6448087431694,2,1,0,15,0,0
362835,-100,2,1,0,15,0,0
362913,-66.6666666666667,2,1,0,15,0,0
362943,-100,2,1,0,15,0,0
362971,-66.6666666666667,2,1,0,15,0,0
363001,-100,2,1,0,15,0,0
363031,-66.6666666666667,2,1,0,15,0,0
363061,-100,2,1,0,15,0,0
363090,-66.6666666666667,2,1,0,15,0,0
363119,-100,2,1,0,15,0,0
363148,-54.6448087431694,2,1,0,15,0,0
363187,-100,2,1,0,15,0,0
363383,-54.6448087431694,2,1,0,15,0,0
363422,-100,2,1,0,15,0,0
363502,-54.6448087431694,2,1,0,15,0,0
363541,-100,2,1,0,15,0,0
363619,-54.6448087431694,2,1,0,15,0,0
363658,-100,2,1,0,15,0,0
363737,-54.6448087431694,2,1,0,15,0,0
363776,-100,2,1,0,15,0,0
363854,-54.6448087431694,2,1,0,15,0,0
363893,-100,2,1,0,15,0,0
364089,-54.6448087431694,2,1,0,15,0,0
364128,-100,2,1,0,15,0,0
364208,-54.6448087431694,2,1,0,15,0,0
364247,-100,2,1,0,15,0,0
364325,-46.189376443418,2,1,0,15,0,0
364364,-103.626943005181,2,1,0,15,0,0
364560,-46.189376443418,2,1,0,15,0,0
364599,-125,2,1,0,15,0,0
364678,-46.189376443418,2,1,0,15,0,0
364717,-125,2,1,0,15,0,0
364795,-46.189376443418,2,1,0,15,0,0
364834,-125,2,1,0,15,0,0
364913,-46.189376443418,2,1,0,15,0,0
364952,-103.626943005181,2,1,0,15,0,0
365149,-46.189376443418,2,1,0,15,0,0
365188,-103.626943005181,2,1,0,15,0,0
365384,-46.189376443418,2,1,0,15,0,0
365423,-125,2,1,0,15,0,0
365501,-46.189376443418,2,1,0,15,0,0
365540,-125,2,1,0,15,0,0
365619,-46.189376443418,2,1,0,15,0,0
365658,-125,2,1,0,15,0,0
365736,-46.189376443418,2,1,0,15,0,0
365775,-125,2,1,0,15,0,0
365855,-46.189376443418,2,1,0,15,0,0
365894,-103.626943005181,2,1,0,15,0,0
366090,-46.189376443418,2,1,0,15,0,0
366129,-103.626943005181,2,1,0,15,0,0
366325,-46.189376443418,2,1,0,15,0,0
366364,-125,2,1,0,15,0,0
366442,-46.189376443418,2,1,0,15,0,0
366481,-125,2,1,0,15,0,0
366561,-46.189376443418,2,1,0,15,0,0
366600,-125,2,1,0,15,0,0
366678,-46.189376443418,2,1,0,15,0,0
366717,-125,2,1,0,15,0,0
366796,-46.189376443418,2,1,0,15,0,0
366835,-125,2,1,0,15,0,0
366913,-46.189376443418,2,1,0,15,0,0
366952,-125,2,1,0,15,0,0
367031,-46.189376443418,2,1,0,15,0,0
367070,-125,2,1,0,15,0,0
367148,-46.189376443418,2,1,0,15,0,0
367187,-125,2,1,0,15,0,0
367266,-46.189376443418,2,1,0,15,0,0
367305,-125,2,1,0,15,0,0
367383,-46.189376443418,2,1,0,15,0,0
367422,-125,2,1,0,15,0,0
367502,-46.189376443418,2,1,0,15,0,0
367541,-125,2,1,0,15,0,0
367619,-46.189376443418,2,1,0,15,0,0
367658,-125,2,1,0,15,0,0
367737,-46.189376443418,2,1,0,15,0,0
367776,-125,2,1,0,15,0,0
367854,-46.189376443418,2,1,0,15,0,0
367893,-125,2,1,0,15,0,0
367971,-46.189376443418,2,1,0,15,0,0
368010,-125,2,1,0,15,0,0
368089,-46.189376443418,2,1,0,15,0,0
368128,-103.626943005181,2,1,0,15,0,0
368325,-46.189376443418,2,1,0,15,0,0
368364,-125,2,1,0,15,0,0
368442,-46.189376443418,2,1,0,15,0,0
368481,-125,2,1,0,15,0,0
368560,-46.189376443418,2,1,0,15,0,0
368599,-125,2,1,0,15,0,0
368677,-46.189376443418,2,1,0,15,0,0
368716,-125,2,1,0,15,0,0
368795,-46.189376443418,2,1,0,15,0,0
368834,-103.626943005181,2,1,0,15,0,0
369031,-46.189376443418,2,1,0,15,0,0
369070,-103.626943005181,2,1,0,15,0,0
369266,-46.189376443418,2,1,0,15,0,0
369305,-125,2,1,0,15,0,0
369383,-46.189376443418,2,1,0,15,0,0
369422,-125,2,1,0,15,0,0
369501,-46.189376443418,2,1,0,15,0,0
369540,-103.626943005181,2,1,0,15,0,0
369736,-46.189376443418,2,1,0,15,0,0
369775,-125,2,1,0,15,0,0
369853,-46.189376443418,2,1,0,15,0,0
369892,-125,2,1,0,15,0,0
369972,470.588235294589,4,1,0,15,1,0
369972,-54.6448087431694,2,1,0,15,0,0
370011,-120.481927710844,2,1,0,15,0,0
370089,-54.6448087431694,2,1,0,15,0,0
370128,-120.481927710844,2,1,0,15,0,0
370206,-66.6666666666667,2,1,0,15,0,0
370236,-120.481927710844,2,1,0,15,0,0
370266,-66.6666666666667,2,1,0,15,0,0
370295,-120.481927710844,2,1,0,15,0,0
370324,-54.6448087431694,2,1,0,15,0,0
370363,-120.481927710844,2,1,0,15,0,0
370441,-54.6448087431694,2,1,0,15,0,0
370480,-120.481927710844,2,1,0,15,0,0
370559,-66.6666666666667,2,1,0,15,0,0
370589,-120.481927710844,2,1,0,15,0,0
370618,-66.6666666666667,2,1,0,15,0,0
370648,-120.481927710844,2,1,0,15,0,0
370676,-66.6666666666667,2,1,0,15,0,0
370706,-120.481927710844,2,1,0,15,0,0
370736,-66.6666666666667,2,1,0,15,0,0
370766,-120.481927710844,2,1,0,15,0,0
370795,-54.6448087431694,2,1,0,15,0,0
370834,-120.481927710844,2,1,0,15,0,0
370912,-57.8034682080924,2,1,0,15,0,0
370951,-116.959064327485,2,1,0,15,0,0
371030,-61.3496932515338,2,1,0,15,0,0
371069,-113.636363636364,2,1,0,15,0,0
371147,-65.359477124183,2,1,0,15,0,0
371186,-110.497237569061,2,1,0,15,0,0
371265,-69.9300699300699,2,1,0,15,0,0
371304,-107.52688172043,2,1,0,15,0,0
371382,-75.187969924812,2,1,0,15,0,0
371421,-104.712041884817,2,1,0,15,0,0
371501,-81.3008130081301,2,1,0,15,0,0
371540,-102.040816326531,2,1,0,15,0,0
371618,-100,2,1,0,15,0,0
371823,-57.1428571428571,2,1,0,15,0,0
371853,470.588235294589,2,1,0,15,1,0
371853,-57.1428571428571,2,1,0,15,0,0
371881,-74.9999999999999,2,1,0,15,0,0
401970,472.440944882363,2,1,0,15,1,0
401970,-74.7058823529411,2,1,0,15,0,0
408584,463.320463320926,2,1,0,15,1,0
408584,-76.1764705882354,2,1,0,15,0,0
409510,454.54545454591,2,1,0,15,1,0
409510,-77.6470588235293,2,1,0,15,0,0
410419,413.79310344869,2,1,0,15,1,0
410419,-85.2941176470587,2,1,0,15,0,0
411245,389.61038961078,2,1,0,15,1,0
411245,-90.5882352941176,2,1,0,15,0,0
412025,363.636363636728,2,1,0,15,1,0
412025,-97.0588235294117,2,1,0,15,0,0
412752,340.909090909431,2,1,0,15,1,0
412752,-103.529411764706,2,1,0,15,0,0
413433,320.855614973583,2,1,0,15,1,0
413433,-110,2,1,0,15,0,0
414074,303.030303030606,2,1,0,15,1,0
414074,-116.470588235294,2,1,0,15,0,0
414680,285.714285714572,2,1,0,15,1,0
414680,-123.529411764706,2,1,0,15,0,0
415251,271.493212669954,2,1,0,15,1,0
415251,-130,2,1,0,15,0,0
415793,260.869565217652,2,1,0,15,1,0
415793,-135.294117647059,2,1,0,15,0,0
416314,250.00000000025,2,1,0,15,1,0
416314,-141.176470588236,2,1,0,15,0,0
416813,240.000000000241,2,1,0,15,1,0
416813,-147.058823529411,2,1,0,15,0,0
417294,230.769230769461,2,1,0,15,1,0
417294,-152.941176470588,2,1,0,15,0,0
417755,222.222222222445,2,1,0,15,1,0
417755,-158.823529411765,2,1,0,15,0,0
418199,206.896551724345,2,1,0,15,1,0
418199,-170.588235294118,2,1,0,15,0,0
418613,203.389830508678,2,1,0,15,1,0
418613,-173.529411764706,2,1,0,15,0,0
419018,200.0000000002,2,1,0,15,1,0
419018,-176.470588235294,2,1,0,15,0,0
419419,193.548387096967,2,1,0,15,1,0
419419,-182.352941176471,2,1,0,15,0,0
419805,181.818181818364,2,1,0,15,1,0
419805,-194.117647058823,2,1,0,15,0,0
420167,176.470588235471,2,1,0,15,1,0
420167,-199.999999999999,2,1,0,15,0,0
420520,173.913043478435,2,1,0,15,1,0
420520,-202.941176470588,2,1,0,15,0,0
420867,169.014084507211,2,1,0,15,1,0
420867,-208.823529411765,2,1,0,15,0,0
421205,162.162162162325,2,1,0,15,1,0
421205,-217.647058823529,2,1,0,15,0,0
421528,157.894736842262,2,1,0,15,1,0
421528,-223.529411764707,2,1,0,15,0,0
421844,153.846153846307,2,1,0,15,1,0
421844,-229.411764705883,2,1,0,15,0,0
422151,148.148148148296,2,1,0,15,1,0
422151,-238.235294117647,2,1,0,15,0,0
422448,144.578313253157,2,1,0,15,1,0
422448,-244.117647058823,2,1,0,15,0,0
422736,142.857142857286,2,1,0,15,1,0
422736,-247.058823529412,2,1,0,15,0,0
423021,137.931034482896,2,1,0,15,1,0
423021,-255.882352941177,2,1,0,15,0,0
423296,133.333333333466,2,1,0,15,1,0
423296,-264.705882352943,2,1,0,15,0,0
423562,130.434782608826,2,1,0,15,1,0
423562,-270.588235294118,2,1,0,15,0,0
423822,129.032258064645,2,1,0,15,1,0
423822,-273.529411764706,2,1,0,15,0,0
424080,126.31578947381,2,1,0,15,1,0
424080,-279.411764705883,2,1,0,15,0,0
424333,123.71134020631,2,1,0,15,1,0
424333,-285.294117647058,2,1,0,15,0,0
424580,240.000000000241,1,1,0,15,1,0
424580,-147.058823529411,1,1,0,15,0,0
424819,235.294117647294,1,1,0,15,1,0
424819,-150,1,1,0,15,0,0
425054,230.769230769461,1,1,0,15,1,0
425054,-152.941176470588,1,1,0,15,0,0
425284,226.415094339849,1,1,0,15,1,0
425284,-155.882352941177,1,1,0,15,0,0
425510,222.222222222445,1,1,0,15,1,0
425510,-158.823529411765,1,1,0,15,0,0
425731,218.181818182037,1,1,0,15,1,0
425731,-161.290322580645,1,1,0,15,0,0
425950,214.285714285929,1,1,0,15,1,0
425950,-163.934426229508,1,1,0,15,0,0
426164,210.526315789685,1,1,0,15,1,0
426164,-166.666666666667,1,1,0,15,0,0
426374,206.896551724345,1,1,0,15,1,0
426374,-169.491525423729,1,1,0,15,0,0
426580,203.389830508678,1,1,0,15,1,0
426580,-172.413793103448,1,1,0,15,0,0
426783,200.0000000002,1,1,0,15,1,0
426783,-175.438596491228,1,1,0,15,0,0
426983,193.548387096967,1,1,0,15,1,0
426983,-178.571428571429,1,1,0,15,0,0
427176,187.500000000187,1,1,0,15,1,0
427176,-181.818181818182,1,1,0,15,0,0
427363,184.61538461557,1,1,0,15,1,0
427363,-185.185185185185,1,1,0,15,0,0
427547,181.818181818364,1,1,0,15,1,0
427547,-188.679245283019,1,1,0,15,0,0
427728,179.104477612119,1,1,0,15,1,0
427728,-192.307692307692,1,1,0,15,0,0
427908,176.470588235471,1,1,0,15,1,0
427908,-196.078431372549,1,1,0,15,0,0
428083,173.913043478435,1,1,0,15,1,0
428083,-200,1,1,0,15,0,0
428256,171.428571428743,1,1,0,15,1,0
428256,-188.679245283019,1,1,0,15,0,0
428428,166.666666666833,1,1,0,15,1,0
428428,-178.571428571429,1,1,0,15,0,0
428593,157.894736842262,1,1,0,15,1,0
428593,-185.185185185185,1,1,0,15,0,0
428750,142.857142857286,1,1,0,15,1,0
428750,-192.307692307692,1,1,0,15,0,0
428892,133.333333333466,1,1,0,15,1,0
428892,-200,1,1,0,15,0,0
429026,127.659574468213,1,1,0,15,1,0
429026,-204.081632653061,1,1,0,15,0,0
429152,125.000000000125,1,1,0,15,1,0
429152,-208.333333333333,1,1,0,15,0,0
429276,123.71134020631,1,1,0,15,1,0
429276,-212.765957446809,1,1,0,15,0,0
429400,120.00000000012,1,1,0,15,1,0
429400,-217.391304347826,1,1,0,15,0,0
429520,114.285714285828,1,1,0,15,1,0
429520,-222.222222222222,1,1,0,15,0,0
429634,104.347826087061,1,1,0,15,1,0
429634,-222.222222222222,1,1,0,15,0,0
429738,92.3076923077846,1,1,0,15,1,0
429738,-227.272727272727,1,1,0,15,0,0
429830,96.7741935484838,1,1,0,15,1,0
429830,-227.272727272727,1,1,0,15,0,0
429926,100.0000000001,1,1,0,15,1,0
429926,-232.558139534884,1,1,0,15,0,0
430027,101.694915254339,1,1,0,15,1,0
430027,-232.558139534884,1,1,0,15,0,0
430127,102.564102564206,1,1,0,15,1,0
430127,-238.095238095238,1,1,0,15,0,0
430229,101.694915254339,1,1,0,15,1,0
430229,-238.095238095238,1,1,0,15,0,0
430329,100.840336134555,1,1,0,15,1,0
430329,-243.90243902439,1,1,0,15,0,0
430430,100.0000000001,1,1,0,15,1,0
430430,-243.90243902439,1,1,0,15,0,0
430530,99.1735537191075,1,1,0,15,1,0
430530,-250,1,1,0,15,0,0
430628,97.5609756098537,1,1,0,15,1,0
430628,-250,1,1,0,15,0,0
430726,92.3076923077846,1,1,0,15,1,0
430726,-256.410256410256,1,1,0,15,0,0
430818,85.7142857143714,1,1,0,15,1,0
430818,-256.410256410256,1,1,0,15,0,0
430903,82.7586206897379,1,1,0,15,1,0
430903,-263.157894736842,1,1,0,15,0,0
430985,83.3333333334167,1,1,0,15,1,0
430985,-263.157894736842,1,1,0,15,0,0
431068,83.9160839161678,1,1,0,15,1,0
431068,-270.27027027027,1,1,0,15,0,0
431151,84.5070422536057,1,1,0,15,1,0
431151,-270.27027027027,1,1,0,15,0,0
431236,83.9160839161678,1,1,0,15,1,0
431236,-277.777777777778,1,1,0,15,0,0
431317,82.7586206897379,1,1,0,15,1,0
431317,-277.777777777778,1,1,0,15,0,0
431399,81.0810810811622,1,1,0,15,1,0
431399,-285.714285714286,1,1,0,15,0,0
431481,75.9493670886836,1,1,0,15,1,0
431481,-285.714285714286,1,1,0,15,0,0
431555,70.5882352941883,1,1,0,15,1,0
431555,-294.117647058824,1,1,0,15,0,0
431626,68.5714285714972,1,1,0,15,1,0
431626,-303.030303030303,1,1,0,15,0,0
431694,66.6666666667334,1,1,0,15,1,0
431694,-312.5,1,1,0,15,0,0
431759,64.8648648649297,1,1,0,15,1,0
431759,-322.58064516129,1,1,0,15,0,0
431824,66.6666666667334,1,1,0,15,1,0
431824,-333.333333333333,1,1,0,15,0,0
431889,68.5714285714972,1,1,0,15,1,0
431889,-344.827586206897,1,1,0,15,0,0
431958,69.7674418605348,1,1,0,15,1,0
431958,-357.142857142857,1,1,0,15,0,0
432027,70.5882352941883,1,1,0,15,1,0
432027,-370.37037037037,1,1,0,15,0,0
432097,66.6666666667334,1,1,0,15,1,0
432097,-384.615384615385,1,1,0,15,0,0
432162,61.538461538523,1,1,0,15,1,0
432162,-400,1,1,0,15,0,0
432224,55.8139534884279,1,1,0,15,1,0
432224,-400,1,1,0,15,0,0
432279,54.545454545509,1,1,0,15,1,0
432279,-416.666666666667,1,1,0,15,0,0
432333,52.1739130435305,1,1,0,15,1,0
432333,-416.666666666667,1,1,0,15,0,0
432385,50.0000000000501,1,1,0,15,1,0
432385,-434.782608695652,1,1,0,15,0,0
432435,51.0638297872851,1,1,0,15,1,0
432435,-434.782608695652,1,1,0,15,0,0
432486,52.1739130435305,1,1,0,15,1,0
432486,-454.545454545455,1,1,0,15,0,0
432538,54.545454545509,1,1,0,15,1,0
432538,-454.545454545455,1,1,0,15,0,0
432591,60.0000000000601,1,1,0,15,1,0
432591,-476.190476190476,1,1,0,15,0,0
432653,58.5365853659122,1,1,0,15,1,0
432653,-476.190476190476,1,1,0,15,0,0
432710,55.8139534884279,1,1,0,15,1,0
432710,-500,1,1,0,15,0,0
432764,52.1739130435305,1,1,0,15,1,0
432764,-500,1,1,0,15,0,0
432816,48.000000000048,1,1,0,15,1,0
432816,-476.190476190476,1,1,0,15,0,0
432864,45.2830188679698,1,1,0,15,1,0
432864,-454.545454545455,1,1,0,15,0,0
432910,43.6363636364072,1,1,0,15,1,0
432910,-434.782608695652,1,1,0,15,0,0
432953,42.8571428571858,1,1,0,15,1,0
432953,-416.666666666667,1,1,0,15,0,0
432994,42.1052631579368,1,1,0,15,1,0
432994,-400,1,1,0,15,0,0
433037,40.6779661017355,1,1,0,15,1,0
433037,-384.615384615385,1,1,0,15,0,0
433076,38.7096774193935,1,1,0,15,1,0
433076,-370.37037037037,1,1,0,15,0,0
433115,36.3636363636728,1,1,0,15,1,0
433115,-357.142857142857,1,1,0,15,0,0
433150,34.782608695687,1,1,0,15,1,0
433150,-344.827586206897,1,1,0,15,0,0
433186,33.8028169014422,1,1,0,15,1,0
433186,-333.333333333333,1,1,0,15,0,0
433218,33.3333333333666,1,1,0,15,1,0
433218,-312.5,1,1,0,15,0,0
433251,32.8767123287999,1,1,0,15,1,0
433251,-294.117647058824,1,1,0,15,0,0
433283,32.000000000032,1,1,0,15,1,0
433283,-277.777777777778,1,1,0,15,0,0
433316,31.1688311688624,1,1,0,15,1,0
433316,-263.157894736842,1,1,0,15,0,0
433345,30.3797468354733,1,1,0,15,1,0
433345,-250,1,1,0,15,0,0
433375,30.00000000003,1,1,0,15,1,0
433375,-222.222222222222,1,1,0,15,0,0
433407,29.8210735586779,1,1,0,15,1,0
433407,-200,1,1,0,15,0,0
434449,29.8210735586779,1,1,0,15,1,0
434449,-1183.52941176471,1,1,0,15,0,0
437890,352.941176470941,4,1,0,15,1,0
437890,-1000,4,1,0,15,0,0
437955,-27.027027027027,4,1,0,15,0,0
437977,29.8210735586779,1,1,0,15,1,0
437977,-1183.52941176471,1,1,0,15,0,0
438241,352.941176470941,4,1,0,15,1,0
438241,-1000,4,1,0,15,0,0
438306,-27.027027027027,4,1,0,15,0,0
438328,29.8210735586779,1,1,0,15,1,0
438328,-1183.52941176471,1,1,0,15,0,0
438594,352.941176470941,4,1,0,15,1,0
438594,-1000,4,1,0,15,0,0
438659,-27.027027027027,4,1,0,15,0,0
438681,29.8210735586779,1,1,0,15,1,0
438681,-1183.52941176471,1,1,0,15,0,0
438769,352.941176470941,4,1,0,15,1,0
438769,-1000,4,1,0,15,0,0
438834,-27.027027027027,4,1,0,15,0,0
438856,29.8210735586779,1,1,0,15,1,0
438856,-1183.52941176471,1,1,0,15,0,0
438945,352.941176470941,4,1,0,15,1,0
438945,-1000,4,1,0,15,0,0
439010,-27.027027027027,4,1,0,15,0,0
439032,29.8210735586779,1,1,0,15,1,0
439032,-1183.52941176471,1,1,0,15,0,0
439297,352.941176470941,4,1,0,15,1,0
439297,-1000,4,1,0,15,0,0
439362,-27.027027027027,4,1,0,15,0,0
439381,29.8210735586779,1,1,0,15,1,0
439381,-1183.52941176471,1,1,0,15,0,0
439649,352.941176470941,4,1,0,15,1,0
439649,-1000,4,1,0,15,0,0
439714,-27.027027027027,4,1,0,15,0,0
439736,29.8210735586779,1,1,0,15,1,0
439736,-1183.52941176471,1,1,0,15,0,0
440000,352.941176470941,4,1,0,15,1,0
440000,-1000,4,1,0,15,0,0
440065,-27.027027027027,4,1,0,15,0,0
440087,29.8210735586779,1,1,0,15,1,0
440087,-1183.52941176471,1,1,0,15,0,0
440176,352.941176470941,4,1,0,15,1,0
440176,-1000,4,1,0,15,0,0
440241,-27.027027027027,4,1,0,15,0,0
440263,29.8210735586779,1,1,0,15,1,0
440263,-1183.52941176471,1,1,0,15,0,0
440352,352.941176470941,4,1,0,15,1,0
440352,-1000,4,1,0,15,0,0
440417,-27.027027027027,4,1,0,15,0,0
440440,29.8210735586779,1,1,0,15,1,0
440440,-1183.52941176471,1,1,0,15,0,0
440705,352.941176470941,4,1,0,15,1,0
440705,-1000,4,1,0,15,0,0
440770,-27.027027027027,4,1,0,15,0,0
440792,29.8210735586779,1,1,0,15,1,0
440792,-1183.52941176471,1,1,0,15,0,0
441057,352.941176470941,4,1,0,15,1,0
441057,-1000,4,1,0,15,0,0
441122,-27.027027027027,4,1,0,15,0,0
441144,29.8210735586779,1,1,0,15,1,0
441144,-1183.52941176471,1,1,0,15,0,0
441408,352.941176470941,4,1,0,15,1,0
441408,-1000,4,1,0,15,0,0
441473,-27.027027027027,4,1,0,15,0,0
441495,29.8210735586779,1,1,0,15,1,0
441495,-1183.52941176471,1,1,0,15,0,0
441584,352.941176470941,4,1,0,15,1,0
441584,-1000,4,1,0,15,0,0
441649,-27.027027027027,4,1,0,15,0,0
441671,29.8210735586779,1,1,0,15,1,0
441671,-1183.52941176471,1,1,0,15,0,0
441760,352.941176470941,4,1,0,15,1,0
441760,-1000,4,1,0,15,0,0
441825,-27.027027027027,4,1,0,15,0,0
441847,29.8210735586779,1,1,0,15,1,0
441847,-1183.52941176471,1,1,0,15,0,0
442113,352.941176470941,4,1,0,15,1,0
442113,-1000,4,1,0,15,0,0
442178,-27.027027027027,4,1,0,15,0,0
442200,29.8210735586779,1,1,0,15,1,0
442200,-1183.52941176471,1,1,0,15,0,0
442465,352.941176470941,4,1,0,15,1,0
442465,-1000,4,1,0,15,0,0
442530,-27.027027027027,4,1,0,15,0,0
442552,29.8210735586779,1,1,0,15,1,0
442552,-1183.52941176471,1,1,0,15,0,0
442817,352.941176470941,4,1,0,15,1,0
442817,-1000,4,1,0,15,0,0
442882,-27.027027027027,4,1,0,15,0,0
442904,29.8210735586779,1,1,0,15,1,0
442904,-1183.52941176471,1,1,0,15,0,0
442949,352.941176470941,4,1,0,15,1,0
442949,-1000,4,1,0,15,0,0
442969,-52.6315789473684,4,1,0,15,0,0
442991,29.8210735586779,1,1,0,15,1,0
442991,-1183.52941176471,1,1,0,15,0,0
443036,352.941176470941,4,1,0,15,1,0
443036,-1000,4,1,0,15,0,0
443056,-52.6315789473684,4,1,0,15,0,0
443079,29.8210735586779,1,1,0,15,1,0
443079,-1183.52941176471,1,1,0,15,0,0
443123,352.941176470941,4,1,0,15,1,0
443123,-1000,4,1,0,15,0,0
443144,-52.6315789473684,4,1,0,15,0,0
443166,29.8210735586779,1,1,0,15,1,0
443166,-1183.52941176471,1,1,0,15,0,0
443210,352.941176470941,4,1,0,15,1,0
443210,-100,4,1,0,15,0,0
443270,29.8210735586779,1,1,0,15,1,0
443270,-1183.52941176471,1,1,0,15,0,0
443534,352.941176470941,4,1,0,15,1,0
443534,-1000,4,1,0,15,0,0
443599,-27.027027027027,4,1,0,15,0,0
443621,29.8210735586779,1,1,0,15,1,0
443621,-1183.52941176471,1,1,0,15,0,0
443886,352.941176470941,4,1,0,15,1,0
443886,-1000,4,1,0,15,0,0
443951,-27.027027027027,4,1,0,15,0,0
443973,29.8210735586779,1,1,0,15,1,0
443973,-1183.52941176471,1,1,0,15,0,0
444238,352.941176470941,4,1,0,15,1,0
444238,-1000,4,1,0,15,0,0
444303,-27.027027027027,4,1,0,15,0,0
444325,29.8210735586779,1,1,0,15,1,0
444325,-1183.52941176471,1,1,0,15,0,0
444414,352.941176470941,4,1,0,15,1,0
444414,-1000,4,1,0,15,0,0
444479,-27.027027027027,4,1,0,15,0,0
444501,29.8210735586779,1,1,0,15,1,0
444501,-1183.52941176471,1,1,0,15,0,0
444589,352.941176470941,4,1,0,15,1,0
444589,-1000,4,1,0,15,0,0
444654,-27.027027027027,4,1,0,15,0,0
444676,29.8210735586779,1,1,0,15,1,0
444676,-1183.52941176471,1,1,0,15,0,0
444941,352.941176470941,4,1,0,15,1,0
444941,-1000,4,1,0,15,0,0
445006,-27.027027027027,4,1,0,15,0,0
445029,29.8210735586779,1,1,0,15,1,0
445029,-1183.52941176471,1,1,0,15,0,0
445294,352.941176470941,4,1,0,15,1,0
445294,-1000,4,1,0,15,0,0
445359,-27.027027027027,4,1,0,15,0,0
445381,29.8210735586779,1,1,0,15,1,0
445381,-1183.52941176471,1,1,0,15,0,0
445646,352.941176470941,4,1,0,15,1,0
445646,-1000,4,1,0,15,0,0
445711,-27.027027027027,4,1,0,15,0,0
445733,-33.3333333333333,4,1,0,15,0,0
445755,-133.333333333333,4,1,0,15,0,0
445998,352.941176470941,4,1,0,15,1,0
445998,-1000,4,1,0,15,0,0
446063,-27.027027027027,4,1,0,15,0,0
446085,29.8210735586779,1,1,0,15,1,0
446085,-1183.52941176471,1,1,0,15,0,0
446351,352.941176470941,4,1,0,15,1,0
446351,-1000,4,1,0,15,0,0
446416,-27.027027027027,4,1,0,15,0,0
446438,29.8210735586779,1,1,0,15,1,0
446438,-1183.52941176471,1,1,0,15,0,0
446703,352.941176470941,4,1,0,15,1,0
446703,-1000,4,1,0,15,0,0
446768,-27.027027027027,4,1,0,15,0,0
446790,29.8210735586779,1,1,0,15,1,0
446790,-1183.52941176471,1,1,0,15,0,0
447055,352.941176470941,4,1,0,15,1,0
447055,-100,4,1,0,15,0,0
447142,29.8210735586779,1,1,0,15,1,0
447142,-1183.52941176471,1,1,0,15,0,0
447187,352.941176470941,4,1,0,15,1,0
447187,-100,4,1,0,15,0,0
447229,29.8210735586779,1,1,0,15,1,0
447229,-1183.52941176471,1,1,0,15,0,0
447274,352.941176470941,4,1,0,15,1,0
447274,-100,4,1,0,15,0,0
447317,29.8210735586779,1,1,0,15,1,0
447317,-1183.52941176471,1,1,0,15,0,0
447361,352.941176470941,4,1,0,15,1,0
447361,-100,4,1,0,15,0,0
447404,29.8210735586779,1,1,0,15,1,0
447404,-1183.52941176471,1,1,0,15,0,0
447448,352.941176470941,4,1,0,15,1,0
447448,-100,4,1,0,15,0,0
447488,29.8210735586779,1,1,0,15,1,0
447488,-1183.52941176471,1,1,0,15,0,0
447756,352.941176470941,4,1,0,15,1,0
447756,-100,4,1,0,15,0,0
447756,-1000,4,1,0,15,0,0
447821,-27.027027027027,4,1,0,15,0,0
447843,29.8210735586779,1,1,0,15,1,0
447843,-1183.52941176471,1,1,0,15,0,0
448108,352.941176470941,4,1,0,15,1,0
448108,-1000,4,1,0,15,0,0
448108,-100,4,1,0,15,0,0
448173,-27.027027027027,4,1,0,15,0,0
448195,352.941176470941,4,1,0,15,1,0
448195,-100,4,1,0,15,0,0
448900,29.8210735586779,1,1,0,15,1,0
448900,-285.714285714286,1,1,0,15,0,0
448919,-1183.52941176471,1,1,0,15,0,0
449135,352.941176470941,4,1,0,15,1,0
449135,-100,4,1,0,15,0,0
449267,29.8210735586779,1,1,0,15,1,0
449267,-285.714285714286,1,1,0,15,0,0
449286,-1183.52941176471,1,1,0,15,0,0
449481,352.941176470941,4,1,0,15,1,0
449481,-100,4,1,0,15,0,0
449605,29.8210735586779,1,1,0,15,1,0
449605,-285.714285714286,1,1,0,15,0,0
449624,-1183.52941176471,1,1,0,15,0,0
449840,352.941176470941,4,1,0,15,1,0
449840,-100,4,1,0,15,0,0
449963,29.8210735586779,1,1,0,15,1,0
449963,-285.714285714286,1,1,0,15,0,0
449973,-1183.52941176471,1,1,0,15,0,0
450141,-285.714285714286,1,1,0,15,0,0
450151,-1183.52941176471,1,1,0,15,0,0
450192,352.941176470941,4,1,0,15,1,0
450192,-100,4,1,0,15,0,0
450309,29.8210735586779,1,1,0,15,1,0
450309,-285.714285714286,1,1,0,15,0,0
450329,-1183.52941176471,1,1,0,15,0,0
450544,352.941176470941,4,1,0,15,1,0
450544,-100,4,1,0,15,0,0
450661,29.8210735586779,1,1,0,15,1,0
450661,-285.714285714286,1,1,0,15,0,0
450681,-1183.52941176471,1,1,0,15,0,0
450897,352.941176470941,4,1,0,15,1,0
450897,-100,4,1,0,15,0,0
451014,29.8210735586779,1,1,0,15,1,0
451014,-285.714285714286,1,1,0,15,0,0
451033,-1183.52941176471,1,1,0,15,0,0
451249,352.941176470941,4,1,0,15,1,0
451249,-100,4,1,0,15,0,0
451718,29.8210735586779,1,1,0,15,1,0
451718,-1183.52941176471,1,1,0,15,0,0
452198,352.941176470941,4,1,0,15,1,0
452198,-100,4,1,0,15,0,0
452315,29.8210735586779,1,1,0,15,1,0
452315,-1183.52941176471,1,1,0,15,0,0
452345,352.941176470941,4,1,0,15,1,0
452345,-100,4,1,0,15,0,0
452432,29.8210735586779,1,1,0,15,1,0
452432,-1183.52941176471,1,1,0,15,0,0
452492,352.941176470941,4,1,0,15,1,0
452492,-100,4,1,0,15,0,0
452609,29.8210735586779,1,1,0,15,1,0
452609,-1183.52941176471,1,1,0,15,0,0
452667,352.941176470941,4,1,0,15,1,0
452667,-100,4,1,0,15,0,0
452784,29.8210735586779,1,1,0,15,1,0
452784,-1183.52941176471,1,1,0,15,0,0
453078,352.941176470941,4,1,0,15,1,0
453078,-100,4,1,0,15,0,0
453137,29.8210735586779,1,1,0,15,1,0
453137,-1183.52941176471,1,1,0,15,0,0
453165,352.941176470941,4,1,0,15,1,0
453165,-100,4,1,0,15,0,0
453224,29.8210735586779,1,1,0,15,1,0
453224,-1183.52941176471,1,1,0,15,0,0
453252,352.941176470941,4,1,0,15,1,0
453252,-100,4,1,0,15,0,0
453311,29.8210735586779,1,1,0,15,1,0
453311,-1183.52941176471,1,1,0,15,0,0
453339,352.941176470941,4,1,0,15,1,0
453339,-100,4,1,0,15,0,0
453398,29.8210735586779,1,1,0,15,1,0
453398,-1183.52941176471,1,1,0,15,0,0
453427,352.941176470941,4,1,0,15,1,0
453427,-100,4,1,0,15,0,0
453485,29.8210735586779,1,1,0,15,1,0
453485,-1183.52941176471,1,1,0,15,0,0
453544,352.941176470941,4,1,0,15,1,0
453544,-100,4,1,0,15,0,0
453661,29.8210735586779,1,1,0,15,1,0
453661,-1183.52941176471,1,1,0,15,0,0
453749,352.941176470941,4,1,0,15,1,0
453749,-100,4,1,0,15,0,0
453836,29.8210735586779,1,1,0,15,1,0
453836,-1183.52941176471,1,1,0,15,0,0
453866,352.941176470941,4,1,0,15,1,0
453866,-100,4,1,0,15,0,0
454013,29.8210735586779,1,1,0,15,1,0
454013,-1183.52941176471,1,1,0,15,0,0
454041,352.941176470941,4,1,0,15,1,0
454041,-100,4,1,0,15,0,0
454188,29.8210735586779,1,1,0,15,1,0
454188,-1183.52941176471,1,1,0,15,0,0
454305,352.941176470941,4,1,0,15,1,0
454305,-100,4,1,0,15,0,0
454364,29.8210735586779,1,1,0,15,1,0
454364,-1183.52941176471,1,1,0,15,0,0
454422,352.941176470941,4,1,0,15,1,0
454422,-100,4,1,0,15,0,0
454563,352.941176470941,4,1,0,15,1,0
454563,-66.6666666666667,4,1,0,15,0,0
454584,-181.818181818182,4,1,0,15,0,0
454606,-60.6060606060606,4,1,0,15,0,0
454626,-181.818181818182,4,1,0,15,0,0
454650,-54.054054054054,4,1,0,15,0,0
454671,-181.818181818182,4,1,0,15,0,0
454694,-50,4,1,0,15,0,0
454715,-181.818181818182,4,1,0,15,0,0
454738,-47.6190476190476,4,1,0,15,0,0
454759,-181.818181818182,4,1,0,15,0,0
454782,-47.6190476190476,4,1,0,15,0,0
454803,-181.818181818182,4,1,0,15,0,0
454827,-48.780487804878,4,1,0,15,0,0
454847,-181.818181818182,4,1,0,15,0,0
454871,-51.2820512820513,4,1,0,15,0,0
454892,-181.818181818182,4,1,0,15,0,0
454915,-54.054054054054,4,1,0,15,0,0
454936,-181.818181818182,4,1,0,15,0,0
454959,-57.1428571428571,4,1,0,15,0,0
454980,-181.818181818182,4,1,0,15,0,0
455003,-60.6060606060606,4,1,0,15,0,0
455024,-181.818181818182,4,1,0,15,0,0
455048,-66.6666666666667,4,1,0,15,0,0
455068,-181.818181818182,4,1,0,15,0,0
455092,-100,4,1,0,15,0,0
455267,-181.818181818182,4,1,0,15,0,0
455422,-24.0963855421687,4,1,0,15,0,0
455444,-100,4,1,0,15,0,0
455621,-24.0963855421687,4,1,0,15,0,0
455643,-181.818181818182,4,1,0,15,0,0
455798,-100,4,1,0,15,0,0
455973,-70.1754385964912,4,1,0,15,0,0
456017,-181.818181818182,4,1,0,15,0,0
456062,-76.9230769230769,4,1,0,15,0,0
456106,-181.818181818182,4,1,0,15,0,0
456150,-81.6326530612245,4,1,0,15,0,0
456194,-181.818181818182,4,1,0,15,0,0
456238,-86.9565217391304,4,1,0,15,0,0
456283,-181.818181818182,4,1,0,15,0,0
456327,-100,4,1,0,15,0,0
457033,-105.263157894737,4,1,0,15,0,0
457210,-111.111111111111,4,1,0,15,0,0
457385,-66.6666666666667,4,1,0,15,0,0
457406,-181.818181818182,4,1,0,15,0,0
457428,-68.259385665529,4,1,0,15,0,0
457449,-181.818181818182,4,1,0,15,0,0
457472,-69.9300699300699,4,1,0,15,0,0
457493,-181.818181818182,4,1,0,15,0,0
457516,-71.6845878136201,4,1,0,15,0,0
457537,-181.818181818182,4,1,0,15,0,0
457561,-73.5294117647059,4,1,0,15,0,0
457581,-181.818181818182,4,1,0,15,0,0
457605,-75.4716981132075,4,1,0,15,0,0
457626,-181.818181818182,4,1,0,15,0,0
457649,-77.5193798449612,4,1,0,15,0,0
457670,-181.818181818182,4,1,0,15,0,0
457693,-79.6812749003984,4,1,0,15,0,0
457714,-181.818181818182,4,1,0,15,0,0
457737,-81.9672131147541,4,1,0,15,0,0
457758,-181.818181818182,4,1,0,15,0,0
457782,-84.3881856540084,4,1,0,15,0,0
457802,-181.818181818182,4,1,0,15,0,0
457826,-86.9565217391304,4,1,0,15,0,0
457847,-181.818181818182,4,1,0,15,0,0
457870,-88.8888888888889,4,1,0,15,0,0
457891,-181.818181818182,4,1,0,15,0,0
457914,-100,4,1,0,15,0,0
458091,-160,4,1,0,15,0,0
458246,-27.5862068965517,4,1,0,15,0,0
458268,-100,4,1,0,15,0,0
458445,-27.5862068965517,4,1,0,15,0,0
458467,-160,4,1,0,15,0,0
458621,-100,4,1,0,15,0,0
458797,-70.1754385964912,4,1,0,15,0,0
458829,-181.818181818182,4,1,0,15,0,0
458885,-74.0740740740741,4,1,0,15,0,0
458918,-181.818181818182,4,1,0,15,0,0
458974,-78.4313725490196,4,1,0,15,0,0
459006,-181.818181818182,4,1,0,15,0,0
459062,-83.3333333333333,4,1,0,15,0,0
459095,-181.818181818182,4,1,0,15,0,0
459150,-100,4,1,0,15,0,0
459327,-18.1818181818182,4,1,0,15,0,0
459349,-181.818181818182,4,1,0,15,0,0
459503,-100,4,1,0,15,0,0
459856,-80,4,1,0,15,0,0
459901,-133.333333333333,4,1,0,15,0,0
459945,-80,4,1,0,15,0,0
459989,-133.333333333333,4,1,0,15,0,0
460033,-80,4,1,0,15,0,0
460077,-133.333333333333,4,1,0,15,0,0
460122,-80,4,1,0,15,0,0
460166,-133.333333333333,4,1,0,15,0,0
460209,-80,4,1,0,15,0,0
460239,-133.333333333333,4,1,0,15,0,0
460268,-80,4,1,0,15,0,0
460298,-133.333333333333,4,1,0,15,0,0
460327,-80,4,1,0,15,0,0
460357,-133.333333333333,4,1,0,15,0,0
460385,-80,4,1,0,15,0,0
460415,-133.333333333333,4,1,0,15,0,0
460444,-100,4,1,0,15,0,0
460915,-181.818181818182,4,1,0,15,0,0
461069,-24.0963855421687,4,1,0,15,0,0
461091,-100,4,1,0,15,0,0
461268,-24.0963855421687,4,1,0,15,0,0
461290,-181.818181818182,4,1,0,15,0,0
461445,-100,4,1,0,15,0,0
461620,-64.5161290322581,4,1,0,15,0,0
461665,-181.818181818182,4,1,0,15,0,0
461709,-64.5161290322581,4,1,0,15,0,0
461753,-181.818181818182,4,1,0,15,0,0
461797,-64.5161290322581,4,1,0,15,0,0
461841,-181.818181818182,4,1,0,15,0,0
461886,-64.5161290322581,4,1,0,15,0,0
461930,-181.818181818182,4,1,0,15,0,0
461974,-100,4,1,0,15,0,0
462151,-64.5161290322581,4,1,0,15,0,0
462195,-181.818181818182,4,1,0,15,0,0
462238,-100,4,1,0,15,0,0
462326,-64.5161290322581,4,1,0,15,0,0
462371,-181.818181818182,4,1,0,15,0,0
462415,-100,4,1,0,15,0,0
462680,-97.5609756097561,4,1,0,15,0,0
462857,-95.2380952380952,4,1,0,15,0,0
463032,-93.0232558139535,4,1,0,15,0,0
463076,-92.1658986175115,4,1,0,15,0,0
463121,-91.324200913242,4,1,0,15,0,0
463165,-90.4977375565611,4,1,0,15,0,0
463209,-89.6860986547085,4,1,0,15,0,0
463253,-88.8888888888889,4,1,0,15,0,0
463297,-88.1057268722467,4,1,0,15,0,0
463342,-87.3362445414847,4,1,0,15,0,0
463386,-100,4,1,0,15,0,0
463444,-160,4,1,0,15,0,0
463533,-50,4,1,0,15,0,0
463563,-160,4,1,0,15,0,0
463651,-50,4,1,0,15,0,0
463680,-160,4,1,0,15,0,0
463710,-72.7272727272727,4,1,0,15,0,0
463738,-100,4,1,0,15,0,0
464092,-86.9565217391304,4,1,0,15,0,0
464114,-117.647058823529,4,1,0,15,0,0
464136,-86.9565217391304,4,1,0,15,0,0
464158,-117.647058823529,4,1,0,15,0,0
464180,-86.9565217391304,4,1,0,15,0,0
464202,-117.647058823529,4,1,0,15,0,0
464224,-86.9565217391304,4,1,0,15,0,0
464246,-117.647058823529,4,1,0,15,0,0
464269,-86.9565217391304,4,1,0,15,0,0
464291,-117.647058823529,4,1,0,15,0,0
464444,-50,4,1,0,15,0,0
464466,-181.818181818182,4,1,0,15,0,0
464532,-44.4444444444445,4,1,0,15,0,0
464555,-181.818181818182,4,1,0,15,0,0
464621,-36.3636363636363,4,1,0,15,0,0
464643,-181.818181818182,4,1,0,15,0,0
464709,-40,4,1,0,15,0,0
464731,-181.818181818182,4,1,0,15,0,0
464798,-100,4,1,0,15,0,0
464974,-68.9655172413793,4,1,0,15,0,0
464997,-181.818181818182,4,1,0,15,0,0
465017,-68.9655172413793,4,1,0,15,0,0
465039,-181.818181818182,4,1,0,15,0,0
465062,-100,4,1,0,15,0,0
465106,-68.9655172413793,4,1,0,15,0,0
465128,-181.818181818182,4,1,0,15,0,0
465150,-95.2380952380952,4,1,0,15,0,0
465327,-90.9090909090909,4,1,0,15,0,0
465504,-95.2380952380952,4,1,0,15,0,0
465680,-100,4,1,0,15,0,0
465856,-66.6666666666667,4,1,0,15,0,0
465877,-181.818181818182,4,1,0,15,0,0
465899,-60.6060606060606,4,1,0,15,0,0
465920,-181.818181818182,4,1,0,15,0,0
465943,-54.054054054054,4,1,0,15,0,0
465964,-181.818181818182,4,1,0,15,0,0
465987,-50,4,1,0,15,0,0
466008,-181.818181818182,4,1,0,15,0,0
466031,-47.6190476190476,4,1,0,15,0,0
466052,-181.818181818182,4,1,0,15,0,0
466076,-47.6190476190476,4,1,0,15,0,0
466096,-181.818181818182,4,1,0,15,0,0
466120,-48.780487804878,4,1,0,15,0,0
466141,-181.818181818182,4,1,0,15,0,0
466164,-51.2820512820513,4,1,0,15,0,0
466185,-181.818181818182,4,1,0,15,0,0
466208,-54.054054054054,4,1,0,15,0,0
466229,-181.818181818182,4,1,0,15,0,0
466252,-57.1428571428571,4,1,0,15,0,0
466273,-181.818181818182,4,1,0,15,0,0
466297,-60.6060606060606,4,1,0,15,0,0
466317,-181.818181818182,4,1,0,15,0,0
466341,-66.6666666666667,4,1,0,15,0,0
466362,-181.818181818182,4,1,0,15,0,0
466385,-100,4,1,0,15,0,0
466560,-181.818181818182,4,1,0,15,0,0
466715,-24.0963855421687,4,1,0,15,0,0
466737,-100,4,1,0,15,0,0
466914,-24.0963855421687,4,1,0,15,0,0
466936,-181.818181818182,4,1,0,15,0,0
467091,-100,4,1,0,15,0,0
467266,-70.1754385964912,4,1,0,15,0,0
467311,-181.818181818182,4,1,0,15,0,0
467355,-76.9230769230769,4,1,0,15,0,0
467399,-181.818181818182,4,1,0,15,0,0
467443,-81.6326530612245,4,1,0,15,0,0
467487,-181.818181818182,4,1,0,15,0,0
467532,-86.9565217391304,4,1,0,15,0,0
467576,-181.818181818182,4,1,0,15,0,0
467620,-100,4,1,0,15,0,0
468326,-105.263157894737,4,1,0,15,0,0
468503,-111.111111111111,4,1,0,15,0,0
468678,-66.6666666666667,4,1,0,15,0,0
468699,-181.818181818182,4,1,0,15,0,0
468721,-68.259385665529,4,1,0,15,0,0
468742,-181.818181818182,4,1,0,15,0,0
468765,-69.9300699300699,4,1,0,15,0,0
468786,-181.818181818182,4,1,0,15,0,0
468809,-71.6845878136201,4,1,0,15,0,0
468830,-181.818181818182,4,1,0,15,0,0
468854,-73.5294117647059,4,1,0,15,0,0
468874,-181.818181818182,4,1,0,15,0,0
468898,-75.4716981132075,4,1,0,15,0,0
468919,-181.818181818182,4,1,0,15,0,0
468942,-77.5193798449612,4,1,0,15,0,0
468963,-181.818181818182,4,1,0,15,0,0
468986,-79.6812749003984,4,1,0,15,0,0
469007,-181.818181818182,4,1,0,15,0,0
469030,-81.9672131147541,4,1,0,15,0,0
469051,-181.818181818182,4,1,0,15,0,0
469075,-84.3881856540084,4,1,0,15,0,0
469095,-181.818181818182,4,1,0,15,0,0
469119,-86.9565217391304,4,1,0,15,0,0
469140,-181.818181818182,4,1,0,15,0,0
469163,-88.8888888888889,4,1,0,15,0,0
469184,-181.818181818182,4,1,0,15,0,0
469207,-100,4,1,0,15,0,0
469474,-160,4,1,0,15,0,0
469539,-42.1052631578948,4,1,0,15,0,0
469561,-100,4,1,0,15,0,0
469738,-42.1052631578948,4,1,0,15,0,0
469760,-114.285714285714,4,1,0,15,0,0
469914,-100,4,1,0,15,0,0
470090,-70.1754385964912,4,1,0,15,0,0
470122,-181.818181818182,4,1,0,15,0,0
470178,-76.9230769230769,4,1,0,15,0,0
470211,-181.818181818182,4,1,0,15,0,0
470267,-81.6326530612245,4,1,0,15,0,0
470299,-181.818181818182,4,1,0,15,0,0
470355,-86.9565217391304,4,1,0,15,0,0
470388,-181.818181818182,4,1,0,15,0,0
470444,-100,4,1,0,15,0,0
470620,-117.647058823529,4,1,0,15,0,0
470796,-100,4,1,0,15,0,0
471149,-80,4,1,0,15,0,0
471194,-133.333333333333,4,1,0,15,0,0
471238,-80,4,1,0,15,0,0
471282,-133.333333333333,4,1,0,15,0,0
471326,-80,4,1,0,15,0,0
471370,-133.333333333333,4,1,0,15,0,0
471415,-80,4,1,0,15,0,0
471459,-133.333333333333,4,1,0,15,0,0
471502,-80,4,1,0,15,0,0
471532,-133.333333333333,4,1,0,15,0,0
471562,-80,4,1,0,15,0,0
471591,-133.333333333333,4,1,0,15,0,0
471620,-80,4,1,0,15,0,0
471650,-133.333333333333,4,1,0,15,0,0
471679,-80,4,1,0,15,0,0
471708,-133.333333333333,4,1,0,15,0,0
471737,-100,4,1,0,15,0,0
472208,-181.818181818182,4,1,0,15,0,0
472362,-24.0963855421687,4,1,0,15,0,0
472384,-100,4,1,0,15,0,0
472561,-24.0963855421687,4,1,0,15,0,0
472583,-181.818181818182,4,1,0,15,0,0
472738,-100,4,1,0,15,0,0
472914,-64.5161290322581,4,1,0,15,0,0
472958,-181.818181818182,4,1,0,15,0,0
473002,-64.5161290322581,4,1,0,15,0,0
473046,-181.818181818182,4,1,0,15,0,0
473090,-64.5161290322581,4,1,0,15,0,0
473135,-181.818181818182,4,1,0,15,0,0
473179,-64.5161290322581,4,1,0,15,0,0
473223,-181.818181818182,4,1,0,15,0,0
473267,-100,4,1,0,15,0,0
473444,-64.5161290322581,4,1,0,15,0,0
473488,-181.818181818182,4,1,0,15,0,0
473531,-100,4,1,0,15,0,0
473619,-64.5161290322581,4,1,0,15,0,0
473664,-181.818181818182,4,1,0,15,0,0
473708,-100,4,1,0,15,0,0
473973,-97.5609756097561,4,1,0,15,0,0
474150,-95.2380952380952,4,1,0,15,0,0
474325,-93.0232558139535,4,1,0,15,0,0
474370,-92.1658986175115,4,1,0,15,0,0
474414,-91.324200913242,4,1,0,15,0,0
474458,-90.4977375565611,4,1,0,15,0,0
474502,-89.6860986547085,4,1,0,15,0,0
474546,-88.8888888888889,4,1,0,15,0,0
474591,-88.1057268722467,4,1,0,15,0,0
474635,-87.3362445414847,4,1,0,15,0,0
474679,-100,4,1,0,15,0,0
474737,-160,4,1,0,15,0,0
474826,-50,4,1,0,15,0,0
474856,-160,4,1,0,15,0,0
474900,-50,4,1,0,15,0,0
474944,-160,4,1,0,15,0,0
474988,-50,4,1,0,15,0,0
475031,-100,4,1,0,15,0,0
475385,-86.9565217391304,4,1,0,15,0,0
475407,-117.647058823529,4,1,0,15,0,0
475429,-86.9565217391304,4,1,0,15,0,0
475451,-117.647058823529,4,1,0,15,0,0
475473,-86.9565217391304,4,1,0,15,0,0
475495,-117.647058823529,4,1,0,15,0,0
475517,-86.9565217391304,4,1,0,15,0,0
475540,-117.647058823529,4,1,0,15,0,0
475562,-86.9565217391304,4,1,0,15,0,0
475584,-117.647058823529,4,1,0,15,0,0
475737,-50,4,1,0,15,0,0
475759,-181.818181818182,4,1,0,15,0,0
475826,-44.4444444444445,4,1,0,15,0,0
475848,-181.818181818182,4,1,0,15,0,0
475914,-36.3636363636363,4,1,0,15,0,0
475936,-181.818181818182,4,1,0,15,0,0
476002,-40,4,1,0,15,0,0
476024,-181.818181818182,4,1,0,15,0,0
476091,-100,4,1,0,15,0,0
476268,-68.9655172413793,4,1,0,15,0,0
476290,-181.818181818182,4,1,0,15,0,0
476310,-68.9655172413793,4,1,0,15,0,0
476333,-181.818181818182,4,1,0,15,0,0
476355,-100,4,1,0,15,0,0
476399,-68.9655172413793,4,1,0,15,0,0
476421,-181.818181818182,4,1,0,15,0,0
476443,-95.2380952380952,4,1,0,15,0,0
476620,-90.9090909090909,4,1,0,15,0,0
476797,-95.2380952380952,4,1,0,15,0,0
476973,-100,4,1,0,15,0,0
477150,-33.3333333333333,4,1,0,15,0,0
477152,-100,4,1,0,15,0,0
477504,-33.3333333333333,4,1,0,15,0,0
477506,-100,4,1,0,15,0,0
477856,-33.3333333333333,4,1,0,15,0,0
477860,-100,4,1,0,15,0,0
478210,-33.3333333333333,4,1,0,15,0,0
478215,-100,4,1,0,15,0,0
478562,-33.3333333333333,4,1,0,15,0,0
478569,-100,4,1,0,15,0,0
478916,-33.3333333333333,4,1,0,15,0,0
478923,-100,4,1,0,15,0,0
479268,-33.3333333333333,4,1,0,15,0,0
479277,-100,4,1,0,15,0,0
479622,-33.3333333333333,4,1,0,15,0,0
479632,-100,4,1,0,15,0,0
479857,-72.7272727272727,4,1,0,15,0,0
479915,-160,4,1,0,15,0,0
479974,-33.3333333333333,4,1,0,15,0,0
479986,-105.263157894737,4,1,0,15,0,0
480327,-33.3333333333333,4,1,0,15,0,0
480340,-105.263157894737,4,1,0,15,0,0
480680,-33.3333333333333,4,1,0,15,0,0
480694,-105.263157894737,4,1,0,15,0,0
481033,-33.3333333333333,4,1,0,15,0,0
481049,-105.263157894737,4,1,0,15,0,0
481386,-33.3333333333333,4,1,0,15,0,0
481403,-105.263157894737,4,1,0,15,0,0
481739,-33.3333333333333,4,1,0,15,0,0
481757,-105.263157894737,4,1,0,15,0,0
482092,-33.3333333333333,4,1,0,15,0,0
482111,-105.263157894737,4,1,0,15,0,0
482445,-33.3333333333333,4,1,0,15,0,0
482466,-105.263157894737,4,1,0,15,0,0
482679,-72.7272727272727,4,1,0,15,0,0
482738,-160,4,1,0,15,0,0
482797,-57.1428571428571,4,1,0,15,0,0
482820,-108.108108108108,4,1,0,15,0,0
483151,-57.1428571428571,4,1,0,15,0,0
483174,-108.108108108108,4,1,0,15,0,0
483503,-57.1428571428571,4,1,0,15,0,0
483528,-108.108108108108,4,1,0,15,0,0
483857,-57.1428571428571,4,1,0,15,0,0
483883,-108.108108108108,4,1,0,15,0,0
484209,-57.1428571428571,4,1,0,15,0,0
484237,-108.108108108108,4,1,0,15,0,0
484563,-57.1428571428571,4,1,0,15,0,0
484591,-108.108108108108,4,1,0,15,0,0
484915,-57.1428571428571,4,1,0,15,0,0
484945,-108.108108108108,4,1,0,15,0,0
485269,-57.1428571428571,4,1,0,15,0,0
485300,-108.108108108108,4,1,0,15,0,0
485621,-57.1428571428571,4,1,0,15,0,0
485654,-114.285714285714,4,1,0,15,0,0
485975,-57.1428571428571,4,1,0,15,0,0
486008,-114.285714285714,4,1,0,15,0,0
486327,-57.1428571428571,4,1,0,15,0,0
486362,-114.285714285714,4,1,0,15,0,0
486681,-57.1428571428571,4,1,0,15,0,0
486717,-114.285714285714,4,1,0,15,0,0
487033,-57.1428571428571,4,1,0,15,0,0
487071,-114.285714285714,4,1,0,15,0,0
487386,-57.1428571428571,4,1,0,15,0,0
487425,-114.285714285714,4,1,0,15,0,0
487739,-57.1428571428571,4,1,0,15,0,0
487778,-114.285714285714,4,1,0,15,0,0
487974,-72.7272727272727,4,1,0,15,0,0
488033,-181.818181818182,4,1,0,15,0,0
488092,-57.1428571428571,4,1,0,15,0,0
488131,-114.285714285714,4,1,0,15,0,0
488326,-72.7272727272727,4,1,0,15,0,0
488385,-181.818181818182,4,1,0,15,0,0
488445,-10,4,1,0,15,0,0
488489,-222.222222222222,4,1,0,15,0,0
489503,-10,4,1,0,15,0,0
489547,-153.846153846154,4,1,0,15,0,0
489856,-10,4,1,0,15,0,0
489901,-333.333333333333,4,1,0,15,0,0
490915,-256.410256410256,4,1,0,15,0,0
491091,-208.333333333333,4,1,0,15,0,0
491180,-175.438596491228,4,1,0,15,0,0
491268,470.588235294589,4,1,0,15,1,0
491268,-100,4,1,0,15,0,0
498797,470.588235294589,8,1,0,15,1,0
498797,-222.222222222222,8,1,0,15,0,0
502560,470.588235294589,4,1,0,15,1,0
502560,-222.222222222222,4,1,0,15,0,0
532285,-192.307692307692,4,1,0,15,0,0
532364,-161.290322580645,4,1,0,15,0,0
532442,-140.845070422535,4,1,0,15,0,0
532520,-123.456790123457,4,1,0,15,0,0
532599,-111.111111111111,4,1,0,15,0,0
532677,-20,4,1,0,15,0,0
532684,-100,4,1,0,15,0,0
533618,-20,4,1,0,15,0,0
533625,-100,4,1,0,15,0,0
535501,-20,4,1,0,15,0,0
535507,-100,4,1,0,15,0,0
536442,-13.3333333333333,4,1,0,15,0,0
536448,-100,4,1,0,15,0,0
537383,-20,4,1,0,15,0,0
537390,-100,4,1,0,15,0,0
539736,-86.9565217391304,4,1,0,15,0,0
539971,-117.647058823529,4,1,0,15,0,0
540088,-133.333333333333,4,1,0,15,0,0
540207,-20,4,1,0,15,0,0
540213,-100,4,1,0,15,0,0
541148,-13.3333333333333,4,1,0,15,0,0
541154,-100,4,1,0,15,0,0
543030,-13.3333333333333,4,1,0,15,0,0
543041,-100,4,1,0,15,0,0
543972,-20,4,1,0,15,0,0
543978,-100,4,1,0,15,0,0
544913,-13.3333333333333,4,1,0,15,0,0
544919,-86.9565217391304,4,1,0,15,0,0
545383,-90.9090909090909,4,1,0,15,0,0
545854,-20,4,1,0,15,0,0
545860,-100,4,1,0,15,0,0
547736,-20,4,1,0,15,0,0
547743,-100,4,1,0,15,0,0
548678,-20,4,1,0,15,0,0
548684,-100,4,1,0,15,0,0
549619,-28.5714285714286,4,1,0,15,0,0
549625,-100,4,1,0,15,0,0
550560,-15.3846153846154,4,1,0,15,0,0
550566,-100,4,1,0,15,0,0
551031,-117.647058823529,4,1,0,15,0,0
551148,-105.263157894737,4,1,0,15,0,0
551266,-95.2380952380952,4,1,0,15,0,0
551383,-86.9565217391304,4,1,0,15,0,0
551501,-20,4,1,0,15,0,0
551508,-100,4,1,0,15,0,0
552442,-25,4,1,0,15,0,0
552449,-100,4,1,0,15,0,0
554560,-75.187969924812,4,1,0,15,0,0
554599,-149.253731343284,4,1,0,15,0,0
554638,-75.187969924812,4,1,0,15,0,0
554677,-149.253731343284,4,1,0,15,0,0
554716,-75.187969924812,4,1,0,15,0,0
554755,-149.253731343284,4,1,0,15,0,0
554794,-75.187969924812,4,1,0,15,0,0
554833,-149.253731343284,4,1,0,15,0,0
554873,-75.187969924812,4,1,0,15,0,0
554912,-149.253731343284,4,1,0,15,0,0
554951,-75.187969924812,4,1,0,15,0,0
554990,-149.253731343284,4,1,0,15,0,0
555029,-86.9565217391304,4,1,0,15,0,0
555265,-20,4,1,0,15,0,0
555271,-100,4,1,0,15,0,0
555500,-95.2380952380952,4,1,0,15,0,0
555735,-90.9090909090909,4,1,0,15,0,0
555971,-86.9565217391304,4,1,0,15,0,0
556206,-20,4,1,0,15,0,0
556212,-100,4,1,0,15,0,0
556441,-95.2380952380952,4,1,0,15,0,0
556676,-90.9090909090909,4,1,0,15,0,0
556912,-86.9565217391304,4,1,0,15,0,0
557147,-95.2380952380952,4,1,0,15,0,0
557382,-100,4,1,0,15,0,0
557618,-83.3333333333333,4,1,0,15,0,0
557853,-100,4,1,0,15,0,0
558088,-20,4,1,0,15,0,0
558095,-100,4,1,0,15,0,0
559029,-20,4,1,0,15,0,0
559036,-100,4,1,0,15,0,0
559971,-13.3333333333333,4,1,0,15,0,0
559977,-100,4,1,0,15,0,0
560912,-20,4,1,0,15,0,0
560918,-100,4,1,0,15,0,0
561853,-83.3333333333333,4,1,0,15,0,0
561971,-86.9565217391304,4,1,0,15,0,0
562088,-95.2380952380952,4,1,0,15,0,0
562207,-111.111111111111,4,1,0,15,0,0
562324,-100,4,1,0,15,0,0
562354,-200,4,1,0,15,0,0
562383,-90.9090909090909,4,1,0,15,0,0
562413,-200,4,1,0,15,0,0
562442,-83.3333333333333,4,1,0,15,0,0
562472,-200,4,1,0,15,0,0
562500,-76.9230769230769,4,1,0,15,0,0
562530,-200,4,1,0,15,0,0
562559,-71.4285714285714,4,1,0,15,0,0
562589,-200,4,1,0,15,0,0
562619,-66.6666666666667,4,1,0,15,0,0
562649,-200,4,1,0,15,0,0
562677,-62.5,4,1,0,15,0,0
562707,-200,4,1,0,15,0,0
562736,-58.8235294117647,4,1,0,15,0,0
562766,-200,4,1,0,15,0,0
562794,-20,4,1,0,15,0,0
562801,-100,4,1,0,15,0,0
563735,-20,4,1,0,15,0,0
563742,-100,4,1,0,15,0,0
564677,-20,4,1,0,15,0,0
564683,-100,4,1,0,15,0,0
565618,-20,4,1,0,15,0,0
565624,-100,4,1,0,15,0,0
566324,-80,4,1,0,15,0,0
566384,-133.333333333333,4,1,0,15,0,0
566442,-66.6666666666667,4,1,0,15,0,0
566502,-200,4,1,0,15,0,0
566559,-20,4,1,0,15,0,0
566566,-100,4,1,0,15,0,0
567500,-20,4,1,0,15,0,0
567507,-100,4,1,0,15,0,0
569383,-20,4,1,0,15,0,0
569389,-100,4,1,0,15,0,0
569853,-20,4,1,0,15,0,0
569860,-100,4,1,0,15,0,0
570324,-20,4,1,0,15,0,0
570330,-100,4,1,0,15,0,0
571265,-20,4,1,0,15,0,0
571272,-100,4,1,0,15,0,0
573147,-20,4,1,0,15,0,0
573154,-100,4,1,0,15,0,0
574089,-20,4,1,0,15,0,0
574095,-100,4,1,0,15,0,0
575030,-20,4,1,0,15,0,0
575036,-100,4,1,0,15,0,0
575971,-20,4,1,0,15,0,0
575978,-100,4,1,0,15,0,0
577853,-20,4,1,0,15,0,0
577860,-100,4,1,0,15,0,0
577972,-80,4,1,0,15,0,0
578030,-133.333333333333,4,1,0,15,0,0
578089,-80,4,1,0,15,0,0
578147,-133.333333333333,4,1,0,15,0,0
578207,-80,4,1,0,15,0,0
578266,-133.333333333333,4,1,0,15,0,0
578324,-80,4,1,0,15,0,0
578383,-133.333333333333,4,1,0,15,0,0
578442,-80,4,1,0,15,0,0
578501,-133.333333333333,4,1,0,15,0,0
578559,-80,4,1,0,15,0,0
578618,-133.333333333333,4,1,0,15,0,0
578678,-80,4,1,0,15,0,0
578736,-133.333333333333,4,1,0,15,0,0
578795,-20,4,1,0,15,0,0
578801,-100,4,1,0,15,0,0
578913,-80,4,1,0,15,0,0
578971,-133.333333333333,4,1,0,15,0,0
579030,-80,4,1,0,15,0,0
579088,-133.333333333333,4,1,0,15,0,0
579148,-80,4,1,0,15,0,0
579207,-133.333333333333,4,1,0,15,0,0
579265,-80,4,1,0,15,0,0
579324,-133.333333333333,4,1,0,15,0,0
579384,-80,4,1,0,15,0,0
579442,-133.333333333333,4,1,0,15,0,0
579501,-80,4,1,0,15,0,0
579559,-133.333333333333,4,1,0,15,0,0
579619,-80,4,1,0,15,0,0
579677,-133.333333333333,4,1,0,15,0,0
579736,-20,4,1,0,15,0,0
579742,-100,4,1,0,15,0,0
579854,-80,4,1,0,15,0,0
579913,-133.333333333333,4,1,0,15,0,0
579971,-80,4,1,0,15,0,0
580030,-133.333333333333,4,1,0,15,0,0
580089,-80,4,1,0,15,0,0
580148,-133.333333333333,4,1,0,15,0,0
580206,-80,4,1,0,15,0,0
580265,-133.333333333333,4,1,0,15,0,0
580325,-80,4,1,0,15,0,0
580383,-133.333333333333,4,1,0,15,0,0
580442,-80,4,1,0,15,0,0
580500,-133.333333333333,4,1,0,15,0,0
580560,-80,4,1,0,15,0,0
580619,-133.333333333333,4,1,0,15,0,0
580677,-20,4,1,0,15,0,0
580684,-100,4,1,0,15,0,0
581148,-76.9230769230769,4,1,0,15,0,0
581207,-142.857142857143,4,1,0,15,0,0
581266,-66.6666666666667,4,1,0,15,0,0
581326,-200,4,1,0,15,0,0
581383,-58.8235294117647,4,1,0,15,0,0
581443,-333.333333333333,4,1,0,15,0,0
581501,-52.6315789473684,4,1,0,15,0,0
581561,-1000,4,1,0,15,0,0
581618,-20,4,1,0,15,0,0
581625,-100,4,1,0,15,0,0
581735,-80,4,1,0,15,0,0
581794,-133.333333333333,4,1,0,15,0,0
581852,-80,4,1,0,15,0,0
581911,-133.333333333333,4,1,0,15,0,0
581971,-80,4,1,0,15,0,0
582029,-133.333333333333,4,1,0,15,0,0
582088,-80,4,1,0,15,0,0
582146,-133.333333333333,4,1,0,15,0,0
582206,-80,4,1,0,15,0,0
582264,-133.333333333333,4,1,0,15,0,0
582323,-80,4,1,0,15,0,0
582381,-133.333333333333,4,1,0,15,0,0
582441,-80,4,1,0,15,0,0
582500,-133.333333333333,4,1,0,15,0,0
582559,-20,4,1,0,15,0,0
582566,-100,4,1,0,15,0,0
582676,-80,4,1,0,15,0,0
582735,-133.333333333333,4,1,0,15,0,0
582793,-80,4,1,0,15,0,0
582852,-133.333333333333,4,1,0,15,0,0
582912,-80,4,1,0,15,0,0
582970,-133.333333333333,4,1,0,15,0,0
583029,-80,4,1,0,15,0,0
583087,-133.333333333333,4,1,0,15,0,0
583147,-80,4,1,0,15,0,0
583206,-133.333333333333,4,1,0,15,0,0
583264,-80,4,1,0,15,0,0
583323,-133.333333333333,4,1,0,15,0,0
583382,-80,4,1,0,15,0,0
583441,-133.333333333333,4,1,0,15,0,0
583618,-80,4,1,0,15,0,0
583676,-133.333333333333,4,1,0,15,0,0
583735,-80,4,1,0,15,0,0
583793,-133.333333333333,4,1,0,15,0,0
583853,-80,4,1,0,15,0,0
583911,-133.333333333333,4,1,0,15,0,0
583970,-80,4,1,0,15,0,0
584028,-133.333333333333,4,1,0,15,0,0
584088,-80,4,1,0,15,0,0
584147,-133.333333333333,4,1,0,15,0,0
584205,-80,4,1,0,15,0,0
584264,-133.333333333333,4,1,0,15,0,0
584324,-80,4,1,0,15,0,0
584382,-117.647058823529,4,1,0,15,0,0
585383,-20,4,1,0,15,0,0
585390,-100,4,1,0,15,0,0
585500,-80,4,1,0,15,0,0
585559,-133.333333333333,4,1,0,15,0,0
585617,-80,4,1,0,15,0,0
585676,-133.333333333333,4,1,0,15,0,0
585735,-80,4,1,0,15,0,0
585794,-133.333333333333,4,1,0,15,0,0
585852,-80,4,1,0,15,0,0
585911,-133.333333333333,4,1,0,15,0,0
585971,-80,4,1,0,15,0,0
586029,-133.333333333333,4,1,0,15,0,0
586088,-80,4,1,0,15,0,0
586146,-133.333333333333,4,1,0,15,0,0
586206,-80,4,1,0,15,0,0
586264,-133.333333333333,4,1,0,15,0,0
586324,-20,4,1,0,15,0,0
586331,-100,4,1,0,15,0,0
586441,-80,4,1,0,15,0,0
586500,-133.333333333333,4,1,0,15,0,0
586558,-80,4,1,0,15,0,0
586617,-133.333333333333,4,1,0,15,0,0
586677,-80,4,1,0,15,0,0
586735,-133.333333333333,4,1,0,15,0,0
586794,-80,4,1,0,15,0,0
586852,-133.333333333333,4,1,0,15,0,0
586912,-80,4,1,0,15,0,0
586970,-133.333333333333,4,1,0,15,0,0
587029,-80,4,1,0,15,0,0
587087,-133.333333333333,4,1,0,15,0,0
587147,-80,4,1,0,15,0,0
587206,-133.333333333333,4,1,0,15,0,0
587265,-20,4,1,0,15,0,0
587272,-100,4,1,0,15,0,0
587382,-80,4,1,0,15,0,0
587441,-133.333333333333,4,1,0,15,0,0
587499,-80,4,1,0,15,0,0
587558,-133.333333333333,4,1,0,15,0,0
587618,-80,4,1,0,15,0,0
587676,-133.333333333333,4,1,0,15,0,0
587735,-80,4,1,0,15,0,0
587793,-133.333333333333,4,1,0,15,0,0
587853,-80,4,1,0,15,0,0
587912,-133.333333333333,4,1,0,15,0,0
587970,-80,4,1,0,15,0,0
588029,-133.333333333333,4,1,0,15,0,0
588088,-80,4,1,0,15,0,0
588147,-133.333333333333,4,1,0,15,0,0
588207,-20,4,1,0,15,0,0
588213,-100,4,1,0,15,0,0
588324,-80,4,1,0,15,0,0
588382,-133.333333333333,4,1,0,15,0,0
588441,-80,4,1,0,15,0,0
588499,-133.333333333333,4,1,0,15,0,0
588559,-80,4,1,0,15,0,0
588617,-133.333333333333,4,1,0,15,0,0
588676,-80,4,1,0,15,0,0
588734,-133.333333333333,4,1,0,15,0,0
588794,-80,4,1,0,15,0,0
588853,-133.333333333333,4,1,0,15,0,0
588911,-80,4,1,0,15,0,0
588970,-133.333333333333,4,1,0,15,0,0
589030,-80,4,1,0,15,0,0
589088,-133.333333333333,4,1,0,15,0,0
589148,-20,4,1,0,15,0,0
589154,-100,4,1,0,15,0,0
589265,-80,4,1,0,15,0,0
589323,-133.333333333333,4,1,0,15,0,0
589382,-80,4,1,0,15,0,0
589440,-133.333333333333,4,1,0,15,0,0
589500,-80,4,1,0,15,0,0
589559,-133.333333333333,4,1,0,15,0,0
589617,-80,4,1,0,15,0,0
589676,-133.333333333333,4,1,0,15,0,0
589735,-80,4,1,0,15,0,0
589794,-133.333333333333,4,1,0,15,0,0
589852,-80,4,1,0,15,0,0
589911,-133.333333333333,4,1,0,15,0,0
589971,-80,4,1,0,15,0,0
590029,-133.333333333333,4,1,0,15,0,0
590089,-20,4,1,0,15,0,0
590096,-100,4,1,0,15,0,0
591030,-20,4,1,0,15,0,0
591037,-100,4,1,0,15,0,0
592913,470.588235294589,128,1,0,15,1,0
592913,-85.4700854700855,128,1,0,15,0,0
617853,-86.9565217391304,128,1,0,15,0,0
618324,-88.4955752212389,128,1,0,15,0,0
618794,-90.0900900900901,128,1,0,15,0,0
619265,-91.743119266055,128,1,0,15,0,0
619736,-93.4579439252336,128,1,0,15,0,0
620206,-95.2380952380952,128,1,0,15,0,0
620677,-97.0873786407767,128,1,0,15,0,0
621147,-99.009900990099,128,1,0,15,0,0
621618,-101.010101010101,128,1,0,15,0,0
622089,-103.092783505155,128,1,0,15,0,0
622559,-105.263157894737,128,1,0,15,0,0
623030,-108.108108108108,128,1,0,15,0,0
623500,-110.497237569061,128,1,0,15,0,0
623971,-112.359550561798,128,1,0,15,0,0
624442,-113.636363636364,128,1,0,15,0,0
624912,-112.994350282486,128,1,0,15,0,0
625383,-111.111111111111,128,1,0,15,0,0
625853,-108.108108108108,128,1,0,15,0,0
626089,-105.263157894737,128,1,0,15,0,0
626324,-100,128,1,0,15,0,0
626441,-92.1658986175115,128,1,0,15,0,0
626559,-85.8369098712446,128,1,0,15,0,0
626676,-80,128,1,0,15,0,0
626795,-100,128,1,0,15,0,0

[HitObjects]
448,192,14212,5,0,0:0:0:0:
192,192,14212,1,0,0:0:0:0:
64,192,14212,1,0,0:0:0:0:
64,192,14563,1,0,0:0:0:0:
192,192,14916,1,0,0:0:0:0:
64,192,15269,1,0,0:0:0:0:
320,192,15622,1,0,0:0:0:0:
192,192,15975,1,0,0:0:0:0:
64,192,16328,1,0,0:0:0:0:
192,192,16681,1,0,0:0:0:0:
64,192,17033,1,0,0:0:0:0:
320,192,17033,1,0,0:0:0:0:
64,192,17387,1,0,0:0:0:0:
192,192,17739,1,0,0:0:0:0:
448,192,18093,1,0,0:0:0:0:
320,192,18756,128,0,18866:0:0:0:0:
64,192,18977,128,0,19086:0:0:0:0:
192,192,19197,128,0,19329:0:0:0:0:
320,192,19462,128,0,19594:0:0:0:0:
448,192,19727,128,0,19858:0:0:0:0:
320,192,19858,1,0,0:0:0:0:
192,192,19858,1,0,0:0:0:0:
64,192,19858,1,0,0:0:0:0:
64,192,20209,1,0,0:0:0:0:
192,192,20563,1,0,0:0:0:0:
64,192,20917,1,0,0:0:0:0:
320,192,21269,1,0,0:0:0:0:
192,192,21622,1,0,0:0:0:0:
64,192,21975,1,0,0:0:0:0:
192,192,22328,1,0,0:0:0:0:
64,192,22681,1,0,0:0:0:0:
448,192,22681,1,0,0:0:0:0:
64,192,23034,1,0,0:0:0:0:
192,192,23387,1,0,0:0:0:0:
448,192,23740,1,0,0:0:0:0:
448,192,24447,128,0,24800:0:0:0:0:
320,192,25506,1,0,0:0:0:0:
448,192,25506,1,0,0:0:0:0:
64,192,25858,1,0,0:0:0:0:
192,192,26033,1,0,0:0:0:0:
320,192,26210,1,0,0:0:0:0:
448,192,26562,1,0,0:0:0:0:
320,192,26916,1,0,0:0:0:0:
192,192,27268,1,0,0:0:0:0:
64,192,27622,1,0,0:0:0:0:
192,192,27976,1,0,0:0:0:0:
64,192,28328,1,0,0:0:0:0:
192,192,28328,1,0,0:0:0:0:
64,192,28681,1,0,0:0:0:0:
320,192,28858,1,0,0:0:0:0:
192,192,29034,1,0,0:0:0:0:
448,192,29094,1,0,0:0:0:0:
448,192,29387,1,0,0:0:0:0:
320,192,29389,1,0,0:0:0:0:
64,192,29564,1,0,0:0:0:0:
448,192,29682,1,0,0:0:0:0:
320,192,29859,1,0,0:0:0:0:
64,192,30095,1,0,0:0:0:0:
192,192,30212,1,0,0:0:0:0:
448,192,30270,1,0,0:0:0:0:
320,192,30403,1,0,0:0:0:0:
64,192,30447,1,0,0:0:0:0:
192,192,30594,1,0,0:0:0:0:
448,192,30682,1,0,0:0:0:0:
320,192,30741,1,0,0:0:0:0:
64,192,30829,1,0,0:0:0:0:
192,192,30889,1,0,0:0:0:0:
448,192,30947,1,0,0:0:0:0:
320,192,31006,1,0,0:0:0:0:
64,192,31064,1,0,0:0:0:0:
192,192,31124,1,0,0:0:0:0:
448,192,31153,128,0,31506:0:0:0:0:
192,192,31505,1,0,0:0:0:0:
64,192,31681,1,0,0:0:0:0:
320,192,31857,1,0,0:0:0:0:
448,192,32210,1,0,0:0:0:0:
320,192,32563,1,0,0:0:0:0:
192,192,32916,1,0,0:0:0:0:
64,192,33270,1,0,0:0:0:0:
320,192,33621,1,0,0:0:0:0:
64,192,33800,1,0,0:0:0:0:
192,192,33859,1,0,0:0:0:0:
320,192,33918,1,0,0:0:0:0:
448,192,33976,1,0,0:0:0:0:
448,192,34446,1,0,0:0:0:0:
64,192,34505,1,0,0:0:0:0:
320,192,34565,1,0,0:0:0:0:
192,192,34624,1,0,0:0:0:0:
448,192,34682,1,0,0:0:0:0:
320,192,34771,1,0,0:0:0:0:
64,192,34859,1,0,0:0:0:0:
448,192,34947,1,0,0:0:0:0:
192,192,35036,1,0,0:0:0:0:
320,192,35123,1,0,0:0:0:0:
64,192,35211,1,0,0:0:0:0:
448,192,35271,1,0,0:0:0:0:
320,192,35330,1,0,0:0:0:0:
192,192,35388,1,0,0:0:0:0:
448,192,35857,1,0,0:0:0:0:
192,192,35917,1,0,0:0:0:0:
64,192,35977,1,0,0:0:0:0:
320,192,36036,1,0,0:0:0:0:
448,192,36094,1,0,0:0:0:0:
64,192,36182,1,0,0:0:0:0:
192,192,36271,1,0,0:0:0:0:
320,192,36359,1,0,0:0:0:0:
192,192,36448,1,0,0:0:0:0:
448,192,36535,1,0,0:0:0:0:
64,192,36623,1,0,0:0:0:0:
320,192,36683,1,0,0:0:0:0:
192,192,36741,1,0,0:0:0:0:
448,192,36800,1,0,0:0:0:0:
64,192,37269,1,0,0:0:0:0:
448,192,37329,1,0,0:0:0:0:
320,192,37389,1,0,0:0:0:0:
192,192,37447,1,0,0:0:0:0:
64,192,37506,1,0,0:0:0:0:
448,192,37594,1,0,0:0:0:0:
320,192,37683,1,0,0:0:0:0:
64,192,37771,1,0,0:0:0:0:
320,192,37859,1,0,0:0:0:0:
192,192,37947,1,0,0:0:0:0:
448,192,38035,1,0,0:0:0:0:
64,192,38095,1,0,0:0:0:0:
192,192,38153,1,0,0:0:0:0:
320,192,38212,1,0,0:0:0:0:
64,192,38681,1,0,0:0:0:0:
448,192,38741,1,0,0:0:0:0:
192,192,38801,1,0,0:0:0:0:
320,192,38859,1,0,0:0:0:0:
64,192,38918,1,0,0:0:0:0:
192,192,39006,1,0,0:0:0:0:
448,192,39094,1,0,0:0:0:0:
64,192,39183,1,0,0:0:0:0:
320,192,39271,1,0,0:0:0:0:
64,192,39358,1,0,0:0:0:0:
448,192,39445,1,0,0:0:0:0:
320,192,39505,1,0,0:0:0:0:
192,192,39562,1,0,0:0:0:0:
64,192,39622,1,0,0:0:0:0:
448,192,39622,1,0,0:0:0:0:
64,192,39975,1,0,0:0:0:0:
448,192,40151,1,0,0:0:0:0:
192,192,40328,1,0,0:0:0:0:
64,192,40680,1,0,0:0:0:0:
320,192,41034,1,0,0:0:0:0:
192,192,41386,1,0,0:0:0:0:
64,192,41740,1,0,0:0:0:0:
320,192,41828,1,0,0:0:0:0:
192,192,41915,1,0,0:0:0:0:
192,192,42446,1,0,0:0:0:0:
64,192,42446,1,0,0:0:0:0:
192,192,42799,1,0,0:0:0:0:
320,192,43152,1,0,0:0:0:0:
64,192,43505,1,0,0:0:0:0:
448,192,43858,1,0,0:0:0:0:
320,192,44034,1,0,0:0:0:0:
64,192,44210,1,0,0:0:0:0:
192,192,44387,1,0,0:0:0:0:
64,192,44564,1,0,0:0:0:0:
320,192,44564,1,0,0:0:0:0:
320,192,44740,1,0,0:0:0:0:
448,192,44740,1,0,0:0:0:0:
64,192,44916,1,0,0:0:0:0:
320,192,45093,1,0,0:0:0:0:
192,192,45093,1,0,0:0:0:0:
64,192,45269,1,0,0:0:0:0:
192,192,45269,1,0,0:0:0:0:
448,192,45269,128,0,47828:0:0:0:0:
64,192,47387,1,0,0:0:0:0:
320,192,47476,1,0,0:0:0:0:
192,192,47563,1,0,0:0:0:0:
192,192,48093,1,0,0:0:0:0:
64,192,48093,1,0,0:0:0:0:
320,192,48798,1,0,0:0:0:0:
192,192,49151,1,0,0:0:0:0:
448,192,49504,1,0,0:0:0:0:
320,192,49504,1,0,0:0:0:0:
64,192,49680,1,0,0:0:0:0:
64,192,49857,1,0,0:0:0:0:
320,192,49857,1,0,0:0:0:0:
448,192,50034,1,0,0:0:0:0:
192,192,50209,1,0,0:0:0:0:
320,192,50209,1,0,0:0:0:0:
64,192,50563,1,0,0:0:0:0:
192,192,50563,1,0,0:0:0:0:
448,192,50740,1,0,0:0:0:0:
192,192,50915,1,0,0:0:0:0:
448,192,50915,1,0,0:0:0:0:
320,192,51093,1,0,0:0:0:0:
192,192,51269,1,0,0:0:0:0:
64,192,51444,1,0,0:0:0:0:
448,192,51798,1,0,0:0:0:0:
320,192,51975,1,0,0:0:0:0:
64,192,51976,1,0,0:0:0:0:
192,192,52150,1,0,0:0:0:0:
64,192,52328,1,0,0:0:0:0:
448,192,52328,1,0,0:0:0:0:
320,192,52328,1,0,0:0:0:0:
448,192,52681,1,0,0:0:0:0:
320,192,52858,1,0,0:0:0:0:
64,192,53034,1,0,0:0:0:0:
448,192,53034,1,0,0:0:0:0:
192,192,53211,1,0,0:0:0:0:
320,192,53211,1,0,0:0:0:0:
192,192,53388,1,0,0:0:0:0:
448,192,53388,1,0,0:0:0:0:
64,192,53388,1,0,0:0:0:0:
320,192,53563,1,0,0:0:0:0:
320,192,53740,1,0,0:0:0:0:
448,192,53740,1,0,0:0:0:0:
192,192,53916,1,0,0:0:0:0:
64,192,54093,1,0,0:0:0:0:
320,192,54094,1,0,0:0:0:0:
448,192,54445,1,0,0:0:0:0:
64,192,54446,1,0,0:0:0:0:
320,192,54622,1,0,0:0:0:0:
192,192,54798,1,0,0:0:0:0:
448,192,54800,1,0,0:0:0:0:
64,192,54800,1,0,0:0:0:0:
192,192,54976,1,0,0:0:0:0:
448,192,55035,1,0,0:0:0:0:
320,192,55094,1,0,0:0:0:0:
192,192,55152,1,0,0:0:0:0:
64,192,55152,1,0,0:0:0:0:
320,192,55240,1,0,0:0:0:0:
448,192,55328,1,0,0:0:0:0:
448,192,55504,1,0,0:0:0:0:
320,192,55681,1,0,0:0:0:0:
448,192,55857,1,0,0:0:0:0:
320,192,56033,1,0,0:0:0:0:
192,192,56211,1,0,0:0:0:0:
448,192,56212,1,0,0:0:0:0:
64,192,56388,1,0,0:0:0:0:
448,192,56388,1,0,0:0:0:0:
192,192,56446,1,0,0:0:0:0:
320,192,56505,1,0,0:0:0:0:
192,192,56563,1,0,0:0:0:0:
448,192,56563,1,0,0:0:0:0:
64,192,56563,1,0,0:0:0:0:
320,192,56739,1,0,0:0:0:0:
192,192,56916,1,0,0:0:0:0:
448,192,56917,1,0,0:0:0:0:
64,192,57092,1,0,0:0:0:0:
192,192,57270,1,0,0:0:0:0:
320,192,57270,1,0,0:0:0:0:
448,192,57445,1,0,0:0:0:0:
320,192,57535,1,0,0:0:0:0:
448,192,57622,1,0,0:0:0:0:
64,192,57623,1,0,0:0:0:0:
320,192,57798,1,0,0:0:0:0:
192,192,57974,1,0,0:0:0:0:
448,192,57976,1,0,0:0:0:0:
64,192,57976,1,0,0:0:0:0:
64,192,58151,1,0,0:0:0:0:
320,192,58329,1,0,0:0:0:0:
192,192,58329,1,0,0:0:0:0:
448,192,58503,1,0,0:0:0:0:
320,192,58682,1,0,0:0:0:0:
64,192,58682,1,0,0:0:0:0:
192,192,58857,1,0,0:0:0:0:
64,192,59034,1,0,0:0:0:0:
448,192,59035,1,0,0:0:0:0:
320,192,59211,1,0,0:0:0:0:
64,192,59211,1,0,0:0:0:0:
192,192,59270,1,0,0:0:0:0:
320,192,59329,1,0,0:0:0:0:
448,192,59388,1,0,0:0:0:0:
192,192,59388,1,0,0:0:0:0:
320,192,59563,1,0,0:0:0:0:
192,192,59740,1,0,0:0:0:0:
448,192,59741,1,0,0:0:0:0:
64,192,59917,1,0,0:0:0:0:
320,192,60093,1,0,0:0:0:0:
192,192,60093,1,0,0:0:0:0:
64,192,60182,1,0,0:0:0:0:
448,192,60269,1,0,0:0:0:0:
448,192,60444,1,0,0:0:0:0:
64,192,60447,1,0,0:0:0:0:
192,192,60447,1,0,0:0:0:0:
320,192,60622,1,0,0:0:0:0:
448,192,60798,1,0,0:0:0:0:
64,192,60799,1,0,0:0:0:0:
320,192,60975,1,0,0:0:0:0:
64,192,61153,1,0,0:0:0:0:
192,192,61241,1,0,0:0:0:0:
320,192,61328,1,0,0:0:0:0:
448,192,61504,1,0,0:0:0:0:
192,192,61505,1,0,0:0:0:0:
64,192,61505,1,0,0:0:0:0:
320,192,61681,1,0,0:0:0:0:
192,192,61859,1,0,0:0:0:0:
320,192,61917,1,0,0:0:0:0:
448,192,61976,1,0,0:0:0:0:
64,192,62034,1,0,0:0:0:0:
320,192,62094,1,0,0:0:0:0:
192,192,62153,1,0,0:0:0:0:
64,192,62211,1,0,0:0:0:0:
448,192,62211,1,0,0:0:0:0:
192,192,62388,1,0,0:0:0:0:
64,192,62565,1,0,0:0:0:0:
320,192,62565,1,0,0:0:0:0:
192,192,62740,1,0,0:0:0:0:
64,192,62917,1,0,0:0:0:0:
448,192,63094,1,0,0:0:0:0:
64,192,63271,1,0,0:0:0:0:
320,192,63271,1,0,0:0:0:0:
192,192,63446,1,0,0:0:0:0:
64,192,63623,1,0,0:0:0:0:
320,192,63800,1,0,0:0:0:0:
192,192,63888,1,0,0:0:0:0:
64,192,63976,1,0,0:0:0:0:
448,192,63976,1,0,0:0:0:0:
192,192,64152,1,0,0:0:0:0:
64,192,64329,1,0,0:0:0:0:
320,192,64329,1,0,0:0:0:0:
192,192,64506,1,0,0:0:0:0:
64,192,64682,1,0,0:0:0:0:
448,192,64771,1,0,0:0:0:0:
320,192,64858,1,0,0:0:0:0:
64,192,65035,1,0,0:0:0:0:
320,192,65035,1,0,0:0:0:0:
448,192,65211,1,0,0:0:0:0:
64,192,65388,1,0,0:0:0:0:
192,192,65388,1,0,0:0:0:0:
448,192,65564,1,0,0:0:0:0:
64,192,65741,1,0,0:0:0:0:
320,192,65741,1,0,0:0:0:0:
192,192,65917,1,0,0:0:0:0:
64,192,66094,1,0,0:0:0:0:
448,192,66094,1,0,0:0:0:0:
320,192,66270,1,0,0:0:0:0:
448,192,66358,1,0,0:0:0:0:
64,192,66446,1,0,0:0:0:0:
320,192,66535,1,0,0:0:0:0:
192,192,66623,1,0,0:0:0:0:
64,192,66800,1,0,0:0:0:0:
192,192,66800,1,0,0:0:0:0:
448,192,66976,1,0,0:0:0:0:
64,192,67152,1,0,0:0:0:0:
192,192,67152,1,0,0:0:0:0:
448,192,67329,1,0,0:0:0:0:
64,192,67506,1,0,0:0:0:0:
192,192,67564,1,0,0:0:0:0:
320,192,67623,1,0,0:0:0:0:
448,192,67681,1,0,0:0:0:0:
192,192,67741,1,0,0:0:0:0:
320,192,67800,1,0,0:0:0:0:
64,192,67858,1,0,0:0:0:0:
448,192,68035,1,0,0:0:0:0:
64,192,68212,1,0,0:0:0:0:
448,192,68212,1,0,0:0:0:0:
192,192,68387,1,0,0:0:0:0:
64,192,68564,1,0,0:0:0:0:
320,192,68741,1,0,0:0:0:0:
192,192,68829,1,0,0:0:0:0:
64,192,68918,1,0,0:0:0:0:
320,192,68918,1,0,0:0:0:0:
192,192,69093,1,0,0:0:0:0:
64,192,69270,1,0,0:0:0:0:
192,192,69270,1,0,0:0:0:0:
448,192,69447,1,0,0:0:0:0:
64,192,69624,1,0,0:0:0:0:
448,192,69799,1,0,0:0:0:0:
64,192,69976,1,0,0:0:0:0:
448,192,69976,1,0,0:0:0:0:
320,192,70153,1,0,0:0:0:0:
64,192,70330,1,0,0:0:0:0:
192,192,70330,1,0,0:0:0:0:
64,192,70505,1,0,0:0:0:0:
320,192,70565,1,0,0:0:0:0:
192,192,70623,1,0,0:0:0:0:
64,192,70682,1,0,0:0:0:0:
448,192,70682,1,0,0:0:0:0:
320,192,70859,1,0,0:0:0:0:
448,192,71035,1,0,0:0:0:0:
192,192,71035,1,0,0:0:0:0:
64,192,71211,1,0,0:0:0:0:
64,192,71388,1,0,0:0:0:0:
320,192,71388,1,0,0:0:0:0:
192,192,71565,1,0,0:0:0:0:
64,192,71741,1,0,0:0:0:0:
448,192,71741,1,0,0:0:0:0:
320,192,71917,1,0,0:0:0:0:
64,192,72094,1,0,0:0:0:0:
448,192,72094,1,0,0:0:0:0:
320,192,72270,1,0,0:0:0:0:
64,192,72447,1,0,0:0:0:0:
192,192,72447,1,0,0:0:0:0:
448,192,72534,1,0,0:0:0:0:
320,192,72623,1,0,0:0:0:0:
64,192,72800,1,0,0:0:0:0:
448,192,72800,1,0,0:0:0:0:
320,192,72976,1,0,0:0:0:0:
192,192,73153,1,0,0:0:0:0:
448,192,73212,1,0,0:0:0:0:
320,192,73270,1,0,0:0:0:0:
64,192,73329,1,0,0:0:0:0:
448,192,73388,1,0,0:0:0:0:
320,192,73447,1,0,0:0:0:0:
192,192,73505,1,0,0:0:0:0:
64,192,73505,128,0,73858:0:0:0:0:
64,192,74035,128,0,74210:0:0:0:0:
320,192,74210,128,0,74564:0:0:0:0:
64,192,74564,128,0,74916:0:0:0:0:
448,192,74916,1,0,0:0:0:0:
448,192,75004,1,0,0:0:0:0:
192,192,75093,1,0,0:0:0:0:
192,192,75181,1,0,0:0:0:0:
320,192,75270,128,0,75622:0:0:0:0:
64,192,75622,128,0,75666:0:0:0:0:
192,192,75799,128,0,75975:0:0:0:0:
320,192,75975,128,0,76241:0:0:0:0:
192,192,76328,1,0,0:0:0:0:
320,192,76328,1,0,0:0:0:0:
448,192,76328,1,0,0:0:0:0:
64,192,76328,128,0,76681:0:0:0:0:
64,192,76858,128,0,77034:0:0:0:0:
320,192,77034,128,0,77387:0:0:0:0:
64,192,77387,128,0,77740:0:0:0:0:
448,192,77740,1,0,0:0:0:0:
448,192,77828,1,0,0:0:0:0:
192,192,77916,1,0,0:0:0:0:
192,192,78005,1,0,0:0:0:0:
320,192,78093,128,0,79064:0:0:0:0:
448,192,78445,128,0,79064:0:0:0:0:
192,192,78622,128,0,78799:0:0:0:0:
64,192,78799,128,0,79064:0:0:0:0:
192,192,78976,128,0,79064:0:0:0:0:
320,192,79151,1,0,0:0:0:0:
448,192,79151,1,0,0:0:0:0:
192,192,79151,1,0,0:0:0:0:
64,192,79151,128,0,79505:0:0:0:0:
64,192,79682,128,0,79857:0:0:0:0:
320,192,79857,128,0,80211:0:0:0:0:
448,192,80211,128,0,80563:0:0:0:0:
192,192,80563,1,0,0:0:0:0:
192,192,80652,1,0,0:0:0:0:
448,192,80740,1,0,0:0:0:0:
448,192,80828,1,0,0:0:0:0:
320,192,80917,128,0,81269:0:0:0:0:
64,192,81269,128,0,81313:0:0:0:0:
192,192,81446,128,0,81623:0:0:0:0:
448,192,81623,1,0,0:0:0:0:
320,192,81681,1,0,0:0:0:0:
192,192,81740,1,0,0:0:0:0:
64,192,81799,1,0,0:0:0:0:
192,192,81975,1,0,0:0:0:0:
320,192,81975,1,0,0:0:0:0:
64,192,81975,128,0,82329:0:0:0:0:
64,192,82505,128,0,82681:0:0:0:0:
320,192,82681,128,0,83034:0:0:0:0:
64,192,83034,128,0,83387:0:0:0:0:
192,192,83564,128,0,83917:0:0:0:0:
320,192,83740,128,0,84093:0:0:0:0:
64,192,83917,128,0,84710:0:0:0:0:
192,192,84093,128,0,84446:0:0:0:0:
320,192,84269,128,0,84710:0:0:0:0:
448,192,84446,128,0,84710:0:0:0:0:
192,192,84623,128,0,84710:0:0:0:0:
320,192,84799,1,0,0:0:0:0:
448,192,84799,1,0,0:0:0:0:
192,192,84799,1,0,0:0:0:0:
64,192,84799,128,0,85152:0:0:0:0:
448,192,84975,128,0,85152:0:0:0:0:
320,192,85152,1,0,0:0:0:0:
64,192,85329,128,0,85504:0:0:0:0:
192,192,85504,1,0,0:0:0:0:
448,192,85504,1,0,0:0:0:0:
320,192,85504,1,0,0:0:0:0:
320,192,85681,128,0,86035:0:0:0:0:
64,192,85858,128,0,86210:0:0:0:0:
448,192,86035,128,0,86210:0:0:0:0:
320,192,86210,1,0,0:0:0:0:
64,192,86387,1,0,0:0:0:0:
64,192,86475,1,0,0:0:0:0:
320,192,86564,1,0,0:0:0:0:
320,192,86652,1,0,0:0:0:0:
448,192,86740,128,0,86828:0:0:0:0:
192,192,86916,1,0,0:0:0:0:
448,192,86916,1,0,0:0:0:0:
64,192,86916,1,0,0:0:0:0:
64,192,87005,1,0,0:0:0:0:
192,192,87093,128,0,87181:0:0:0:0:
320,192,87270,128,0,87445:0:0:0:0:
192,192,87445,1,0,0:0:0:0:
192,192,87622,1,0,0:0:0:0:
320,192,87622,1,0,0:0:0:0:
448,192,87622,1,0,0:0:0:0:
64,192,87622,128,0,87976:0:0:0:0:
448,192,87799,128,0,87976:0:0:0:0:
320,192,87976,1,0,0:0:0:0:
64,192,88151,128,0,88328:0:0:0:0:
192,192,88328,1,0,0:0:0:0:
448,192,88328,1,0,0:0:0:0:
320,192,88328,1,0,0:0:0:0:
320,192,88505,128,0,88857:0:0:0:0:
192,192,88593,1,0,0:0:0:0:
448,192,88682,128,0,89034:0:0:0:0:
64,192,88682,128,0,88857:0:0:0:0:
192,192,88857,1,0,0:0:0:0:
192,192,88946,1,0,0:0:0:0:
320,192,89034,1,0,0:0:0:0:
64,192,89211,128,0,89299:0:0:0:0:
448,192,89211,128,0,89299:0:0:0:0:
320,192,89388,128,0,89740:0:0:0:0:
192,192,89563,128,0,89740:0:0:0:0:
448,192,89740,1,0,0:0:0:0:
64,192,89740,1,0,0:0:0:0:
192,192,89917,128,0,90357:0:0:0:0:
320,192,90093,128,0,90357:0:0:0:0:
64,192,90269,128,0,90357:0:0:0:0:
448,192,90269,128,0,90357:0:0:0:0:
320,192,90446,1,0,0:0:0:0:
448,192,90446,1,0,0:0:0:0:
192,192,90446,1,0,0:0:0:0:
64,192,90446,128,0,90798:0:0:0:0:
448,192,90621,128,0,90798:0:0:0:0:
192,192,90621,1,0,0:0:0:0:
320,192,90798,1,0,0:0:0:0:
192,192,90798,1,0,0:0:0:0:
64,192,90975,128,0,91150:0:0:0:0:
320,192,90975,1,0,0:0:0:0:
320,192,91150,128,0,91327:0:0:0:0:
192,192,91150,1,0,0:0:0:0:
448,192,91150,1,0,0:0:0:0:
448,192,91327,128,0,91504:0:0:0:0:
64,192,91327,1,0,0:0:0:0:
64,192,91504,128,0,91681:0:0:0:0:
192,192,91504,1,0,0:0:0:0:
320,192,91504,1,0,0:0:0:0:
192,192,91681,128,0,91856:0:0:0:0:
448,192,91681,1,0,0:0:0:0:
64,192,91856,5,0,0:0:0:0:
320,192,91856,1,0,0:0:0:0:
320,192,91946,1,0,0:0:0:0:
448,192,92033,128,0,92210:0:0:0:0:
192,192,92033,1,0,0:0:0:0:
320,192,92210,128,0,92387:0:0:0:0:
64,192,92210,1,0,0:0:0:0:
192,192,92210,1,0,0:0:0:0:
192,192,92387,128,0,92562:0:0:0:0:
448,192,92387,1,0,0:0:0:0:
320,192,92446,1,0,0:0:0:0:
64,192,92504,1,0,0:0:0:0:
448,192,92562,1,0,0:0:0:0:
320,192,92562,1,0,0:0:0:0:
192,192,92739,1,0,0:0:0:0:
320,192,92797,1,0,0:0:0:0:
64,192,92916,1,0,0:0:0:0:
192,192,92916,1,0,0:0:0:0:
448,192,93033,1,0,0:0:0:0:
320,192,93093,1,0,0:0:0:0:
64,192,93268,1,0,0:0:0:0:
192,192,93268,1,0,0:0:0:0:
448,192,93268,1,0,0:0:0:0:
448,192,93356,1,0,0:0:0:0:
320,192,93356,1,0,0:0:0:0:
192,192,93445,1,0,0:0:0:0:
448,192,93533,1,0,0:0:0:0:
64,192,93622,1,0,0:0:0:0:
320,192,93622,1,0,0:0:0:0:
192,192,93710,1,0,0:0:0:0:
64,192,93710,1,0,0:0:0:0:
320,192,93798,1,0,0:0:0:0:
64,192,93887,1,0,0:0:0:0:
320,192,93974,1,0,0:0:0:0:
192,192,93974,1,0,0:0:0:0:
320,192,94062,1,0,0:0:0:0:
448,192,94062,1,0,0:0:0:0:
192,192,94151,1,0,0:0:0:0:
448,192,94239,1,0,0:0:0:0:
192,192,94328,1,0,0:0:0:0:
320,192,94328,1,0,0:0:0:0:
64,192,94416,1,0,0:0:0:0:
192,192,94416,1,0,0:0:0:0:
320,192,94504,1,0,0:0:0:0:
448,192,94593,1,0,0:0:0:0:
64,192,94680,128,0,94857:0:0:0:0:
320,192,94680,1,0,0:0:0:0:
192,192,94680,1,0,0:0:0:0:
448,192,94768,128,0,94945:0:0:0:0:
320,192,94857,128,0,95033:0:0:0:0:
192,192,94945,128,0,95122:0:0:0:0:
64,192,95033,128,0,95299:0:0:0:0:
448,192,95122,128,0,95299:0:0:0:0:
320,192,95210,128,0,95299:0:0:0:0:
192,192,95299,1,0,0:0:0:0:
64,192,95386,1,0,0:0:0:0:
448,192,95386,1,0,0:0:0:0:
320,192,95386,1,0,0:0:0:0:
64,192,95739,1,0,0:0:0:0:
448,192,95916,1,0,0:0:0:0:
64,192,96092,1,0,0:0:0:0:
192,192,96092,128,0,96180:0:0:0:0:
320,192,96092,128,0,96268:0:0:0:0:
448,192,96092,128,0,96357:0:0:0:0:
64,192,96268,1,0,0:0:0:0:
192,192,96357,1,0,0:0:0:0:
320,192,96445,1,0,0:0:0:0:
448,192,96445,1,0,0:0:0:0:
64,192,96622,128,0,96798:0:0:0:0:
192,192,96622,1,0,0:0:0:0:
320,192,96798,1,0,0:0:0:0:
192,192,96798,128,0,96974:0:0:0:0:
448,192,96798,1,0,0:0:0:0:
320,192,96974,128,0,97063:0:0:0:0:
64,192,96974,128,0,97063:0:0:0:0:
64,192,97151,1,0,0:0:0:0:
192,192,97151,1,0,0:0:0:0:
448,192,97151,128,0,97328:0:0:0:0:
320,192,97328,1,0,0:0:0:0:
64,192,97503,128,0,97769:0:0:0:0:
192,192,97503,128,0,97680:0:0:0:0:
320,192,97503,128,0,97592:0:0:0:0:
448,192,97680,1,0,0:0:0:0:
320,192,97769,1,0,0:0:0:0:
192,192,97857,1,0,0:0:0:0:
64,192,97857,1,0,0:0:0:0:
320,192,98034,128,0,98209:0:0:0:0:
448,192,98034,1,0,0:0:0:0:
192,192,98209,1,0,0:0:0:0:
64,192,98209,1,0,0:0:0:0:
448,192,98209,128,0,98475:0:0:0:0:
320,192,98298,1,0,0:0:0:0:
64,192,98386,1,0,0:0:0:0:
192,192,98475,1,0,0:0:0:0:
448,192,98563,1,0,0:0:0:0:
320,192,98563,1,0,0:0:0:0:
64,192,98563,128,0,98740:0:0:0:0:
192,192,98651,1,0,0:0:0:0:
448,192,98740,1,0,0:0:0:0:
320,192,98827,1,0,0:0:0:0:
64,192,98915,128,0,99092:0:0:0:0:
192,192,98915,128,0,99004:0:0:0:0:
448,192,98915,128,0,99180:0:0:0:0:
320,192,99092,1,0,0:0:0:0:
192,192,99180,1,0,0:0:0:0:
64,192,99269,1,0,0:0:0:0:
448,192,99269,1,0,0:0:0:0:
320,192,99357,1,0,0:0:0:0:
192,192,99446,128,0,99621:0:0:0:0:
448,192,99446,1,0,0:0:0:0:
320,192,99621,128,0,99798:0:0:0:0:
64,192,99621,1,0,0:0:0:0:
448,192,99621,1,0,0:0:0:0:
448,192,99798,128,0,99886:0:0:0:0:
192,192,99798,128,0,99886:0:0:0:0:
320,192,99975,128,0,100063:0:0:0:0:
64,192,99975,128,0,100063:0:0:0:0:
192,192,100152,1,0,0:0:0:0:
448,192,100196,1,0,0:0:0:0:
192,192,100239,1,0,0:0:0:0:
320,192,100327,128,0,100415:0:0:0:0:
448,192,100327,128,0,100504:0:0:0:0:
64,192,100327,128,0,100504:0:0:0:0:
192,192,100504,128,0,100681:0:0:0:0:
320,192,100592,1,0,0:0:0:0:
448,192,100681,1,0,0:0:0:0:
64,192,100681,1,0,0:0:0:0:
320,192,100857,1,0,0:0:0:0:
192,192,100857,128,0,101033:0:0:0:0:
64,192,101033,1,0,0:0:0:0:
448,192,101033,1,0,0:0:0:0:
320,192,101033,128,0,101210:0:0:0:0:
64,192,101210,128,0,101387:0:0:0:0:
192,192,101431,1,0,0:0:0:0:
64,192,101475,1,0,0:0:0:0:
448,192,101519,1,0,0:0:0:0:
320,192,101563,1,0,0:0:0:0:
64,192,101606,1,0,0:0:0:0:
192,192,101650,1,0,0:0:0:0:
320,192,101695,1,0,0:0:0:0:
192,192,101739,128,0,101827:0:0:0:0:
64,192,101739,128,0,101916:0:0:0:0:
448,192,101739,128,0,102004:0:0:0:0:
320,192,101916,1,0,0:0:0:0:
192,192,102004,1,0,0:0:0:0:
64,192,102092,1,0,0:0:0:0:
448,192,102092,1,0,0:0:0:0:
320,192,102181,1,0,0:0:0:0:
192,192,102269,1,0,0:0:0:0:
64,192,102269,128,0,102445:0:0:0:0:
448,192,102445,1,0,0:0:0:0:
320,192,102445,1,0,0:0:0:0:
192,192,102445,128,0,102622:0:0:0:0:
448,192,102622,128,0,102710:0:0:0:0:
320,192,102622,128,0,102710:0:0:0:0:
64,192,102798,128,0,102975:0:0:0:0:
448,192,102798,1,0,0:0:0:0:
192,192,102975,1,0,0:0:0:0:
192,192,103062,1,0,0:0:0:0:
320,192,103151,128,0,103239:0:0:0:0:
448,192,103151,128,0,103327:0:0:0:0:
64,192,103151,128,0,103416:0:0:0:0:
192,192,103327,1,0,0:0:0:0:
320,192,103416,1,0,0:0:0:0:
448,192,103504,1,0,0:0:0:0:
64,192,103504,1,0,0:0:0:0:
192,192,103680,1,0,0:0:0:0:
320,192,103680,128,0,103857:0:0:0:0:
64,192,103857,1,0,0:0:0:0:
192,192,103857,1,0,0:0:0:0:
448,192,103857,128,0,104122:0:0:0:0:
320,192,103945,128,0,104122:0:0:0:0:
64,192,104033,128,0,104210:0:0:0:0:
192,192,104122,128,0,104299:0:0:0:0:
320,192,104210,128,0,104386:0:0:0:0:
448,192,104210,128,0,104474:0:0:0:0:
64,192,104299,1,0,0:0:0:0:
192,192,104386,1,0,0:0:0:0:
320,192,104474,1,0,0:0:0:0:
192,192,104562,128,0,104651:0:0:0:0:
64,192,104562,128,0,104739:0:0:0:0:
448,192,104562,128,0,104828:0:0:0:0:
320,192,104739,1,0,0:0:0:0:
192,192,104828,1,0,0:0:0:0:
64,192,104916,1,0,0:0:0:0:
448,192,104916,1,0,0:0:0:0:
192,192,105004,1,0,0:0:0:0:
320,192,105092,128,0,105268:0:0:0:0:
448,192,105092,1,0,0:0:0:0:
192,192,105268,128,0,105445:0:0:0:0:
64,192,105268,1,0,0:0:0:0:
448,192,105268,1,0,0:0:0:0:
64,192,105445,128,0,105534:0:0:0:0:
320,192,105445,128,0,105534:0:0:0:0:
448,192,105622,128,0,105710:0:0:0:0:
192,192,105622,128,0,105710:0:0:0:0:
320,192,105797,1,0,0:0:0:0:
64,192,105843,1,0,0:0:0:0:
192,192,105887,1,0,0:0:0:0:
320,192,105974,128,0,106063:0:0:0:0:
448,192,105974,128,0,106151:0:0:0:0:
64,192,105974,128,0,106239:0:0:0:0:
192,192,106151,1,0,0:0:0:0:
320,192,106239,1,0,0:0:0:0:
448,192,106328,1,0,0:0:0:0:
64,192,106328,1,0,0:0:0:0:
320,192,106503,1,0,0:0:0:0:
448,192,106503,1,0,0:0:0:0:
192,192,106563,1,0,0:0:0:0:
320,192,106622,1,0,0:0:0:0:
64,192,106680,128,0,106857:0:0:0:0:
192,192,106680,128,0,106813:0:0:0:0:
448,192,106680,128,0,106769:0:0:0:0:
192,192,106945,128,0,107122:0:0:0:0:
320,192,106945,128,0,107034:0:0:0:0:
448,192,106945,128,0,107078:0:0:0:0:
448,192,107209,128,0,107386:0:0:0:0:
320,192,107209,128,0,107298:0:0:0:0:
64,192,107209,128,0,107298:0:0:0:0:
320,192,107386,128,0,107474:0:0:0:0:
64,192,107386,128,0,107651:0:0:0:0:
192,192,107386,128,0,107563:0:0:0:0:
448,192,107563,1,0,0:0:0:0:
448,192,107651,1,0,0:0:0:0:
320,192,107740,1,0,0:0:0:0:
64,192,107740,1,0,0:0:0:0:
448,192,107915,128,0,108092:0:0:0:0:
192,192,107915,1,0,0:0:0:0:
320,192,108092,128,0,108269:0:0:0:0:
64,192,108092,1,0,0:0:0:0:
192,192,108092,1,0,0:0:0:0:
192,192,108269,128,0,108357:0:0:0:0:
448,192,108269,128,0,108357:0:0:0:0:
64,192,108446,128,0,108621:0:0:0:0:
320,192,108446,1,0,0:0:0:0:
448,192,108446,1,0,0:0:0:0:
192,192,108621,1,0,0:0:0:0:
448,192,108798,128,0,109033:0:0:0:0:
192,192,108798,128,0,108916:0:0:0:0:
320,192,108798,128,0,108975:0:0:0:0:
64,192,108975,1,0,0:0:0:0:
192,192,109033,1,0,0:0:0:0:
320,192,109092,1,0,0:0:0:0:
448,192,109151,1,0,0:0:0:0:
64,192,109151,1,0,0:0:0:0:
320,192,109240,1,0,0:0:0:0:
64,192,109327,1,0,0:0:0:0:
192,192,109327,128,0,109504:0:0:0:0:
320,192,109504,1,0,0:0:0:0:
64,192,109504,128,0,109769:0:0:0:0:
448,192,109504,1,0,0:0:0:0:
448,192,109592,1,0,0:0:0:0:
192,192,109681,1,0,0:0:0:0:
320,192,109769,1,0,0:0:0:0:
448,192,109857,128,0,110033:0:0:0:0:
192,192,109857,1,0,0:0:0:0:
64,192,109857,1,0,0:0:0:0:
64,192,109944,1,0,0:0:0:0:
320,192,110033,1,0,0:0:0:0:
192,192,110121,1,0,0:0:0:0:
448,192,110210,128,0,110386:0:0:0:0:
320,192,110210,128,0,110298:0:0:0:0:
64,192,110210,128,0,110475:0:0:0:0:
192,192,110386,1,0,0:0:0:0:
320,192,110475,1,0,0:0:0:0:
192,192,110563,1,0,0:0:0:0:
448,192,110563,1,0,0:0:0:0:
192,192,110650,1,0,0:0:0:0:
64,192,110739,1,0,0:0:0:0:
320,192,110739,128,0,110916:0:0:0:0:
192,192,110916,128,0,111092:0:0:0:0:
64,192,110916,1,0,0:0:0:0:
448,192,110916,1,0,0:0:0:0:
320,192,111092,128,0,111181:0:0:0:0:
64,192,111092,128,0,111181:0:0:0:0:
192,192,111269,128,0,111356:0:0:0:0:
448,192,111269,128,0,111356:0:0:0:0:
320,192,111445,1,0,0:0:0:0:
64,192,111490,1,0,0:0:0:0:
320,192,111533,1,0,0:0:0:0:
64,192,111621,128,0,111798:0:0:0:0:
448,192,111621,128,0,111798:0:0:0:0:
192,192,111621,128,0,111710:0:0:0:0:
320,192,111798,128,0,111975:0:0:0:0:
192,192,111887,1,0,0:0:0:0:
448,192,111975,1,0,0:0:0:0:
64,192,111975,1,0,0:0:0:0:
320,192,112151,128,0,112327:0:0:0:0:
192,192,112151,1,0,0:0:0:0:
448,192,112327,128,0,112416:0:0:0:0:
192,192,112327,128,0,112416:0:0:0:0:
64,192,112327,128,0,112416:0:0:0:0:
320,192,112416,128,0,112504:0:0:0:0:
192,192,112504,128,0,112593:0:0:0:0:
64,192,112504,128,0,112593:0:0:0:0:
448,192,112593,128,0,112681:0:0:0:0:
320,192,112681,128,0,112768:0:0:0:0:
192,192,112681,128,0,112768:0:0:0:0:
64,192,112768,128,0,112856:0:0:0:0:
320,192,112856,128,0,112945:0:0:0:0:
448,192,112856,128,0,112945:0:0:0:0:
192,192,112945,128,0,113033:0:0:0:0:
320,192,113033,128,0,113122:0:0:0:0:
64,192,113033,128,0,113298:0:0:0:0:
448,192,113033,128,0,113210:0:0:0:0:
192,192,113210,1,0,0:0:0:0:
320,192,113298,1,0,0:0:0:0:
448,192,113387,1,0,0:0:0:0:
64,192,113387,1,0,0:0:0:0:
64,192,113474,1,0,0:0:0:0:
448,192,113562,128,0,113739:0:0:0:0:
192,192,113562,1,0,0:0:0:0:
320,192,113739,128,0,113916:0:0:0:0:
64,192,113739,1,0,0:0:0:0:
192,192,113739,1,0,0:0:0:0:
192,192,113916,128,0,114004:0:0:0:0:
64,192,113916,128,0,114004:0:0:0:0:
64,192,114093,1,0,0:0:0:0:
448,192,114093,128,0,114268:0:0:0:0:
320,192,114268,1,0,0:0:0:0:
320,192,114357,1,0,0:0:0:0:
448,192,114445,128,0,114710:0:0:0:0:
64,192,114445,128,0,114622:0:0:0:0:
192,192,114445,128,0,114533:0:0:0:0:
320,192,114622,1,0,0:0:0:0:
192,192,114710,1,0,0:0:0:0:
64,192,114799,1,0,0:0:0:0:
448,192,114799,1,0,0:0:0:0:
448,192,114886,1,0,0:0:0:0:
192,192,114974,128,0,115151:0:0:0:0:
320,192,114974,1,0,0:0:0:0:
320,192,115151,1,0,0:0:0:0:
448,192,115151,128,0,115416:0:0:0:0:
64,192,115151,1,0,0:0:0:0:
64,192,115239,1,0,0:0:0:0:
192,192,115328,1,0,0:0:0:0:
320,192,115416,1,0,0:0:0:0:
64,192,115505,128,0,115768:0:0:0:0:
448,192,115505,1,0,0:0:0:0:
192,192,115505,1,0,0:0:0:0:
448,192,115592,1,0,0:0:0:0:
320,192,115680,1,0,0:0:0:0:
192,192,115768,1,0,0:0:0:0:
64,192,115857,128,0,116122:0:0:0:0:
320,192,115857,128,0,115945:0:0:0:0:
448,192,115857,128,0,116034:0:0:0:0:
192,192,116034,1,0,0:0:0:0:
320,192,116122,1,0,0:0:0:0:
64,192,116210,1,0,0:0:0:0:
448,192,116210,1,0,0:0:0:0:
64,192,116298,1,0,0:0:0:0:
192,192,116386,128,0,116563:0:0:0:0:
320,192,116386,1,0,0:0:0:0:
320,192,116563,128,0,116740:0:0:0:0:
448,192,116563,1,0,0:0:0:0:
64,192,116563,1,0,0:0:0:0:
448,192,116740,128,0,116828:0:0:0:0:
192,192,116740,128,0,116828:0:0:0:0:
320,192,116915,128,0,117003:0:0:0:0:
64,192,116915,128,0,117003:0:0:0:0:
320,192,117092,1,0,0:0:0:0:
64,192,117136,1,0,0:0:0:0:
320,192,117180,1,0,0:0:0:0:
192,192,117269,128,0,117975:0:0:0:0:
64,192,117269,128,0,117621:0:0:0:0:
448,192,117269,128,0,117621:0:0:0:0:
320,192,117975,128,0,118327:0:0:0:0:
448,192,117975,128,0,118327:0:0:0:0:
64,192,117975,1,0,0:0:0:0:
64,192,118327,1,0,0:0:0:0:
192,192,118371,1,0,0:0:0:0:
320,192,118415,1,0,0:0:0:0:
64,192,118459,1,0,0:0:0:0:
192,192,118504,1,0,0:0:0:0:
448,192,118548,1,0,0:0:0:0:
320,192,118592,1,0,0:0:0:0:
192,192,118636,1,0,0:0:0:0:
64,192,118680,1,0,0:0:0:0:
448,192,118680,128,0,119033:0:0:0:0:
320,192,118857,128,0,119033:0:0:0:0:
192,192,118946,128,0,119033:0:0:0:0:
64,192,119033,1,0,0:0:0:0:
192,192,119210,128,0,119298:0:0:0:0:
192,192,119386,1,0,0:0:0:0:
448,192,119386,1,0,0:0:0:0:
320,192,119386,128,0,119503:0:0:0:0:
64,192,119386,128,0,119503:0:0:0:0:
448,192,119503,128,0,119622:0:0:0:0:
320,192,119739,128,0,119915:0:0:0:0:
448,192,119739,128,0,119915:0:0:0:0:
192,192,119915,128,0,120092:0:0:0:0:
320,192,120092,1,0,0:0:0:0:
448,192,120092,1,0,0:0:0:0:
64,192,120092,128,0,120445:0:0:0:0:
192,192,120269,128,0,120445:0:0:0:0:
320,192,120357,128,0,120445:0:0:0:0:
448,192,120445,128,0,120533:0:0:0:0:
192,192,120621,128,0,120710:0:0:0:0:
320,192,120621,128,0,120710:0:0:0:0:
64,192,120798,1,0,0:0:0:0:
192,192,120798,1,0,0:0:0:0:
448,192,120798,128,0,121327:0:0:0:0:
320,192,120798,128,0,121327:0:0:0:0:
192,192,121150,128,0,121327:0:0:0:0:
64,192,121150,128,0,121327:0:0:0:0:
192,192,121504,1,0,0:0:0:0:
320,192,121504,1,0,0:0:0:0:
448,192,121504,1,0,0:0:0:0:
64,192,121504,128,0,121856:0:0:0:0:
192,192,121681,128,0,121856:0:0:0:0:
320,192,121769,128,0,121856:0:0:0:0:
448,192,121856,1,0,0:0:0:0:
64,192,122033,128,0,122122:0:0:0:0:
64,192,122210,1,0,0:0:0:0:
448,192,122210,1,0,0:0:0:0:
192,192,122210,128,0,122387:0:0:0:0:
320,192,122210,128,0,122387:0:0:0:0:
448,192,122387,128,0,122475:0:0:0:0:
64,192,122562,128,0,122739:0:0:0:0:
320,192,122562,128,0,122739:0:0:0:0:
448,192,122739,1,0,0:0:0:0:
192,192,122798,1,0,0:0:0:0:
448,192,122857,1,0,0:0:0:0:
64,192,122916,128,0,123268:0:0:0:0:
192,192,122916,128,0,123093:0:0:0:0:
320,192,122916,128,0,123093:0:0:0:0:
448,192,123093,1,0,0:0:0:0:
320,192,123268,128,0,123445:0:0:0:0:
192,192,123268,128,0,123445:0:0:0:0:
448,192,123268,128,0,123445:0:0:0:0:
64,192,123445,1,0,0:0:0:0:
320,192,123503,1,0,0:0:0:0:
64,192,123563,1,0,0:0:0:0:
192,192,123622,128,0,123799:0:0:0:0:
320,192,123622,128,0,123799:0:0:0:0:
448,192,123622,128,0,123974:0:0:0:0:
64,192,123799,1,0,0:0:0:0:
64,192,123974,128,0,124239:0:0:0:0:
192,192,123974,128,0,124239:0:0:0:0:
320,192,123974,128,0,124239:0:0:0:0:
64,192,124328,1,0,0:0:0:0:
192,192,124328,1,0,0:0:0:0:
320,192,124328,1,0,0:0:0:0:
448,192,124328,128,0,124680:0:0:0:0:
320,192,124504,128,0,124680:0:0:0:0:
192,192,124592,128,0,124680:0:0:0:0:
64,192,124680,1,0,0:0:0:0:
64,192,124857,128,0,124945:0:0:0:0:
64,192,125034,1,0,0:0:0:0:
448,192,125034,1,0,0:0:0:0:
320,192,125034,128,0,125210:0:0:0:0:
192,192,125034,128,0,125210:0:0:0:0:
448,192,125210,128,0,125297:0:0:0:0:
192,192,125386,128,0,125563:0:0:0:0:
64,192,125386,128,0,125563:0:0:0:0:
320,192,125563,128,0,125739:0:0:0:0:
192,192,125739,1,0,0:0:0:0:
448,192,125739,1,0,0:0:0:0:
64,192,125739,128,0,126092:0:0:0:0:
192,192,125916,128,0,126092:0:0:0:0:
320,192,126003,128,0,126092:0:0:0:0:
448,192,126092,128,0,126180:0:0:0:0:
320,192,126269,128,0,126357:0:0:0:0:
192,192,126445,1,0,0:0:0:0:
320,192,126445,1,0,0:0:0:0:
448,192,126445,128,0,126974:0:0:0:0:
64,192,126445,128,0,126974:0:0:0:0:
192,192,126798,128,0,126974:0:0:0:0:
320,192,126798,128,0,126974:0:0:0:0:
64,192,127151,1,0,0:0:0:0:
192,192,127151,128,0,127268:0:0:0:0:
320,192,127151,128,0,127328:0:0:0:0:
448,192,127151,128,0,127387:0:0:0:0:
64,192,127328,1,0,0:0:0:0:
192,192,127387,1,0,0:0:0:0:
320,192,127445,1,0,0:0:0:0:
448,192,127504,1,0,0:0:0:0:
64,192,127504,1,0,0:0:0:0:
192,192,127680,128,0,127769:0:0:0:0:
320,192,127680,128,0,127769:0:0:0:0:
64,192,127857,128,0,128121:0:0:0:0:
192,192,127857,128,0,128121:0:0:0:0:
320,192,127857,1,0,0:0:0:0:
448,192,127857,1,0,0:0:0:0:
448,192,128034,128,0,128121:0:0:0:0:
320,192,128034,128,0,128121:0:0:0:0:
320,192,128209,128,0,128298:0:0:0:0:
192,192,128386,1,0,0:0:0:0:
320,192,128445,1,0,0:0:0:0:
64,192,128505,1,0,0:0:0:0:
192,192,128563,1,0,0:0:0:0:
320,192,128563,1,0,0:0:0:0:
448,192,128563,1,0,0:0:0:0:
320,192,128740,1,0,0:0:0:0:
192,192,128798,1,0,0:0:0:0:
448,192,128857,1,0,0:0:0:0:
64,192,128915,1,0,0:0:0:0:
320,192,128915,128,0,129092:0:0:0:0:
192,192,129092,1,0,0:0:0:0:
64,192,129151,1,0,0:0:0:0:
320,192,129210,1,0,0:0:0:0:
448,192,129269,1,0,0:0:0:0:
64,192,129269,128,0,129533:0:0:0:0:
192,192,129269,128,0,129577:0:0:0:0:
320,192,129444,128,0,129621:0:0:0:0:
448,192,129444,128,0,129665:0:0:0:0:
64,192,129621,1,0,0:0:0:0:
192,192,129665,1,0,0:0:0:0:
320,192,129710,1,0,0:0:0:0:
448,192,129754,1,0,0:0:0:0:
64,192,129798,128,0,129886:0:0:0:0:
192,192,129798,128,0,129886:0:0:0:0:
448,192,129975,128,0,130063:0:0:0:0:
192,192,129975,128,0,130150:0:0:0:0:
64,192,129975,128,0,130327:0:0:0:0:
320,192,129975,1,0,0:0:0:0:
320,192,130150,128,0,130239:0:0:0:0:
192,192,130327,128,0,130416:0:0:0:0:
448,192,130327,1,0,0:0:0:0:
64,192,130504,128,0,130592:0:0:0:0:
192,192,130562,1,0,0:0:0:0:
320,192,130621,1,0,0:0:0:0:
448,192,130681,1,0,0:0:0:0:
192,192,130681,128,0,130945:0:0:0:0:
64,192,130681,128,0,130945:0:0:0:0:
448,192,130856,128,0,130945:0:0:0:0:
320,192,130856,128,0,130945:0:0:0:0:
320,192,131033,128,0,131121:0:0:0:0:
64,192,131033,128,0,131210:0:0:0:0:
192,192,131210,128,0,131298:0:0:0:0:
448,192,131210,128,0,131387:0:0:0:0:
64,192,131387,128,0,131475:0:0:0:0:
320,192,131387,1,0,0:0:0:0:
192,192,131387,1,0,0:0:0:0:
320,192,131562,128,0,131739:0:0:0:0:
192,192,131651,128,0,131739:0:0:0:0:
448,192,131739,128,0,131827:0:0:0:0:
64,192,131739,1,0,0:0:0:0:
64,192,131916,128,0,132004:0:0:0:0:
192,192,131916,128,0,132004:0:0:0:0:
320,192,132093,128,0,132181:0:0:0:0:
192,192,132093,1,0,0:0:0:0:
64,192,132093,1,0,0:0:0:0:
448,192,132093,128,0,132445:0:0:0:0:
192,192,132268,128,0,132356:0:0:0:0:
64,192,132445,128,0,132622:0:0:0:0:
320,192,132445,1,0,0:0:0:0:
320,192,132533,1,0,0:0:0:0:
192,192,132622,128,0,132710:0:0:0:0:
320,192,132798,128,0,132887:0:0:0:0:
192,192,132798,1,0,0:0:0:0:
64,192,132798,1,0,0:0:0:0:
448,192,132798,128,0,133151:0:0:0:0:
64,192,132887,1,0,0:0:0:0:
192,192,132974,128,0,133062:0:0:0:0:
320,192,133062,1,0,0:0:0:0:
64,192,133151,128,0,133239:0:0:0:0:
192,192,133151,1,0,0:0:0:0:
320,192,133328,1,0,0:0:0:0:
192,192,133386,1,0,0:0:0:0:
320,192,133445,1,0,0:0:0:0:
448,192,133504,128,0,133593:0:0:0:0:
64,192,133504,128,0,133768:0:0:0:0:
192,192,133504,128,0,133768:0:0:0:0:
448,192,133680,128,0,133768:0:0:0:0:
320,192,133680,128,0,133768:0:0:0:0:
320,192,133857,128,0,133945:0:0:0:0:
64,192,133857,1,0,0:0:0:0:
192,192,133945,1,0,0:0:0:0:
64,192,134033,128,0,134122:0:0:0:0:
448,192,134033,1,0,0:0:0:0:
320,192,134092,1,0,0:0:0:0:
448,192,134150,1,0,0:0:0:0:
320,192,134210,1,0,0:0:0:0:
192,192,134210,1,0,0:0:0:0:
64,192,134210,128,0,134563:0:0:0:0:
448,192,134386,128,0,134474:0:0:0:0:
192,192,134386,128,0,134563:0:0:0:0:
320,192,134563,128,0,134651:0:0:0:0:
448,192,134563,1,0,0:0:0:0:
448,192,134739,128,0,134828:0:0:0:0:
64,192,134739,1,0,0:0:0:0:
192,192,134798,1,0,0:0:0:0:
64,192,134856,1,0,0:0:0:0:
320,192,134916,128,0,135005:0:0:0:0:
192,192,134916,1,0,0:0:0:0:
448,192,134916,128,0,135092:0:0:0:0:
192,192,135092,128,0,135180:0:0:0:0:
320,192,135092,128,0,135268:0:0:0:0:
64,192,135268,128,0,135357:0:0:0:0:
448,192,135268,1,0,0:0:0:0:
192,192,135357,1,0,0:0:0:0:
320,192,135445,128,0,135534:0:0:0:0:
448,192,135445,1,0,0:0:0:0:
64,192,135534,1,0,0:0:0:0:
448,192,135622,128,0,135710:0:0:0:0:
320,192,135622,1,0,0:0:0:0:
192,192,135622,128,0,135798:0:0:0:0:
320,192,135798,128,0,135886:0:0:0:0:
64,192,135798,128,0,135974:0:0:0:0:
192,192,135974,128,0,136063:0:0:0:0:
448,192,135974,1,0,0:0:0:0:
64,192,136151,128,0,136240:0:0:0:0:
320,192,136151,128,0,136240:0:0:0:0:
320,192,136328,1,0,0:0:0:0:
448,192,136328,1,0,0:0:0:0:
64,192,136328,128,0,136592:0:0:0:0:
192,192,136328,1,0,0:0:0:0:
448,192,136503,1,0,0:0:0:0:
192,192,136503,128,0,136592:0:0:0:0:
320,192,136680,128,0,136769:0:0:0:0:
64,192,136680,128,0,136857:0:0:0:0:
192,192,136857,128,0,136945:0:0:0:0:
448,192,136857,128,0,137034:0:0:0:0:
64,192,137034,128,0,137121:0:0:0:0:
192,192,137034,1,0,0:0:0:0:
320,192,137034,128,0,137209:0:0:0:0:
448,192,137209,128,0,137386:0:0:0:0:
192,192,137209,128,0,137298:0:0:0:0:
64,192,137386,1,0,0:0:0:0:
192,192,137563,128,0,137651:0:0:0:0:
320,192,137563,128,0,137740:0:0:0:0:
192,192,137740,128,0,137827:0:0:0:0:
64,192,137740,128,0,138269:0:0:0:0:
448,192,137740,128,0,138269:0:0:0:0:
320,192,137915,128,0,138004:0:0:0:0:
320,192,138092,128,0,138269:0:0:0:0:
192,192,138092,128,0,138269:0:0:0:0:
448,192,138446,128,0,138533:0:0:0:0:
320,192,138446,1,0,0:0:0:0:
192,192,138446,128,0,138621:0:0:0:0:
64,192,138446,1,0,0:0:0:0:
320,192,138621,128,0,138710:0:0:0:0:
64,192,138621,128,0,138798:0:0:0:0:
192,192,138798,128,0,138886:0:0:0:0:
448,192,138798,1,0,0:0:0:0:
64,192,138975,128,0,139063:0:0:0:0:
320,192,138975,128,0,139152:0:0:0:0:
192,192,139152,1,0,0:0:0:0:
448,192,139152,1,0,0:0:0:0:
64,192,139152,128,0,139415:0:0:0:0:
448,192,139327,128,0,139415:0:0:0:0:
192,192,139327,128,0,139415:0:0:0:0:
320,192,139504,128,0,139592:0:0:0:0:
64,192,139504,1,0,0:0:0:0:
448,192,139504,1,0,0:0:0:0:
192,192,139592,1,0,0:0:0:0:
64,192,139681,128,0,139769:0:0:0:0:
448,192,139681,1,0,0:0:0:0:
320,192,139739,1,0,0:0:0:0:
192,192,139798,1,0,0:0:0:0:
448,192,139857,128,0,139945:0:0:0:0:
320,192,139857,1,0,0:0:0:0:
64,192,139857,1,0,0:0:0:0:
192,192,140033,128,0,140121:0:0:0:0:
64,192,140033,1,0,0:0:0:0:
448,192,140093,1,0,0:0:0:0:
320,192,140151,1,0,0:0:0:0:
64,192,140210,128,0,140298:0:0:0:0:
192,192,140210,1,0,0:0:0:0:
448,192,140210,128,0,140387:0:0:0:0:
320,192,140387,128,0,140475:0:0:0:0:
192,192,140387,1,0,0:0:0:0:
64,192,140445,1,0,0:0:0:0:
448,192,140504,1,0,0:0:0:0:
192,192,140563,128,0,140650:0:0:0:0:
320,192,140563,1,0,0:0:0:0:
64,192,140563,128,0,140739:0:0:0:0:
320,192,140739,128,0,140827:0:0:0:0:
448,192,140739,128,0,140916:0:0:0:0:
320,192,140916,1,0,0:0:0:0:
192,192,140916,1,0,0:0:0:0:
64,192,140916,1,0,0:0:0:0:
448,192,141004,1,0,0:0:0:0:
192,192,141092,1,0,0:0:0:0:
320,192,141092,1,0,0:0:0:0:
64,192,141181,1,0,0:0:0:0:
320,192,141269,1,0,0:0:0:0:
192,192,141269,1,0,0:0:0:0:
448,192,141269,128,0,141356:0:0:0:0:
320,192,141445,128,0,141533:0:0:0:0:
64,192,141445,1,0,0:0:0:0:
192,192,141622,128,0,141710:0:0:0:0:
448,192,141622,1,0,0:0:0:0:
64,192,141798,128,0,141887:0:0:0:0:
320,192,141798,1,0,0:0:0:0:
448,192,141857,1,0,0:0:0:0:
192,192,141915,1,0,0:0:0:0:
448,192,141975,1,0,0:0:0:0:
320,192,141975,1,0,0:0:0:0:
64,192,141975,1,0,0:0:0:0:
448,192,142151,128,0,142239:0:0:0:0:
320,192,142327,128,0,142416:0:0:0:0:
64,192,142327,128,0,142593:0:0:0:0:
192,192,142504,128,0,142593:0:0:0:0:
64,192,142680,128,0,142768:0:0:0:0:
448,192,142680,1,0,0:0:0:0:
320,192,142724,1,0,0:0:0:0:
192,192,142768,1,0,0:0:0:0:
448,192,142812,1,0,0:0:0:0:
320,192,142857,1,0,0:0:0:0:
64,192,142857,1,0,0:0:0:0:
448,192,143033,128,0,143122:0:0:0:0:
192,192,143033,1,0,0:0:0:0:
320,192,143210,128,0,143299:0:0:0:0:
192,192,143210,1,0,0:0:0:0:
192,192,143386,128,0,143474:0:0:0:0:
64,192,143386,1,0,0:0:0:0:
448,192,143386,1,0,0:0:0:0:
64,192,143562,128,0,143651:0:0:0:0:
320,192,143739,1,0,0:0:0:0:
192,192,143739,1,0,0:0:0:0:
192,192,143828,1,0,0:0:0:0:
448,192,143916,128,0,144004:0:0:0:0:
320,192,144092,128,0,144180:0:0:0:0:
64,192,144092,1,0,0:0:0:0:
192,192,144092,1,0,0:0:0:0:
448,192,144092,1,0,0:0:0:0:
192,192,144268,128,0,144357:0:0:0:0:
448,192,144268,1,0,0:0:0:0:
320,192,144445,1,0,0:0:0:0:
64,192,144445,128,0,144622:0:0:0:0:
320,192,144622,128,0,144797:0:0:0:0:
192,192,144622,1,0,0:0:0:0:
448,192,144797,128,0,144886:0:0:0:0:
64,192,144797,1,0,0:0:0:0:
192,192,144797,1,0,0:0:0:0:
320,192,144974,128,0,145063:0:0:0:0:
192,192,145151,128,0,145239:0:0:0:0:
448,192,145151,128,0,145328:0:0:0:0:
64,192,145328,128,0,145416:0:0:0:0:
192,192,145416,1,0,0:0:0:0:
320,192,145460,1,0,0:0:0:0:
448,192,145503,1,0,0:0:0:0:
64,192,145503,1,0,0:0:0:0:
192,192,145548,1,0,0:0:0:0:
320,192,145592,1,0,0:0:0:0:
448,192,145636,1,0,0:0:0:0:
192,192,145680,128,0,145769:0:0:0:0:
64,192,145680,1,0,0:0:0:0:
320,192,145857,128,0,145945:0:0:0:0:
64,192,145857,128,0,146034:0:0:0:0:
192,192,146034,128,0,146122:0:0:0:0:
448,192,146034,1,0,0:0:0:0:
448,192,146209,128,0,146298:0:0:0:0:
64,192,146209,1,0,0:0:0:0:
320,192,146209,1,0,0:0:0:0:
320,192,146386,128,0,146474:0:0:0:0:
64,192,146563,1,0,0:0:0:0:
448,192,146563,1,0,0:0:0:0:
320,192,146607,1,0,0:0:0:0:
192,192,146651,1,0,0:0:0:0:
64,192,146695,1,0,0:0:0:0:
320,192,146740,1,0,0:0:0:0:
448,192,146828,1,0,0:0:0:0:
64,192,146915,1,0,0:0:0:0:
192,192,146915,1,0,0:0:0:0:
320,192,146915,1,0,0:0:0:0:
448,192,146915,128,0,147004:0:0:0:0:
320,192,147092,128,0,147180:0:0:0:0:
64,192,147092,1,0,0:0:0:0:
192,192,147269,128,0,147357:0:0:0:0:
448,192,147269,1,0,0:0:0:0:
64,192,147446,128,0,147534:0:0:0:0:
320,192,147446,1,0,0:0:0:0:
448,192,147621,1,0,0:0:0:0:
64,192,147621,1,0,0:0:0:0:
192,192,147621,1,0,0:0:0:0:
448,192,147798,128,0,147886:0:0:0:0:
448,192,147975,128,0,148063:0:0:0:0:
64,192,147975,128,0,148240:0:0:0:0:
192,192,147975,1,0,0:0:0:0:
320,192,148151,128,0,148240:0:0:0:0:
448,192,148327,128,0,148415:0:0:0:0:
64,192,148327,1,0,0:0:0:0:
192,192,148371,1,0,0:0:0:0:
320,192,148415,1,0,0:0:0:0:
64,192,148460,1,0,0:0:0:0:
448,192,148504,128,0,148592:0:0:0:0:
192,192,148504,1,0,0:0:0:0:
320,192,148681,1,0,0:0:0:0:
64,192,148681,1,0,0:0:0:0:
192,192,148739,1,0,0:0:0:0:
320,192,148798,1,0,0:0:0:0:
192,192,148857,128,0,148944:0:0:0:0:
448,192,148857,1,0,0:0:0:0:
320,192,149033,128,0,149121:0:0:0:0:
448,192,149033,1,0,0:0:0:0:
64,192,149033,1,0,0:0:0:0:
448,192,149210,128,0,149298:0:0:0:0:
64,192,149386,128,0,149650:0:0:0:0:
192,192,149386,128,0,149650:0:0:0:0:
320,192,149386,1,0,0:0:0:0:
448,192,149739,128,0,149827:0:0:0:0:
320,192,149739,1,0,0:0:0:0:
192,192,149739,1,0,0:0:0:0:
64,192,149739,1,0,0:0:0:0:
320,192,149916,128,0,150004:0:0:0:0:
64,192,149916,128,0,150092:0:0:0:0:
192,192,150092,128,0,150181:0:0:0:0:
448,192,150092,1,0,0:0:0:0:
64,192,150269,128,0,150356:0:0:0:0:
448,192,150269,1,0,0:0:0:0:
320,192,150313,1,0,0:0:0:0:
192,192,150356,1,0,0:0:0:0:
448,192,150400,1,0,0:0:0:0:
320,192,150445,1,0,0:0:0:0:
64,192,150445,1,0,0:0:0:0:
448,192,150621,128,0,150710:0:0:0:0:
192,192,150621,1,0,0:0:0:0:
448,192,150798,128,0,150887:0:0:0:0:
192,192,150798,1,0,0:0:0:0:
64,192,150798,128,0,151062:0:0:0:0:
320,192,150975,128,0,151062:0:0:0:0:
448,192,151151,128,0,151239:0:0:0:0:
64,192,151151,1,0,0:0:0:0:
192,192,151195,1,0,0:0:0:0:
320,192,151239,1,0,0:0:0:0:
64,192,151283,1,0,0:0:0:0:
448,192,151327,1,0,0:0:0:0:
192,192,151327,128,0,151416:0:0:0:0:
320,192,151504,128,0,151593:0:0:0:0:
448,192,151504,1,0,0:0:0:0:
64,192,151504,1,0,0:0:0:0:
192,192,151681,128,0,151768:0:0:0:0:
320,192,151681,1,0,0:0:0:0:
448,192,151856,128,0,151945:0:0:0:0:
64,192,151856,1,0,0:0:0:0:
320,192,151856,1,0,0:0:0:0:
64,192,152033,128,0,152122:0:0:0:0:
192,192,152033,1,0,0:0:0:0:
64,192,152210,1,0,0:0:0:0:
192,192,152210,1,0,0:0:0:0:
448,192,152298,1,0,0:0:0:0:
320,192,152298,1,0,0:0:0:0:
64,192,152387,1,0,0:0:0:0:
192,192,152387,1,0,0:0:0:0:
320,192,152445,1,0,0:0:0:0:
192,192,152504,1,0,0:0:0:0:
64,192,152562,1,0,0:0:0:0:
320,192,152562,1,0,0:0:0:0:
448,192,152562,128,0,152651:0:0:0:0:
320,192,152739,128,0,152828:0:0:0:0:
192,192,152916,128,0,153004:0:0:0:0:
448,192,152916,1,0,0:0:0:0:
64,192,153093,128,0,153180:0:0:0:0:
320,192,153093,1,0,0:0:0:0:
448,192,153151,1,0,0:0:0:0:
192,192,153210,1,0,0:0:0:0:
320,192,153268,1,0,0:0:0:0:
448,192,153268,1,0,0:0:0:0:
64,192,153268,1,0,0:0:0:0:
448,192,153445,128,0,153533:0:0:0:0:
320,192,153622,128,0,153710:0:0:0:0:
64,192,153622,1,0,0:0:0:0:
192,192,153799,128,0,153886:0:0:0:0:
64,192,153974,128,0,154063:0:0:0:0:
448,192,153974,1,0,0:0:0:0:
320,192,153974,1,0,0:0:0:0:
192,192,154151,1,0,0:0:0:0:
320,192,154151,1,0,0:0:0:0:
192,192,154239,1,0,0:0:0:0:
64,192,154328,1,0,0:0:0:0:
448,192,154328,128,0,154416:0:0:0:0:
320,192,154505,128,0,154592:0:0:0:0:
192,192,154680,128,0,154768:0:0:0:0:
64,192,154680,1,0,0:0:0:0:
448,192,154680,1,0,0:0:0:0:
64,192,154857,128,0,154945:0:0:0:0:
192,192,155034,1,0,0:0:0:0:
320,192,155034,1,0,0:0:0:0:
320,192,155122,1,0,0:0:0:0:
64,192,155210,1,0,0:0:0:0:
448,192,155210,128,0,155298:0:0:0:0:
448,192,155386,1,0,0:0:0:0:
320,192,155386,128,0,155474:0:0:0:0:
64,192,155386,128,0,155563:0:0:0:0:
192,192,155563,128,0,155651:0:0:0:0:
448,192,155563,128,0,155651:0:0:0:0:
64,192,155740,128,0,155828:0:0:0:0:
320,192,155740,1,0,0:0:0:0:
192,192,155915,1,0,0:0:0:0:
64,192,155975,1,0,0:0:0:0:
320,192,156033,1,0,0:0:0:0:
192,192,156092,1,0,0:0:0:0:
64,192,156092,1,0,0:0:0:0:
448,192,156092,128,0,156180:0:0:0:0:
320,192,156269,128,0,156357:0:0:0:0:
192,192,156445,128,0,156534:0:0:0:0:
448,192,156445,1,0,0:0:0:0:
64,192,156445,1,0,0:0:0:0:
64,192,156621,128,0,156709:0:0:0:0:
320,192,156798,1,0,0:0:0:0:
192,192,156798,1,0,0:0:0:0:
448,192,156798,1,0,0:0:0:0:
64,192,156975,1,0,0:0:0:0:
320,192,156975,128,0,157063:0:0:0:0:
64,192,157151,1,0,0:0:0:0:
320,192,157151,128,0,157240:0:0:0:0:
192,192,157327,128,0,157415:0:0:0:0:
448,192,157327,1,0,0:0:0:0:
448,192,157504,1,0,0:0:0:0:
64,192,157504,1,0,0:0:0:0:
320,192,157504,128,0,157592:0:0:0:0:
192,192,157680,128,0,157769:0:0:0:0:
448,192,157857,1,0,0:0:0:0:
320,192,157857,1,0,0:0:0:0:
448,192,157946,1,0,0:0:0:0:
192,192,158033,1,0,0:0:0:0:
64,192,158033,1,0,0:0:0:0:
64,192,158121,1,0,0:0:0:0:
320,192,158210,1,0,0:0:0:0:
448,192,158210,128,0,158298:0:0:0:0:
192,192,158210,128,0,158386:0:0:0:0:
320,192,158386,128,0,158475:0:0:0:0:
64,192,158386,128,0,158475:0:0:0:0:
192,192,158563,128,0,158652:0:0:0:0:
448,192,158563,1,0,0:0:0:0:
64,192,158739,128,0,158827:0:0:0:0:
320,192,158739,1,0,0:0:0:0:
192,192,158798,1,0,0:0:0:0:
448,192,158857,1,0,0:0:0:0:
320,192,158915,1,0,0:0:0:0:
192,192,158915,1,0,0:0:0:0:
64,192,158915,1,0,0:0:0:0:
448,192,159092,128,0,159181:0:0:0:0:
448,192,159269,128,0,159357:0:0:0:0:
192,192,159269,1,0,0:0:0:0:
320,192,159445,128,0,159533:0:0:0:0:
192,192,159621,128,0,159710:0:0:0:0:
64,192,159621,1,0,0:0:0:0:
448,192,159621,1,0,0:0:0:0:
64,192,159798,128,0,159887:0:0:0:0:
320,192,159798,1,0,0:0:0:0:
192,192,159975,1,0,0:0:0:0:
64,192,160150,128,0,160239:0:0:0:0:
320,192,160150,1,0,0:0:0:0:
64,192,160327,1,0,0:0:0:0:
448,192,160327,1,0,0:0:0:0:
192,192,160327,128,0,160416:0:0:0:0:
320,192,160504,128,0,160592:0:0:0:0:
64,192,160681,128,0,160769:0:0:0:0:
448,192,160681,1,0,0:0:0:0:
320,192,160769,1,0,0:0:0:0:
192,192,160856,1,0,0:0:0:0:
64,192,160945,1,0,0:0:0:0:
320,192,161033,1,0,0:0:0:0:
448,192,161033,128,0,161122:0:0:0:0:
192,192,161033,128,0,161210:0:0:0:0:
320,192,161210,128,0,161298:0:0:0:0:
64,192,161210,128,0,161298:0:0:0:0:
192,192,161387,128,0,161475:0:0:0:0:
448,192,161387,1,0,0:0:0:0:
64,192,161562,128,0,161651:0:0:0:0:
448,192,161562,1,0,0:0:0:0:
320,192,161622,1,0,0:0:0:0:
192,192,161681,1,0,0:0:0:0:
64,192,161739,1,0,0:0:0:0:
320,192,161739,1,0,0:0:0:0:
448,192,161739,1,0,0:0:0:0:
320,192,161916,128,0,162004:0:0:0:0:
320,192,162093,128,0,162180:0:0:0:0:
64,192,162093,1,0,0:0:0:0:
448,192,162093,1,0,0:0:0:0:
192,192,162268,128,0,162357:0:0:0:0:
320,192,162445,128,0,162533:0:0:0:0:
64,192,162445,1,0,0:0:0:0:
192,192,162445,1,0,0:0:0:0:
448,192,162622,1,0,0:0:0:0:
64,192,162622,128,0,162710:0:0:0:0:
192,192,162710,1,0,0:0:0:0:
320,192,162799,128,0,162886:0:0:0:0:
448,192,162799,1,0,0:0:0:0:
192,192,162974,128,0,163062:0:0:0:0:
320,192,162974,1,0,0:0:0:0:
448,192,163151,128,0,163239:0:0:0:0:
64,192,163151,1,0,0:0:0:0:
192,192,163151,1,0,0:0:0:0:
192,192,163328,128,0,163416:0:0:0:0:
320,192,163504,1,0,0:0:0:0:
448,192,163504,1,0,0:0:0:0:
320,192,163592,1,0,0:0:0:0:
64,192,163680,1,0,0:0:0:0:
192,192,163680,1,0,0:0:0:0:
192,192,163768,1,0,0:0:0:0:
64,192,163857,1,0,0:0:0:0:
320,192,163857,1,0,0:0:0:0:
448,192,163857,128,0,163945:0:0:0:0:
192,192,163975,1,0,0:0:0:0:
320,192,164034,128,0,164122:0:0:0:0:
64,192,164092,1,0,0:0:0:0:
448,192,164210,1,0,0:0:0:0:
192,192,164210,128,0,164297:0:0:0:0:
320,192,164327,1,0,0:0:0:0:
64,192,164386,128,0,164474:0:0:0:0:
192,192,164446,1,0,0:0:0:0:
64,192,164563,1,0,0:0:0:0:
320,192,164563,1,0,0:0:0:0:
448,192,164563,1,0,0:0:0:0:
192,192,164681,1,0,0:0:0:0:
448,192,164739,128,0,164828:0:0:0:0:
320,192,164798,1,0,0:0:0:0:
192,192,164916,1,0,0:0:0:0:
64,192,164916,128,0,165003:0:0:0:0:
448,192,165033,1,0,0:0:0:0:
192,192,165092,128,0,165180:0:0:0:0:
320,192,165152,1,0,0:0:0:0:
448,192,165269,1,0,0:0:0:0:
64,192,165269,128,0,165357:0:0:0:0:
320,192,165387,1,0,0:0:0:0:
192,192,165445,1,0,0:0:0:0:
448,192,165504,1,0,0:0:0:0:
64,192,165534,1,0,0:0:0:0:
320,192,165622,128,0,165709:0:0:0:0:
64,192,165739,1,0,0:0:0:0:
320,192,165798,128,0,165886:0:0:0:0:
192,192,165857,1,0,0:0:0:0:
64,192,165974,1,0,0:0:0:0:
448,192,165974,128,0,166063:0:0:0:0:
320,192,165974,1,0,0:0:0:0:
192,192,166093,1,0,0:0:0:0:
64,192,166151,128,0,166240:0:0:0:0:
448,192,166210,1,0,0:0:0:0:
320,192,166328,1,0,0:0:0:0:
192,192,166328,1,0,0:0:0:0:
320,192,166445,1,0,0:0:0:0:
448,192,166504,128,0,166592:0:0:0:0:
192,192,166563,1,0,0:0:0:0:
64,192,166680,1,0,0:0:0:0:
192,192,166680,1,0,0:0:0:0:
320,192,166680,128,0,166769:0:0:0:0:
448,192,166799,1,0,0:0:0:0:
192,192,166857,128,0,166946:0:0:0:0:
320,192,166916,1,0,0:0:0:0:
448,192,167034,1,0,0:0:0:0:
64,192,167034,128,0,167121:0:0:0:0:
320,192,167151,1,0,0:0:0:0:
192,192,167269,1,0,0:0:0:0:
64,192,167386,1,0,0:0:0:0:
320,192,167386,1,0,0:0:0:0:
448,192,167386,128,0,167475:0:0:0:0:
192,192,167505,1,0,0:0:0:0:
320,192,167563,128,0,167651:0:0:0:0:
64,192,167622,1,0,0:0:0:0:
448,192,167740,1,0,0:0:0:0:
192,192,167740,128,0,167827:0:0:0:0:
320,192,167857,1,0,0:0:0:0:
64,192,167915,128,0,168004:0:0:0:0:
448,192,167975,5,0,0:0:0:0:
192,192,168092,1,0,0:0:0:0:
320,192,168092,1,0,0:0:0:0:
64,192,168210,1,0,0:0:0:0:
448,192,168269,128,0,168357:0:0:0:0:
320,192,168327,1,0,0:0:0:0:
448,192,168444,1,0,0:0:0:0:
192,192,168444,128,0,168533:0:0:0:0:
448,192,168563,1,0,0:0:0:0:
320,192,168621,128,0,168710:0:0:0:0:
192,192,168680,1,0,0:0:0:0:
320,192,168798,1,0,0:0:0:0:
448,192,168798,128,0,168886:0:0:0:0:
64,192,168798,1,0,0:0:0:0:
64,192,168915,1,0,0:0:0:0:
320,192,168975,128,0,169063:0:0:0:0:
192,192,169033,1,0,0:0:0:0:
448,192,169150,1,0,0:0:0:0:
64,192,169150,1,0,0:0:0:0:
192,192,169239,1,0,0:0:0:0:
448,192,169269,1,0,0:0:0:0:
320,192,169327,1,0,0:0:0:0:
64,192,169386,1,0,0:0:0:0:
192,192,169416,1,0,0:0:0:0:
448,192,169504,128,0,169621:0:0:0:0:
320,192,169504,1,0,0:0:0:0:
64,192,169504,1,0,0:0:0:0:
192,192,169621,1,0,0:0:0:0:
320,192,169739,128,0,169856:0:0:0:0:
448,192,169739,1,0,0:0:0:0:
64,192,169856,128,0,169975:0:0:0:0:
192,192,169856,1,0,0:0:0:0:
448,192,169975,1,0,0:0:0:0:
64,192,170092,128,0,170210:0:0:0:0:
320,192,170092,1,0,0:0:0:0:
320,192,170210,1,0,0:0:0:0:
192,192,170210,1,0,0:0:0:0:
448,192,170210,1,0,0:0:0:0:
448,192,170327,128,0,170445:0:0:0:0:
192,192,170327,1,0,0:0:0:0:
320,192,170445,128,0,170562:0:0:0:0:
64,192,170445,1,0,0:0:0:0:
448,192,170562,128,0,170680:0:0:0:0:
192,192,170562,1,0,0:0:0:0:
64,192,170680,128,0,170797:0:0:0:0:
320,192,170680,1,0,0:0:0:0:
192,192,170797,128,0,170916:0:0:0:0:
448,192,170797,1,0,0:0:0:0:
64,192,170916,1,0,0:0:0:0:
320,192,170916,1,0,0:0:0:0:
448,192,170916,128,0,171151:0:0:0:0:
64,192,171033,1,0,0:0:0:0:
192,192,171033,128,0,171268:0:0:0:0:
320,192,171151,1,0,0:0:0:0:
448,192,171268,1,0,0:0:0:0:
64,192,171268,1,0,0:0:0:0:
192,192,171386,1,0,0:0:0:0:
64,192,171503,128,0,171622:0:0:0:0:
448,192,171503,1,0,0:0:0:0:
320,192,171622,1,0,0:0:0:0:
448,192,171622,1,0,0:0:0:0:
192,192,171622,128,0,172092:0:0:0:0:
64,192,171739,128,0,171857:0:0:0:0:
320,192,171857,1,0,0:0:0:0:
448,192,171974,128,0,172092:0:0:0:0:
320,192,172092,128,0,172209:0:0:0:0:
64,192,172092,1,0,0:0:0:0:
192,192,172209,128,0,172328:0:0:0:0:
448,192,172209,1,0,0:0:0:0:
320,192,172328,1,0,0:0:0:0:
64,192,172328,1,0,0:0:0:0:
448,192,172328,128,0,172445:0:0:0:0:
64,192,172445,1,0,0:0:0:0:
192,192,172563,1,0,0:0:0:0:
320,192,172563,128,0,172798:0:0:0:0:
64,192,172680,128,0,172798:0:0:0:0:
448,192,172680,1,0,0:0:0:0:
448,192,172798,1,0,0:0:0:0:
64,192,172915,128,0,173150:0:0:0:0:
192,192,173033,1,0,0:0:0:0:
320,192,173033,1,0,0:0:0:0:
448,192,173150,128,0,173269:0:0:0:0:
192,192,173150,1,0,0:0:0:0:
64,192,173269,1,0,0:0:0:0:
192,192,173327,1,0,0:0:0:0:
448,192,173386,128,0,173504:0:0:0:0:
320,192,173386,1,0,0:0:0:0:
320,192,173504,128,0,173621:0:0:0:0:
192,192,173504,1,0,0:0:0:0:
64,192,173621,128,0,173739:0:0:0:0:
448,192,173621,1,0,0:0:0:0:
448,192,173739,128,0,173856:0:0:0:0:
320,192,173739,1,0,0:0:0:0:
192,192,173739,1,0,0:0:0:0:
64,192,173856,1,0,0:0:0:0:
192,192,173975,1,0,0:0:0:0:
448,192,173975,128,0,174210:0:0:0:0:
320,192,174092,1,0,0:0:0:0:
64,192,174092,128,0,174327:0:0:0:0:
192,192,174210,128,0,174327:0:0:0:0:
320,192,174327,1,0,0:0:0:0:
192,192,174445,1,0,0:0:0:0:
64,192,174445,1,0,0:0:0:0:
448,192,174445,128,0,174681:0:0:0:0:
64,192,174562,128,0,174681:0:0:0:0:
320,192,174681,128,0,174916:0:0:0:0:
64,192,174798,128,0,174916:0:0:0:0:
448,192,174916,128,0,175033:0:0:0:0:
192,192,174916,128,0,175268:0:0:0:0:
320,192,175033,128,0,175151:0:0:0:0:
448,192,175151,128,0,175739:0:0:0:0:
64,192,175151,128,0,175739:0:0:0:0:
320,192,175268,128,0,175385:0:0:0:0:
192,192,175385,128,0,175856:0:0:0:0:
320,192,175503,128,0,175620:0:0:0:0:
320,192,175739,128,0,175974:0:0:0:0:
448,192,175856,128,0,176445:0:0:0:0:
64,192,175856,128,0,176445:0:0:0:0:
192,192,175974,128,0,176091:0:0:0:0:
320,192,176091,128,0,176326:0:0:0:0:
192,192,176209,128,0,176680:0:0:0:0:
320,192,176445,128,0,176797:0:0:0:0:
448,192,176562,128,0,177032:0:0:0:0:
64,192,176562,128,0,177151:0:0:0:0:
192,192,176797,128,0,177503:0:0:0:0:
320,192,176915,128,0,177151:0:0:0:0:
448,192,177151,128,0,177386:0:0:0:0:
320,192,177268,128,0,177738:0:0:0:0:
64,192,177268,128,0,177856:0:0:0:0:
448,192,177503,128,0,177856:0:0:0:0:
192,192,177621,128,0,178092:0:0:0:0:
320,192,177856,128,0,177973:0:0:0:0:
448,192,177973,128,0,178444:0:0:0:0:
64,192,177973,128,0,178562:0:0:0:0:
320,192,178092,128,0,178209:0:0:0:0:
192,192,178209,128,0,178562:0:0:0:0:
320,192,178327,128,0,178798:0:0:0:0:
448,192,178562,128,0,178679:0:0:0:0:
64,192,178679,128,0,179150:0:0:0:0:
192,192,178679,128,0,178915:0:0:0:0:
448,192,178798,128,0,179268:0:0:0:0:
320,192,178915,128,0,179268:0:0:0:0:
192,192,179033,128,0,179504:0:0:0:0:
64,192,179268,128,0,179385:0:0:0:0:
448,192,179385,128,0,179974:0:0:0:0:
320,192,179385,128,0,179621:0:0:0:0:
64,192,179504,128,0,179856:0:0:0:0:
192,192,179621,128,0,179974:0:0:0:0:
320,192,179739,128,0,180209:0:0:0:0:
64,192,179974,128,0,180091:0:0:0:0:
448,192,180091,128,0,180326:0:0:0:0:
192,192,180091,128,0,180562:0:0:0:0:
64,192,180209,128,0,180680:0:0:0:0:
320,192,180326,128,0,180445:0:0:0:0:
448,192,180445,128,0,180680:0:0:0:0:
320,192,180562,128,0,181032:0:0:0:0:
192,192,180680,128,0,180915:0:0:0:0:
64,192,180797,128,0,185386:0:0:0:0:
448,192,180797,128,0,181151:0:0:0:0:
192,192,181032,128,0,181151:0:0:0:0:
320,192,181151,128,0,181503:0:0:0:0:
192,192,181386,128,0,181621:0:0:0:0:
448,192,181503,128,0,181857:0:0:0:0:
320,192,181621,128,0,181738:0:0:0:0:
192,192,181738,128,0,181974:0:0:0:0:
320,192,181857,128,0,182209:0:0:0:0:
192,192,182092,128,0,182327:0:0:0:0:
448,192,182209,128,0,182444:0:0:0:0:
320,192,182327,128,0,182915:0:0:0:0:
192,192,182444,128,0,182679:0:0:0:0:
448,192,182562,128,0,182798:0:0:0:0:
192,192,182798,128,0,183033:0:0:0:0:
448,192,182915,128,0,183268:0:0:0:0:
320,192,183033,128,0,183150:0:0:0:0:
192,192,183150,128,0,183385:0:0:0:0:
320,192,183268,128,0,183621:0:0:0:0:
192,192,183504,128,0,183739:0:0:0:0:
448,192,183621,128,0,183974:0:0:0:0:
320,192,183739,128,0,183856:0:0:0:0:
192,192,183856,128,0,184091:0:0:0:0:
320,192,183974,128,0,184327:0:0:0:0:
192,192,184210,128,0,184327:0:0:0:0:
448,192,184327,128,0,184680:0:0:0:0:
192,192,184445,128,0,184562:0:0:0:0:
320,192,184562,128,0,186327:0:0:0:0:
192,192,184680,128,0,184915:0:0:0:0:
448,192,184915,128,0,185032:0:0:0:0:
192,192,185032,128,0,185151:0:0:0:0:
448,192,185151,128,0,185268:0:0:0:0:
192,192,185268,128,0,185503:0:0:0:0:
448,192,185386,128,0,185621:0:0:0:0:
64,192,185503,128,0,185857:0:0:0:0:
192,192,185621,128,0,185738:0:0:0:0:
448,192,185738,128,0,186444:0:0:0:0:
192,192,185857,128,0,185974:0:0:0:0:
64,192,185974,128,0,186092:0:0:0:0:
192,192,186092,128,0,186444:0:0:0:0:
64,192,186209,128,0,186327:0:0:0:0:
64,192,186444,128,0,186915:0:0:0:0:
320,192,186444,128,0,186680:0:0:0:0:
448,192,186680,128,0,187033:0:0:0:0:
320,192,186798,128,0,187268:0:0:0:0:
192,192,186915,128,0,187033:0:0:0:0:
64,192,187033,128,0,187385:0:0:0:0:
192,192,187150,128,0,187856:0:0:0:0:
448,192,187385,128,0,187621:0:0:0:0:
64,192,187504,128,0,187739:0:0:0:0:
320,192,187621,128,0,187974:0:0:0:0:
448,192,187739,128,0,188091:0:0:0:0:
64,192,187856,128,0,188562:0:0:0:0:
192,192,188091,128,0,188327:0:0:0:0:
320,192,188210,128,0,188445:0:0:0:0:
448,192,188327,128,0,188680:0:0:0:0:
192,192,188445,128,0,188797:0:0:0:0:
320,192,188562,128,0,189268:0:0:0:0:
448,192,188797,128,0,189033:0:0:0:0:
192,192,188916,128,0,189033:0:0:0:0:
64,192,189033,128,0,189151:0:0:0:0:
192,192,189151,128,0,189386:0:0:0:0:
64,192,189268,128,0,190327:0:0:0:0:
448,192,189268,128,0,189621:0:0:0:0:
192,192,189503,128,0,189738:0:0:0:0:
320,192,189621,128,0,189857:0:0:0:0:
448,192,189738,128,0,189974:0:0:0:0:
192,192,189857,128,0,189974:0:0:0:0:
320,192,189974,128,0,190327:0:0:0:0:
448,192,190209,128,0,190563:0:0:0:0:
192,192,190327,128,0,190680:0:0:0:0:
320,192,190444,128,0,190798:0:0:0:0:
64,192,190563,128,0,190915:0:0:0:0:
448,192,190680,128,0,191386:0:0:0:0:
320,192,190915,128,0,191150:0:0:0:0:
192,192,191033,128,0,191150:0:0:0:0:
64,192,191150,128,0,191386:0:0:0:0:
192,192,191269,128,0,191504:0:0:0:0:
320,192,191386,128,0,191974:0:0:0:0:
448,192,191504,128,0,191739:0:0:0:0:
192,192,191621,128,0,191856:0:0:0:0:
64,192,191739,128,0,191974:0:0:0:0:
448,192,191856,128,0,192091:0:0:0:0:
192,192,191974,128,0,192091:0:0:0:0:
64,192,192091,128,0,194209:0:0:0:0:
320,192,192091,128,0,192562:0:0:0:0:
192,192,192210,128,0,192327:0:0:0:0:
448,192,192327,128,0,192445:0:0:0:0:
192,192,192445,128,0,192680:0:0:0:0:
448,192,192680,128,0,192916:0:0:0:0:
320,192,192797,128,0,193151:0:0:0:0:
192,192,192916,128,0,193033:0:0:0:0:
448,192,193033,128,0,193268:0:0:0:0:
192,192,193151,128,0,193503:0:0:0:0:
320,192,193386,128,0,193622:0:0:0:0:
448,192,193503,128,0,193622:0:0:0:0:
192,192,193622,128,0,193857:0:0:0:0:
448,192,193739,128,0,194798:0:0:0:0:
320,192,193974,128,0,194092:0:0:0:0:
192,192,194092,128,0,194444:0:0:0:0:
320,192,194209,128,0,194327:0:0:0:0:
64,192,194327,128,0,194915:0:0:0:0:
320,192,194444,128,0,194563:0:0:0:0:
192,192,194563,128,0,194915:0:0:0:0:
320,192,194798,128,0,194915:0:0:0:0:
448,192,194915,128,0,195621:0:0:0:0:
320,192,195033,128,0,195504:0:0:0:0:
192,192,195150,128,0,195386:0:0:0:0:
64,192,195269,128,0,195621:0:0:0:0:
192,192,195504,128,0,195856:0:0:0:0:
320,192,195621,128,0,195856:0:0:0:0:
64,192,195739,128,0,196210:0:0:0:0:
448,192,195856,128,0,196092:0:0:0:0:
192,192,195975,128,0,196327:0:0:0:0:
320,192,196092,128,0,196445:0:0:0:0:
448,192,196210,128,0,196562:0:0:0:0:
64,192,196327,128,0,196916:0:0:0:0:
192,192,196445,128,0,196797:0:0:0:0:
320,192,196562,128,0,196680:0:0:0:0:
448,192,196680,128,0,197268:0:0:0:0:
320,192,196797,128,0,197033:0:0:0:0:
192,192,196916,128,0,197151:0:0:0:0:
64,192,197033,128,0,197622:0:0:0:0:
320,192,197151,128,0,197386:0:0:0:0:
192,192,197268,128,0,197503:0:0:0:0:
448,192,197386,128,0,197622:0:0:0:0:
320,192,197503,128,0,197622:0:0:0:0:
192,192,197622,128,0,197739:0:0:0:0:
64,192,197739,1,0,0:0:0:0:
320,192,197739,1,0,0:0:0:0:
448,192,197739,1,0,0:0:0:0:
64,192,197856,1,0,0:0:0:0:
64,192,197973,128,0,198091:0:0:0:0:
320,192,198091,128,0,198443:0:0:0:0:
192,192,198091,1,0,0:0:0:0:
448,192,198208,1,0,0:0:0:0:
192,192,198326,128,0,198443:0:0:0:0:
64,192,198443,128,0,198797:0:0:0:0:
448,192,198443,1,0,0:0:0:0:
320,192,198679,128,0,198797:0:0:0:0:
192,192,198797,128,0,199149:0:0:0:0:
448,192,198797,1,0,0:0:0:0:
64,192,198914,1,0,0:0:0:0:
448,192,199032,128,0,199149:0:0:0:0:
320,192,199149,128,0,199503:0:0:0:0:
64,192,199149,1,0,0:0:0:0:
64,192,199384,128,0,199503:0:0:0:0:
192,192,199503,128,0,199855:0:0:0:0:
448,192,199503,1,0,0:0:0:0:
448,192,199620,128,0,199738:0:0:0:0:
64,192,199620,1,0,0:0:0:0:
320,192,199738,128,0,199855:0:0:0:0:
64,192,199855,128,0,200209:0:0:0:0:
448,192,199855,128,0,200090:0:0:0:0:
192,192,200090,128,0,200209:0:0:0:0:
448,192,200209,128,0,200561:0:0:0:0:
320,192,200209,1,0,0:0:0:0:
64,192,200326,128,0,200444:0:0:0:0:
192,192,200444,128,0,200561:0:0:0:0:
320,192,200561,128,0,200915:0:0:0:0:
64,192,200561,1,0,0:0:0:0:
192,192,200796,128,0,200915:0:0:0:0:
64,192,200915,128,0,201267:0:0:0:0:
448,192,200915,1,0,0:0:0:0:
320,192,201032,128,0,201150:0:0:0:0:
448,192,201032,1,0,0:0:0:0:
192,192,201150,128,0,201267:0:0:0:0:
320,192,201267,128,0,201502:0:0:0:0:
448,192,201267,1,0,0:0:0:0:
448,192,201502,128,0,201620:0:0:0:0:
192,192,201620,128,0,201856:0:0:0:0:
64,192,201620,128,0,201973:0:0:0:0:
448,192,201737,1,0,0:0:0:0:
320,192,201856,128,0,201973:0:0:0:0:
448,192,201973,128,0,202208:0:0:0:0:
192,192,201973,128,0,202326:0:0:0:0:
64,192,202091,1,0,0:0:0:0:
320,192,202208,128,0,202326:0:0:0:0:
448,192,202326,128,0,202562:0:0:0:0:
64,192,202326,128,0,202679:0:0:0:0:
192,192,202443,1,0,0:0:0:0:
320,192,202562,128,0,202679:0:0:0:0:
192,192,202679,128,0,202914:0:0:0:0:
448,192,202679,128,0,202797:0:0:0:0:
320,192,202914,128,0,203032:0:0:0:0:
64,192,203032,128,0,203385:0:0:0:0:
192,192,203032,128,0,203268:0:0:0:0:
320,192,203149,128,0,203268:0:0:0:0:
448,192,203268,128,0,203385:0:0:0:0:
320,192,203385,128,0,203738:0:0:0:0:
192,192,203385,128,0,203620:0:0:0:0:
448,192,203620,128,0,203738:0:0:0:0:
64,192,203738,128,0,204090:0:0:0:0:
192,192,203738,1,0,0:0:0:0:
192,192,203855,1,0,0:0:0:0:
448,192,203973,128,0,204090:0:0:0:0:
320,192,204090,128,0,204444:0:0:0:0:
192,192,204090,1,0,0:0:0:0:
192,192,204326,128,0,204444:0:0:0:0:
448,192,204444,128,0,204679:0:0:0:0:
64,192,204444,1,0,0:0:0:0:
192,192,204561,1,0,0:0:0:0:
64,192,204679,128,0,204796:0:0:0:0:
448,192,204796,128,0,205150:0:0:0:0:
320,192,204796,128,0,205032:0:0:0:0:
192,192,205032,128,0,205150:0:0:0:0:
320,192,205150,128,0,205385:0:0:0:0:
64,192,205150,1,0,0:0:0:0:
64,192,205267,1,0,0:0:0:0:
192,192,205385,128,0,205621:0:0:0:0:
448,192,205502,128,0,205738:0:0:0:0:
64,192,205502,128,0,205738:0:0:0:0:
320,192,205621,128,0,205856:0:0:0:0:
192,192,205738,128,0,205856:0:0:0:0:
64,192,205856,128,0,206208:0:0:0:0:
448,192,205856,128,0,206091:0:0:0:0:
320,192,205973,128,0,206091:0:0:0:0:
192,192,206091,128,0,206208:0:0:0:0:
320,192,206208,128,0,206562:0:0:0:0:
448,192,206208,128,0,206443:0:0:0:0:
192,192,206326,128,0,206443:0:0:0:0:
64,192,206443,128,0,206679:0:0:0:0:
192,192,206562,128,0,206914:0:0:0:0:
448,192,206679,128,0,206914:0:0:0:0:
320,192,206797,1,0,0:0:0:0:
64,192,206914,128,0,207268:0:0:0:0:
320,192,206914,128,0,207032:0:0:0:0:
320,192,207149,1,0,0:0:0:0:
192,192,207149,128,0,207268:0:0:0:0:
320,192,207268,128,0,207385:0:0:0:0:
448,192,207268,128,0,207620:0:0:0:0:
320,192,207503,1,0,0:0:0:0:
64,192,207503,128,0,207620:0:0:0:0:
192,192,207620,128,0,207974:0:0:0:0:
64,192,207738,128,0,207855:0:0:0:0:
320,192,207738,1,0,0:0:0:0:
448,192,207855,128,0,207974:0:0:0:0:
320,192,207974,128,0,208444:0:0:0:0:
192,192,208091,128,0,208326:0:0:0:0:
64,192,208209,128,0,208444:0:0:0:0:
448,192,208326,128,0,209032:0:0:0:0:
192,192,208444,128,0,208679:0:0:0:0:
64,192,208561,128,0,208679:0:0:0:0:
320,192,208679,128,0,209032:0:0:0:0:
192,192,208796,128,0,208915:0:0:0:0:
64,192,208915,128,0,209032:0:0:0:0:
192,192,209032,128,0,209267:0:0:0:0:
320,192,209150,1,0,0:0:0:0:
448,192,209267,128,0,209621:0:0:0:0:
320,192,209267,1,0,0:0:0:0:
64,192,209385,128,0,209738:0:0:0:0:
192,192,209385,1,0,0:0:0:0:
320,192,209502,128,0,209621:0:0:0:0:
192,192,209621,128,0,209738:0:0:0:0:
448,192,209738,1,0,0:0:0:0:
320,192,209738,128,0,210091:0:0:0:0:
192,192,209973,1,0,0:0:0:0:
192,192,210091,128,0,210208:0:0:0:0:
448,192,210091,128,0,210444:0:0:0:0:
64,192,210208,128,0,210444:0:0:0:0:
192,192,210327,1,0,0:0:0:0:
192,192,210444,128,0,210562:0:0:0:0:
320,192,210444,128,0,210679:0:0:0:0:
448,192,210679,128,0,210914:0:0:0:0:
192,192,210679,1,0,0:0:0:0:
64,192,210797,128,0,211032:0:0:0:0:
320,192,210797,1,0,0:0:0:0:
192,192,210914,128,0,211268:0:0:0:0:
320,192,211032,128,0,211268:0:0:0:0:
448,192,211149,128,0,211385:0:0:0:0:
64,192,211149,128,0,211268:0:0:0:0:
64,192,211385,128,0,211620:0:0:0:0:
320,192,211385,1,0,0:0:0:0:
320,192,211503,128,0,211620:0:0:0:0:
448,192,211503,128,0,211738:0:0:0:0:
64,192,211738,128,0,211855:0:0:0:0:
320,192,211738,1,0,0:0:0:0:
448,192,211855,128,0,212091:0:0:0:0:
192,192,211855,128,0,212091:0:0:0:0:
64,192,211974,128,0,212091:0:0:0:0:
320,192,212091,128,0,212326:0:0:0:0:
192,192,212209,128,0,212444:0:0:0:0:
64,192,212209,128,0,212561:0:0:0:0:
448,192,212326,128,0,212444:0:0:0:0:
320,192,212444,128,0,212561:0:0:0:0:
192,192,212561,128,0,212915:0:0:0:0:
448,192,212561,128,0,212680:0:0:0:0:
64,192,212797,1,0,0:0:0:0:
64,192,212915,128,0,213150:0:0:0:0:
448,192,212915,1,0,0:0:0:0:
448,192,213032,128,0,213267:0:0:0:0:
192,192,213150,1,0,0:0:0:0:
192,192,213267,128,0,213502:0:0:0:0:
320,192,213267,128,0,213385:0:0:0:0:
64,192,213385,128,0,213621:0:0:0:0:
448,192,213502,1,0,0:0:0:0:
448,192,213621,128,0,213856:0:0:0:0:
320,192,213621,1,0,0:0:0:0:
192,192,213738,128,0,213973:0:0:0:0:
320,192,213856,128,0,213973:0:0:0:0:
448,192,213973,128,0,214091:0:0:0:0:
64,192,213973,128,0,214208:0:0:0:0:
192,192,214091,128,0,214327:0:0:0:0:
320,192,214208,128,0,214444:0:0:0:0:
448,192,214327,128,0,214562:0:0:0:0:
64,192,214327,128,0,214562:0:0:0:0:
192,192,214444,128,0,214679:0:0:0:0:
320,192,214562,128,0,214679:0:0:0:0:
64,192,214679,128,0,215033:0:0:0:0:
448,192,214679,128,0,214797:0:0:0:0:
192,192,214914,1,0,0:0:0:0:
448,192,215033,128,0,215268:0:0:0:0:
192,192,215033,1,0,0:0:0:0:
320,192,215150,1,0,0:0:0:0:
320,192,215268,128,0,215385:0:0:0:0:
448,192,215385,128,0,215503:0:0:0:0:
64,192,215385,128,0,215620:0:0:0:0:
320,192,215620,1,0,0:0:0:0:
320,192,215738,128,0,215855:0:0:0:0:
64,192,215738,128,0,215974:0:0:0:0:
192,192,215855,128,0,216091:0:0:0:0:
320,192,215974,1,0,0:0:0:0:
320,192,216091,128,0,216209:0:0:0:0:
64,192,216091,128,0,216326:0:0:0:0:
320,192,216326,1,0,0:0:0:0:
320,192,216444,128,0,216680:0:0:0:0:
64,192,216444,1,0,0:0:0:0:
448,192,216561,128,0,216797:0:0:0:0:
192,192,216680,128,0,216915:0:0:0:0:
320,192,216797,1,0,0:0:0:0:
64,192,216797,128,0,217032:0:0:0:0:
448,192,216915,1,0,0:0:0:0:
192,192,217032,1,0,0:0:0:0:
320,192,217150,128,0,217386:0:0:0:0:
448,192,217150,128,0,217267:0:0:0:0:
192,192,217267,128,0,217386:0:0:0:0:
64,192,217386,1,0,0:0:0:0:
64,192,217503,128,0,217738:0:0:0:0:
192,192,217503,128,0,217621:0:0:0:0:
448,192,217621,128,0,217856:0:0:0:0:
192,192,217738,128,0,217856:0:0:0:0:
320,192,217856,1,0,0:0:0:0:
64,192,217856,128,0,218208:0:0:0:0:
320,192,217973,1,0,0:0:0:0:
320,192,218091,1,0,0:0:0:0:
448,192,218208,128,0,218327:0:0:0:0:
192,192,218208,128,0,218444:0:0:0:0:
64,192,218327,128,0,218444:0:0:0:0:
448,192,218444,1,0,0:0:0:0:
448,192,218562,128,0,218679:0:0:0:0:
192,192,218562,128,0,218797:0:0:0:0:
64,192,218679,128,0,218797:0:0:0:0:
448,192,218797,1,0,0:0:0:0:
448,192,218914,128,0,219503:0:0:0:0:
320,192,218914,128,0,219150:0:0:0:0:
192,192,219033,128,0,219620:0:0:0:0:
64,192,219150,128,0,219739:0:0:0:0:
320,192,219268,128,0,219385:0:0:0:0:
320,192,219503,128,0,220209:0:0:0:0:
448,192,219620,128,0,219974:0:0:0:0:
192,192,219739,128,0,219856:0:0:0:0:
64,192,219856,128,0,220209:0:0:0:0:
192,192,219974,128,0,220091:0:0:0:0:
448,192,220091,128,0,220209:0:0:0:0:
192,192,220209,128,0,220326:0:0:0:0:
448,192,220326,128,0,220561:0:0:0:0:
320,192,220326,128,0,220444:0:0:0:0:
64,192,220326,128,0,220680:0:0:0:0:
192,192,220561,1,0,0:0:0:0:
192,192,220680,128,0,220797:0:0:0:0:
448,192,220680,128,0,221032:0:0:0:0:
320,192,220797,128,0,221032:0:0:0:0:
192,192,220915,1,0,0:0:0:0:
192,192,221032,128,0,221267:0:0:0:0:
64,192,221032,1,0,0:0:0:0:
448,192,221150,128,0,221386:0:0:0:0:
320,192,221267,1,0,0:0:0:0:
320,192,221386,128,0,221503:0:0:0:0:
192,192,221386,128,0,221738:0:0:0:0:
64,192,221503,128,0,221738:0:0:0:0:
448,192,221621,1,0,0:0:0:0:
448,192,221738,128,0,221856:0:0:0:0:
320,192,221738,1,0,0:0:0:0:
192,192,221856,128,0,222092:0:0:0:0:
64,192,221973,1,0,0:0:0:0:
64,192,222092,128,0,222444:0:0:0:0:
448,192,222092,1,0,0:0:0:0:
448,192,222209,1,0,0:0:0:0:
448,192,222327,1,0,0:0:0:0:
192,192,222444,128,0,222679:0:0:0:0:
320,192,222444,128,0,222562:0:0:0:0:
448,192,222562,128,0,222797:0:0:0:0:
64,192,222679,1,0,0:0:0:0:
64,192,222797,128,0,223033:0:0:0:0:
320,192,222797,128,0,223150:0:0:0:0:
448,192,222914,128,0,223033:0:0:0:0:
192,192,223033,128,0,223150:0:0:0:0:
64,192,223150,128,0,223503:0:0:0:0:
448,192,223150,128,0,223268:0:0:0:0:
192,192,223268,128,0,223385:0:0:0:0:
448,192,223385,128,0,223503:0:0:0:0:
192,192,223503,128,0,223856:0:0:0:0:
320,192,223503,128,0,223737:0:0:0:0:
448,192,223620,128,0,223737:0:0:0:0:
64,192,223737,128,0,223856:0:0:0:0:
320,192,223856,1,0,0:0:0:0:
448,192,223856,128,0,223973:0:0:0:0:
192,192,223973,128,0,224208:0:0:0:0:
320,192,224091,1,0,0:0:0:0:
64,192,224091,128,0,224208:0:0:0:0:
320,192,224208,128,0,224326:0:0:0:0:
448,192,224208,128,0,224562:0:0:0:0:
64,192,224326,128,0,224562:0:0:0:0:
320,192,224443,1,0,0:0:0:0:
320,192,224562,128,0,224914:0:0:0:0:
192,192,224562,128,0,224679:0:0:0:0:
64,192,224679,128,0,224914:0:0:0:0:
448,192,224797,1,0,0:0:0:0:
448,192,224914,128,0,225267:0:0:0:0:
192,192,224914,128,0,225032:0:0:0:0:
320,192,225032,128,0,225267:0:0:0:0:
192,192,225149,1,0,0:0:0:0:
192,192,225267,128,0,225503:0:0:0:0:
64,192,225267,1,0,0:0:0:0:
64,192,225384,128,0,225503:0:0:0:0:
320,192,225503,1,0,0:0:0:0:
320,192,225620,128,0,225855:0:0:0:0:
192,192,225738,128,0,225855:0:0:0:0:
448,192,225855,1,0,0:0:0:0:
64,192,225855,128,0,225973:0:0:0:0:
448,192,225973,128,0,226209:0:0:0:0:
192,192,225973,128,0,226090:0:0:0:0:
320,192,226090,128,0,226326:0:0:0:0:
192,192,226209,128,0,226326:0:0:0:0:
64,192,226326,128,0,226679:0:0:0:0:
448,192,226326,128,0,226561:0:0:0:0:
192,192,226444,128,0,226561:0:0:0:0:
320,192,226561,128,0,226679:0:0:0:0:
192,192,226679,1,0,0:0:0:0:
448,192,226679,128,0,226915:0:0:0:0:
320,192,226796,128,0,226915:0:0:0:0:
192,192,226915,1,0,0:0:0:0:
192,192,227032,128,0,227150:0:0:0:0:
320,192,227032,128,0,227385:0:0:0:0:
64,192,227150,128,0,227267:0:0:0:0:
192,192,227267,1,0,0:0:0:0:
448,192,227385,128,0,227502:0:0:0:0:
64,192,227385,128,0,227737:0:0:0:0:
192,192,227502,128,0,227737:0:0:0:0:
448,192,227620,1,0,0:0:0:0:
448,192,227737,128,0,227856:0:0:0:0:
320,192,227737,128,0,227973:0:0:0:0:
64,192,227856,128,0,228091:0:0:0:0:
448,192,227973,128,0,228091:0:0:0:0:
320,192,228091,128,0,228326:0:0:0:0:
192,192,228091,1,0,0:0:0:0:
192,192,228208,128,0,228326:0:0:0:0:
448,192,228326,1,0,0:0:0:0:
448,192,228443,128,0,228679:0:0:0:0:
64,192,228443,128,0,228679:0:0:0:0:
320,192,228562,128,0,228679:0:0:0:0:
192,192,228679,128,0,228797:0:0:0:0:
64,192,228797,128,0,229149:0:0:0:0:
448,192,228797,128,0,229032:0:0:0:0:
320,192,228914,128,0,229032:0:0:0:0:
192,192,229032,128,0,229268:0:0:0:0:
448,192,229149,128,0,229503:0:0:0:0:
320,192,229149,128,0,229385:0:0:0:0:
64,192,229268,128,0,229385:0:0:0:0:
192,192,229385,128,0,229503:0:0:0:0:
320,192,229503,128,0,229855:0:0:0:0:
64,192,229503,128,0,230090:0:0:0:0:
192,192,229620,128,0,229738:0:0:0:0:
448,192,229738,1,0,0:0:0:0:
192,192,229855,128,0,230209:0:0:0:0:
448,192,229855,128,0,229973:0:0:0:0:
320,192,229973,1,0,0:0:0:0:
320,192,230090,128,0,230209:0:0:0:0:
448,192,230209,128,0,230444:0:0:0:0:
64,192,230209,128,0,230796:0:0:0:0:
320,192,230326,128,0,230561:0:0:0:0:
192,192,230444,128,0,230679:0:0:0:0:
448,192,230561,128,0,230796:0:0:0:0:
320,192,230679,128,0,230915:0:0:0:0:
192,192,230796,128,0,231032:0:0:0:0:
448,192,230915,128,0,231150:0:0:0:0:
64,192,230915,128,0,231150:0:0:0:0:
320,192,231032,128,0,231267:0:0:0:0:
192,192,231150,128,0,231385:0:0:0:0:
64,192,231267,128,0,231502:0:0:0:0:
320,192,231385,128,0,231621:0:0:0:0:
192,192,231502,128,0,231621:0:0:0:0:
64,192,231621,128,0,231856:0:0:0:0:
448,192,231621,128,0,231856:0:0:0:0:
320,192,231738,128,0,231973:0:0:0:0:
192,192,231856,128,0,231973:0:0:0:0:
448,192,231973,128,0,232326:0:0:0:0:
64,192,231973,1,0,0:0:0:0:
320,192,232091,128,0,232208:0:0:0:0:
64,192,232091,1,0,0:0:0:0:
192,192,232208,128,0,232326:0:0:0:0:
64,192,232326,128,0,232679:0:0:0:0:
320,192,232326,128,0,232443:0:0:0:0:
192,192,232443,128,0,232679:0:0:0:0:
448,192,232562,1,0,0:0:0:0:
448,192,232679,128,0,232797:0:0:0:0:
320,192,232679,128,0,232914:0:0:0:0:
64,192,232797,128,0,232914:0:0:0:0:
192,192,232914,1,0,0:0:0:0:
192,192,233032,128,0,233149:0:0:0:0:
64,192,233032,128,0,233268:0:0:0:0:
448,192,233149,128,0,233268:0:0:0:0:
320,192,233268,1,0,0:0:0:0:
320,192,233385,128,0,233503:0:0:0:0:
448,192,233385,128,0,233620:0:0:0:0:
64,192,233503,128,0,233738:0:0:0:0:
320,192,233620,1,0,0:0:0:0:
320,192,233738,128,0,233855:0:0:0:0:
192,192,233738,128,0,233974:0:0:0:0:
64,192,233855,128,0,234091:0:0:0:0:
320,192,233974,1,0,0:0:0:0:
320,192,234091,128,0,234209:0:0:0:0:
192,192,234091,128,0,234326:0:0:0:0:
448,192,234209,128,0,234444:0:0:0:0:
320,192,234326,128,0,234444:0:0:0:0:
64,192,234444,1,0,0:0:0:0:
192,192,234444,128,0,234679:0:0:0:0:
64,192,234561,1,0,0:0:0:0:
448,192,234679,1,0,0:0:0:0:
64,192,234796,1,0,0:0:0:0:
448,192,234796,128,0,234915:0:0:0:0:
320,192,234796,128,0,235032:0:0:0:0:
64,192,234915,1,0,0:0:0:0:
448,192,235032,1,0,0:0:0:0:
448,192,235150,128,0,235267:0:0:0:0:
192,192,235150,128,0,235385:0:0:0:0:
320,192,235267,128,0,235502:0:0:0:0:
448,192,235385,1,0,0:0:0:0:
448,192,235502,128,0,235621:0:0:0:0:
64,192,235502,128,0,235738:0:0:0:0:
192,192,235621,128,0,235856:0:0:0:0:
320,192,235738,1,0,0:0:0:0:
320,192,235856,128,0,235973:0:0:0:0:
448,192,235856,128,0,236091:0:0:0:0:
64,192,235973,128,0,236091:0:0:0:0:
192,192,236091,1,0,0:0:0:0:
192,192,236208,128,0,236327:0:0:0:0:
64,192,236208,128,0,236444:0:0:0:0:
448,192,236327,128,0,236562:0:0:0:0:
320,192,236444,1,0,0:0:0:0:
320,192,236562,128,0,236679:0:0:0:0:
192,192,236562,128,0,236797:0:0:0:0:
64,192,236679,128,0,236797:0:0:0:0:
320,192,236797,1,0,0:0:0:0:
448,192,236914,1,0,0:0:0:0:
192,192,236914,128,0,237149:0:0:0:0:
448,192,237032,1,0,0:0:0:0:
64,192,237032,128,0,237268:0:0:0:0:
448,192,237268,1,0,0:0:0:0:
320,192,237268,128,0,237503:0:0:0:0:
192,192,237385,1,0,0:0:0:0:
192,192,237503,1,0,0:0:0:0:
64,192,237620,128,0,237855:0:0:0:0:
448,192,237620,128,0,237974:0:0:0:0:
192,192,237738,128,0,237974:0:0:0:0:
320,192,237855,1,0,0:0:0:0:
64,192,237974,1,0,0:0:0:0:
320,192,237974,128,0,238209:0:0:0:0:
192,192,238091,128,0,238326:0:0:0:0:
64,192,238209,1,0,0:0:0:0:
64,192,238326,128,0,238444:0:0:0:0:
320,192,238326,128,0,238561:0:0:0:0:
448,192,238444,128,0,238680:0:0:0:0:
64,192,238561,1,0,0:0:0:0:
64,192,238680,128,0,238797:0:0:0:0:
192,192,238680,128,0,238915:0:0:0:0:
448,192,238797,128,0,239032:0:0:0:0:
320,192,238915,1,0,0:0:0:0:
192,192,239032,1,0,0:0:0:0:
320,192,239032,128,0,239267:0:0:0:0:
192,192,239150,1,0,0:0:0:0:
192,192,239267,1,0,0:0:0:0:
448,192,239385,1,0,0:0:0:0:
320,192,239385,128,0,239738:0:0:0:0:
448,192,239502,1,0,0:0:0:0:
64,192,239621,128,0,239738:0:0:0:0:
192,192,239738,1,0,0:0:0:0:
448,192,239738,128,0,240091:0:0:0:0:
192,192,239856,128,0,239973:0:0:0:0:
320,192,239973,1,0,0:0:0:0:
320,192,240091,128,0,240208:0:0:0:0:
64,192,240091,128,0,240679:0:0:0:0:
192,192,240208,128,0,240562:0:0:0:0:
320,192,240327,128,0,240444:0:0:0:0:
448,192,240444,128,0,240679:0:0:0:0:
320,192,240562,128,0,240914:0:0:0:0:
192,192,240679,128,0,240797:0:0:0:0:
64,192,240797,128,0,241150:0:0:0:0:
448,192,240797,128,0,241033:0:0:0:0:
192,192,240914,128,0,241150:0:0:0:0:
320,192,241033,128,0,241503:0:0:0:0:
448,192,241150,128,0,241385:0:0:0:0:
192,192,241268,128,0,241503:0:0:0:0:
64,192,241385,128,0,241503:0:0:0:0:
448,192,241503,128,0,241855:0:0:0:0:
320,192,241620,128,0,241855:0:0:0:0:
192,192,241738,128,0,241855:0:0:0:0:
64,192,241855,128,0,242209:0:0:0:0:
192,192,241974,128,0,242209:0:0:0:0:
320,192,242209,128,0,242561:0:0:0:0:
192,192,242326,128,0,242561:0:0:0:0:
64,192,242444,128,0,242561:0:0:0:0:
448,192,242561,128,0,242797:0:0:0:0:
320,192,242680,128,0,242915:0:0:0:0:
192,192,242797,128,0,242915:0:0:0:0:
448,192,242915,128,0,243267:0:0:0:0:
64,192,242915,128,0,243032:0:0:0:0:
192,192,243032,1,0,0:0:0:0:
192,192,243150,1,0,0:0:0:0:
192,192,243267,128,0,243503:0:0:0:0:
320,192,243267,128,0,243503:0:0:0:0:
448,192,243386,128,0,243503:0:0:0:0:
64,192,243503,128,0,243738:0:0:0:0:
320,192,243621,128,0,243856:0:0:0:0:
192,192,243621,128,0,243738:0:0:0:0:
448,192,243738,1,0,0:0:0:0:
192,192,243856,1,0,0:0:0:0:
448,192,243856,128,0,243973:0:0:0:0:
192,192,243973,128,0,244208:0:0:0:0:
64,192,243973,1,0,0:0:0:0:
448,192,244091,128,0,244208:0:0:0:0:
320,192,244208,1,0,0:0:0:0:
64,192,244208,128,0,244327:0:0:0:0:
320,192,244327,128,0,244562:0:0:0:0:
192,192,244327,128,0,244444:0:0:0:0:
64,192,244444,1,0,0:0:0:0:
64,192,244562,1,0,0:0:0:0:
448,192,244562,128,0,244679:0:0:0:0:
64,192,244679,128,0,244914:0:0:0:0:
192,192,244679,128,0,244797:0:0:0:0:
320,192,244797,128,0,244914:0:0:0:0:
448,192,244914,1,0,0:0:0:0:
192,192,244914,128,0,245033:0:0:0:0:
448,192,245033,128,0,245268:0:0:0:0:
320,192,245033,128,0,245268:0:0:0:0:
192,192,245150,1,0,0:0:0:0:
64,192,245268,1,0,0:0:0:0:
64,192,245385,128,0,245503:0:0:0:0:
320,192,245385,128,0,245739:0:0:0:0:
448,192,245503,1,0,0:0:0:0:
64,192,245620,1,0,0:0:0:0:
64,192,245739,128,0,245974:0:0:0:0:
192,192,245739,128,0,246091:0:0:0:0:
448,192,245856,1,0,0:0:0:0:
320,192,245974,128,0,246091:0:0:0:0:
448,192,246091,128,0,246326:0:0:0:0:
64,192,246091,1,0,0:0:0:0:
192,192,246209,1,0,0:0:0:0:
192,192,246326,1,0,0:0:0:0:
448,192,246444,128,0,246797:0:0:0:0:
64,192,246444,128,0,246561:0:0:0:0:
320,192,246561,128,0,246680:0:0:0:0:
64,192,246680,1,0,0:0:0:0:
320,192,246797,128,0,247091:0:0:0:0:
64,192,246797,128,0,246915:0:0:0:0:
192,192,246915,128,0,247150:0:0:0:0:
448,192,247032,128,0,247150:0:0:0:0:
64,192,247150,1,0,0:0:0:0:
320,192,247150,1,0,0:0:0:0:
64,192,247267,1,0,0:0:0:0:
448,192,247267,128,0,247386:0:0:0:0:
64,192,247386,128,0,247856:0:0:0:0:
192,192,247386,128,0,247503:0:0:0:0:
320,192,247503,1,0,0:0:0:0:
448,192,247503,1,0,0:0:0:0:
320,192,247621,1,0,0:0:0:0:
320,192,247738,128,0,248092:0:0:0:0:
448,192,247856,128,0,248092:0:0:0:0:
192,192,247856,1,0,0:0:0:0:
192,192,247973,1,0,0:0:0:0:
64,192,248092,128,0,248562:0:0:0:0:
448,192,248209,128,0,248327:0:0:0:0:
192,192,248209,1,0,0:0:0:0:
320,192,248268,1,0,0:0:0:0:
192,192,248327,1,0,0:0:0:0:
320,192,248444,128,0,248562:0:0:0:0:
192,192,248562,128,0,248914:0:0:0:0:
448,192,248562,1,0,0:0:0:0:
64,192,248679,1,0,0:0:0:0:
64,192,248797,1,0,0:0:0:0:
448,192,248914,1,0,0:0:0:0:
320,192,248914,1,0,0:0:0:0:
448,192,249033,128,0,249268:0:0:0:0:
64,192,249033,1,0,0:0:0:0:
64,192,249150,128,0,249268:0:0:0:0:
192,192,249268,128,0,249503:0:0:0:0:
320,192,249268,1,0,0:0:0:0:
448,192,249385,1,0,0:0:0:0:
320,192,249503,1,0,0:0:0:0:
320,192,249620,128,0,249856:0:0:0:0:
64,192,249620,128,0,249737:0:0:0:0:
448,192,249737,1,0,0:0:0:0:
192,192,249856,1,0,0:0:0:0:
192,192,249973,128,0,250208:0:0:0:0:
448,192,249973,128,0,250091:0:0:0:0:
320,192,250091,128,0,250208:0:0:0:0:
64,192,250208,1,0,0:0:0:0:
64,192,250326,128,0,250562:0:0:0:0:
320,192,250326,1,0,0:0:0:0:
320,192,250443,1,0,0:0:0:0:
192,192,250562,1,0,0:0:0:0:
192,192,250679,128,0,250914:0:0:0:0:
320,192,250679,128,0,250797:0:0:0:0:
448,192,250797,128,0,251032:0:0:0:0:
64,192,250914,1,0,0:0:0:0:
64,192,251032,128,0,251267:0:0:0:0:
320,192,251032,128,0,251149:0:0:0:0:
320,192,251267,1,0,0:0:0:0:
448,192,251384,128,0,251620:0:0:0:0:
192,192,251384,1,0,0:0:0:0:
192,192,251503,128,0,251620:0:0:0:0:
320,192,251620,128,0,251855:0:0:0:0:
64,192,251738,128,0,251855:0:0:0:0:
192,192,251738,128,0,251973:0:0:0:0:
448,192,251855,128,0,252090:0:0:0:0:
64,192,251973,1,0,0:0:0:0:
192,192,252090,128,0,252209:0:0:0:0:
64,192,252090,128,0,252326:0:0:0:0:
448,192,252209,128,0,252444:0:0:0:0:
192,192,252326,128,0,252444:0:0:0:0:
320,192,252326,1,0,0:0:0:0:
64,192,252444,128,0,252679:0:0:0:0:
320,192,252444,128,0,252561:0:0:0:0:
448,192,252679,1,0,0:0:0:0:
192,192,252679,128,0,253032:0:0:0:0:
448,192,252796,128,0,253032:0:0:0:0:
64,192,252796,128,0,252915:0:0:0:0:
320,192,252915,128,0,253032:0:0:0:0:
64,192,253032,128,0,253385:0:0:0:0:
192,192,253150,128,0,253385:0:0:0:0:
320,192,253150,1,0,0:0:0:0:
320,192,253267,1,0,0:0:0:0:
448,192,253385,128,0,253502:0:0:0:0:
192,192,253502,128,0,253856:0:0:0:0:
64,192,253502,128,0,253620:0:0:0:0:
448,192,253620,1,0,0:0:0:0:
448,192,253737,128,0,253973:0:0:0:0:
64,192,253856,128,0,253973:0:0:0:0:
320,192,253856,128,0,253973:0:0:0:0:
192,192,253973,128,0,254208:0:0:0:0:
448,192,254208,128,0,254503:0:0:0:0:
64,192,254208,128,0,254385:0:0:0:0:
320,192,254208,128,0,254443:0:0:0:0:
192,192,254385,128,0,254503:0:0:0:0:
64,192,254443,128,0,254562:0:0:0:0:
320,192,254562,128,0,254797:0:0:0:0:
448,192,254562,128,0,254679:0:0:0:0:
192,192,254679,1,0,0:0:0:0:
192,192,254797,1,0,0:0:0:0:
64,192,254914,128,0,255149:0:0:0:0:
448,192,254914,128,0,255032:0:0:0:0:
192,192,255032,128,0,255268:0:0:0:0:
448,192,255149,1,0,0:0:0:0:
448,192,255268,128,0,255385:0:0:0:0:
64,192,255268,128,0,255385:0:0:0:0:
320,192,255385,128,0,255620:0:0:0:0:
64,192,255503,1,0,0:0:0:0:
64,192,255620,128,0,255738:0:0:0:0:
192,192,255620,128,0,255738:0:0:0:0:
448,192,255738,128,0,255855:0:0:0:0:
320,192,255855,128,0,256090:0:0:0:0:
448,192,255973,1,0,0:0:0:0:
64,192,255973,128,0,256090:0:0:0:0:
192,192,256090,1,0,0:0:0:0:
192,192,256209,1,0,0:0:0:0:
448,192,256326,128,0,256679:0:0:0:0:
320,192,256326,128,0,256561:0:0:0:0:
64,192,256444,1,0,0:0:0:0:
64,192,256561,5,0,0:0:0:0:
320,192,256679,128,0,257032:0:0:0:0:
64,192,256679,128,0,256915:0:0:0:0:
448,192,256796,1,0,0:0:0:0:
192,192,256915,1,0,0:0:0:0:
192,192,257032,128,0,257267:0:0:0:0:
448,192,257032,128,0,257150:0:0:0:0:
64,192,257150,1,0,0:0:0:0:
448,192,257267,1,0,0:0:0:0:
320,192,257385,1,0,0:0:0:0:
64,192,257385,128,0,257621:0:0:0:0:
320,192,257502,1,0,0:0:0:0:
320,192,257621,1,0,0:0:0:0:
192,192,257738,128,0,257973:0:0:0:0:
64,192,257738,128,0,257856:0:0:0:0:
448,192,257856,128,0,258091:0:0:0:0:
64,192,257973,1,0,0:0:0:0:
192,192,258091,128,0,258326:0:0:0:0:
320,192,258091,128,0,258208:0:0:0:0:
64,192,258208,128,0,258326:0:0:0:0:
320,192,258326,1,0,0:0:0:0:
448,192,258443,128,0,258679:0:0:0:0:
192,192,258443,128,0,258679:0:0:0:0:
320,192,258562,128,0,258679:0:0:0:0:
64,192,258679,1,0,0:0:0:0:
192,192,258797,128,0,259032:0:0:0:0:
320,192,258797,1,0,0:0:0:0:
320,192,258914,1,0,0:0:0:0:
448,192,259032,1,0,0:0:0:0:
448,192,259149,128,0,259385:0:0:0:0:
64,192,259149,128,0,259268:0:0:0:0:
320,192,259268,1,0,0:0:0:0:
320,192,259385,128,0,259503:0:0:0:0:
448,192,259503,128,0,259738:0:0:0:0:
64,192,259503,1,0,0:0:0:0:
192,192,259562,1,0,0:0:0:0:
64,192,259620,128,0,259738:0:0:0:0:
320,192,259738,128,0,259855:0:0:0:0:
448,192,259855,128,0,259974:0:0:0:0:
192,192,259855,128,0,260091:0:0:0:0:
64,192,259974,128,0,260091:0:0:0:0:
320,192,260091,1,0,0:0:0:0:
64,192,260209,1,0,0:0:0:0:
448,192,260209,128,0,260444:0:0:0:0:
64,192,260326,1,0,0:0:0:0:
64,192,260444,1,0,0:0:0:0:
320,192,260561,128,0,260915:0:0:0:0:
448,192,260561,128,0,260679:0:0:0:0:
64,192,260679,1,0,0:0:0:0:
448,192,260796,1,0,0:0:0:0:
448,192,260915,128,0,261150:0:0:0:0:
192,192,260915,128,0,261267:0:0:0:0:
320,192,261032,1,0,0:0:0:0:
64,192,261150,1,0,0:0:0:0:
64,192,261267,128,0,261502:0:0:0:0:
448,192,261267,128,0,261621:0:0:0:0:
320,192,261385,1,0,0:0:0:0:
192,192,261502,1,0,0:0:0:0:
192,192,261621,128,0,261856:0:0:0:0:
64,192,261621,128,0,261973:0:0:0:0:
448,192,261738,1,0,0:0:0:0:
320,192,261856,1,0,0:0:0:0:
320,192,261973,128,0,262208:0:0:0:0:
192,192,261973,128,0,262091:0:0:0:0:
64,192,262208,1,0,0:0:0:0:
64,192,262327,128,0,262562:0:0:0:0:
448,192,262327,128,0,262444:0:0:0:0:
320,192,262444,1,0,0:0:0:0:
192,192,262562,1,0,0:0:0:0:
320,192,262679,128,0,262914:0:0:0:0:
448,192,262679,1,0,0:0:0:0:
448,192,262797,128,0,262914:0:0:0:0:
192,192,262914,128,0,263032:0:0:0:0:
64,192,263032,128,0,263268:0:0:0:0:
320,192,263032,1,0,0:0:0:0:
320,192,263149,128,0,263268:0:0:0:0:
448,192,263268,128,0,263385:0:0:0:0:
192,192,263385,128,0,263738:0:0:0:0:
320,192,263385,128,0,263620:0:0:0:0:
64,192,263503,128,0,263620:0:0:0:0:
448,192,263620,1,0,0:0:0:0:
448,192,263738,128,0,263974:0:0:0:0:
320,192,263855,128,0,263974:0:0:0:0:
192,192,263974,1,0,0:0:0:0:
192,192,264091,128,0,264326:0:0:0:0:
448,192,264091,128,0,264209:0:0:0:0:
320,192,264209,128,0,264444:0:0:0:0:
64,192,264326,1,0,0:0:0:0:
448,192,264444,128,0,264797:0:0:0:0:
192,192,264444,128,0,264561:0:0:0:0:
320,192,264561,1,0,0:0:0:0:
192,192,264680,128,0,264797:0:0:0:0:
320,192,264797,128,0,265032:0:0:0:0:
64,192,264797,1,0,0:0:0:0:
64,192,264915,1,0,0:0:0:0:
448,192,265032,1,0,0:0:0:0:
192,192,265032,128,0,265150:0:0:0:0:
320,192,265150,128,0,265385:0:0:0:0:
64,192,265150,128,0,265385:0:0:0:0:
192,192,265267,128,0,265502:0:0:0:0:
448,192,265502,128,0,265678:0:0:0:0:
64,192,265502,128,0,268207:0:0:0:0:
320,192,265502,128,0,267619:0:0:0:0:
192,192,265737,1,0,0:0:0:0:
448,192,265854,1,0,0:0:0:0:
448,192,266090,1,0,0:0:0:0:
192,192,266207,128,0,266325:0:0:0:0:
448,192,266325,1,0,0:0:0:0:
192,192,266443,1,0,0:0:0:0:
448,192,266678,1,0,0:0:0:0:
192,192,266796,1,0,0:0:0:0:
448,192,266913,1,0,0:0:0:0:
192,192,267031,1,0,0:0:0:0:
192,192,267266,1,0,0:0:0:0:
192,192,267502,1,0,0:0:0:0:
448,192,267619,128,0,267796:0:0:0:0:
192,192,267619,128,0,268090:0:0:0:0:
448,192,267972,128,0,268207:0:0:0:0:
192,192,268207,128,0,268502:0:0:0:0:
64,192,268325,128,0,271090:0:0:0:0:
320,192,268325,128,0,270443:0:0:0:0:
448,192,268325,1,0,0:0:0:0:
448,192,268560,1,0,0:0:0:0:
192,192,268678,1,0,0:0:0:0:
448,192,268796,1,0,0:0:0:0:
192,192,268913,1,0,0:0:0:0:
448,192,269031,128,0,269149:0:0:0:0:
192,192,269266,1,0,0:0:0:0:
192,192,269502,128,0,269678:0:0:0:0:
448,192,269737,1,0,0:0:0:0:
448,192,269854,1,0,0:0:0:0:
192,192,270090,1,0,0:0:0:0:
192,192,270325,1,0,0:0:0:0:
448,192,270443,128,0,270619:0:0:0:0:
192,192,270443,128,0,271090:0:0:0:0:
448,192,270796,128,0,271090:0:0:0:0:
320,192,271031,128,0,271149:0:0:0:0:
192,192,271148,128,0,273266:0:0:0:0:
64,192,271149,128,0,273854:0:0:0:0:
448,192,271149,128,0,271325:0:0:0:0:
320,192,271384,1,0,0:0:0:0:
320,192,271502,1,0,0:0:0:0:
448,192,271560,1,0,0:0:0:0:
320,192,271737,1,0,0:0:0:0:
448,192,271854,1,0,0:0:0:0:
320,192,272090,1,0,0:0:0:0:
320,192,272325,1,0,0:0:0:0:
448,192,272443,1,0,0:0:0:0:
448,192,272560,128,0,272678:0:0:0:0:
320,192,272678,1,0,0:0:0:0:
320,192,272854,1,0,0:0:0:0:
448,192,272913,1,0,0:0:0:0:
320,192,273149,128,0,273207:0:0:0:0:
448,192,273266,128,0,273413:0:0:0:0:
320,192,273266,128,0,273972:0:0:0:0:
192,192,273619,128,0,273972:0:0:0:0:
448,192,273854,1,0,0:0:0:0:
448,192,273972,128,0,276737:0:0:0:0:
64,192,273972,128,0,276737:0:0:0:0:
320,192,274207,1,0,0:0:0:0:
192,192,274325,1,0,0:0:0:0:
320,192,274443,1,0,0:0:0:0:
192,192,274560,128,0,274678:0:0:0:0:
320,192,274678,128,0,274854:0:0:0:0:
192,192,274913,128,0,274972:0:0:0:0:
192,192,275149,128,0,275266:0:0:0:0:
192,192,275384,1,0,0:0:0:0:
320,192,275502,1,0,0:0:0:0:
192,192,275619,1,0,0:0:0:0:
320,192,275737,1,0,0:0:0:0:
192,192,275972,128,0,276090:0:0:0:0:
320,192,276090,128,0,276266:0:0:0:0:
192,192,276443,128,0,276796:0:0:0:0:
320,192,276443,128,0,276619:0:0:0:0:
320,192,276678,128,0,276796:0:0:0:0:
64,192,276796,128,0,278913:0:0:0:0:
448,192,276796,1,0,0:0:0:0:
448,192,276972,128,0,277091:0:0:0:0:
192,192,276972,1,0,0:0:0:0:
320,192,277002,1,0,0:0:0:0:
320,192,277119,1,0,0:0:0:0:
192,192,277149,128,0,277413:0:0:0:0:
320,192,277384,1,0,0:0:0:0:
448,192,277501,128,0,277708:0:0:0:0:
192,192,277561,1,0,0:0:0:0:
320,192,277620,128,0,277708:0:0:0:0:
192,192,277708,128,0,277884:0:0:0:0:
320,192,277797,128,0,277884:0:0:0:0:
448,192,277797,128,0,277884:0:0:0:0:
192,192,277972,128,0,278090:0:0:0:0:
448,192,277972,128,0,278090:0:0:0:0:
320,192,278090,128,0,278296:0:0:0:0:
448,192,278207,128,0,278384:0:0:0:0:
192,192,278443,1,0,0:0:0:0:
448,192,278473,1,0,0:0:0:0:
320,192,278560,1,0,0:0:0:0:
320,192,278796,128,0,278854:0:0:0:0:
448,192,278913,1,0,0:0:0:0:
320,192,278913,128,0,279619:0:0:0:0:
192,192,278913,128,0,279090:0:0:0:0:
448,192,279267,128,0,279619:0:0:0:0:
192,192,279267,1,0,0:0:0:0:
64,192,279442,1,0,0:0:0:0:
192,192,279502,128,0,279619:0:0:0:0:
64,192,279619,128,0,281737:0:0:0:0:
448,192,279854,1,0,0:0:0:0:
320,192,279973,1,0,0:0:0:0:
192,192,280031,1,0,0:0:0:0:
448,192,280090,1,0,0:0:0:0:
320,192,280148,1,0,0:0:0:0:
192,192,280208,128,0,280325:0:0:0:0:
448,192,280325,128,0,280502:0:0:0:0:
320,192,280502,1,0,0:0:0:0:
192,192,280649,1,0,0:0:0:0:
320,192,280767,1,0,0:0:0:0:
448,192,280767,1,0,0:0:0:0:
192,192,280854,1,0,0:0:0:0:
448,192,280943,128,0,281119:0:0:0:0:
192,192,281149,1,0,0:0:0:0:
320,192,281266,1,0,0:0:0:0:
192,192,281385,1,0,0:0:0:0:
448,192,281385,1,0,0:0:0:0:
320,192,281560,128,0,281708:0:0:0:0:
448,192,281737,128,0,282443:0:0:0:0:
192,192,281737,128,0,281913:0:0:0:0:
320,192,282090,128,0,282443:0:0:0:0:
192,192,282266,1,0,0:0:0:0:
64,192,282266,1,0,0:0:0:0:
64,192,282443,1,0,0:0:0:0:
192,192,282443,128,0,283766:0:0:0:0:
320,192,282678,1,0,0:0:0:0:
64,192,282737,1,0,0:0:0:0:
448,192,282796,128,0,283032:0:0:0:0:
320,192,282913,1,0,0:0:0:0:
64,192,283032,128,0,283267:0:0:0:0:
320,192,283120,128,0,283267:0:0:0:0:
448,192,283207,1,0,0:0:0:0:
448,192,283325,128,0,283414:0:0:0:0:
64,192,283384,1,0,0:0:0:0:
320,192,283472,1,0,0:0:0:0:
64,192,283561,128,0,283766:0:0:0:0:
448,192,283561,128,0,283766:0:0:0:0:
320,192,283708,128,0,283766:0:0:0:0:
320,192,283854,128,0,283972:0:0:0:0:
192,192,283854,128,0,285266:0:0:0:0:
64,192,283943,1,0,0:0:0:0:
448,192,283972,128,0,284031:0:0:0:0:
320,192,284090,1,0,0:0:0:0:
64,192,284208,1,0,0:0:0:0:
320,192,284297,128,0,284384:0:0:0:0:
448,192,284443,128,0,284707:0:0:0:0:
64,192,284443,1,0,0:0:0:0:
320,192,284560,128,0,284707:0:0:0:0:
64,192,284560,1,0,0:0:0:0:
64,192,284796,1,0,0:0:0:0:
448,192,284913,128,0,285266:0:0:0:0:
320,192,284913,1,0,0:0:0:0:
64,192,285119,1,0,0:0:0:0:
64,192,285266,1,0,0:0:0:0:
320,192,285266,128,0,288090:0:0:0:0:
448,192,285385,1,0,0:0:0:0:
64,192,285502,1,0,0:0:0:0:
192,192,285620,1,0,0:0:0:0:
448,192,285737,1,0,0:0:0:0:
192,192,285795,1,0,0:0:0:0:
64,192,285855,1,0,0:0:0:0:
448,192,285942,128,0,286061:0:0:0:0:
192,192,286091,1,0,0:0:0:0:
64,192,286149,128,0,286266:0:0:0:0:
448,192,286149,1,0,0:0:0:0:
448,192,286326,1,0,0:0:0:0:
64,192,286384,1,0,0:0:0:0:
192,192,286413,128,0,286531:0:0:0:0:
64,192,286561,1,0,0:0:0:0:
448,192,286678,128,0,286796:0:0:0:0:
64,192,286678,1,0,0:0:0:0:
192,192,286796,128,0,287002:0:0:0:0:
448,192,286855,1,0,0:0:0:0:
64,192,287002,128,0,287179:0:0:0:0:
448,192,287002,1,0,0:0:0:0:
192,192,287119,1,0,0:0:0:0:
64,192,287267,1,0,0:0:0:0:
448,192,287267,128,0,287384:0:0:0:0:
64,192,287384,128,0,287561:0:0:0:0:
192,192,287384,1,0,0:0:0:0:
448,192,287502,1,0,0:0:0:0:
64,192,287619,1,0,0:0:0:0:
192,192,287707,128,0,288060:0:0:0:0:
64,192,287943,128,0,288060:0:0:0:0:
192,192,288090,1,0,0:0:0:0:
64,192,288090,1,0,0:0:0:0:
448,192,288090,1,0,0:0:0:0:
192,192,288325,1,0,0:0:0:0:
320,192,288325,1,0,0:0:0:0:
192,192,288444,1,0,0:0:0:0:
64,192,288444,128,0,288679:0:0:0:0:
448,192,288561,128,0,288679:0:0:0:0:
192,192,288679,128,0,288796:0:0:0:0:
320,192,288796,128,0,288973:0:0:0:0:
64,192,288914,1,0,0:0:0:0:
448,192,288973,128,0,289090:0:0:0:0:
192,192,289031,1,0,0:0:0:0:
320,192,289149,128,0,289266:0:0:0:0:
192,192,289237,128,0,289325:0:0:0:0:
64,192,289266,1,0,0:0:0:0:
448,192,289325,128,0,289679:0:0:0:0:
192,192,289385,128,0,289502:0:0:0:0:
64,192,289502,1,0,0:0:0:0:
320,192,289502,128,0,289620:0:0:0:0:
64,192,289679,1,0,0:0:0:0:
192,192,289737,1,0,0:0:0:0:
320,192,289855,1,0,0:0:0:0:
448,192,289855,1,0,0:0:0:0:
64,192,290061,128,0,290208:0:0:0:0:
320,192,290061,1,0,0:0:0:0:
192,192,290091,1,0,0:0:0:0:
320,192,290208,128,0,290531:0:0:0:0:
448,192,290208,128,0,290443:0:0:0:0:
64,192,290443,1,0,0:0:0:0:
192,192,290531,128,0,290914:0:0:0:0:
448,192,290531,128,0,290914:0:0:0:0:
320,192,290678,1,0,0:0:0:0:
64,192,290797,128,0,290914:0:0:0:0:
320,192,290914,1,0,0:0:0:0:
64,192,291032,1,0,0:0:0:0:
448,192,291149,1,0,0:0:0:0:
192,192,291267,1,0,0:0:0:0:
64,192,291326,1,0,0:0:0:0:
320,192,291384,1,0,0:0:0:0:
192,192,291443,1,0,0:0:0:0:
448,192,291473,128,0,291590:0:0:0:0:
64,192,291590,128,0,291796:0:0:0:0:
192,192,291619,1,0,0:0:0:0:
320,192,291736,1,0,0:0:0:0:
192,192,291796,1,0,0:0:0:0:
448,192,291855,1,0,0:0:0:0:
64,192,291972,1,0,0:0:0:0:
320,192,291972,1,0,0:0:0:0:
448,192,292060,128,0,292207:0:0:0:0:
192,192,292149,1,0,0:0:0:0:
320,192,292207,128,0,292502:0:0:0:0:
64,192,292267,1,0,0:0:0:0:
192,192,292325,128,0,292502:0:0:0:0:
64,192,292442,1,0,0:0:0:0:
448,192,292561,1,0,0:0:0:0:
64,192,292678,1,0,0:0:0:0:
192,192,292678,1,0,0:0:0:0:
448,192,292796,1,0,0:0:0:0:
320,192,292884,128,0,293031:0:0:0:0:
64,192,292913,1,0,0:0:0:0:
192,192,293031,128,0,293267:0:0:0:0:
448,192,293031,128,0,293355:0:0:0:0:
64,192,293267,1,0,0:0:0:0:
192,192,293355,128,0,293737:0:0:0:0:
320,192,293355,128,0,293590:0:0:0:0:
64,192,293619,1,0,0:0:0:0:
64,192,293737,1,0,0:0:0:0:
320,192,293737,1,0,0:0:0:0:
448,192,293737,1,0,0:0:0:0:
192,192,293972,1,0,0:0:0:0:
448,192,294089,1,0,0:0:0:0:
192,192,294149,128,0,294296:0:0:0:0:
64,192,294178,1,0,0:0:0:0:
320,192,294208,1,0,0:0:0:0:
448,192,294266,1,0,0:0:0:0:
64,192,294325,1,0,0:0:0:0:
192,192,294384,1,0,0:0:0:0:
448,192,294443,1,0,0:0:0:0:
192,192,294560,1,0,0:0:0:0:
64,192,294619,1,0,0:0:0:0:
448,192,294678,1,0,0:0:0:0:
320,192,294678,1,0,0:0:0:0:
64,192,294795,1,0,0:0:0:0:
192,192,294825,1,0,0:0:0:0:
64,192,294914,1,0,0:0:0:0:
320,192,294943,1,0,0:0:0:0:
64,192,295031,1,0,0:0:0:0:
448,192,295060,1,0,0:0:0:0:
192,192,295149,128,0,295207:0:0:0:0:
320,192,295149,128,0,295266:0:0:0:0:
448,192,295326,128,0,295473:0:0:0:0:
64,192,295384,1,0,0:0:0:0:
192,192,295443,1,0,0:0:0:0:
320,192,295502,128,0,295619:0:0:0:0:
448,192,295560,1,0,0:0:0:0:
192,192,295619,1,0,0:0:0:0:
64,192,295619,1,0,0:0:0:0:
192,192,295737,128,0,295854:0:0:0:0:
448,192,295854,128,0,296207:0:0:0:0:
320,192,295854,128,0,295972:0:0:0:0:
192,192,296090,1,0,0:0:0:0:
64,192,296207,128,0,296560:0:0:0:0:
320,192,296207,128,0,296443:0:0:0:0:
448,192,296325,1,0,0:0:0:0:
192,192,296384,128,0,296443:0:0:0:0:
448,192,296561,1,0,0:0:0:0:
192,192,296604,1,0,0:0:0:0:
320,192,296649,1,0,0:0:0:0:
64,192,296693,1,0,0:0:0:0:
448,192,296737,1,0,0:0:0:0:
192,192,296781,1,0,0:0:0:0:
320,192,296825,1,0,0:0:0:0:
64,192,296913,1,0,0:0:0:0:
192,192,296973,1,0,0:0:0:0:
320,192,297031,1,0,0:0:0:0:
448,192,297148,1,0,0:0:0:0:
64,192,297237,1,0,0:0:0:0:
320,192,297237,128,0,297355:0:0:0:0:
192,192,297443,1,0,0:0:0:0:
64,192,297443,1,0,0:0:0:0:
448,192,297502,128,0,297560:0:0:0:0:
320,192,297560,1,0,0:0:0:0:
64,192,297619,1,0,0:0:0:0:
320,192,297707,128,0,297854:0:0:0:0:
192,192,297737,1,0,0:0:0:0:
64,192,297796,1,0,0:0:0:0:
448,192,297854,1,0,0:0:0:0:
320,192,297973,1,0,0:0:0:0:
64,192,297973,1,0,0:0:0:0:
448,192,298031,1,0,0:0:0:0:
192,192,298090,128,0,298325:0:0:0:0:
64,192,298208,1,0,0:0:0:0:
320,192,298325,1,0,0:0:0:0:
448,192,298443,1,0,0:0:0:0:
192,192,298443,1,0,0:0:0:0:
64,192,298502,1,0,0:0:0:0:
320,192,298560,128,0,298678:0:0:0:0:
448,192,298560,1,0,0:0:0:0:
64,192,298619,1,0,0:0:0:0:
192,192,298678,128,0,298913:0:0:0:0:
320,192,298795,1,0,0:0:0:0:
448,192,298914,128,0,298972:0:0:0:0:
320,192,299031,128,0,299384:0:0:0:0:
64,192,299031,1,0,0:0:0:0:
192,192,299119,128,0,299178:0:0:0:0:
192,192,299384,1,0,0:0:0:0:
64,192,299384,1,0,0:0:0:0:
448,192,299384,1,0,0:0:0:0:
320,192,299501,1,0,0:0:0:0:
64,192,299620,1,0,0:0:0:0:
320,192,299737,1,0,0:0:0:0:
192,192,299781,1,0,0:0:0:0:
448,192,299825,1,0,0:0:0:0:
64,192,299855,1,0,0:0:0:0:
192,192,299913,1,0,0:0:0:0:
320,192,299913,128,0,300032:0:0:0:0:
448,192,299972,1,0,0:0:0:0:
64,192,300046,1,0,0:0:0:0:
192,192,300090,128,0,300207:0:0:0:0:
448,192,300090,1,0,0:0:0:0:
320,192,300207,1,0,0:0:0:0:
64,192,300326,1,0,0:0:0:0:
448,192,300443,1,0,0:0:0:0:
192,192,300502,1,0,0:0:0:0:
320,192,300561,1,0,0:0:0:0:
192,192,300678,1,0,0:0:0:0:
320,192,300738,128,0,300796:0:0:0:0:
64,192,300796,1,0,0:0:0:0:
448,192,300796,1,0,0:0:0:0:
192,192,300913,1,0,0:0:0:0:
64,192,300972,128,0,301119:0:0:0:0:
448,192,301031,1,0,0:0:0:0:
320,192,301060,1,0,0:0:0:0:
192,192,301090,1,0,0:0:0:0:
448,192,301149,128,0,301502:0:0:0:0:
320,192,301178,1,0,0:0:0:0:
192,192,301207,1,0,0:0:0:0:
64,192,301237,1,0,0:0:0:0:
320,192,301354,128,0,301502:0:0:0:0:
192,192,301384,1,0,0:0:0:0:
64,192,301502,128,0,301737:0:0:0:0:
192,192,301502,1,0,0:0:0:0:
448,192,301560,1,0,0:0:0:0:
192,192,301619,1,0,0:0:0:0:
448,192,301678,1,0,0:0:0:0:
320,192,301737,1,0,0:0:0:0:
192,192,301854,128,0,302208:0:0:0:0:
64,192,301854,1,0,0:0:0:0:
448,192,301914,1,0,0:0:0:0:
448,192,302031,1,0,0:0:0:0:
448,192,302149,1,0,0:0:0:0:
64,192,302208,1,0,0:0:0:0:
320,192,302208,1,0,0:0:0:0:
192,192,302325,1,0,0:0:0:0:
448,192,302443,1,0,0:0:0:0:
320,192,302502,1,0,0:0:0:0:
64,192,302560,1,0,0:0:0:0:
192,192,302649,1,0,0:0:0:0:
320,192,302649,1,0,0:0:0:0:
64,192,302737,1,0,0:0:0:0:
448,192,302796,128,0,302884:0:0:0:0:
64,192,302884,128,0,303031:0:0:0:0:
448,192,303031,1,0,0:0:0:0:
192,192,303119,1,0,0:0:0:0:
320,192,303119,128,0,303208:0:0:0:0:
64,192,303266,1,0,0:0:0:0:
320,192,303326,1,0,0:0:0:0:
192,192,303384,1,0,0:0:0:0:
448,192,303501,1,0,0:0:0:0:
320,192,303620,1,0,0:0:0:0:
64,192,303620,128,0,303737:0:0:0:0:
448,192,303678,1,0,0:0:0:0:
192,192,303737,1,0,0:0:0:0:
448,192,303855,1,0,0:0:0:0:
192,192,303914,1,0,0:0:0:0:
64,192,303972,1,0,0:0:0:0:
448,192,304090,1,0,0:0:0:0:
320,192,304090,1,0,0:0:0:0:
192,192,304179,128,0,304296:0:0:0:0:
64,192,304207,1,0,0:0:0:0:
448,192,304296,1,0,0:0:0:0:
320,192,304296,128,0,304531:0:0:0:0:
192,192,304531,1,0,0:0:0:0:
64,192,304531,1,0,0:0:0:0:
448,192,304649,128,0,305032:0:0:0:0:
320,192,304649,1,0,0:0:0:0:
64,192,304796,1,0,0:0:0:0:
192,192,304913,1,0,0:0:0:0:
64,192,305032,1,0,0:0:0:0:
192,192,305032,1,0,0:0:0:0:
320,192,305032,1,0,0:0:0:0:
448,192,305149,1,0,0:0:0:0:
192,192,305267,1,0,0:0:0:0:
320,192,305325,1,0,0:0:0:0:
64,192,305384,1,0,0:0:0:0:
320,192,305502,1,0,0:0:0:0:
448,192,305502,1,0,0:0:0:0:
64,192,305561,1,0,0:0:0:0:
192,192,305619,1,0,0:0:0:0:
320,192,305678,1,0,0:0:0:0:
448,192,305737,1,0,0:0:0:0:
320,192,305854,1,0,0:0:0:0:
64,192,305973,1,0,0:0:0:0:
192,192,305973,1,0,0:0:0:0:
448,192,306090,1,0,0:0:0:0:
64,192,306208,1,0,0:0:0:0:
192,192,306325,5,0,0:0:0:0:
64,192,306384,1,0,0:0:0:0:
320,192,306443,1,0,0:0:0:0:
448,192,306443,1,0,0:0:0:0:
64,192,306560,1,0,0:0:0:0:
320,192,306679,1,0,0:0:0:0:
192,192,306737,1,0,0:0:0:0:
448,192,306796,1,0,0:0:0:0:
320,192,306854,1,0,0:0:0:0:
64,192,306914,1,0,0:0:0:0:
192,192,306914,1,0,0:0:0:0:
320,192,307002,128,0,307119:0:0:0:0:
448,192,307031,1,0,0:0:0:0:
192,192,307119,128,0,307296:0:0:0:0:
448,192,307266,1,0,0:0:0:0:
64,192,307385,1,0,0:0:0:0:
192,192,307385,1,0,0:0:0:0:
192,192,307502,128,0,307737:0:0:0:0:
320,192,307502,1,0,0:0:0:0:
448,192,307502,1,0,0:0:0:0:
448,192,307620,1,0,0:0:0:0:
320,192,307620,1,0,0:0:0:0:
448,192,307737,1,0,0:0:0:0:
320,192,307737,1,0,0:0:0:0:
64,192,307855,5,0,0:0:0:0:
320,192,307855,1,0,0:0:0:0:
448,192,307855,1,0,0:0:0:0:
192,192,307855,1,0,0:0:0:0:
64,192,308089,1,0,0:0:0:0:
192,192,308089,1,0,0:0:0:0:
64,192,308324,1,0,0:0:0:0:
320,192,308324,1,0,0:0:0:0:
448,192,308324,1,0,0:0:0:0:
64,192,308560,1,0,0:0:0:0:
192,192,308560,1,0,0:0:0:0:
448,192,308560,1,0,0:0:0:0:
320,192,308560,1,0,0:0:0:0:
64,192,308795,1,0,0:0:0:0:
192,192,308795,1,0,0:0:0:0:
64,192,309030,1,0,0:0:0:0:
320,192,309030,1,0,0:0:0:0:
448,192,309030,1,0,0:0:0:0:
320,192,309266,1,0,0:0:0:0:
448,192,309266,1,0,0:0:0:0:
192,192,309266,1,0,0:0:0:0:
64,192,309266,1,0,0:0:0:0:
64,192,309501,1,0,0:0:0:0:
448,192,309501,1,0,0:0:0:0:
192,192,309501,1,0,0:0:0:0:
320,192,309736,1,0,0:0:0:0:
448,192,309736,1,0,0:0:0:0:
192,192,309736,1,0,0:0:0:0:
64,192,309855,1,0,0:0:0:0:
192,192,309855,1,0,0:0:0:0:
320,192,309972,1,0,0:0:0:0:
448,192,310090,1,0,0:0:0:0:
320,192,310090,1,0,0:0:0:0:
448,192,310325,1,0,0:0:0:0:
192,192,310325,1,0,0:0:0:0:
320,192,310442,1,0,0:0:0:0:
448,192,310560,1,0,0:0:0:0:
64,192,310560,1,0,0:0:0:0:
64,192,310677,1,0,0:0:0:0:
192,192,310677,1,0,0:0:0:0:
320,192,310677,1,0,0:0:0:0:
448,192,310796,1,0,0:0:0:0:
320,192,310913,1,0,0:0:0:0:
192,192,310913,1,0,0:0:0:0:
64,192,311031,1,0,0:0:0:0:
192,192,311148,1,0,0:0:0:0:
320,192,311148,1,0,0:0:0:0:
64,192,311266,1,0,0:0:0:0:
448,192,311266,1,0,0:0:0:0:
320,192,311383,1,0,0:0:0:0:
192,192,311443,1,0,0:0:0:0:
448,192,311502,1,0,0:0:0:0:
64,192,311560,1,0,0:0:0:0:
320,192,311619,1,0,0:0:0:0:
192,192,311619,1,0,0:0:0:0:
448,192,311619,1,0,0:0:0:0:
64,192,311737,1,0,0:0:0:0:
448,192,311854,1,0,0:0:0:0:
64,192,311972,1,0,0:0:0:0:
192,192,311972,1,0,0:0:0:0:
320,192,311972,1,0,0:0:0:0:
448,192,312089,1,0,0:0:0:0:
320,192,312089,1,0,0:0:0:0:
192,192,312089,1,0,0:0:0:0:
64,192,312208,1,0,0:0:0:0:
448,192,312247,1,0,0:0:0:0:
320,192,312286,1,0,0:0:0:0:
192,192,312325,1,0,0:0:0:0:
448,192,312365,1,0,0:0:0:0:
320,192,312404,1,0,0:0:0:0:
64,192,312443,1,0,0:0:0:0:
192,192,312482,1,0,0:0:0:0:
448,192,312560,1,0,0:0:0:0:
320,192,312560,1,0,0:0:0:0:
64,192,312620,1,0,0:0:0:0:
320,192,312678,1,0,0:0:0:0:
192,192,312737,1,0,0:0:0:0:
448,192,312795,1,0,0:0:0:0:
64,192,312913,1,0,0:0:0:0:
192,192,313030,1,0,0:0:0:0:
448,192,313030,1,0,0:0:0:0:
320,192,313119,1,0,0:0:0:0:
64,192,313149,1,0,0:0:0:0:
320,192,313237,1,0,0:0:0:0:
64,192,313266,1,0,0:0:0:0:
320,192,313354,1,0,0:0:0:0:
64,192,313384,1,0,0:0:0:0:
448,192,313501,1,0,0:0:0:0:
192,192,313501,1,0,0:0:0:0:
320,192,313501,1,0,0:0:0:0:
64,192,313619,1,0,0:0:0:0:
192,192,313736,1,0,0:0:0:0:
320,192,313855,1,0,0:0:0:0:
448,192,313855,1,0,0:0:0:0:
64,192,313855,1,0,0:0:0:0:
64,192,313972,1,0,0:0:0:0:
192,192,313972,1,0,0:0:0:0:
448,192,313972,1,0,0:0:0:0:
320,192,314090,1,0,0:0:0:0:
192,192,314148,1,0,0:0:0:0:
448,192,314207,1,0,0:0:0:0:
192,192,314267,1,0,0:0:0:0:
64,192,314325,1,0,0:0:0:0:
320,192,314384,1,0,0:0:0:0:
64,192,314442,1,0,0:0:0:0:
192,192,314442,1,0,0:0:0:0:
320,192,314522,1,0,0:0:0:0:
448,192,314561,1,0,0:0:0:0:
192,192,314600,1,0,0:0:0:0:
64,192,314678,1,0,0:0:0:0:
320,192,314796,1,0,0:0:0:0:
64,192,314913,1,0,0:0:0:0:
192,192,314913,1,0,0:0:0:0:
448,192,314913,1,0,0:0:0:0:
448,192,315031,1,0,0:0:0:0:
320,192,315031,1,0,0:0:0:0:
64,192,315120,1,0,0:0:0:0:
192,192,315120,1,0,0:0:0:0:
448,192,315208,1,0,0:0:0:0:
320,192,315237,1,0,0:0:0:0:
64,192,315266,1,0,0:0:0:0:
448,192,315325,1,0,0:0:0:0:
320,192,315383,1,0,0:0:0:0:
192,192,315383,1,0,0:0:0:0:
64,192,315383,1,0,0:0:0:0:
448,192,315502,1,0,0:0:0:0:
192,192,315619,1,0,0:0:0:0:
448,192,315737,1,0,0:0:0:0:
320,192,315737,1,0,0:0:0:0:
64,192,315737,1,0,0:0:0:0:
64,192,315854,1,0,0:0:0:0:
192,192,315854,1,0,0:0:0:0:
320,192,315854,1,0,0:0:0:0:
448,192,315972,1,0,0:0:0:0:
64,192,316011,1,0,0:0:0:0:
192,192,316050,1,0,0:0:0:0:
448,192,316089,1,0,0:0:0:0:
320,192,316149,1,0,0:0:0:0:
64,192,316208,1,0,0:0:0:0:
64,192,316325,1,0,0:0:0:0:
448,192,316325,1,0,0:0:0:0:
192,192,316325,1,0,0:0:0:0:
192,192,316443,1,0,0:0:0:0:
64,192,316521,1,0,0:0:0:0:
320,192,316521,1,0,0:0:0:0:
448,192,316560,1,0,0:0:0:0:
320,192,316678,1,0,0:0:0:0:
64,192,316795,1,0,0:0:0:0:
320,192,316795,1,0,0:0:0:0:
448,192,316884,1,0,0:0:0:0:
192,192,316914,1,0,0:0:0:0:
448,192,317002,1,0,0:0:0:0:
192,192,317031,1,0,0:0:0:0:
448,192,317119,1,0,0:0:0:0:
192,192,317149,1,0,0:0:0:0:
448,192,317266,1,0,0:0:0:0:
320,192,317266,1,0,0:0:0:0:
64,192,317266,1,0,0:0:0:0:
192,192,317384,1,0,0:0:0:0:
448,192,317443,1,0,0:0:0:0:
320,192,317501,1,0,0:0:0:0:
64,192,317619,1,0,0:0:0:0:
320,192,317619,1,0,0:0:0:0:
448,192,317619,1,0,0:0:0:0:
64,192,317736,1,0,0:0:0:0:
192,192,317736,1,0,0:0:0:0:
448,192,317855,1,0,0:0:0:0:
448,192,317972,1,0,0:0:0:0:
320,192,318090,1,0,0:0:0:0:
192,192,318090,1,0,0:0:0:0:
192,192,318207,1,0,0:0:0:0:
64,192,318207,1,0,0:0:0:0:
448,192,318267,1,0,0:0:0:0:
320,192,318325,1,0,0:0:0:0:
192,192,318384,1,0,0:0:0:0:
64,192,318442,1,0,0:0:0:0:
448,192,318442,1,0,0:0:0:0:
320,192,318561,1,0,0:0:0:0:
192,192,318561,1,0,0:0:0:0:
448,192,318678,1,0,0:0:0:0:
320,192,318678,1,0,0:0:0:0:
64,192,318678,1,0,0:0:0:0:
64,192,318796,1,0,0:0:0:0:
192,192,318796,1,0,0:0:0:0:
320,192,318884,1,0,0:0:0:0:
448,192,318884,1,0,0:0:0:0:
192,192,318973,1,0,0:0:0:0:
64,192,319001,1,0,0:0:0:0:
448,192,319031,1,0,0:0:0:0:
192,192,319090,1,0,0:0:0:0:
64,192,319148,1,0,0:0:0:0:
320,192,319148,1,0,0:0:0:0:
448,192,319148,1,0,0:0:0:0:
192,192,319267,1,0,0:0:0:0:
320,192,319267,1,0,0:0:0:0:
448,192,319384,1,0,0:0:0:0:
192,192,319502,1,0,0:0:0:0:
320,192,319502,1,0,0:0:0:0:
64,192,319502,1,0,0:0:0:0:
448,192,319619,1,0,0:0:0:0:
64,192,319619,1,0,0:0:0:0:
320,192,319619,1,0,0:0:0:0:
192,192,319737,1,0,0:0:0:0:
320,192,319776,1,0,0:0:0:0:
64,192,319815,1,0,0:0:0:0:
448,192,319854,1,0,0:0:0:0:
320,192,319914,1,0,0:0:0:0:
192,192,319972,1,0,0:0:0:0:
64,192,320011,1,0,0:0:0:0:
448,192,320089,1,0,0:0:0:0:
320,192,320089,1,0,0:0:0:0:
192,192,320149,1,0,0:0:0:0:
320,192,320208,1,0,0:0:0:0:
192,192,320266,1,0,0:0:0:0:
448,192,320325,1,0,0:0:0:0:
64,192,320443,1,0,0:0:0:0:
320,192,320560,1,0,0:0:0:0:
448,192,320560,1,0,0:0:0:0:
64,192,320648,1,0,0:0:0:0:
192,192,320678,1,0,0:0:0:0:
64,192,320767,1,0,0:0:0:0:
192,192,320795,1,0,0:0:0:0:
64,192,320884,1,0,0:0:0:0:
192,192,320914,1,0,0:0:0:0:
448,192,321031,1,0,0:0:0:0:
320,192,321031,1,0,0:0:0:0:
64,192,321031,1,0,0:0:0:0:
192,192,321149,1,0,0:0:0:0:
320,192,321266,1,0,0:0:0:0:
64,192,321384,1,0,0:0:0:0:
448,192,321384,1,0,0:0:0:0:
192,192,321384,1,0,0:0:0:0:
192,192,321501,1,0,0:0:0:0:
320,192,321501,1,0,0:0:0:0:
448,192,321501,1,0,0:0:0:0:
64,192,321620,1,0,0:0:0:0:
320,192,321620,1,0,0:0:0:0:
192,192,321678,1,0,0:0:0:0:
448,192,321737,1,0,0:0:0:0:
320,192,321795,1,0,0:0:0:0:
64,192,321855,1,0,0:0:0:0:
192,192,321855,1,0,0:0:0:0:
64,192,321972,1,0,0:0:0:0:
448,192,321972,1,0,0:0:0:0:
320,192,322051,1,0,0:0:0:0:
192,192,322129,1,0,0:0:0:0:
448,192,322207,1,0,0:0:0:0:
64,192,322207,1,0,0:0:0:0:
192,192,322325,1,0,0:0:0:0:
64,192,322442,1,0,0:0:0:0:
320,192,322442,1,0,0:0:0:0:
448,192,322442,1,0,0:0:0:0:
64,192,322561,1,0,0:0:0:0:
192,192,322649,1,0,0:0:0:0:
320,192,322649,1,0,0:0:0:0:
448,192,322736,1,0,0:0:0:0:
64,192,322766,1,0,0:0:0:0:
192,192,322796,1,0,0:0:0:0:
448,192,322855,1,0,0:0:0:0:
64,192,322913,1,0,0:0:0:0:
320,192,322913,1,0,0:0:0:0:
192,192,322913,1,0,0:0:0:0:
448,192,323031,1,0,0:0:0:0:
64,192,323148,1,0,0:0:0:0:
448,192,323267,1,0,0:0:0:0:
320,192,323267,1,0,0:0:0:0:
192,192,323267,1,0,0:0:0:0:
192,192,323384,1,0,0:0:0:0:
320,192,323384,1,0,0:0:0:0:
64,192,323384,1,0,0:0:0:0:
448,192,323502,1,0,0:0:0:0:
320,192,323541,1,0,0:0:0:0:
64,192,323580,1,0,0:0:0:0:
448,192,323619,1,0,0:0:0:0:
192,192,323658,1,0,0:0:0:0:
320,192,323698,1,0,0:0:0:0:
64,192,323737,1,0,0:0:0:0:
192,192,323776,1,0,0:0:0:0:
320,192,323854,1,0,0:0:0:0:
448,192,323854,1,0,0:0:0:0:
64,192,323913,1,0,0:0:0:0:
192,192,323973,1,0,0:0:0:0:
320,192,324031,1,0,0:0:0:0:
448,192,324090,1,0,0:0:0:0:
64,192,324090,1,0,0:0:0:0:
320,192,324208,1,0,0:0:0:0:
192,192,324325,1,0,0:0:0:0:
64,192,324325,1,0,0:0:0:0:
320,192,324413,1,0,0:0:0:0:
448,192,324443,1,0,0:0:0:0:
320,192,324532,1,0,0:0:0:0:
448,192,324560,1,0,0:0:0:0:
320,192,324649,1,0,0:0:0:0:
448,192,324678,1,0,0:0:0:0:
320,192,324795,1,0,0:0:0:0:
64,192,324795,1,0,0:0:0:0:
192,192,324795,1,0,0:0:0:0:
448,192,324914,1,0,0:0:0:0:
320,192,324972,1,0,0:0:0:0:
192,192,325031,1,0,0:0:0:0:
64,192,325089,1,0,0:0:0:0:
448,192,325149,1,0,0:0:0:0:
192,192,325149,1,0,0:0:0:0:
320,192,325149,1,0,0:0:0:0:
320,192,325266,1,0,0:0:0:0:
64,192,325266,1,0,0:0:0:0:
64,192,325384,1,0,0:0:0:0:
448,192,325384,1,0,0:0:0:0:
320,192,325443,1,0,0:0:0:0:
448,192,325501,1,0,0:0:0:0:
320,192,325620,1,0,0:0:0:0:
192,192,325737,1,0,0:0:0:0:
64,192,325737,1,0,0:0:0:0:
64,192,325972,1,0,0:0:0:0:
320,192,325972,1,0,0:0:0:0:
64,192,326207,1,0,0:0:0:0:
448,192,326207,1,0,0:0:0:0:
64,192,326678,1,0,0:0:0:0:
192,192,326678,1,0,0:0:0:0:
448,192,326736,1,0,0:0:0:0:
320,192,326796,1,0,0:0:0:0:
64,192,326855,1,0,0:0:0:0:
448,192,326913,1,0,0:0:0:0:
192,192,326972,1,0,0:0:0:0:
448,192,327031,1,0,0:0:0:0:
320,192,327031,1,0,0:0:0:0:
64,192,327031,1,0,0:0:0:0:
64,192,327148,1,0,0:0:0:0:
192,192,327148,1,0,0:0:0:0:
448,192,327267,1,0,0:0:0:0:
320,192,327345,1,0,0:0:0:0:
192,192,327384,1,0,0:0:0:0:
448,192,327423,1,0,0:0:0:0:
320,192,327502,1,0,0:0:0:0:
64,192,327502,1,0,0:0:0:0:
448,192,327580,1,0,0:0:0:0:
192,192,327619,1,0,0:0:0:0:
320,192,328090,128,0,328208:0:0:0:0:
192,192,328090,1,0,0:0:0:0:
448,192,328090,1,0,0:0:0:0:
448,192,328208,128,0,328325:0:0:0:0:
192,192,328208,1,0,0:0:0:0:
64,192,328208,1,0,0:0:0:0:
64,192,328325,128,0,328443:0:0:0:0:
320,192,328325,1,0,0:0:0:0:
448,192,328443,1,0,0:0:0:0:
320,192,328443,1,0,0:0:0:0:
192,192,328560,1,0,0:0:0:0:
64,192,328560,1,0,0:0:0:0:
448,192,328560,1,0,0:0:0:0:
320,192,328679,1,0,0:0:0:0:
448,192,328737,1,0,0:0:0:0:
64,192,328796,1,0,0:0:0:0:
320,192,328854,1,0,0:0:0:0:
64,192,328914,1,0,0:0:0:0:
448,192,328914,1,0,0:0:0:0:
192,192,328914,1,0,0:0:0:0:
320,192,329031,1,0,0:0:0:0:
192,192,329031,1,0,0:0:0:0:
64,192,329149,1,0,0:0:0:0:
448,192,329149,1,0,0:0:0:0:
192,192,329208,1,0,0:0:0:0:
320,192,329266,1,0,0:0:0:0:
64,192,329325,1,0,0:0:0:0:
448,192,329384,1,0,0:0:0:0:
320,192,329443,1,0,0:0:0:0:
192,192,329501,128,0,329620:0:0:0:0:
64,192,329620,128,0,329737:0:0:0:0:
320,192,329737,128,0,329855:0:0:0:0:
320,192,329972,128,0,330090:0:0:0:0:
192,192,329972,1,0,0:0:0:0:
64,192,329972,1,0,0:0:0:0:
192,192,330090,128,0,330207:0:0:0:0:
64,192,330090,1,0,0:0:0:0:
448,192,330090,1,0,0:0:0:0:
448,192,330207,128,0,330326:0:0:0:0:
320,192,330207,1,0,0:0:0:0:
192,192,330326,1,0,0:0:0:0:
320,192,330443,1,0,0:0:0:0:
64,192,330443,1,0,0:0:0:0:
448,192,330443,1,0,0:0:0:0:
320,192,330561,1,0,0:0:0:0:
64,192,330619,1,0,0:0:0:0:
448,192,330678,128,0,330736:0:0:0:0:
192,192,330678,1,0,0:0:0:0:
448,192,330796,128,0,330855:0:0:0:0:
64,192,330796,1,0,0:0:0:0:
320,192,330796,1,0,0:0:0:0:
192,192,330913,1,0,0:0:0:0:
320,192,330913,1,0,0:0:0:0:
448,192,331032,1,0,0:0:0:0:
192,192,331149,1,0,0:0:0:0:
320,192,331267,1,0,0:0:0:0:
64,192,331354,1,0,0:0:0:0:
64,192,331442,1,0,0:0:0:0:
64,192,331531,1,0,0:0:0:0:
192,192,331619,1,0,0:0:0:0:
192,192,331854,128,0,331973:0:0:0:0:
64,192,331854,1,0,0:0:0:0:
320,192,331854,1,0,0:0:0:0:
320,192,331973,128,0,332090:0:0:0:0:
448,192,331973,1,0,0:0:0:0:
64,192,332090,128,0,332208:0:0:0:0:
320,192,332208,1,0,0:0:0:0:
448,192,332208,1,0,0:0:0:0:
192,192,332208,1,0,0:0:0:0:
64,192,332325,1,0,0:0:0:0:
192,192,332325,1,0,0:0:0:0:
64,192,332443,1,0,0:0:0:0:
320,192,332443,1,0,0:0:0:0:
448,192,332560,1,0,0:0:0:0:
192,192,332679,1,0,0:0:0:0:
64,192,332679,1,0,0:0:0:0:
448,192,332679,128,0,332796:0:0:0:0:
192,192,332796,1,0,0:0:0:0:
448,192,332914,1,0,0:0:0:0:
320,192,332914,1,0,0:0:0:0:
64,192,332953,1,0,0:0:0:0:
192,192,333031,1,0,0:0:0:0:
320,192,333031,1,0,0:0:0:0:
64,192,333109,1,0,0:0:0:0:
192,192,333188,1,0,0:0:0:0:
64,192,333266,1,0,0:0:0:0:
320,192,333266,1,0,0:0:0:0:
192,192,333502,1,0,0:0:0:0:
448,192,333502,1,0,0:0:0:0:
320,192,333737,128,0,333855:0:0:0:0:
64,192,333737,1,0,0:0:0:0:
192,192,333737,1,0,0:0:0:0:
448,192,333855,1,0,0:0:0:0:
192,192,333855,1,0,0:0:0:0:
448,192,333972,128,0,334089:0:0:0:0:
320,192,333972,1,0,0:0:0:0:
64,192,334089,1,0,0:0:0:0:
320,192,334089,1,0,0:0:0:0:
64,192,334207,128,0,334443:0:0:0:0:
448,192,334207,1,0,0:0:0:0:
192,192,334285,1,0,0:0:0:0:
320,192,334324,1,0,0:0:0:0:
448,192,334443,1,0,0:0:0:0:
64,192,334560,1,0,0:0:0:0:
192,192,334560,1,0,0:0:0:0:
320,192,334560,1,0,0:0:0:0:
192,192,334678,1,0,0:0:0:0:
64,192,334678,1,0,0:0:0:0:
448,192,334795,1,0,0:0:0:0:
320,192,334883,1,0,0:0:0:0:
448,192,334913,1,0,0:0:0:0:
192,192,335030,128,0,335110:0:0:0:0:
320,192,335090,1,0,0:0:0:0:
448,192,335149,1,0,0:0:0:0:
64,192,335266,128,0,335384:0:0:0:0:
192,192,335325,1,0,0:0:0:0:
320,192,335384,128,0,335541:0:0:0:0:
448,192,335442,1,0,0:0:0:0:
192,192,335619,128,0,335736:0:0:0:0:
448,192,335619,1,0,0:0:0:0:
64,192,335619,1,0,0:0:0:0:
448,192,335736,128,0,335855:0:0:0:0:
320,192,335736,1,0,0:0:0:0:
64,192,335855,128,0,335972:0:0:0:0:
320,192,335972,128,0,336090:0:0:0:0:
448,192,335972,1,0,0:0:0:0:
64,192,336090,1,0,0:0:0:0:
192,192,336090,1,0,0:0:0:0:
64,192,336207,1,0,0:0:0:0:
320,192,336207,1,0,0:0:0:0:
192,192,336325,1,0,0:0:0:0:
448,192,336442,1,0,0:0:0:0:
64,192,336442,1,0,0:0:0:0:
320,192,336442,1,0,0:0:0:0:
320,192,336560,1,0,0:0:0:0:
448,192,336560,1,0,0:0:0:0:
192,192,336677,1,0,0:0:0:0:
64,192,336677,1,0,0:0:0:0:
320,192,336796,1,0,0:0:0:0:
64,192,336913,1,0,0:0:0:0:
448,192,337031,1,0,0:0:0:0:
448,192,337109,1,0,0:0:0:0:
448,192,337188,1,0,0:0:0:0:
320,192,337266,1,0,0:0:0:0:
64,192,337502,128,0,337619:0:0:0:0:
192,192,337502,1,0,0:0:0:0:
448,192,337502,1,0,0:0:0:0:
192,192,337619,128,0,337737:0:0:0:0:
320,192,337619,1,0,0:0:0:0:
320,192,337737,128,0,337914:0:0:0:0:
64,192,337972,1,0,0:0:0:0:
192,192,337972,1,0,0:0:0:0:
448,192,337972,1,0,0:0:0:0:
320,192,338089,1,0,0:0:0:0:
192,192,338208,128,0,338325:0:0:0:0:
448,192,338208,1,0,0:0:0:0:
64,192,338325,1,0,0:0:0:0:
448,192,338325,128,0,338443:0:0:0:0:
320,192,338325,1,0,0:0:0:0:
192,192,338443,1,0,0:0:0:0:
64,192,338443,1,0,0:0:0:0:
320,192,338560,128,0,338737:0:0:0:0:
448,192,338560,1,0,0:0:0:0:
64,192,338678,1,0,0:0:0:0:
320,192,338795,128,0,338913:0:0:0:0:
192,192,338795,1,0,0:0:0:0:
448,192,338855,1,0,0:0:0:0:
64,192,338913,128,0,339090:0:0:0:0:
64,192,339149,128,0,339266:0:0:0:0:
64,192,339384,128,0,339443:0:0:0:0:
448,192,339384,1,0,0:0:0:0:
320,192,339384,1,0,0:0:0:0:
448,192,339501,128,0,339580:0:0:0:0:
192,192,339501,1,0,0:0:0:0:
192,192,339619,128,0,339708:0:0:0:0:
320,192,339619,1,0,0:0:0:0:
320,192,339736,128,0,339855:0:0:0:0:
64,192,339736,1,0,0:0:0:0:
448,192,339855,5,0,0:0:0:0:
192,192,339855,1,0,0:0:0:0:
64,192,339855,1,0,0:0:0:0:
320,192,340012,1,0,0:0:0:0:
64,192,340012,1,0,0:0:0:0:
192,192,340168,1,0,0:0:0:0:
448,192,340168,1,0,0:0:0:0:
64,192,340325,1,0,0:0:0:0:
192,192,340325,1,0,0:0:0:0:
448,192,340325,1,0,0:0:0:0:
64,192,340483,1,0,0:0:0:0:
192,192,340483,1,0,0:0:0:0:
320,192,340483,1,0,0:0:0:0:
64,192,340639,1,0,0:0:0:0:
448,192,340639,1,0,0:0:0:0:
320,192,340639,1,0,0:0:0:0:
64,192,340796,1,0,0:0:0:0:
320,192,340796,1,0,0:0:0:0:
192,192,340796,1,0,0:0:0:0:
448,192,340953,1,0,0:0:0:0:
192,192,340953,1,0,0:0:0:0:
448,192,341109,1,0,0:0:0:0:
320,192,341109,1,0,0:0:0:0:
64,192,341266,1,0,0:0:0:0:
320,192,341266,1,0,0:0:0:0:
448,192,341266,1,0,0:0:0:0:
192,192,341325,1,0,0:0:0:0:
320,192,341384,1,0,0:0:0:0:
448,192,341443,1,0,0:0:0:0:
192,192,341502,1,0,0:0:0:0:
320,192,341560,1,0,0:0:0:0:
64,192,341619,1,0,0:0:0:0:
192,192,341678,1,0,0:0:0:0:
64,192,341737,1,0,0:0:0:0:
320,192,341737,1,0,0:0:0:0:
448,192,341737,1,0,0:0:0:0:
448,192,341854,1,0,0:0:0:0:
64,192,341971,1,0,0:0:0:0:
192,192,342011,1,0,0:0:0:0:
448,192,342050,1,0,0:0:0:0:
320,192,342089,1,0,0:0:0:0:
192,192,342128,1,0,0:0:0:0:
64,192,342167,1,0,0:0:0:0:
448,192,342206,1,0,0:0:0:0:
320,192,342206,1,0,0:0:0:0:
320,192,342364,1,0,0:0:0:0:
64,192,342442,1,0,0:0:0:0:
192,192,342482,1,0,0:0:0:0:
320,192,342560,1,0,0:0:0:0:
448,192,342599,1,0,0:0:0:0:
192,192,342677,1,0,0:0:0:0:
320,192,342677,1,0,0:0:0:0:
64,192,342756,1,0,0:0:0:0:
192,192,342795,1,0,0:0:0:0:
448,192,342873,1,0,0:0:0:0:
320,192,342912,1,0,0:0:0:0:
64,192,342992,1,0,0:0:0:0:
448,192,343031,1,0,0:0:0:0:
192,192,343148,1,0,0:0:0:0:
320,192,343148,1,0,0:0:0:0:
448,192,343266,1,0,0:0:0:0:
192,192,343305,1,0,0:0:0:0:
320,192,343344,1,0,0:0:0:0:
64,192,343383,1,0,0:0:0:0:
64,192,343501,1,0,0:0:0:0:
192,192,343618,1,0,0:0:0:0:
320,192,343618,1,0,0:0:0:0:
448,192,343658,1,0,0:0:0:0:
64,192,343736,1,0,0:0:0:0:
320,192,343775,1,0,0:0:0:0:
192,192,343853,1,0,0:0:0:0:
64,192,343894,1,0,0:0:0:0:
320,192,343972,1,0,0:0:0:0:
448,192,344030,1,0,0:0:0:0:
64,192,344089,1,0,0:0:0:0:
192,192,344089,1,0,0:0:0:0:
64,192,344207,1,0,0:0:0:0:
192,192,344246,1,0,0:0:0:0:
320,192,344324,1,0,0:0:0:0:
448,192,344364,1,0,0:0:0:0:
64,192,344559,1,0,0:0:0:0:
192,192,344559,1,0,0:0:0:0:
320,192,344600,1,0,0:0:0:0:
448,192,344678,1,0,0:0:0:0:
192,192,344717,1,0,0:0:0:0:
320,192,344795,1,0,0:0:0:0:
448,192,344835,1,0,0:0:0:0:
192,192,344874,1,0,0:0:0:0:
64,192,344913,1,0,0:0:0:0:
448,192,344943,1,0,0:0:0:0:
320,192,344971,1,0,0:0:0:0:
192,192,345030,1,0,0:0:0:0:
64,192,345030,1,0,0:0:0:0:
192,192,345226,1,0,0:0:0:0:
448,192,345265,1,0,0:0:0:0:
448,192,345384,1,0,0:0:0:0:
64,192,345462,1,0,0:0:0:0:
192,192,345501,1,0,0:0:0:0:
320,192,345580,1,0,0:0:0:0:
448,192,345619,1,0,0:0:0:0:
192,192,345697,1,0,0:0:0:0:
320,192,345736,1,0,0:0:0:0:
64,192,345776,1,0,0:0:0:0:
192,192,345815,1,0,0:0:0:0:
320,192,345854,1,0,0:0:0:0:
448,192,345893,1,0,0:0:0:0:
64,192,345971,1,0,0:0:0:0:
192,192,345971,1,0,0:0:0:0:
64,192,346089,1,0,0:0:0:0:
320,192,346128,1,0,0:0:0:0:
192,192,346206,1,0,0:0:0:0:
64,192,346247,1,0,0:0:0:0:
320,192,346325,1,0,0:0:0:0:
448,192,346364,1,0,0:0:0:0:
448,192,346442,1,0,0:0:0:0:
320,192,346482,1,0,0:0:0:0:
192,192,346521,1,0,0:0:0:0:
64,192,346599,1,0,0:0:0:0:
192,192,346677,1,0,0:0:0:0:
320,192,346717,1,0,0:0:0:0:
64,192,346795,1,0,0:0:0:0:
192,192,346795,1,0,0:0:0:0:
448,192,346834,1,0,0:0:0:0:
64,192,346912,1,0,0:0:0:0:
320,192,346912,1,0,0:0:0:0:
192,192,346992,1,0,0:0:0:0:
320,192,347031,1,0,0:0:0:0:
448,192,347070,1,0,0:0:0:0:
192,192,347148,1,0,0:0:0:0:
192,192,347266,1,0,0:0:0:0:
320,192,347383,1,0,0:0:0:0:
64,192,347423,1,0,0:0:0:0:
448,192,347501,1,0,0:0:0:0:
192,192,347540,1,0,0:0:0:0:
320,192,347618,1,0,0:0:0:0:
448,192,347659,1,0,0:0:0:0:
64,192,347698,1,0,0:0:0:0:
192,192,347737,1,0,0:0:0:0:
320,192,347776,1,0,0:0:0:0:
448,192,347815,1,0,0:0:0:0:
192,192,347854,1,0,0:0:0:0:
64,192,347854,1,0,0:0:0:0:
448,192,347972,1,0,0:0:0:0:
192,192,348089,1,0,0:0:0:0:
64,192,348119,1,0,0:0:0:0:
320,192,348149,1,0,0:0:0:0:
448,192,348177,1,0,0:0:0:0:
64,192,348324,1,0,0:0:0:0:
448,192,348324,1,0,0:0:0:0:
192,192,348364,1,0,0:0:0:0:
320,192,348403,1,0,0:0:0:0:
192,192,348559,1,0,0:0:0:0:
320,192,348600,1,0,0:0:0:0:
448,192,348639,1,0,0:0:0:0:
64,192,348678,1,0,0:0:0:0:
192,192,348795,1,0,0:0:0:0:
448,192,348795,1,0,0:0:0:0:
64,192,348913,1,0,0:0:0:0:
320,192,349030,1,0,0:0:0:0:
192,192,349070,1,0,0:0:0:0:
320,192,349148,1,0,0:0:0:0:
448,192,349187,1,0,0:0:0:0:
192,192,349265,1,0,0:0:0:0:
64,192,349306,1,0,0:0:0:0:
320,192,349384,1,0,0:0:0:0:
448,192,349423,1,0,0:0:0:0:
192,192,349501,1,0,0:0:0:0:
64,192,349541,1,0,0:0:0:0:
448,192,349580,1,0,0:0:0:0:
320,192,349619,1,0,0:0:0:0:
192,192,349658,1,0,0:0:0:0:
64,192,349697,1,0,0:0:0:0:
320,192,349736,1,0,0:0:0:0:
448,192,349736,1,0,0:0:0:0:
192,192,349854,1,0,0:0:0:0:
448,192,349971,1,0,0:0:0:0:
192,192,350090,1,0,0:0:0:0:
64,192,350129,1,0,0:0:0:0:
64,192,350207,1,0,0:0:0:0:
320,192,350247,1,0,0:0:0:0:
448,192,350325,1,0,0:0:0:0:
64,192,350442,1,0,0:0:0:0:
448,192,350481,1,0,0:0:0:0:
192,192,350560,1,0,0:0:0:0:
320,192,350677,1,0,0:0:0:0:
64,192,350677,1,0,0:0:0:0:
448,192,350677,1,0,0:0:0:0:
448,192,350795,1,0,0:0:0:0:
192,192,350834,1,0,0:0:0:0:
320,192,350873,1,0,0:0:0:0:
64,192,350912,1,0,0:0:0:0:
448,192,351031,1,0,0:0:0:0:
192,192,351148,1,0,0:0:0:0:
64,192,351187,1,0,0:0:0:0:
320,192,351266,1,0,0:0:0:0:
192,192,351305,1,0,0:0:0:0:
64,192,351383,1,0,0:0:0:0:
192,192,351422,1,0,0:0:0:0:
320,192,351462,1,0,0:0:0:0:
448,192,351501,1,0,0:0:0:0:
192,192,351618,1,0,0:0:0:0:
64,192,351618,1,0,0:0:0:0:
448,192,351737,1,0,0:0:0:0:
320,192,351765,1,0,0:0:0:0:
448,192,351854,1,0,0:0:0:0:
320,192,351884,1,0,0:0:0:0:
64,192,351933,1,0,0:0:0:0:
192,192,352011,1,0,0:0:0:0:
320,192,352089,1,0,0:0:0:0:
64,192,352089,1,0,0:0:0:0:
448,192,352128,1,0,0:0:0:0:
192,192,352207,1,0,0:0:0:0:
64,192,352324,1,0,0:0:0:0:
320,192,352363,1,0,0:0:0:0:
192,192,352443,1,0,0:0:0:0:
448,192,352482,1,0,0:0:0:0:
320,192,352521,1,0,0:0:0:0:
192,192,352560,1,0,0:0:0:0:
64,192,352560,1,0,0:0:0:0:
448,192,352639,1,0,0:0:0:0:
192,192,352717,1,0,0:0:0:0:
64,192,352795,1,0,0:0:0:0:
320,192,352795,1,0,0:0:0:0:
192,192,352874,1,0,0:0:0:0:
448,192,352913,1,0,0:0:0:0:
320,192,352952,1,0,0:0:0:0:
192,192,353030,1,0,0:0:0:0:
64,192,353030,1,0,0:0:0:0:
448,192,353069,1,0,0:0:0:0:
320,192,353148,1,0,0:0:0:0:
64,192,353187,1,0,0:0:0:0:
192,192,353265,1,0,0:0:0:0:
448,192,353304,1,0,0:0:0:0:
64,192,353345,1,0,0:0:0:0:
320,192,353384,5,0,0:0:0:0:
448,192,353423,5,0,0:0:0:0:
64,192,353501,1,0,0:0:0:0:
192,192,353501,1,0,0:0:0:0:
320,192,353580,1,0,0:0:0:0:
448,192,353619,1,0,0:0:0:0:
192,192,353658,1,0,0:0:0:0:
64,192,353736,1,0,0:0:0:0:
320,192,353815,1,0,0:0:0:0:
192,192,353854,1,0,0:0:0:0:
64,192,353893,1,0,0:0:0:0:
448,192,353971,1,0,0:0:0:0:
320,192,353971,1,0,0:0:0:0:
64,192,354051,1,0,0:0:0:0:
192,192,354090,1,0,0:0:0:0:
448,192,354129,1,0,0:0:0:0:
320,192,354207,1,0,0:0:0:0:
192,192,354286,1,0,0:0:0:0:
448,192,354364,1,0,0:0:0:0:
320,192,354403,1,0,0:0:0:0:
192,192,354442,1,0,0:0:0:0:
64,192,354442,1,0,0:0:0:0:
320,192,354560,1,0,0:0:0:0:
448,192,354589,1,0,0:0:0:0:
64,192,354677,1,0,0:0:0:0:
320,192,354757,1,0,0:0:0:0:
448,192,354835,1,0,0:0:0:0:
192,192,354913,5,0,0:0:0:0:
64,192,354913,1,0,0:0:0:0:
320,192,355031,1,0,0:0:0:0:
448,192,355031,1,0,0:0:0:0:
192,192,355148,1,0,0:0:0:0:
64,192,355148,1,0,0:0:0:0:
320,192,355266,5,0,0:0:0:0:
448,192,355383,1,0,0:0:0:0:
64,192,355383,1,0,0:0:0:0:
192,192,355442,1,0,0:0:0:0:
320,192,355501,1,0,0:0:0:0:
192,192,355618,1,0,0:0:0:0:
64,192,355657,1,0,0:0:0:0:
448,192,355737,1,0,0:0:0:0:
320,192,355854,5,0,0:0:0:0:
64,192,355854,1,0,0:0:0:0:
192,192,355854,1,0,0:0:0:0:
448,192,355972,1,0,0:0:0:0:
192,192,356089,1,0,0:0:0:0:
64,192,356089,1,0,0:0:0:0:
448,192,356207,1,0,0:0:0:0:
320,192,356324,5,0,0:0:0:0:
192,192,356324,1,0,0:0:0:0:
64,192,356324,1,0,0:0:0:0:
448,192,356443,1,0,0:0:0:0:
64,192,356560,1,0,0:0:0:0:
192,192,356599,1,0,0:0:0:0:
320,192,356678,1,0,0:0:0:0:
448,192,356717,1,0,0:0:0:0:
64,192,356795,5,0,0:0:0:0:
192,192,356795,1,0,0:0:0:0:
320,192,356795,1,0,0:0:0:0:
320,192,357030,1,0,0:0:0:0:
64,192,357030,1,0,0:0:0:0:
192,192,357149,1,0,0:0:0:0:
448,192,357149,1,0,0:0:0:0:
448,192,357266,1,0,0:0:0:0:
320,192,357266,1,0,0:0:0:0:
64,192,357266,1,0,0:0:0:0:
64,192,357384,1,0,0:0:0:0:
192,192,357384,1,0,0:0:0:0:
320,192,357384,1,0,0:0:0:0:
64,192,357619,1,0,0:0:0:0:
192,192,357619,1,0,0:0:0:0:
448,192,357619,1,0,0:0:0:0:
320,192,357854,1,0,0:0:0:0:
448,192,357854,1,0,0:0:0:0:
64,192,357971,1,0,0:0:0:0:
192,192,357971,1,0,0:0:0:0:
64,192,358090,1,0,0:0:0:0:
320,192,358207,1,0,0:0:0:0:
448,192,358207,1,0,0:0:0:0:
192,192,358207,1,0,0:0:0:0:
64,192,358325,1,0,0:0:0:0:
192,192,358325,1,0,0:0:0:0:
448,192,358325,1,0,0:0:0:0:
64,192,358560,1,0,0:0:0:0:
320,192,358560,1,0,0:0:0:0:
448,192,358560,1,0,0:0:0:0:
192,192,358796,1,0,0:0:0:0:
320,192,358796,1,0,0:0:0:0:
64,192,358913,1,0,0:0:0:0:
320,192,358913,1,0,0:0:0:0:
448,192,359031,1,0,0:0:0:0:
64,192,359148,1,0,0:0:0:0:
192,192,359148,1,0,0:0:0:0:
320,192,359148,1,0,0:0:0:0:
192,192,359266,1,0,0:0:0:0:
320,192,359266,1,0,0:0:0:0:
448,192,359266,1,0,0:0:0:0:
64,192,359502,1,0,0:0:0:0:
192,192,359502,1,0,0:0:0:0:
448,192,359502,1,0,0:0:0:0:
448,192,359737,1,0,0:0:0:0:
320,192,359737,1,0,0:0:0:0:
64,192,359737,1,0,0:0:0:0:
64,192,359854,1,0,0:0:0:0:
192,192,359972,1,0,0:0:0:0:
320,192,359972,1,0,0:0:0:0:
448,192,359972,1,0,0:0:0:0:
320,192,360207,1,0,0:0:0:0:
192,192,360207,1,0,0:0:0:0:
64,192,360207,1,0,0:0:0:0:
448,192,360324,1,0,0:0:0:0:
320,192,360443,1,0,0:0:0:0:
192,192,360560,1,0,0:0:0:0:
64,192,360560,1,0,0:0:0:0:
448,192,360560,1,0,0:0:0:0:
192,192,360795,1,0,0:0:0:0:
320,192,360795,1,0,0:0:0:0:
192,192,360913,1,0,0:0:0:0:
448,192,360913,1,0,0:0:0:0:
448,192,361030,1,0,0:0:0:0:
320,192,361030,1,0,0:0:0:0:
64,192,361030,1,0,0:0:0:0:
64,192,361149,1,0,0:0:0:0:
192,192,361149,1,0,0:0:0:0:
320,192,361149,1,0,0:0:0:0:
192,192,361266,1,0,0:0:0:0:
448,192,361266,1,0,0:0:0:0:
64,192,361501,1,0,0:0:0:0:
320,192,361501,1,0,0:0:0:0:
448,192,361501,1,0,0:0:0:0:
64,192,361736,1,0,0:0:0:0:
320,192,361736,1,0,0:0:0:0:
320,192,361855,1,0,0:0:0:0:
448,192,361855,1,0,0:0:0:0:
64,192,361972,1,0,0:0:0:0:
192,192,361972,1,0,0:0:0:0:
448,192,361972,1,0,0:0:0:0:
64,192,362207,1,0,0:0:0:0:
64,192,362325,1,0,0:0:0:0:
192,192,362325,1,0,0:0:0:0:
192,192,362442,1,0,0:0:0:0:
320,192,362442,1,0,0:0:0:0:
448,192,362442,1,0,0:0:0:0:
64,192,362560,1,0,0:0:0:0:
64,192,362677,1,0,0:0:0:0:
192,192,362677,1,0,0:0:0:0:
448,192,362677,1,0,0:0:0:0:
320,192,362796,1,0,0:0:0:0:
448,192,362796,1,0,0:0:0:0:
64,192,362913,1,0,0:0:0:0:
192,192,362913,1,0,0:0:0:0:
320,192,362913,1,0,0:0:0:0:
448,192,362971,1,0,0:0:0:0:
192,192,363031,1,0,0:0:0:0:
320,192,363090,1,0,0:0:0:0:
64,192,363148,1,0,0:0:0:0:
64,192,363383,1,0,0:0:0:0:
192,192,363383,1,0,0:0:0:0:
320,192,363383,1,0,0:0:0:0:
448,192,363383,1,0,0:0:0:0:
64,192,363502,1,0,0:0:0:0:
320,192,363619,1,0,0:0:0:0:
448,192,363619,1,0,0:0:0:0:
192,192,363737,1,0,0:0:0:0:
320,192,363737,1,0,0:0:0:0:
64,192,363854,1,0,0:0:0:0:
192,192,363854,1,0,0:0:0:0:
448,192,363854,1,0,0:0:0:0:
448,192,364089,1,0,0:0:0:0:
448,192,364208,1,0,0:0:0:0:
64,192,364208,1,0,0:0:0:0:
64,192,364325,1,0,0:0:0:0:
320,192,364325,1,0,0:0:0:0:
192,192,364325,1,0,0:0:0:0:
192,192,364560,1,0,0:0:0:0:
64,192,364560,1,0,0:0:0:0:
320,192,364678,1,0,0:0:0:0:
448,192,364678,1,0,0:0:0:0:
448,192,364795,1,0,0:0:0:0:
192,192,364795,1,0,0:0:0:0:
64,192,364795,1,0,0:0:0:0:
64,192,364913,1,0,0:0:0:0:
320,192,364913,1,0,0:0:0:0:
192,192,364913,1,0,0:0:0:0:
64,192,365149,1,0,0:0:0:0:
320,192,365149,1,0,0:0:0:0:
448,192,365149,1,0,0:0:0:0:
192,192,365384,1,0,0:0:0:0:
448,192,365384,1,0,0:0:0:0:
64,192,365501,1,0,0:0:0:0:
320,192,365501,1,0,0:0:0:0:
64,192,365619,1,0,0:0:0:0:
448,192,365619,1,0,0:0:0:0:
192,192,365736,1,0,0:0:0:0:
448,192,365736,1,0,0:0:0:0:
320,192,365736,1,0,0:0:0:0:
64,192,365855,1,0,0:0:0:0:
320,192,365855,1,0,0:0:0:0:
192,192,365855,1,0,0:0:0:0:
64,192,366090,1,0,0:0:0:0:
192,192,366090,1,0,0:0:0:0:
448,192,366090,1,0,0:0:0:0:
320,192,366325,1,0,0:0:0:0:
192,192,366325,1,0,0:0:0:0:
64,192,366442,1,0,0:0:0:0:
192,192,366442,1,0,0:0:0:0:
448,192,366561,1,0,0:0:0:0:
64,192,366678,1,0,0:0:0:0:
320,192,366678,1,0,0:0:0:0:
192,192,366678,1,0,0:0:0:0:
320,192,366796,1,0,0:0:0:0:
192,192,366796,1,0,0:0:0:0:
448,192,366796,1,0,0:0:0:0:
64,192,366913,1,0,0:0:0:0:
64,192,367031,1,0,0:0:0:0:
320,192,367031,1,0,0:0:0:0:
448,192,367031,1,0,0:0:0:0:
320,192,367148,1,0,0:0:0:0:
448,192,367266,1,0,0:0:0:0:
192,192,367266,1,0,0:0:0:0:
64,192,367266,1,0,0:0:0:0:
64,192,367383,1,0,0:0:0:0:
320,192,367502,1,0,0:0:0:0:
192,192,367502,1,0,0:0:0:0:
448,192,367502,1,0,0:0:0:0:
448,192,367619,1,0,0:0:0:0:
192,192,367737,1,0,0:0:0:0:
320,192,367737,1,0,0:0:0:0:
64,192,367737,1,0,0:0:0:0:
192,192,367854,1,0,0:0:0:0:
448,192,367854,1,0,0:0:0:0:
64,192,367971,1,0,0:0:0:0:
448,192,367971,1,0,0:0:0:0:
320,192,368089,1,0,0:0:0:0:
192,192,368089,1,0,0:0:0:0:
192,192,368325,1,0,0:0:0:0:
320,192,368325,1,0,0:0:0:0:
192,192,368442,1,0,0:0:0:0:
64,192,368442,1,0,0:0:0:0:
64,192,368560,1,0,0:0:0:0:
320,192,368560,1,0,0:0:0:0:
448,192,368560,1,0,0:0:0:0:
448,192,368677,1,0,0:0:0:0:
192,192,368677,1,0,0:0:0:0:
320,192,368677,1,0,0:0:0:0:
192,192,368795,1,0,0:0:0:0:
64,192,368795,1,0,0:0:0:0:
64,192,369031,1,0,0:0:0:0:
192,192,369031,1,0,0:0:0:0:
448,192,369031,1,0,0:0:0:0:
64,192,369266,1,0,0:0:0:0:
192,192,369266,1,0,0:0:0:0:
192,192,369383,1,0,0:0:0:0:
448,192,369383,1,0,0:0:0:0:
64,192,369501,1,0,0:0:0:0:
320,192,369501,1,0,0:0:0:0:
448,192,369501,1,0,0:0:0:0:
64,192,369736,1,0,0:0:0:0:
448,192,369853,1,0,0:0:0:0:
320,192,369853,1,0,0:0:0:0:
64,192,369972,1,0,0:0:0:0:
192,192,369972,1,0,0:0:0:0:
448,192,369972,1,0,0:0:0:0:
64,192,370089,1,0,0:0:0:0:
192,192,370089,1,0,0:0:0:0:
320,192,370206,1,0,0:0:0:0:
192,192,370266,1,0,0:0:0:0:
64,192,370324,1,0,0:0:0:0:
192,192,370441,1,0,0:0:0:0:
320,192,370441,1,0,0:0:0:0:
448,192,370441,1,0,0:0:0:0:
64,192,370559,1,0,0:0:0:0:
192,192,370618,1,0,0:0:0:0:
320,192,370676,1,0,0:0:0:0:
448,192,370676,1,0,0:0:0:0:
64,192,370736,1,0,0:0:0:0:
320,192,370795,1,0,0:0:0:0:
64,192,370912,1,0,0:0:0:0:
192,192,370912,1,0,0:0:0:0:
448,192,370912,1,0,0:0:0:0:
320,192,371030,1,0,0:0:0:0:
192,192,371147,1,0,0:0:0:0:
64,192,371147,1,0,0:0:0:0:
64,192,371265,1,0,0:0:0:0:
320,192,371265,1,0,0:0:0:0:
192,192,371382,1,0,0:0:0:0:
320,192,371382,1,0,0:0:0:0:
192,192,371501,1,0,0:0:0:0:
448,192,371501,1,0,0:0:0:0:
320,192,371618,1,0,0:0:0:0:
448,192,371618,1,0,0:0:0:0:
64,192,371677,1,0,0:0:0:0:
192,192,371736,1,0,0:0:0:0:
64,192,371853,1,0,0:0:0:0:
192,192,371853,1,0,0:0:0:0:
320,192,371853,1,0,0:0:0:0:
448,192,371853,1,0,0:0:0:0:
64,192,372087,1,0,0:0:0:0:
448,192,372087,1,0,0:0:0:0:
320,192,372205,1,0,0:0:0:0:
192,192,372205,1,0,0:0:0:0:
64,192,372322,1,0,0:0:0:0:
192,192,372322,1,0,0:0:0:0:
448,192,372322,1,0,0:0:0:0:
320,192,372322,1,0,0:0:0:0:
448,192,372440,1,0,0:0:0:0:
64,192,372440,1,0,0:0:0:0:
448,192,372676,1,0,0:0:0:0:
320,192,372676,1,0,0:0:0:0:
64,192,372676,1,0,0:0:0:0:
320,192,372793,1,0,0:0:0:0:
192,192,372793,1,0,0:0:0:0:
192,192,372911,1,0,0:0:0:0:
64,192,372911,1,0,0:0:0:0:
448,192,373028,1,0,0:0:0:0:
320,192,373028,1,0,0:0:0:0:
192,192,373146,1,0,0:0:0:0:
192,192,373263,1,0,0:0:0:0:
64,192,373263,1,0,0:0:0:0:
320,192,373263,1,0,0:0:0:0:
448,192,373263,1,0,0:0:0:0:
448,192,373382,1,0,0:0:0:0:
320,192,373382,1,0,0:0:0:0:
64,192,373382,1,0,0:0:0:0:
448,192,373617,1,0,0:0:0:0:
192,192,373617,1,0,0:0:0:0:
64,192,373617,1,0,0:0:0:0:
192,192,373734,1,0,0:0:0:0:
320,192,373734,1,0,0:0:0:0:
320,192,373852,1,0,0:0:0:0:
64,192,373852,1,0,0:0:0:0:
448,192,373969,1,0,0:0:0:0:
192,192,373969,1,0,0:0:0:0:
320,192,374088,1,0,0:0:0:0:
448,192,374205,1,0,0:0:0:0:
320,192,374205,1,0,0:0:0:0:
192,192,374205,1,0,0:0:0:0:
64,192,374205,1,0,0:0:0:0:
448,192,374323,1,0,0:0:0:0:
64,192,374323,1,0,0:0:0:0:
192,192,374440,1,0,0:0:0:0:
64,192,374558,1,0,0:0:0:0:
192,192,374558,1,0,0:0:0:0:
448,192,374558,1,0,0:0:0:0:
320,192,374675,1,0,0:0:0:0:
448,192,374675,1,0,0:0:0:0:
64,192,374793,1,0,0:0:0:0:
192,192,374793,1,0,0:0:0:0:
320,192,374793,1,0,0:0:0:0:
448,192,374910,1,0,0:0:0:0:
192,192,374910,1,0,0:0:0:0:
64,192,375029,1,0,0:0:0:0:
320,192,375029,1,0,0:0:0:0:
448,192,375029,1,0,0:0:0:0:
64,192,375146,1,0,0:0:0:0:
192,192,375146,1,0,0:0:0:0:
192,192,375264,1,0,0:0:0:0:
320,192,375264,1,0,0:0:0:0:
448,192,375264,1,0,0:0:0:0:
64,192,375381,1,0,0:0:0:0:
320,192,375381,1,0,0:0:0:0:
448,192,375499,1,0,0:0:0:0:
192,192,375499,1,0,0:0:0:0:
320,192,375616,1,0,0:0:0:0:
448,192,375616,1,0,0:0:0:0:
64,192,375616,1,0,0:0:0:0:
320,192,375852,1,0,0:0:0:0:
192,192,375852,1,0,0:0:0:0:
448,192,375970,1,0,0:0:0:0:
64,192,375970,1,0,0:0:0:0:
64,192,376087,1,0,0:0:0:0:
192,192,376087,1,0,0:0:0:0:
448,192,376087,1,0,0:0:0:0:
320,192,376087,1,0,0:0:0:0:
192,192,376205,1,0,0:0:0:0:
320,192,376205,1,0,0:0:0:0:
448,192,376205,1,0,0:0:0:0:
192,192,376322,1,0,0:0:0:0:
64,192,376322,1,0,0:0:0:0:
448,192,376558,1,0,0:0:0:0:
320,192,376558,1,0,0:0:0:0:
64,192,376558,1,0,0:0:0:0:
320,192,376793,1,0,0:0:0:0:
192,192,376911,1,0,0:0:0:0:
320,192,376911,1,0,0:0:0:0:
448,192,377028,1,0,0:0:0:0:
320,192,377028,1,0,0:0:0:0:
64,192,377028,1,0,0:0:0:0:
192,192,377028,1,0,0:0:0:0:
448,192,377263,1,0,0:0:0:0:
64,192,377263,1,0,0:0:0:0:
448,192,377382,1,0,0:0:0:0:
320,192,377382,1,0,0:0:0:0:
64,192,377382,1,0,0:0:0:0:
320,192,377499,1,0,0:0:0:0:
192,192,377499,1,0,0:0:0:0:
64,192,377499,1,0,0:0:0:0:
448,192,377617,1,0,0:0:0:0:
448,192,377734,1,0,0:0:0:0:
320,192,377734,1,0,0:0:0:0:
64,192,377734,1,0,0:0:0:0:
192,192,377852,1,0,0:0:0:0:
64,192,377852,1,0,0:0:0:0:
448,192,377969,1,0,0:0:0:0:
320,192,377969,1,0,0:0:0:0:
192,192,377969,1,0,0:0:0:0:
64,192,378029,1,0,0:0:0:0:
448,192,378088,1,0,0:0:0:0:
320,192,378146,1,0,0:0:0:0:
192,192,378205,1,0,0:0:0:0:
448,192,378440,1,0,0:0:0:0:
320,192,378440,1,0,0:0:0:0:
64,192,378440,1,0,0:0:0:0:
192,192,378519,1,0,0:0:0:0:
448,192,378597,1,0,0:0:0:0:
64,192,378675,1,0,0:0:0:0:
320,192,378675,1,0,0:0:0:0:
192,192,378755,1,0,0:0:0:0:
320,192,378833,1,0,0:0:0:0:
448,192,378911,1,0,0:0:0:0:
64,192,378911,1,0,0:0:0:0:
192,192,378911,1,0,0:0:0:0:
192,192,379146,1,0,0:0:0:0:
64,192,379264,1,0,0:0:0:0:
448,192,379264,1,0,0:0:0:0:
448,192,379381,1,0,0:0:0:0:
192,192,379381,1,0,0:0:0:0:
320,192,379381,1,0,0:0:0:0:
64,192,379381,1,0,0:0:0:0:
320,192,379616,1,0,0:0:0:0:
64,192,379735,1,0,0:0:0:0:
320,192,379735,1,0,0:0:0:0:
64,192,379852,1,0,0:0:0:0:
320,192,379852,1,0,0:0:0:0:
448,192,379852,1,0,0:0:0:0:
192,192,379852,1,0,0:0:0:0:
448,192,379970,1,0,0:0:0:0:
192,192,379970,1,0,0:0:0:0:
448,192,380205,1,0,0:0:0:0:
64,192,380205,1,0,0:0:0:0:
192,192,380205,1,0,0:0:0:0:
448,192,380322,1,0,0:0:0:0:
320,192,380322,1,0,0:0:0:0:
192,192,380441,1,0,0:0:0:0:
448,192,380558,1,0,0:0:0:0:
192,192,380558,1,0,0:0:0:0:
192,192,380676,1,0,0:0:0:0:
320,192,380676,1,0,0:0:0:0:
320,192,380793,1,0,0:0:0:0:
64,192,380793,1,0,0:0:0:0:
448,192,380793,1,0,0:0:0:0:
192,192,380911,1,0,0:0:0:0:
448,192,380911,1,0,0:0:0:0:
448,192,381147,1,0,0:0:0:0:
320,192,381147,1,0,0:0:0:0:
64,192,381147,1,0,0:0:0:0:
320,192,381264,1,0,0:0:0:0:
192,192,381264,1,0,0:0:0:0:
192,192,381382,1,0,0:0:0:0:
64,192,381382,1,0,0:0:0:0:
448,192,381499,1,0,0:0:0:0:
320,192,381499,1,0,0:0:0:0:
192,192,381617,1,0,0:0:0:0:
448,192,381734,1,0,0:0:0:0:
192,192,381734,1,0,0:0:0:0:
320,192,381734,1,0,0:0:0:0:
64,192,381734,1,0,0:0:0:0:
448,192,381852,1,0,0:0:0:0:
64,192,381852,1,0,0:0:0:0:
192,192,381969,1,0,0:0:0:0:
64,192,382088,1,0,0:0:0:0:
320,192,382088,1,0,0:0:0:0:
448,192,382088,1,0,0:0:0:0:
320,192,382205,1,0,0:0:0:0:
192,192,382205,1,0,0:0:0:0:
448,192,382323,1,0,0:0:0:0:
192,192,382323,1,0,0:0:0:0:
64,192,382323,1,0,0:0:0:0:
64,192,382440,1,0,0:0:0:0:
320,192,382440,1,0,0:0:0:0:
192,192,382558,1,0,0:0:0:0:
448,192,382558,1,0,0:0:0:0:
320,192,382558,1,0,0:0:0:0:
64,192,382675,1,0,0:0:0:0:
448,192,382675,1,0,0:0:0:0:
192,192,382675,1,0,0:0:0:0:
320,192,382794,1,0,0:0:0:0:
64,192,382794,1,0,0:0:0:0:
448,192,382911,1,0,0:0:0:0:
320,192,382911,1,0,0:0:0:0:
192,192,383029,1,0,0:0:0:0:
64,192,383029,1,0,0:0:0:0:
320,192,383146,1,0,0:0:0:0:
448,192,383146,1,0,0:0:0:0:
192,192,383146,1,0,0:0:0:0:
192,192,383381,1,0,0:0:0:0:
320,192,383381,1,0,0:0:0:0:
448,192,383500,1,0,0:0:0:0:
64,192,383500,1,0,0:0:0:0:
64,192,383617,1,0,0:0:0:0:
320,192,383617,1,0,0:0:0:0:
448,192,383617,1,0,0:0:0:0:
192,192,383617,1,0,0:0:0:0:
192,192,383735,1,0,0:0:0:0:
448,192,383735,1,0,0:0:0:0:
320,192,383852,1,0,0:0:0:0:
64,192,383852,1,0,0:0:0:0:
448,192,384087,1,0,0:0:0:0:
192,192,384087,1,0,0:0:0:0:
64,192,384087,1,0,0:0:0:0:
64,192,384322,1,0,0:0:0:0:
448,192,384322,1,0,0:0:0:0:
320,192,384441,1,0,0:0:0:0:
192,192,384441,1,0,0:0:0:0:
448,192,384558,1,0,0:0:0:0:
192,192,384558,1,0,0:0:0:0:
64,192,384558,1,0,0:0:0:0:
320,192,384558,1,0,0:0:0:0:
64,192,384793,1,0,0:0:0:0:
448,192,384793,1,0,0:0:0:0:
64,192,384911,1,0,0:0:0:0:
448,192,384911,1,0,0:0:0:0:
64,192,385028,1,0,0:0:0:0:
320,192,385028,1,0,0:0:0:0:
192,192,385028,1,0,0:0:0:0:
192,192,385147,1,0,0:0:0:0:
64,192,385264,1,0,0:0:0:0:
448,192,385264,1,0,0:0:0:0:
320,192,385264,1,0,0:0:0:0:
192,192,385382,1,0,0:0:0:0:
448,192,385382,1,0,0:0:0:0:
64,192,385499,1,0,0:0:0:0:
192,192,385499,1,0,0:0:0:0:
320,192,385499,1,0,0:0:0:0:
448,192,385557,1,0,0:0:0:0:
64,192,385617,1,0,0:0:0:0:
448,192,385676,1,0,0:0:0:0:
192,192,385734,1,0,0:0:0:0:
64,192,385970,1,0,0:0:0:0:
448,192,385970,1,0,0:0:0:0:
320,192,385970,1,0,0:0:0:0:
320,192,386088,1,0,0:0:0:0:
320,192,386323,1,0,0:0:0:0:
320,192,386440,1,0,0:0:0:0:
320,192,386675,1,0,0:0:0:0:
64,192,386734,1,0,0:0:0:0:
320,192,386794,1,0,0:0:0:0:
192,192,386852,1,0,0:0:0:0:
64,192,386911,1,0,0:0:0:0:
448,192,386911,1,0,0:0:0:0:
320,192,386911,1,0,0:0:0:0:
64,192,387146,1,0,0:0:0:0:
448,192,387146,1,0,0:0:0:0:
64,192,387264,1,0,0:0:0:0:
320,192,387264,1,0,0:0:0:0:
64,192,387381,1,0,0:0:0:0:
448,192,387381,1,0,0:0:0:0:
192,192,387381,1,0,0:0:0:0:
320,192,387500,1,0,0:0:0:0:
448,192,387500,1,0,0:0:0:0:
192,192,387500,1,0,0:0:0:0:
320,192,387617,1,0,0:0:0:0:
64,192,387735,1,0,0:0:0:0:
192,192,387735,1,0,0:0:0:0:
448,192,387735,1,0,0:0:0:0:
192,192,387852,1,0,0:0:0:0:
448,192,387970,1,0,0:0:0:0:
320,192,387970,1,0,0:0:0:0:
448,192,388087,1,0,0:0:0:0:
64,192,388087,1,0,0:0:0:0:
448,192,388206,1,0,0:0:0:0:
192,192,388206,1,0,0:0:0:0:
64,192,388323,1,0,0:0:0:0:
192,192,388323,1,0,0:0:0:0:
320,192,388323,1,0,0:0:0:0:
448,192,388441,1,0,0:0:0:0:
320,192,388441,1,0,0:0:0:0:
64,192,388441,1,0,0:0:0:0:
192,192,388558,1,0,0:0:0:0:
64,192,388676,1,0,0:0:0:0:
192,192,388676,1,0,0:0:0:0:
448,192,388676,1,0,0:0:0:0:
448,192,388911,1,0,0:0:0:0:
320,192,388911,1,0,0:0:0:0:
320,192,389028,1,0,0:0:0:0:
192,192,389028,1,0,0:0:0:0:
192,192,389147,1,0,0:0:0:0:
448,192,389147,1,0,0:0:0:0:
192,192,389264,1,0,0:0:0:0:
64,192,389264,1,0,0:0:0:0:
320,192,389264,1,0,0:0:0:0:
448,192,389382,1,0,0:0:0:0:
320,192,389382,1,0,0:0:0:0:
64,192,389382,1,0,0:0:0:0:
448,192,389499,1,0,0:0:0:0:
64,192,389617,1,0,0:0:0:0:
192,192,389617,1,0,0:0:0:0:
320,192,389617,1,0,0:0:0:0:
64,192,389734,1,0,0:0:0:0:
448,192,389734,1,0,0:0:0:0:
448,192,389853,1,0,0:0:0:0:
320,192,389853,1,0,0:0:0:0:
192,192,389853,1,0,0:0:0:0:
320,192,389970,1,0,0:0:0:0:
64,192,389970,1,0,0:0:0:0:
64,192,390088,1,0,0:0:0:0:
192,192,390088,1,0,0:0:0:0:
448,192,390088,1,0,0:0:0:0:
448,192,390205,1,0,0:0:0:0:
320,192,390205,1,0,0:0:0:0:
320,192,390323,1,0,0:0:0:0:
192,192,390323,1,0,0:0:0:0:
64,192,390323,1,0,0:0:0:0:
448,192,390440,1,0,0:0:0:0:
64,192,390440,1,0,0:0:0:0:
448,192,390559,1,0,0:0:0:0:
192,192,390676,1,0,0:0:0:0:
320,192,390676,1,0,0:0:0:0:
64,192,390676,1,0,0:0:0:0:
192,192,390911,1,0,0:0:0:0:
448,192,390911,1,0,0:0:0:0:
320,192,390911,1,0,0:0:0:0:
320,192,391029,1,0,0:0:0:0:
64,192,391029,1,0,0:0:0:0:
64,192,391146,1,0,0:0:0:0:
192,192,391146,1,0,0:0:0:0:
448,192,391146,1,0,0:0:0:0:
320,192,391264,1,0,0:0:0:0:
192,192,391264,1,0,0:0:0:0:
448,192,391264,1,0,0:0:0:0:
64,192,391381,1,0,0:0:0:0:
320,192,391381,1,0,0:0:0:0:
64,192,391500,1,0,0:0:0:0:
64,192,391617,1,0,0:0:0:0:
192,192,391617,1,0,0:0:0:0:
448,192,391617,1,0,0:0:0:0:
448,192,391735,1,0,0:0:0:0:
448,192,391852,1,0,0:0:0:0:
320,192,391852,1,0,0:0:0:0:
64,192,391970,1,0,0:0:0:0:
320,192,391970,1,0,0:0:0:0:
64,192,392087,1,0,0:0:0:0:
192,192,392087,1,0,0:0:0:0:
448,192,392087,1,0,0:0:0:0:
320,192,392323,1,0,0:0:0:0:
192,192,392441,1,0,0:0:0:0:
192,192,392558,1,0,0:0:0:0:
448,192,392558,1,0,0:0:0:0:
64,192,392558,1,0,0:0:0:0:
64,192,392676,1,0,0:0:0:0:
320,192,392793,1,0,0:0:0:0:
192,192,392793,1,0,0:0:0:0:
448,192,392912,1,0,0:0:0:0:
64,192,392912,1,0,0:0:0:0:
192,192,393029,1,0,0:0:0:0:
448,192,393029,1,0,0:0:0:0:
320,192,393087,1,0,0:0:0:0:
64,192,393147,1,0,0:0:0:0:
320,192,393205,1,0,0:0:0:0:
448,192,393264,1,0,0:0:0:0:
64,192,393382,1,0,0:0:0:0:
192,192,393499,1,0,0:0:0:0:
64,192,393499,1,0,0:0:0:0:
320,192,393499,1,0,0:0:0:0:
448,192,393499,1,0,0:0:0:0:
192,192,393617,1,0,0:0:0:0:
64,192,393734,1,0,0:0:0:0:
448,192,393853,1,0,0:0:0:0:
320,192,393853,1,0,0:0:0:0:
64,192,393970,1,0,0:0:0:0:
320,192,393970,1,0,0:0:0:0:
448,192,393970,1,0,0:0:0:0:
192,192,393970,1,0,0:0:0:0:
64,192,394205,1,0,0:0:0:0:
192,192,394205,1,0,0:0:0:0:
320,192,394440,1,0,0:0:0:0:
192,192,394440,1,0,0:0:0:0:
64,192,394440,1,0,0:0:0:0:
64,192,394676,1,0,0:0:0:0:
192,192,394676,1,0,0:0:0:0:
448,192,394676,1,0,0:0:0:0:
64,192,394794,1,0,0:0:0:0:
320,192,394794,1,0,0:0:0:0:
192,192,394794,1,0,0:0:0:0:
64,192,394911,1,0,0:0:0:0:
448,192,394911,1,0,0:0:0:0:
320,192,394911,1,0,0:0:0:0:
192,192,394911,1,0,0:0:0:0:
320,192,395029,1,0,0:0:0:0:
448,192,395029,1,0,0:0:0:0:
192,192,395146,1,0,0:0:0:0:
64,192,395265,1,0,0:0:0:0:
320,192,395265,1,0,0:0:0:0:
448,192,395265,1,0,0:0:0:0:
320,192,395382,1,0,0:0:0:0:
64,192,395500,1,0,0:0:0:0:
192,192,395500,1,0,0:0:0:0:
192,192,395617,1,0,0:0:0:0:
64,192,395617,1,0,0:0:0:0:
448,192,395735,1,0,0:0:0:0:
320,192,395735,1,0,0:0:0:0:
64,192,395852,1,0,0:0:0:0:
320,192,395852,1,0,0:0:0:0:
192,192,395852,1,0,0:0:0:0:
448,192,395852,1,0,0:0:0:0:
448,192,395970,1,0,0:0:0:0:
192,192,395970,1,0,0:0:0:0:
64,192,395970,1,0,0:0:0:0:
320,192,396087,1,0,0:0:0:0:
64,192,396206,1,0,0:0:0:0:
320,192,396206,1,0,0:0:0:0:
448,192,396206,1,0,0:0:0:0:
448,192,396441,1,0,0:0:0:0:
192,192,396441,1,0,0:0:0:0:
192,192,396558,1,0,0:0:0:0:
320,192,396558,1,0,0:0:0:0:
64,192,396676,1,0,0:0:0:0:
448,192,396676,1,0,0:0:0:0:
320,192,396793,1,0,0:0:0:0:
64,192,396793,1,0,0:0:0:0:
192,192,396793,1,0,0:0:0:0:
448,192,396793,1,0,0:0:0:0:
448,192,396912,1,0,0:0:0:0:
192,192,396912,1,0,0:0:0:0:
64,192,396912,1,0,0:0:0:0:
320,192,397029,1,0,0:0:0:0:
64,192,397147,1,0,0:0:0:0:
320,192,397147,1,0,0:0:0:0:
192,192,397147,1,0,0:0:0:0:
64,192,397264,1,0,0:0:0:0:
448,192,397264,1,0,0:0:0:0:
448,192,397382,1,0,0:0:0:0:
192,192,397382,1,0,0:0:0:0:
320,192,397382,1,0,0:0:0:0:
192,192,397499,1,0,0:0:0:0:
64,192,397499,1,0,0:0:0:0:
64,192,397618,1,0,0:0:0:0:
320,192,397618,1,0,0:0:0:0:
448,192,397618,1,0,0:0:0:0:
448,192,397735,1,0,0:0:0:0:
192,192,397735,1,0,0:0:0:0:
320,192,397735,1,0,0:0:0:0:
192,192,397853,1,0,0:0:0:0:
320,192,397853,1,0,0:0:0:0:
64,192,397853,1,0,0:0:0:0:
448,192,397970,1,0,0:0:0:0:
64,192,397970,1,0,0:0:0:0:
448,192,398087,1,0,0:0:0:0:
320,192,398205,1,0,0:0:0:0:
192,192,398205,1,0,0:0:0:0:
64,192,398205,1,0,0:0:0:0:
192,192,398322,1,0,0:0:0:0:
64,192,398440,1,0,0:0:0:0:
448,192,398440,1,0,0:0:0:0:
192,192,398440,1,0,0:0:0:0:
320,192,398557,1,0,0:0:0:0:
64,192,398676,1,0,0:0:0:0:
320,192,398676,1,0,0:0:0:0:
448,192,398676,1,0,0:0:0:0:
192,192,398676,1,0,0:0:0:0:
192,192,398793,1,0,0:0:0:0:
448,192,398793,1,0,0:0:0:0:
320,192,398911,1,0,0:0:0:0:
64,192,398911,1,0,0:0:0:0:
64,192,399028,1,0,0:0:0:0:
64,192,399146,1,0,0:0:0:0:
320,192,399146,1,0,0:0:0:0:
448,192,399146,1,0,0:0:0:0:
448,192,399263,1,0,0:0:0:0:
320,192,399263,1,0,0:0:0:0:
448,192,399382,1,0,0:0:0:0:
192,192,399382,1,0,0:0:0:0:
64,192,399499,1,0,0:0:0:0:
192,192,399499,1,0,0:0:0:0:
64,192,399617,1,0,0:0:0:0:
320,192,399617,1,0,0:0:0:0:
448,192,399617,1,0,0:0:0:0:
192,192,399617,1,0,0:0:0:0:
320,192,399852,1,0,0:0:0:0:
64,192,399852,1,0,0:0:0:0:
320,192,399969,1,0,0:0:0:0:
192,192,399969,1,0,0:0:0:0:
320,192,400088,1,0,0:0:0:0:
448,192,400088,1,0,0:0:0:0:
64,192,400088,1,0,0:0:0:0:
64,192,400205,1,0,0:0:0:0:
320,192,400323,1,0,0:0:0:0:
192,192,400381,1,0,0:0:0:0:
448,192,400440,1,0,0:0:0:0:
64,192,400440,1,0,0:0:0:0:
64,192,400558,1,0,0:0:0:0:
192,192,400558,1,0,0:0:0:0:
448,192,400558,1,0,0:0:0:0:
320,192,400617,1,0,0:0:0:0:
192,192,400675,1,0,0:0:0:0:
64,192,400735,1,0,0:0:0:0:
320,192,400735,1,0,0:0:0:0:
448,192,400793,1,0,0:0:0:0:
192,192,401029,1,0,0:0:0:0:
320,192,401029,1,0,0:0:0:0:
64,192,401029,1,0,0:0:0:0:
448,192,401029,1,0,0:0:0:0:
320,192,401146,1,0,0:0:0:0:
64,192,401146,1,0,0:0:0:0:
192,192,401264,1,0,0:0:0:0:
320,192,401381,1,0,0:0:0:0:
448,192,401381,1,0,0:0:0:0:
64,192,401499,1,0,0:0:0:0:
192,192,401499,1,0,0:0:0:0:
448,192,401499,1,0,0:0:0:0:
192,192,401616,1,0,0:0:0:0:
320,192,401735,1,0,0:0:0:0:
64,192,401852,1,0,0:0:0:0:
448,192,401970,1,0,0:0:0:0:
320,192,443270,5,0,0:0:0:0:
192,192,443270,128,0,443534:0:0:0:0:
448,192,443270,128,0,443534:0:0:0:0:
64,192,443270,1,0,0:0:0:0:
448,192,443621,128,0,443886:0:0:0:0:
192,192,443621,128,0,443888:0:0:0:0:
64,192,443973,1,0,0:0:0:0:
192,192,443974,128,0,444239:0:0:0:0:
448,192,443974,128,0,444239:0:0:0:0:
448,192,444328,128,0,444416:0:0:0:0:
64,192,444328,128,0,444416:0:0:0:0:
320,192,444501,128,0,444589:0:0:0:0:
64,192,444501,128,0,444589:0:0:0:0:
448,192,444676,128,0,444941:0:0:0:0:
192,192,444676,128,0,444941:0:0:0:0:
320,192,444676,1,0,0:0:0:0:
64,192,444676,1,0,0:0:0:0:
64,192,445029,128,0,445296:0:0:0:0:
320,192,445029,128,0,445294:0:0:0:0:
192,192,445381,128,0,445646:0:0:0:0:
320,192,445381,128,0,445646:0:0:0:0:
64,192,445381,1,0,0:0:0:0:
448,192,445733,128,0,445998:0:0:0:0:
320,192,446085,1,0,0:0:0:0:
448,192,446085,128,0,446351:0:0:0:0:
192,192,446085,128,0,446353:0:0:0:0:
64,192,446085,128,0,446353:0:0:0:0:
320,192,446438,128,0,446703:0:0:0:0:
64,192,446438,128,0,446703:0:0:0:0:
192,192,446790,128,0,447055:0:0:0:0:
64,192,446790,128,0,447055:0:0:0:0:
448,192,446790,1,0,0:0:0:0:
448,192,447142,128,0,447187:0:0:0:0:
192,192,447229,128,0,447274:0:0:0:0:
320,192,447317,128,0,447361:0:0:0:0:
64,192,447404,128,0,447448:0:0:0:0:
448,192,447488,128,0,447756:0:0:0:0:
192,192,447488,128,0,447756:0:0:0:0:
320,192,447488,1,0,0:0:0:0:
320,192,447843,128,0,448108:0:0:0:0:
192,192,447843,128,0,448108:0:0:0:0:
64,192,448195,128,0,448416:0:0:0:0:
448,192,448195,128,0,448306:0:0:0:0:
192,192,448195,1,0,0:0:0:0:
192,192,448900,128,0,449138:0:0:0:0:
64,192,448900,128,0,449138:0:0:0:0:
320,192,448900,1,0,0:0:0:0:
320,192,449267,128,0,449481:0:0:0:0:
192,192,449267,128,0,449481:0:0:0:0:
448,192,449267,1,0,0:0:0:0:
320,192,449605,128,0,449840:0:0:0:0:
448,192,449605,128,0,449842:0:0:0:0:
192,192,449605,1,0,0:0:0:0:
64,192,449605,1,0,0:0:0:0:
192,192,449963,128,0,450192:0:0:0:0:
64,192,449963,128,0,450192:0:0:0:0:
448,192,450141,1,0,0:0:0:0:
320,192,450141,1,0,0:0:0:0:
320,192,450309,128,0,450544:0:0:0:0:
64,192,450309,128,0,450544:0:0:0:0:
192,192,450309,1,0,0:0:0:0:
192,192,450661,128,0,450897:0:0:0:0:
320,192,450661,128,0,450897:0:0:0:0:
448,192,450661,1,0,0:0:0:0:
448,192,451014,128,0,451249:0:0:0:0:
192,192,451014,128,0,451249:0:0:0:0:
320,192,451014,1,0,0:0:0:0:
64,192,451014,1,0,0:0:0:0:
320,192,451718,128,0,452190:0:0:0:0:
448,192,451718,128,0,452190:0:0:0:0:
64,192,451718,1,0,0:0:0:0:
64,192,452307,128,0,452337:0:0:0:0:
320,192,452366,1,0,0:0:0:0:
192,192,452424,128,0,452484:0:0:0:0:
448,192,452424,128,0,452484:0:0:0:0:
64,192,452424,1,0,0:0:0:0:
320,192,452601,128,0,452660:0:0:0:0:
64,192,452601,128,0,452660:0:0:0:0:
448,192,452784,128,0,453082:0:0:0:0:
192,192,452962,1,0,0:0:0:0:
64,192,452962,1,0,0:0:0:0:
64,192,453137,128,0,453165:0:0:0:0:
320,192,453137,1,0,0:0:0:0:
448,192,453137,1,0,0:0:0:0:
192,192,453224,128,0,453252:0:0:0:0:
320,192,453311,128,0,453339:0:0:0:0:
64,192,453311,1,0,0:0:0:0:
448,192,453398,128,0,453427:0:0:0:0:
192,192,453485,1,0,0:0:0:0:
64,192,453485,128,0,453544:0:0:0:0:
448,192,453661,128,0,453749:0:0:0:0:
320,192,453661,1,0,0:0:0:0:
192,192,453836,128,0,453866:0:0:0:0:
64,192,453836,1,0,0:0:0:0:
448,192,453836,1,0,0:0:0:0:
320,192,454013,128,0,454041:0:0:0:0:
192,192,454013,1,0,0:0:0:0:
64,192,454188,128,0,454305:0:0:0:0:
320,192,454188,1,0,0:0:0:0:
448,192,454364,128,0,454422:0:0:0:0:
192,192,454364,1,0,0:0:0:0:
192,192,454563,5,0,0:0:0:0:
64,192,454563,1,0,0:0:0:0:
448,192,454606,1,0,0:0:0:0:
320,192,454650,1,0,0:0:0:0:
192,192,454694,1,0,0:0:0:0:
64,192,454738,1,0,0:0:0:0:
448,192,454782,1,0,0:0:0:0:
320,192,454827,1,0,0:0:0:0:
192,192,454871,1,0,0:0:0:0:
64,192,454915,1,0,0:0:0:0:
192,192,455092,1,0,0:0:0:0:
320,192,455092,128,0,455267:0:0:0:0:
448,192,455150,1,0,0:0:0:0:
64,192,455209,1,0,0:0:0:0:
448,192,455267,1,0,0:0:0:0:
192,192,455267,128,0,455444:0:0:0:0:
320,192,455444,1,0,0:0:0:0:
448,192,455444,128,0,455533:0:0:0:0:
192,192,455621,1,0,0:0:0:0:
320,192,455621,128,0,455798:0:0:0:0:
448,192,455798,1,0,0:0:0:0:
64,192,455798,128,0,455886:0:0:0:0:
448,192,455973,1,0,0:0:0:0:
320,192,455973,1,0,0:0:0:0:
64,192,455973,1,0,0:0:0:0:
320,192,456062,1,0,0:0:0:0:
192,192,456150,1,0,0:0:0:0:
192,192,456238,1,0,0:0:0:0:
448,192,456327,1,0,0:0:0:0:
64,192,456327,1,0,0:0:0:0:
320,192,456504,1,0,0:0:0:0:
192,192,456504,128,0,456679:0:0:0:0:
320,192,456679,1,0,0:0:0:0:
64,192,456679,1,0,0:0:0:0:
448,192,456679,128,0,457033:0:0:0:0:
192,192,456856,1,0,0:0:0:0:
320,192,457033,128,0,457210:0:0:0:0:
64,192,457033,128,0,457210:0:0:0:0:
192,192,457210,128,0,457385:0:0:0:0:
448,192,457385,1,0,0:0:0:0:
320,192,457385,1,0,0:0:0:0:
64,192,457445,1,0,0:0:0:0:
192,192,457503,1,0,0:0:0:0:
448,192,457562,1,0,0:0:0:0:
192,192,457620,1,0,0:0:0:0:
320,192,457680,1,0,0:0:0:0:
448,192,457739,1,0,0:0:0:0:
64,192,457739,1,0,0:0:0:0:
192,192,457856,1,0,0:0:0:0:
320,192,457915,128,0,458091:0:0:0:0:
64,192,457974,1,0,0:0:0:0:
448,192,458091,1,0,0:0:0:0:
192,192,458091,128,0,458268:0:0:0:0:
64,192,458091,1,0,0:0:0:0:
448,192,458268,128,0,458356:0:0:0:0:
320,192,458268,1,0,0:0:0:0:
192,192,458445,1,0,0:0:0:0:
320,192,458445,128,0,458621:0:0:0:0:
64,192,458621,128,0,458710:0:0:0:0:
448,192,458797,1,0,0:0:0:0:
64,192,458797,1,0,0:0:0:0:
320,192,458797,1,0,0:0:0:0:
448,192,458885,1,0,0:0:0:0:
64,192,458974,1,0,0:0:0:0:
64,192,459062,1,0,0:0:0:0:
448,192,459150,1,0,0:0:0:0:
192,192,459150,128,0,459239:0:0:0:0:
320,192,459327,1,0,0:0:0:0:
64,192,459503,128,0,459680:0:0:0:0:
448,192,459503,1,0,0:0:0:0:
192,192,459503,1,0,0:0:0:0:
320,192,459680,1,0,0:0:0:0:
448,192,459680,128,0,459856:0:0:0:0:
192,192,459856,128,0,460033:0:0:0:0:
64,192,459856,1,0,0:0:0:0:
320,192,459945,1,0,0:0:0:0:
448,192,460033,128,0,460209:0:0:0:0:
64,192,460033,1,0,0:0:0:0:
320,192,460122,1,0,0:0:0:0:
64,192,460209,1,0,0:0:0:0:
192,192,460209,1,0,0:0:0:0:
448,192,460268,1,0,0:0:0:0:
320,192,460327,1,0,0:0:0:0:
64,192,460385,1,0,0:0:0:0:
320,192,460444,1,0,0:0:0:0:
192,192,460504,1,0,0:0:0:0:
448,192,460562,1,0,0:0:0:0:
64,192,460562,1,0,0:0:0:0:
320,192,460679,1,0,0:0:0:0:
192,192,460739,128,0,460915:0:0:0:0:
448,192,460798,1,0,0:0:0:0:
320,192,460856,1,0,0:0:0:0:
448,192,460915,1,0,0:0:0:0:
64,192,460915,128,0,461091:0:0:0:0:
320,192,461091,1,0,0:0:0:0:
448,192,461091,128,0,461180:0:0:0:0:
192,192,461268,1,0,0:0:0:0:
320,192,461268,128,0,461445:0:0:0:0:
192,192,461445,128,0,461532:0:0:0:0:
64,192,461445,1,0,0:0:0:0:
64,192,461620,1,0,0:0:0:0:
448,192,461620,1,0,0:0:0:0:
320,192,461620,1,0,0:0:0:0:
64,192,461709,1,0,0:0:0:0:
448,192,461797,1,0,0:0:0:0:
448,192,461886,1,0,0:0:0:0:
320,192,461974,1,0,0:0:0:0:
64,192,461974,128,0,462062:0:0:0:0:
448,192,462151,128,0,462238:0:0:0:0:
192,192,462151,1,0,0:0:0:0:
448,192,462326,1,0,0:0:0:0:
320,192,462326,128,0,462503:0:0:0:0:
64,192,462326,128,0,462415:0:0:0:0:
192,192,462503,128,0,462592:0:0:0:0:
448,192,462503,128,0,462680:0:0:0:0:
320,192,462680,128,0,462768:0:0:0:0:
64,192,462680,128,0,462857:0:0:0:0:
448,192,462857,128,0,462944:0:0:0:0:
192,192,462857,128,0,463032:0:0:0:0:
320,192,463032,1,0,0:0:0:0:
448,192,463032,1,0,0:0:0:0:
64,192,463076,1,0,0:0:0:0:
192,192,463121,1,0,0:0:0:0:
320,192,463165,1,0,0:0:0:0:
448,192,463209,1,0,0:0:0:0:
64,192,463253,1,0,0:0:0:0:
192,192,463297,1,0,0:0:0:0:
320,192,463342,1,0,0:0:0:0:
448,192,463386,1,0,0:0:0:0:
192,192,463563,1,0,0:0:0:0:
320,192,463563,1,0,0:0:0:0:
192,192,463680,1,0,0:0:0:0:
448,192,463738,128,0,463915:0:0:0:0:
64,192,463738,1,0,0:0:0:0:
320,192,463738,1,0,0:0:0:0:
192,192,463915,128,0,464003:0:0:0:0:
64,192,464092,128,0,464180:0:0:0:0:
448,192,464092,1,0,0:0:0:0:
320,192,464136,1,0,0:0:0:0:
192,192,464180,1,0,0:0:0:0:
448,192,464224,1,0,0:0:0:0:
64,192,464269,1,0,0:0:0:0:
192,192,464444,1,0,0:0:0:0:
64,192,464444,1,0,0:0:0:0:
64,192,464532,1,0,0:0:0:0:
192,192,464532,1,0,0:0:0:0:
448,192,464621,1,0,0:0:0:0:
320,192,464621,1,0,0:0:0:0:
448,192,464709,1,0,0:0:0:0:
320,192,464709,1,0,0:0:0:0:
64,192,464798,1,0,0:0:0:0:
192,192,464798,1,0,0:0:0:0:
448,192,464974,1,0,0:0:0:0:
320,192,465018,1,0,0:0:0:0:
192,192,465107,1,0,0:0:0:0:
448,192,465150,1,0,0:0:0:0:
64,192,465150,128,0,465327:0:0:0:0:
320,192,465150,128,0,465238:0:0:0:0:
192,192,465327,128,0,465504:0:0:0:0:
448,192,465327,128,0,465415:0:0:0:0:
320,192,465504,128,0,465680:0:0:0:0:
64,192,465504,1,0,0:0:0:0:
64,192,465592,1,0,0:0:0:0:
192,192,465680,128,0,465767:0:0:0:0:
448,192,465680,128,0,465856:0:0:0:0:
320,192,465856,128,0,465944:0:0:0:0:
64,192,465856,128,0,466121:0:0:0:0:
192,192,465856,128,0,466033:0:0:0:0:
448,192,466033,1,0,0:0:0:0:
320,192,466121,1,0,0:0:0:0:
192,192,466209,1,0,0:0:0:0:
64,192,466209,1,0,0:0:0:0:
64,192,466298,1,0,0:0:0:0:
448,192,466386,1,0,0:0:0:0:
320,192,466445,1,0,0:0:0:0:
192,192,466503,1,0,0:0:0:0:
320,192,466562,128,0,466739:0:0:0:0:
64,192,466562,1,0,0:0:0:0:
448,192,466562,1,0,0:0:0:0:
448,192,466739,128,0,466827:0:0:0:0:
192,192,466739,128,0,466827:0:0:0:0:
320,192,466915,1,0,0:0:0:0:
64,192,466915,128,0,467092:0:0:0:0:
448,192,466915,1,0,0:0:0:0:
192,192,467092,1,0,0:0:0:0:
64,192,467268,1,0,0:0:0:0:
320,192,467268,128,0,467356:0:0:0:0:
448,192,467268,128,0,467444:0:0:0:0:
64,192,467356,1,0,0:0:0:0:
192,192,467444,1,0,0:0:0:0:
320,192,467533,1,0,0:0:0:0:
448,192,467621,1,0,0:0:0:0:
64,192,467621,1,0,0:0:0:0:
192,192,467797,128,0,467974:0:0:0:0:
320,192,467797,1,0,0:0:0:0:
320,192,467974,1,0,0:0:0:0:
448,192,467974,128,0,468327:0:0:0:0:
64,192,467974,128,0,468062:0:0:0:0:
192,192,468150,128,0,468239:0:0:0:0:
64,192,468327,128,0,468503:0:0:0:0:
320,192,468327,128,0,468416:0:0:0:0:
448,192,468416,128,0,468503:0:0:0:0:
192,192,468503,128,0,468679:0:0:0:0:
448,192,468679,128,0,468856:0:0:0:0:
64,192,468679,128,0,468945:0:0:0:0:
320,192,468679,128,0,468768:0:0:0:0:
192,192,468856,1,0,0:0:0:0:
320,192,468945,1,0,0:0:0:0:
448,192,469033,1,0,0:0:0:0:
64,192,469033,1,0,0:0:0:0:
192,192,469092,1,0,0:0:0:0:
448,192,469150,1,0,0:0:0:0:
320,192,469209,1,0,0:0:0:0:
64,192,469268,1,0,0:0:0:0:
192,192,469327,1,0,0:0:0:0:
448,192,469385,128,0,469562:0:0:0:0:
64,192,469385,128,0,469474:0:0:0:0:
320,192,469385,1,0,0:0:0:0:
192,192,469562,128,0,469651:0:0:0:0:
320,192,469562,1,0,0:0:0:0:
448,192,469739,128,0,469914:0:0:0:0:
64,192,469739,128,0,469827:0:0:0:0:
192,192,469739,1,0,0:0:0:0:
64,192,469914,1,0,0:0:0:0:
448,192,469974,1,0,0:0:0:0:
320,192,470033,1,0,0:0:0:0:
64,192,470091,128,0,470268:0:0:0:0:
192,192,470091,128,0,470180:0:0:0:0:
448,192,470180,1,0,0:0:0:0:
320,192,470268,1,0,0:0:0:0:
192,192,470356,1,0,0:0:0:0:
64,192,470445,1,0,0:0:0:0:
448,192,470445,1,0,0:0:0:0:
192,192,470620,1,0,0:0:0:0:
64,192,470680,1,0,0:0:0:0:
320,192,470739,1,0,0:0:0:0:
64,192,470797,1,0,0:0:0:0:
192,192,470797,128,0,470974:0:0:0:0:
448,192,470797,128,0,470856:0:0:0:0:
448,192,470974,128,0,471151:0:0:0:0:
64,192,470974,128,0,471062:0:0:0:0:
64,192,471151,128,0,471326:0:0:0:0:
320,192,471151,128,0,471239:0:0:0:0:
192,192,471326,128,0,471503:0:0:0:0:
448,192,471326,128,0,471415:0:0:0:0:
64,192,471503,128,0,471768:0:0:0:0:
320,192,471503,128,0,471591:0:0:0:0:
448,192,471503,128,0,471680:0:0:0:0:
192,192,471680,1,0,0:0:0:0:
320,192,471768,1,0,0:0:0:0:
64,192,471857,1,0,0:0:0:0:
448,192,471857,1,0,0:0:0:0:
192,192,471945,1,0,0:0:0:0:
64,192,472032,128,0,472209:0:0:0:0:
320,192,472032,1,0,0:0:0:0:
320,192,472121,1,0,0:0:0:0:
192,192,472209,1,0,0:0:0:0:
448,192,472209,128,0,472386:0:0:0:0:
320,192,472386,128,0,472474:0:0:0:0:
64,192,472386,128,0,472474:0:0:0:0:
192,192,472563,128,0,472738:0:0:0:0:
448,192,472563,128,0,472738:0:0:0:0:
320,192,472738,1,0,0:0:0:0:
448,192,472915,128,0,473092:0:0:0:0:
64,192,472915,1,0,0:0:0:0:
320,192,472915,128,0,473003:0:0:0:0:
64,192,473003,1,0,0:0:0:0:
192,192,473092,1,0,0:0:0:0:
320,192,473180,1,0,0:0:0:0:
448,192,473268,1,0,0:0:0:0:
64,192,473268,1,0,0:0:0:0:
192,192,473444,128,0,473621:0:0:0:0:
320,192,473444,1,0,0:0:0:0:
448,192,473621,1,0,0:0:0:0:
320,192,473621,128,0,473974:0:0:0:0:
64,192,473621,128,0,473709:0:0:0:0:
192,192,473798,128,0,473886:0:0:0:0:
64,192,473974,128,0,474150:0:0:0:0:
448,192,473974,128,0,474150:0:0:0:0:
320,192,474150,1,0,0:0:0:0:
192,192,474210,1,0,0:0:0:0:
448,192,474268,1,0,0:0:0:0:
192,192,474327,128,0,474415:0:0:0:0:
64,192,474327,128,0,474459:0:0:0:0:
320,192,474327,1,0,0:0:0:0:
448,192,474415,1,0,0:0:0:0:
320,192,474459,1,0,0:0:0:0:
192,192,474503,1,0,0:0:0:0:
64,192,474548,1,0,0:0:0:0:
448,192,474680,1,0,0:0:0:0:
320,192,474680,1,0,0:0:0:0:
448,192,474767,1,0,0:0:0:0:
64,192,474856,1,0,0:0:0:0:
192,192,474856,1,0,0:0:0:0:
192,192,474944,1,0,0:0:0:0:
320,192,475033,128,0,475209:0:0:0:0:
448,192,475033,1,0,0:0:0:0:
64,192,475033,1,0,0:0:0:0:
448,192,475209,128,0,475298:0:0:0:0:
192,192,475209,128,0,475298:0:0:0:0:
64,192,475386,128,0,475562:0:0:0:0:
320,192,475386,128,0,475473:0:0:0:0:
448,192,475562,1,0,0:0:0:0:
320,192,475621,1,0,0:0:0:0:
192,192,475680,1,0,0:0:0:0:
320,192,475738,128,0,475827:0:0:0:0:
448,192,475738,128,0,475915:0:0:0:0:
64,192,475738,1,0,0:0:0:0:
64,192,475827,1,0,0:0:0:0:
192,192,475915,1,0,0:0:0:0:
320,192,476004,1,0,0:0:0:0:
64,192,476092,128,0,476268:0:0:0:0:
448,192,476092,1,0,0:0:0:0:
320,192,476268,1,0,0:0:0:0:
192,192,476312,1,0,0:0:0:0:
448,192,476400,1,0,0:0:0:0:
64,192,476444,128,0,476533:0:0:0:0:
192,192,476444,1,0,0:0:0:0:
320,192,476444,128,0,476621:0:0:0:0:
448,192,476621,128,0,476798:0:0:0:0:
192,192,476621,128,0,476710:0:0:0:0:
64,192,476798,128,0,476973:0:0:0:0:
320,192,476798,1,0,0:0:0:0:
320,192,476885,1,0,0:0:0:0:
448,192,476973,1,0,0:0:0:0:
192,192,476973,1,0,0:0:0:0:
64,192,477150,128,0,477504:0:0:0:0:
192,192,477150,128,0,477386:0:0:0:0:
320,192,477150,128,0,477386:0:0:0:0:
448,192,477150,128,0,477386:0:0:0:0:
448,192,477504,128,0,477856:0:0:0:0:
192,192,477504,128,0,477739:0:0:0:0:
320,192,477504,128,0,477739:0:0:0:0:
320,192,477856,128,0,478210:0:0:0:0:
64,192,477856,128,0,478091:0:0:0:0:
192,192,477856,128,0,478091:0:0:0:0:
192,192,478210,128,0,478562:0:0:0:0:
64,192,478210,128,0,478445:0:0:0:0:
448,192,478210,128,0,478445:0:0:0:0:
64,192,478562,128,0,478916:0:0:0:0:
320,192,478562,128,0,478797:0:0:0:0:
448,192,478562,128,0,478797:0:0:0:0:
320,192,478916,128,0,479268:0:0:0:0:
192,192,478916,128,0,479151:0:0:0:0:
448,192,478916,128,0,479151:0:0:0:0:
192,192,479268,128,0,479622:0:0:0:0:
64,192,479268,128,0,479503:0:0:0:0:
448,192,479268,128,0,479503:0:0:0:0:
448,192,479622,128,0,479974:0:0:0:0:
320,192,479622,128,0,479857:0:0:0:0:
64,192,479622,128,0,479739:0:0:0:0:
64,192,479857,1,0,0:0:0:0:
192,192,479857,1,0,0:0:0:0:
64,192,479974,128,0,480563:0:0:0:0:
320,192,479974,128,0,480209:0:0:0:0:
192,192,479974,128,0,480209:0:0:0:0:
192,192,480327,128,0,480563:0:0:0:0:
320,192,480327,128,0,480563:0:0:0:0:
448,192,480327,128,0,480915:0:0:0:0:
320,192,480680,128,0,481267:0:0:0:0:
64,192,480680,128,0,480915:0:0:0:0:
192,192,480680,128,0,480915:0:0:0:0:
192,192,481032,128,0,481621:0:0:0:0:
448,192,481032,128,0,481267:0:0:0:0:
64,192,481032,128,0,481267:0:0:0:0:
448,192,481386,128,0,481621:0:0:0:0:
320,192,481386,128,0,481621:0:0:0:0:
64,192,481386,128,0,481973:0:0:0:0:
320,192,481738,128,0,482092:0:0:0:0:
448,192,481738,128,0,481973:0:0:0:0:
192,192,481738,128,0,481973:0:0:0:0:
192,192,482092,128,0,482444:0:0:0:0:
448,192,482092,1,0,0:0:0:0:
64,192,482092,128,0,482209:0:0:0:0:
448,192,482209,1,0,0:0:0:0:
64,192,482327,1,0,0:0:0:0:
448,192,482444,128,0,482797:0:0:0:0:
64,192,482444,1,0,0:0:0:0:
320,192,482444,128,0,482562:0:0:0:0:
192,192,482679,1,0,0:0:0:0:
64,192,482679,1,0,0:0:0:0:
64,192,482797,128,0,483033:0:0:0:0:
320,192,482797,128,0,482914:0:0:0:0:
192,192,482797,128,0,482914:0:0:0:0:
448,192,482914,128,0,483033:0:0:0:0:
192,192,483033,128,0,483150:0:0:0:0:
448,192,483150,128,0,483385:0:0:0:0:
320,192,483150,128,0,483268:0:0:0:0:
64,192,483268,128,0,483385:0:0:0:0:
192,192,483385,128,0,483503:0:0:0:0:
320,192,483503,128,0,483739:0:0:0:0:
448,192,483503,128,0,483620:0:0:0:0:
64,192,483503,128,0,483620:0:0:0:0:
192,192,483620,128,0,483739:0:0:0:0:
448,192,483739,128,0,483856:0:0:0:0:
192,192,483856,128,0,484091:0:0:0:0:
64,192,483856,128,0,483974:0:0:0:0:
320,192,483974,128,0,484091:0:0:0:0:
448,192,484091,128,0,484209:0:0:0:0:
64,192,484209,128,0,484445:0:0:0:0:
320,192,484209,128,0,484326:0:0:0:0:
192,192,484209,128,0,484326:0:0:0:0:
448,192,484326,128,0,484445:0:0:0:0:
192,192,484445,128,0,484562:0:0:0:0:
320,192,484562,128,0,484797:0:0:0:0:
64,192,484562,128,0,484680:0:0:0:0:
448,192,484562,128,0,484680:0:0:0:0:
192,192,484680,128,0,484797:0:0:0:0:
448,192,484797,128,0,484915:0:0:0:0:
192,192,484915,128,0,485150:0:0:0:0:
64,192,484915,128,0,485032:0:0:0:0:
320,192,484915,128,0,485032:0:0:0:0:
448,192,485032,128,0,485150:0:0:0:0:
320,192,485150,128,0,485267:0:0:0:0:
448,192,485267,128,0,485503:0:0:0:0:
64,192,485267,128,0,485386:0:0:0:0:
192,192,485386,128,0,485503:0:0:0:0:
320,192,485503,128,0,485621:0:0:0:0:
64,192,485621,128,0,485856:0:0:0:0:
448,192,485621,128,0,485738:0:0:0:0:
192,192,485621,128,0,485738:0:0:0:0:
320,192,485738,128,0,485856:0:0:0:0:
192,192,485856,128,0,485973:0:0:0:0:
448,192,485973,128,0,486209:0:0:0:0:
320,192,485973,128,0,486092:0:0:0:0:
64,192,485973,128,0,486092:0:0:0:0:
192,192,486092,128,0,486209:0:0:0:0:
64,192,486209,128,0,486327:0:0:0:0:
320,192,486327,128,0,486562:0:0:0:0:
448,192,486327,128,0,486444:0:0:0:0:
192,192,486327,128,0,486444:0:0:0:0:
64,192,486444,128,0,486562:0:0:0:0:
448,192,486562,128,0,486679:0:0:0:0:
192,192,486679,128,0,486915:0:0:0:0:
64,192,486679,128,0,486798:0:0:0:0:
320,192,486679,128,0,486798:0:0:0:0:
448,192,486798,128,0,486915:0:0:0:0:
320,192,486915,128,0,487033:0:0:0:0:
64,192,487033,128,0,487268:0:0:0:0:
192,192,487033,128,0,487150:0:0:0:0:
448,192,487033,128,0,487150:0:0:0:0:
320,192,487150,128,0,487268:0:0:0:0:
192,192,487268,128,0,487385:0:0:0:0:
320,192,487385,128,0,487620:0:0:0:0:
448,192,487385,128,0,487503:0:0:0:0:
64,192,487385,128,0,487503:0:0:0:0:
192,192,487503,128,0,487620:0:0:0:0:
64,192,487620,128,0,487739:0:0:0:0:
192,192,487739,128,0,487974:0:0:0:0:
448,192,487739,1,0,0:0:0:0:
448,192,487856,128,0,487974:0:0:0:0:
320,192,487856,1,0,0:0:0:0:
64,192,487974,1,0,0:0:0:0:
448,192,488091,128,0,488326:0:0:0:0:
64,192,488091,128,0,488209:0:0:0:0:
192,192,488091,1,0,0:0:0:0:
320,192,488209,1,0,0:0:0:0:
64,192,488326,1,0,0:0:0:0:
320,192,488326,1,0,0:0:0:0:
192,192,488326,1,0,0:0:0:0:
192,192,488445,1,0,0:0:0:0:
320,192,488445,1,0,0:0:0:0:
448,192,488445,1,0,0:0:0:0:
64,192,488445,128,0,489503:0:0:0:0:
320,192,489503,128,0,489856:0:0:0:0:
192,192,489503,1,0,0:0:0:0:
448,192,489503,1,0,0:0:0:0:
448,192,489856,128,0,491268:0:0:0:0:
64,192,489856,1,0,0:0:0:0:
192,192,489856,1,0,0:0:0:0:
64,192,491268,1,0,0:0:0:0:
192,192,491268,1,0,0:0:0:0:
320,192,491385,1,0,0:0:0:0:
192,192,491621,1,0,0:0:0:0:
448,192,491738,1,0,0:0:0:0:
64,192,491738,1,0,0:0:0:0:
320,192,491856,1,0,0:0:0:0:
64,192,491973,1,0,0:0:0:0:
192,192,491973,1,0,0:0:0:0:
64,192,492208,1,0,0:0:0:0:
320,192,492208,1,0,0:0:0:0:
448,192,492326,1,0,0:0:0:0:
64,192,492562,1,0,0:0:0:0:
448,192,492679,1,0,0:0:0:0:
320,192,492679,1,0,0:0:0:0:
192,192,492797,1,0,0:0:0:0:
320,192,493032,1,0,0:0:0:0:
64,192,493149,1,0,0:0:0:0:
192,192,493149,1,0,0:0:0:0:
320,192,493268,1,0,0:0:0:0:
192,192,493503,1,0,0:0:0:0:
448,192,493620,1,0,0:0:0:0:
64,192,493620,1,0,0:0:0:0:
320,192,493738,1,0,0:0:0:0:
64,192,493855,1,0,0:0:0:0:
192,192,493974,1,0,0:0:0:0:
448,192,494091,1,0,0:0:0:0:
320,192,494091,1,0,0:0:0:0:
192,192,494209,1,0,0:0:0:0:
64,192,494444,1,0,0:0:0:0:
320,192,494561,1,0,0:0:0:0:
448,192,494561,1,0,0:0:0:0:
192,192,494679,1,0,0:0:0:0:
64,192,494679,1,0,0:0:0:0:
320,192,494915,1,0,0:0:0:0:
64,192,495032,1,0,0:0:0:0:
192,192,495032,1,0,0:0:0:0:
192,192,495267,1,0,0:0:0:0:
320,192,495385,1,0,0:0:0:0:
448,192,495502,1,0,0:0:0:0:
64,192,495502,1,0,0:0:0:0:
320,192,495738,1,0,0:0:0:0:
192,192,495856,1,0,0:0:0:0:
64,192,495973,1,0,0:0:0:0:
448,192,495973,1,0,0:0:0:0:
192,192,496091,1,0,0:0:0:0:
320,192,496208,1,0,0:0:0:0:
192,192,496327,1,0,0:0:0:0:
320,192,496444,1,0,0:0:0:0:
448,192,496562,1,0,0:0:0:0:
64,192,496562,1,0,0:0:0:0:
320,192,496679,1,0,0:0:0:0:
192,192,496797,1,0,0:0:0:0:
64,192,496914,1,0,0:0:0:0:
448,192,496914,1,0,0:0:0:0:
192,192,497149,1,0,0:0:0:0:
448,192,497385,1,0,0:0:0:0:
64,192,497385,1,0,0:0:0:0:
320,192,497503,1,0,0:0:0:0:
192,192,497738,1,0,0:0:0:0:
64,192,497855,1,0,0:0:0:0:
448,192,497855,1,0,0:0:0:0:
192,192,497974,1,0,0:0:0:0:
320,192,498091,1,0,0:0:0:0:
448,192,498170,1,0,0:0:0:0:
64,192,498248,1,0,0:0:0:0:
320,192,498326,1,0,0:0:0:0:
192,192,498483,1,0,0:0:0:0:
64,192,498561,1,0,0:0:0:0:
448,192,498561,1,0,0:0:0:0:
320,192,498641,1,0,0:0:0:0:
192,192,498719,1,0,0:0:0:0:
448,192,498797,1,0,0:0:0:0:
320,192,498797,1,0,0:0:0:0:
64,192,498797,128,0,502560:0:0:0:0:
192,192,502560,1,0,0:0:0:0:
448,192,502560,1,0,0:0:0:0:
448,192,502794,1,0,0:0:0:0:
64,192,503029,1,0,0:0:0:0:
192,192,503265,1,0,0:0:0:0:
320,192,503500,1,0,0:0:0:0:
64,192,503500,1,0,0:0:0:0:
448,192,503735,1,0,0:0:0:0:
320,192,503971,1,0,0:0:0:0:
192,192,504206,1,0,0:0:0:0:
64,192,504206,1,0,0:0:0:0:
320,192,504441,1,0,0:0:0:0:
320,192,504676,1,0,0:0:0:0:
64,192,504912,1,0,0:0:0:0:
192,192,505147,1,0,0:0:0:0:
448,192,505382,1,0,0:0:0:0:
320,192,505382,1,0,0:0:0:0:
192,192,505618,1,0,0:0:0:0:
448,192,505853,1,0,0:0:0:0:
320,192,506088,1,0,0:0:0:0:
192,192,506088,1,0,0:0:0:0:
64,192,506324,1,0,0:0:0:0:
64,192,506559,1,0,0:0:0:0:
320,192,506794,1,0,0:0:0:0:
448,192,507029,1,0,0:0:0:0:
64,192,507265,1,0,0:0:0:0:
192,192,507265,1,0,0:0:0:0:
320,192,507500,1,0,0:0:0:0:
448,192,507500,1,0,0:0:0:0:
192,192,507735,1,0,0:0:0:0:
64,192,507971,1,0,0:0:0:0:
448,192,507971,1,0,0:0:0:0:
320,192,508206,1,0,0:0:0:0:
320,192,508441,1,0,0:0:0:0:
192,192,508677,1,0,0:0:0:0:
64,192,508677,1,0,0:0:0:0:
448,192,508912,1,0,0:0:0:0:
320,192,508912,1,0,0:0:0:0:
192,192,509147,1,0,0:0:0:0:
448,192,509382,1,0,0:0:0:0:
64,192,509382,1,0,0:0:0:0:
320,192,509618,1,0,0:0:0:0:
448,192,509853,1,0,0:0:0:0:
192,192,509853,1,0,0:0:0:0:
64,192,510088,1,0,0:0:0:0:
64,192,510324,1,0,0:0:0:0:
320,192,510559,1,0,0:0:0:0:
448,192,510794,1,0,0:0:0:0:
192,192,511030,1,0,0:0:0:0:
64,192,511030,1,0,0:0:0:0:
448,192,511265,1,0,0:0:0:0:
192,192,511265,1,0,0:0:0:0:
320,192,511500,1,0,0:0:0:0:
192,192,511735,1,0,0:0:0:0:
64,192,511735,1,0,0:0:0:0:
448,192,511971,1,0,0:0:0:0:
448,192,512206,1,0,0:0:0:0:
192,192,512441,1,0,0:0:0:0:
448,192,512677,1,0,0:0:0:0:
64,192,512912,1,0,0:0:0:0:
320,192,512912,1,0,0:0:0:0:
320,192,513147,1,0,0:0:0:0:
192,192,513383,1,0,0:0:0:0:
192,192,513853,1,0,0:0:0:0:
448,192,513853,1,0,0:0:0:0:
192,192,514088,1,0,0:0:0:0:
320,192,514324,1,0,0:0:0:0:
448,192,514324,1,0,0:0:0:0:
192,192,514559,1,0,0:0:0:0:
64,192,514559,1,0,0:0:0:0:
64,192,514794,1,0,0:0:0:0:
320,192,514794,1,0,0:0:0:0:
192,192,515030,1,0,0:0:0:0:
448,192,515265,1,0,0:0:0:0:
320,192,515265,1,0,0:0:0:0:
192,192,515500,1,0,0:0:0:0:
448,192,515736,1,0,0:0:0:0:
64,192,515736,1,0,0:0:0:0:
448,192,515971,1,0,0:0:0:0:
320,192,516206,1,0,0:0:0:0:
192,192,516677,1,0,0:0:0:0:
192,192,516912,1,0,0:0:0:0:
448,192,517147,1,0,0:0:0:0:
320,192,517383,1,0,0:0:0:0:
64,192,517618,1,0,0:0:0:0:
448,192,517618,1,0,0:0:0:0:
64,192,517853,1,0,0:0:0:0:
192,192,518089,1,0,0:0:0:0:
448,192,518324,1,0,0:0:0:0:
64,192,518559,1,0,0:0:0:0:
320,192,518559,1,0,0:0:0:0:
192,192,518794,1,0,0:0:0:0:
448,192,519030,1,0,0:0:0:0:
192,192,519265,1,0,0:0:0:0:
64,192,519265,1,0,0:0:0:0:
320,192,519500,1,0,0:0:0:0:
320,192,519736,1,0,0:0:0:0:
64,192,519971,1,0,0:0:0:0:
320,192,520206,1,0,0:0:0:0:
64,192,520442,1,0,0:0:0:0:
448,192,520442,1,0,0:0:0:0:
192,192,520677,1,0,0:0:0:0:
448,192,520912,1,0,0:0:0:0:
64,192,521147,1,0,0:0:0:0:
320,192,521147,1,0,0:0:0:0:
192,192,521383,1,0,0:0:0:0:
192,192,521618,1,0,0:0:0:0:
448,192,521853,1,0,0:0:0:0:
320,192,522089,1,0,0:0:0:0:
192,192,522324,1,0,0:0:0:0:
64,192,522324,1,0,0:0:0:0:
320,192,522559,1,0,0:0:0:0:
448,192,522559,1,0,0:0:0:0:
192,192,522795,1,0,0:0:0:0:
64,192,523030,1,0,0:0:0:0:
320,192,523030,1,0,0:0:0:0:
448,192,523265,1,0,0:0:0:0:
192,192,523500,1,0,0:0:0:0:
448,192,523500,1,0,0:0:0:0:
64,192,523736,1,0,0:0:0:0:
320,192,523971,1,0,0:0:0:0:
448,192,523971,1,0,0:0:0:0:
192,192,524206,1,0,0:0:0:0:
64,192,524442,1,0,0:0:0:0:
320,192,524442,1,0,0:0:0:0:
192,192,524677,1,0,0:0:0:0:
448,192,524912,1,0,0:0:0:0:
64,192,524912,1,0,0:0:0:0:
320,192,525148,1,0,0:0:0:0:
320,192,525383,1,0,0:0:0:0:
64,192,525618,1,0,0:0:0:0:
448,192,525853,1,0,0:0:0:0:
320,192,526089,1,0,0:0:0:0:
192,192,526089,1,0,0:0:0:0:
192,192,526324,1,0,0:0:0:0:
448,192,526559,1,0,0:0:0:0:
320,192,526559,1,0,0:0:0:0:
192,192,526795,1,0,0:0:0:0:
64,192,526795,1,0,0:0:0:0:
448,192,527030,1,0,0:0:0:0:
448,192,527265,1,0,0:0:0:0:
192,192,527501,1,0,0:0:0:0:
448,192,527736,1,0,0:0:0:0:
320,192,527971,1,0,0:0:0:0:
64,192,527971,1,0,0:0:0:0:
64,192,528206,1,0,0:0:0:0:
320,192,528442,1,0,0:0:0:0:
192,192,528912,1,0,0:0:0:0:
448,192,528912,1,0,0:0:0:0:
192,192,529148,1,0,0:0:0:0:
320,192,529383,1,0,0:0:0:0:
448,192,529383,1,0,0:0:0:0:
192,192,529618,1,0,0:0:0:0:
64,192,529618,1,0,0:0:0:0:
448,192,529854,1,0,0:0:0:0:
64,192,529854,1,0,0:0:0:0:
320,192,530089,1,0,0:0:0:0:
192,192,530324,1,0,0:0:0:0:
64,192,530324,1,0,0:0:0:0:
448,192,530559,1,0,0:0:0:0:
192,192,530795,1,0,0:0:0:0:
320,192,530795,1,0,0:0:0:0:
192,192,531030,1,0,0:0:0:0:
448,192,531265,1,0,0:0:0:0:
448,192,532207,128,0,532677:0:0:0:0:
320,192,532677,1,0,0:0:0:0:
64,192,532677,1,0,0:0:0:0:
192,192,532677,128,0,533618:0:0:0:0:
448,192,533148,1,0,0:0:0:0:
320,192,533618,128,0,533854:0:0:0:0:
64,192,533618,1,0,0:0:0:0:
448,192,533618,1,0,0:0:0:0:
448,192,533854,128,0,534324:0:0:0:0:
192,192,534089,1,0,0:0:0:0:
64,192,534324,128,0,535501:0:0:0:0:
320,192,534324,1,0,0:0:0:0:
448,192,534560,1,0,0:0:0:0:
192,192,534560,1,0,0:0:0:0:
192,192,534912,1,0,0:0:0:0:
448,192,535030,1,0,0:0:0:0:
320,192,535265,1,0,0:0:0:0:
320,192,535501,128,0,535736:0:0:0:0:
192,192,535501,1,0,0:0:0:0:
448,192,535501,1,0,0:0:0:0:
448,192,535736,128,0,536207:0:0:0:0:
64,192,535971,1,0,0:0:0:0:
192,192,536207,128,0,537383:0:0:0:0:
320,192,536207,1,0,0:0:0:0:
64,192,536442,1,0,0:0:0:0:
448,192,536442,1,0,0:0:0:0:
320,192,536442,1,0,0:0:0:0:
320,192,536913,1,0,0:0:0:0:
448,192,537148,1,0,0:0:0:0:
64,192,537383,128,0,537618:0:0:0:0:
320,192,537383,1,0,0:0:0:0:
448,192,537383,1,0,0:0:0:0:
320,192,537618,128,0,538089:0:0:0:0:
64,192,537854,1,0,0:0:0:0:
192,192,537971,1,0,0:0:0:0:
448,192,538089,128,0,538795:0:0:0:0:
64,192,538089,1,0,0:0:0:0:
192,192,538324,1,0,0:0:0:0:
320,192,538324,1,0,0:0:0:0:
320,192,538677,1,0,0:0:0:0:
192,192,538795,128,0,539030:0:0:0:0:
64,192,538795,1,0,0:0:0:0:
320,192,539030,128,0,539501:0:0:0:0:
448,192,539030,1,0,0:0:0:0:
64,192,539266,1,0,0:0:0:0:
192,192,539383,1,0,0:0:0:0:
64,192,539501,128,0,539971:0:0:0:0:
448,192,539501,1,0,0:0:0:0:
320,192,539618,1,0,0:0:0:0:
192,192,539736,1,0,0:0:0:0:
448,192,539736,1,0,0:0:0:0:
448,192,539971,128,0,541148:0:0:0:0:
320,192,540207,1,0,0:0:0:0:
192,192,540207,1,0,0:0:0:0:
64,192,540207,1,0,0:0:0:0:
64,192,540677,1,0,0:0:0:0:
320,192,541148,128,0,541383:0:0:0:0:
64,192,541148,1,0,0:0:0:0:
192,192,541148,1,0,0:0:0:0:
192,192,541383,128,0,541854:0:0:0:0:
448,192,541619,1,0,0:0:0:0:
64,192,541854,128,0,542560:0:0:0:0:
320,192,541854,1,0,0:0:0:0:
192,192,542089,1,0,0:0:0:0:
448,192,542089,1,0,0:0:0:0:
320,192,542324,1,0,0:0:0:0:
192,192,542441,1,0,0:0:0:0:
320,192,542560,128,0,542795:0:0:0:0:
448,192,542560,1,0,0:0:0:0:
192,192,542795,128,0,543972:0:0:0:0:
64,192,542795,1,0,0:0:0:0:
64,192,543030,1,0,0:0:0:0:
448,192,543030,1,0,0:0:0:0:
320,192,543030,1,0,0:0:0:0:
448,192,543266,1,0,0:0:0:0:
64,192,543501,1,0,0:0:0:0:
320,192,543736,1,0,0:0:0:0:
64,192,543972,128,0,544442:0:0:0:0:
320,192,543972,1,0,0:0:0:0:
448,192,543972,1,0,0:0:0:0:
448,192,544442,128,0,544677:0:0:0:0:
192,192,544442,1,0,0:0:0:0:
320,192,544677,128,0,544913:0:0:0:0:
192,192,544913,128,0,545383:0:0:0:0:
64,192,544913,1,0,0:0:0:0:
448,192,544913,1,0,0:0:0:0:
320,192,545148,1,0,0:0:0:0:
64,192,545383,128,0,545854:0:0:0:0:
448,192,545383,1,0,0:0:0:0:
192,192,545501,1,0,0:0:0:0:
320,192,545619,1,0,0:0:0:0:
448,192,545854,128,0,547736:0:0:0:0:
320,192,545854,1,0,0:0:0:0:
192,192,545854,1,0,0:0:0:0:
64,192,546207,1,0,0:0:0:0:
320,192,546325,1,0,0:0:0:0:
192,192,546560,1,0,0:0:0:0:
64,192,546795,128,0,547030:0:0:0:0:
320,192,547030,1,0,0:0:0:0:
64,192,547147,1,0,0:0:0:0:
192,192,547147,1,0,0:0:0:0:
320,192,547501,1,0,0:0:0:0:
64,192,547501,1,0,0:0:0:0:
64,192,547736,128,0,548678:0:0:0:0:
192,192,547736,1,0,0:0:0:0:
320,192,547736,1,0,0:0:0:0:
448,192,547972,1,0,0:0:0:0:
192,192,548207,1,0,0:0:0:0:
448,192,548442,1,0,0:0:0:0:
320,192,548678,128,0,549148:0:0:0:0:
192,192,548678,1,0,0:0:0:0:
448,192,548678,1,0,0:0:0:0:
64,192,548913,1,0,0:0:0:0:
64,192,549148,128,0,549383:0:0:0:0:
448,192,549148,1,0,0:0:0:0:
192,192,549383,128,0,550560:0:0:0:0:
320,192,549383,1,0,0:0:0:0:
64,192,549619,1,0,0:0:0:0:
448,192,549619,1,0,0:0:0:0:
320,192,549854,1,0,0:0:0:0:
64,192,549971,1,0,0:0:0:0:
448,192,550089,1,0,0:0:0:0:
320,192,550325,1,0,0:0:0:0:
320,192,550560,128,0,550795:0:0:0:0:
64,192,550560,1,0,0:0:0:0:
448,192,550560,1,0,0:0:0:0:
64,192,550795,128,0,551266:0:0:0:0:
192,192,550795,1,0,0:0:0:0:
448,192,551031,1,0,0:0:0:0:
320,192,551148,1,0,0:0:0:0:
448,192,551266,128,0,552442:0:0:0:0:
192,192,551266,1,0,0:0:0:0:
64,192,551383,1,0,0:0:0:0:
320,192,551501,1,0,0:0:0:0:
192,192,551501,1,0,0:0:0:0:
320,192,551736,1,0,0:0:0:0:
192,192,551972,1,0,0:0:0:0:
64,192,552207,1,0,0:0:0:0:
64,192,552442,128,0,552678:0:0:0:0:
320,192,552442,1,0,0:0:0:0:
192,192,552442,1,0,0:0:0:0:
192,192,552678,128,0,553148:0:0:0:0:
448,192,552678,1,0,0:0:0:0:
64,192,552913,1,0,0:0:0:0:
320,192,553148,128,0,553854:0:0:0:0:
448,192,553148,1,0,0:0:0:0:
64,192,553384,1,0,0:0:0:0:
192,192,553384,1,0,0:0:0:0:
448,192,553619,1,0,0:0:0:0:
192,192,553736,1,0,0:0:0:0:
64,192,553854,128,0,554089:0:0:0:0:
448,192,553854,1,0,0:0:0:0:
320,192,554089,128,0,554560:0:0:0:0:
192,192,554089,1,0,0:0:0:0:
64,192,554325,1,0,0:0:0:0:
192,192,554325,1,0,0:0:0:0:
448,192,554325,1,0,0:0:0:0:
448,192,554560,128,0,555029:0:0:0:0:
64,192,554560,1,0,0:0:0:0:
192,192,554638,1,0,0:0:0:0:
320,192,554716,1,0,0:0:0:0:
64,192,554794,1,0,0:0:0:0:
192,192,554873,1,0,0:0:0:0:
320,192,554951,1,0,0:0:0:0:
192,192,555029,128,0,556206:0:0:0:0:
64,192,555029,1,0,0:0:0:0:
320,192,555265,1,0,0:0:0:0:
64,192,555265,1,0,0:0:0:0:
448,192,555265,1,0,0:0:0:0:
320,192,555500,1,0,0:0:0:0:
64,192,555735,1,0,0:0:0:0:
448,192,555971,1,0,0:0:0:0:
448,192,556206,128,0,556441:0:0:0:0:
64,192,556206,1,0,0:0:0:0:
320,192,556206,1,0,0:0:0:0:
64,192,556441,128,0,556912:0:0:0:0:
192,192,556441,1,0,0:0:0:0:
320,192,556676,1,0,0:0:0:0:
192,192,556912,128,0,557618:0:0:0:0:
448,192,556912,1,0,0:0:0:0:
64,192,557147,1,0,0:0:0:0:
320,192,557147,1,0,0:0:0:0:
448,192,557382,1,0,0:0:0:0:
64,192,557501,1,0,0:0:0:0:
448,192,557618,128,0,557853:0:0:0:0:
320,192,557618,1,0,0:0:0:0:
64,192,557853,128,0,558088:0:0:0:0:
192,192,557853,1,0,0:0:0:0:
320,192,558088,128,0,559029:0:0:0:0:
192,192,558088,1,0,0:0:0:0:
448,192,558088,1,0,0:0:0:0:
64,192,558324,1,0,0:0:0:0:
192,192,558559,1,0,0:0:0:0:
64,192,558677,1,0,0:0:0:0:
448,192,558794,1,0,0:0:0:0:
192,192,558912,1,0,0:0:0:0:
64,192,559029,128,0,559500:0:0:0:0:
448,192,559029,1,0,0:0:0:0:
320,192,559265,1,0,0:0:0:0:
448,192,559500,128,0,559735:0:0:0:0:
192,192,559500,1,0,0:0:0:0:
320,192,559735,128,0,559971:0:0:0:0:
64,192,559735,1,0,0:0:0:0:
192,192,559971,128,0,560441:0:0:0:0:
64,192,559971,1,0,0:0:0:0:
448,192,559971,1,0,0:0:0:0:
320,192,560206,1,0,0:0:0:0:
64,192,560441,128,0,560912:0:0:0:0:
448,192,560441,1,0,0:0:0:0:
320,192,560677,1,0,0:0:0:0:
448,192,560912,128,0,562677:0:0:0:0:
192,192,560912,1,0,0:0:0:0:
320,192,560912,1,0,0:0:0:0:
64,192,561147,1,0,0:0:0:0:
320,192,561265,1,0,0:0:0:0:
192,192,561382,1,0,0:0:0:0:
64,192,561618,1,0,0:0:0:0:
64,192,561853,1,0,0:0:0:0:
320,192,561853,1,0,0:0:0:0:
192,192,561853,128,0,562324:0:0:0:0:
320,192,562088,1,0,0:0:0:0:
64,192,562324,128,0,562677:0:0:0:0:
320,192,562442,1,0,0:0:0:0:
192,192,562559,1,0,0:0:0:0:
320,192,562677,1,0,0:0:0:0:
192,192,562794,1,0,0:0:0:0:
64,192,562794,1,0,0:0:0:0:
448,192,562794,1,0,0:0:0:0:
320,192,562913,1,0,0:0:0:0:
64,192,563030,1,0,0:0:0:0:
448,192,563148,1,0,0:0:0:0:
320,192,563265,1,0,0:0:0:0:
64,192,563383,1,0,0:0:0:0:
448,192,563500,1,0,0:0:0:0:
192,192,563618,1,0,0:0:0:0:
64,192,563735,1,0,0:0:0:0:
320,192,563735,1,0,0:0:0:0:
448,192,563735,1,0,0:0:0:0:
192,192,563854,1,0,0:0:0:0:
320,192,563971,1,0,0:0:0:0:
64,192,564089,1,0,0:0:0:0:
192,192,564206,1,0,0:0:0:0:
448,192,564206,1,0,0:0:0:0:
320,192,564324,1,0,0:0:0:0:
192,192,564441,1,0,0:0:0:0:
64,192,564441,1,0,0:0:0:0:
320,192,564560,1,0,0:0:0:0:
448,192,564677,1,0,0:0:0:0:
64,192,564677,1,0,0:0:0:0:
192,192,564795,1,0,0:0:0:0:
320,192,564912,1,0,0:0:0:0:
64,192,565030,1,0,0:0:0:0:
448,192,565147,1,0,0:0:0:0:
320,192,565266,1,0,0:0:0:0:
192,192,565383,1,0,0:0:0:0:
320,192,565501,1,0,0:0:0:0:
192,192,565618,1,0,0:0:0:0:
64,192,565618,1,0,0:0:0:0:
448,192,565618,1,0,0:0:0:0:
320,192,565736,1,0,0:0:0:0:
448,192,565853,1,0,0:0:0:0:
64,192,565971,1,0,0:0:0:0:
320,192,566088,1,0,0:0:0:0:
192,192,566088,1,0,0:0:0:0:
448,192,566207,1,0,0:0:0:0:
192,192,566324,1,0,0:0:0:0:
64,192,566324,1,0,0:0:0:0:
320,192,566442,1,0,0:0:0:0:
448,192,566559,1,0,0:0:0:0:
192,192,566559,1,0,0:0:0:0:
64,192,566559,1,0,0:0:0:0:
320,192,566677,1,0,0:0:0:0:
64,192,566794,1,0,0:0:0:0:
448,192,566913,1,0,0:0:0:0:
192,192,567030,1,0,0:0:0:0:
64,192,567148,1,0,0:0:0:0:
448,192,567265,1,0,0:0:0:0:
192,192,567383,1,0,0:0:0:0:
64,192,567500,1,0,0:0:0:0:
320,192,567500,1,0,0:0:0:0:
448,192,567500,1,0,0:0:0:0:
192,192,567619,1,0,0:0:0:0:
320,192,567736,1,0,0:0:0:0:
448,192,567736,1,0,0:0:0:0:
64,192,567854,1,0,0:0:0:0:
320,192,567971,1,0,0:0:0:0:
192,192,568089,1,0,0:0:0:0:
448,192,568206,1,0,0:0:0:0:
64,192,568206,1,0,0:0:0:0:
320,192,568324,1,0,0:0:0:0:
192,192,568441,1,0,0:0:0:0:
64,192,568441,1,0,0:0:0:0:
320,192,568560,1,0,0:0:0:0:
448,192,568677,1,0,0:0:0:0:
192,192,568795,1,0,0:0:0:0:
320,192,568912,1,0,0:0:0:0:
448,192,568912,1,0,0:0:0:0:
64,192,569030,1,0,0:0:0:0:
192,192,569147,1,0,0:0:0:0:
448,192,569147,1,0,0:0:0:0:
320,192,569266,1,0,0:0:0:0:
192,192,569383,1,0,0:0:0:0:
64,192,569383,1,0,0:0:0:0:
448,192,569383,1,0,0:0:0:0:
320,192,569501,1,0,0:0:0:0:
192,192,569618,1,0,0:0:0:0:
64,192,569618,1,0,0:0:0:0:
448,192,569736,1,0,0:0:0:0:
320,192,569853,1,0,0:0:0:0:
192,192,569853,1,0,0:0:0:0:
64,192,569972,1,0,0:0:0:0:
320,192,570089,1,0,0:0:0:0:
448,192,570089,1,0,0:0:0:0:
192,192,570207,1,0,0:0:0:0:
320,192,570324,1,0,0:0:0:0:
64,192,570324,1,0,0:0:0:0:
448,192,570324,1,0,0:0:0:0:
192,192,570442,1,0,0:0:0:0:
320,192,570559,1,0,0:0:0:0:
64,192,570677,1,0,0:0:0:0:
448,192,570794,1,0,0:0:0:0:
192,192,570913,1,0,0:0:0:0:
320,192,571030,1,0,0:0:0:0:
64,192,571148,1,0,0:0:0:0:
192,192,571265,1,0,0:0:0:0:
320,192,571265,1,0,0:0:0:0:
448,192,571265,1,0,0:0:0:0:
64,192,571383,1,0,0:0:0:0:
320,192,571500,1,0,0:0:0:0:
448,192,571500,1,0,0:0:0:0:
192,192,571619,1,0,0:0:0:0:
448,192,571736,1,0,0:0:0:0:
320,192,571854,1,0,0:0:0:0:
192,192,571971,1,0,0:0:0:0:
64,192,571971,1,0,0:0:0:0:
320,192,572089,1,0,0:0:0:0:
64,192,572206,1,0,0:0:0:0:
448,192,572206,1,0,0:0:0:0:
192,192,572325,1,0,0:0:0:0:
320,192,572442,1,0,0:0:0:0:
64,192,572560,1,0,0:0:0:0:
448,192,572677,1,0,0:0:0:0:
320,192,572795,1,0,0:0:0:0:
64,192,572912,1,0,0:0:0:0:
448,192,573030,1,0,0:0:0:0:
64,192,573147,1,0,0:0:0:0:
192,192,573147,1,0,0:0:0:0:
320,192,573147,1,0,0:0:0:0:
448,192,573266,1,0,0:0:0:0:
192,192,573383,1,0,0:0:0:0:
320,192,573501,1,0,0:0:0:0:
64,192,573618,1,0,0:0:0:0:
192,192,573736,1,0,0:0:0:0:
448,192,573853,1,0,0:0:0:0:
320,192,573972,1,0,0:0:0:0:
192,192,574089,1,0,0:0:0:0:
64,192,574089,1,0,0:0:0:0:
448,192,574089,1,0,0:0:0:0:
320,192,574207,1,0,0:0:0:0:
64,192,574324,1,0,0:0:0:0:
192,192,574442,1,0,0:0:0:0:
448,192,574559,1,0,0:0:0:0:
320,192,574559,1,0,0:0:0:0:
192,192,574678,1,0,0:0:0:0:
64,192,574795,1,0,0:0:0:0:
448,192,574795,1,0,0:0:0:0:
320,192,574913,1,0,0:0:0:0:
192,192,575030,1,0,0:0:0:0:
64,192,575030,1,0,0:0:0:0:
448,192,575030,1,0,0:0:0:0:
320,192,575148,1,0,0:0:0:0:
64,192,575265,1,0,0:0:0:0:
192,192,575383,1,0,0:0:0:0:
320,192,575500,1,0,0:0:0:0:
448,192,575500,1,0,0:0:0:0:
64,192,575619,1,0,0:0:0:0:
320,192,575736,1,0,0:0:0:0:
192,192,575854,1,0,0:0:0:0:
64,192,575971,1,0,0:0:0:0:
448,192,575971,1,0,0:0:0:0:
320,192,575971,1,0,0:0:0:0:
192,192,576089,1,0,0:0:0:0:
448,192,576206,1,0,0:0:0:0:
64,192,576325,1,0,0:0:0:0:
320,192,576442,1,0,0:0:0:0:
192,192,576560,1,0,0:0:0:0:
448,192,576677,1,0,0:0:0:0:
192,192,576795,1,0,0:0:0:0:
64,192,576912,128,0,577148:0:0:0:0:
448,192,576912,128,0,577148:0:0:0:0:
320,192,577148,1,0,0:0:0:0:
192,192,577148,1,0,0:0:0:0:
64,192,577266,1,0,0:0:0:0:
320,192,577383,1,0,0:0:0:0:
448,192,577383,1,0,0:0:0:0:
192,192,577501,1,0,0:0:0:0:
64,192,577618,1,0,0:0:0:0:
448,192,577618,1,0,0:0:0:0:
320,192,577736,1,0,0:0:0:0:
192,192,577853,1,0,0:0:0:0:
64,192,577853,1,0,0:0:0:0:
448,192,577853,1,0,0:0:0:0:
320,192,577972,1,0,0:0:0:0:
64,192,578089,1,0,0:0:0:0:
448,192,578207,1,0,0:0:0:0:
192,192,578324,1,0,0:0:0:0:
64,192,578442,1,0,0:0:0:0:
448,192,578559,1,0,0:0:0:0:
320,192,578678,1,0,0:0:0:0:
64,192,578795,1,0,0:0:0:0:
448,192,578795,1,0,0:0:0:0:
192,192,578795,1,0,0:0:0:0:
320,192,578913,1,0,0:0:0:0:
192,192,579030,1,0,0:0:0:0:
64,192,579030,1,0,0:0:0:0:
448,192,579148,1,0,0:0:0:0:
192,192,579265,1,0,0:0:0:0:
64,192,579384,1,0,0:0:0:0:
320,192,579501,1,0,0:0:0:0:
448,192,579501,1,0,0:0:0:0:
192,192,579619,1,0,0:0:0:0:
320,192,579736,1,0,0:0:0:0:
448,192,579736,1,0,0:0:0:0:
64,192,579736,1,0,0:0:0:0:
192,192,579854,1,0,0:0:0:0:
320,192,579971,1,0,0:0:0:0:
448,192,579971,1,0,0:0:0:0:
64,192,580089,1,0,0:0:0:0:
320,192,580206,1,0,0:0:0:0:
192,192,580206,1,0,0:0:0:0:
448,192,580325,1,0,0:0:0:0:
192,192,580442,1,0,0:0:0:0:
64,192,580442,1,0,0:0:0:0:
320,192,580560,1,0,0:0:0:0:
448,192,580677,1,0,0:0:0:0:
192,192,580677,1,0,0:0:0:0:
64,192,580677,1,0,0:0:0:0:
320,192,580794,1,0,0:0:0:0:
64,192,580912,1,0,0:0:0:0:
192,192,581029,1,0,0:0:0:0:
448,192,581148,1,0,0:0:0:0:
320,192,581148,1,0,0:0:0:0:
192,192,581265,1,0,0:0:0:0:
64,192,581383,1,0,0:0:0:0:
448,192,581383,1,0,0:0:0:0:
320,192,581500,1,0,0:0:0:0:
192,192,581618,1,0,0:0:0:0:
64,192,581618,1,0,0:0:0:0:
448,192,581618,1,0,0:0:0:0:
320,192,581735,1,0,0:0:0:0:
64,192,581854,1,0,0:0:0:0:
448,192,581971,1,0,0:0:0:0:
192,192,582089,1,0,0:0:0:0:
64,192,582206,1,0,0:0:0:0:
320,192,582324,1,0,0:0:0:0:
192,192,582441,1,0,0:0:0:0:
448,192,582559,1,0,0:0:0:0:
64,192,582559,1,0,0:0:0:0:
320,192,582559,1,0,0:0:0:0:
192,192,582676,1,0,0:0:0:0:
320,192,582795,1,0,0:0:0:0:
448,192,582795,1,0,0:0:0:0:
64,192,582912,1,0,0:0:0:0:
192,192,583030,1,0,0:0:0:0:
448,192,583147,1,0,0:0:0:0:
64,192,583265,1,0,0:0:0:0:
320,192,583265,1,0,0:0:0:0:
192,192,583382,1,0,0:0:0:0:
64,192,583501,1,0,0:0:0:0:
320,192,583501,1,0,0:0:0:0:
448,192,583501,1,0,0:0:0:0:
192,192,583618,1,0,0:0:0:0:
448,192,583736,1,0,0:0:0:0:
64,192,583853,1,0,0:0:0:0:
320,192,583971,1,0,0:0:0:0:
192,192,583971,1,0,0:0:0:0:
448,192,584088,1,0,0:0:0:0:
64,192,584207,1,0,0:0:0:0:
192,192,584207,1,0,0:0:0:0:
448,192,584324,1,0,0:0:0:0:
320,192,584442,1,0,0:0:0:0:
192,192,584442,1,0,0:0:0:0:
64,192,584559,1,0,0:0:0:0:
320,192,584677,1,0,0:0:0:0:
448,192,584677,1,0,0:0:0:0:
192,192,584794,1,0,0:0:0:0:
64,192,584912,1,0,0:0:0:0:
448,192,584912,1,0,0:0:0:0:
192,192,585029,1,0,0:0:0:0:
320,192,585148,1,0,0:0:0:0:
448,192,585148,1,0,0:0:0:0:
64,192,585265,1,0,0:0:0:0:
192,192,585383,1,0,0:0:0:0:
320,192,585383,1,0,0:0:0:0:
448,192,585383,1,0,0:0:0:0:
64,192,585500,1,0,0:0:0:0:
320,192,585618,1,0,0:0:0:0:
192,192,585735,1,0,0:0:0:0:
448,192,585854,1,0,0:0:0:0:
320,192,585971,1,0,0:0:0:0:
192,192,586089,1,0,0:0:0:0:
448,192,586206,1,0,0:0:0:0:
64,192,586324,1,0,0:0:0:0:
320,192,586324,1,0,0:0:0:0:
192,192,586324,1,0,0:0:0:0:
448,192,586441,1,0,0:0:0:0:
64,192,586560,1,0,0:0:0:0:
192,192,586560,1,0,0:0:0:0:
320,192,586677,1,0,0:0:0:0:
448,192,586795,1,0,0:0:0:0:
192,192,586912,1,0,0:0:0:0:
64,192,587030,1,0,0:0:0:0:
448,192,587030,1,0,0:0:0:0:
320,192,587147,1,0,0:0:0:0:
192,192,587265,1,0,0:0:0:0:
64,192,587265,1,0,0:0:0:0:
448,192,587265,1,0,0:0:0:0:
320,192,587382,1,0,0:0:0:0:
64,192,587501,1,0,0:0:0:0:
192,192,587501,1,0,0:0:0:0:
448,192,587618,1,0,0:0:0:0:
320,192,587736,1,0,0:0:0:0:
192,192,587853,1,0,0:0:0:0:
448,192,587971,1,0,0:0:0:0:
64,192,587971,1,0,0:0:0:0:
320,192,588088,1,0,0:0:0:0:
192,192,588207,1,0,0:0:0:0:
448,192,588207,1,0,0:0:0:0:
64,192,588207,1,0,0:0:0:0:
320,192,588324,1,0,0:0:0:0:
192,192,588442,1,0,0:0:0:0:
448,192,588559,1,0,0:0:0:0:
64,192,588677,1,0,0:0:0:0:
320,192,588794,1,0,0:0:0:0:
192,192,588913,1,0,0:0:0:0:
448,192,589030,1,0,0:0:0:0:
320,192,589148,1,0,0:0:0:0:
192,192,589148,1,0,0:0:0:0:
64,192,589148,1,0,0:0:0:0:
448,192,589265,1,0,0:0:0:0:
64,192,589383,1,0,0:0:0:0:
192,192,589500,1,0,0:0:0:0:
320,192,589618,1,0,0:0:0:0:
448,192,589618,1,0,0:0:0:0:
192,192,589735,1,0,0:0:0:0:
448,192,589854,1,0,0:0:0:0:
64,192,589854,1,0,0:0:0:0:
320,192,589971,1,0,0:0:0:0:
64,192,590089,1,0,0:0:0:0:
448,192,590089,1,0,0:0:0:0:
192,192,590089,1,0,0:0:0:0:
320,192,590206,1,0,0:0:0:0:
64,192,590324,1,0,0:0:0:0:
192,192,590324,1,0,0:0:0:0:
448,192,590441,1,0,0:0:0:0:
192,192,590560,1,0,0:0:0:0:
320,192,590560,1,0,0:0:0:0:
64,192,590677,1,0,0:0:0:0:
448,192,590795,1,0,0:0:0:0:
320,192,590795,1,0,0:0:0:0:
192,192,590912,1,0,0:0:0:0:
448,192,591030,1,0,0:0:0:0:
64,192,591030,1,0,0:0:0:0:
320,192,591030,1,0,0:0:0:0:
192,192,591147,1,0,0:0:0:0:
448,192,591266,1,0,0:0:0:0:
64,192,591383,1,0,0:0:0:0:
320,192,591501,1,0,0:0:0:0:
192,192,591618,1,0,0:0:0:0:
448,192,591736,1,0,0:0:0:0:
320,192,591853,1,0,0:0:0:0:
192,192,591971,1,0,0:0:0:0:
64,192,591971,128,0,592324:0:0:0:0:
448,192,592088,1,0,0:0:0:0:
320,192,592207,1,0,0:0:0:0:
192,192,592324,1,0,0:0:0:0:
448,192,592442,128,0,592794:0:0:0:0:
64,192,592442,128,0,592794:0:0:0:0:
320,192,592559,1,0,0:0:0:0:
192,192,592677,1,0,0:0:0:0:
320,192,592794,1,0,0:0:0:0:
448,192,592913,1,0,0:0:0:0:
192,192,596676,5,0,0:0:0:0:
448,192,596676,128,0,596736:0:0:0:0:
320,192,596794,1,0,0:0:0:0:
448,192,596911,1,0,0:0:0:0:
64,192,596911,128,0,596971:0:0:0:0:
192,192,597030,1,0,0:0:0:0:
64,192,597147,1,0,0:0:0:0:
320,192,597147,128,0,597207:0:0:0:0:
448,192,597265,1,0,0:0:0:0:
320,192,597382,1,0,0:0:0:0:
192,192,597382,128,0,597442:0:0:0:0:
64,192,597500,1,0,0:0:0:0:
192,192,597617,1,0,0:0:0:0:
448,192,597617,128,0,597677:0:0:0:0:
320,192,597736,1,0,0:0:0:0:
448,192,597853,1,0,0:0:0:0:
64,192,597853,128,0,597912:0:0:0:0:
192,192,597971,1,0,0:0:0:0:
64,192,598088,1,0,0:0:0:0:
448,192,598088,128,0,598148:0:0:0:0:
320,192,598206,1,0,0:0:0:0:
448,192,598323,1,0,0:0:0:0:
192,192,598323,128,0,598383:0:0:0:0:
64,192,598442,1,0,0:0:0:0:
448,192,598559,1,0,0:0:0:0:
320,192,598559,128,0,598618:0:0:0:0:
64,192,598677,1,0,0:0:0:0:
448,192,598794,1,0,0:0:0:0:
192,192,598794,128,0,598854:0:0:0:0:
320,192,598912,1,0,0:0:0:0:
192,192,599029,1,0,0:0:0:0:
64,192,599029,128,0,599089:0:0:0:0:
320,192,599147,1,0,0:0:0:0:
192,192,599264,1,0,0:0:0:0:
448,192,599264,128,0,599324:0:0:0:0:
64,192,599383,1,0,0:0:0:0:
320,192,599500,1,0,0:0:0:0:
192,192,599500,128,0,599560:0:0:0:0:
64,192,599618,1,0,0:0:0:0:
192,192,599735,1,0,0:0:0:0:
448,192,599735,128,0,599795:0:0:0:0:
320,192,599853,1,0,0:0:0:0:
448,192,599970,1,0,0:0:0:0:
64,192,599970,128,0,600030:0:0:0:0:
320,192,600089,1,0,0:0:0:0:
448,192,600206,1,0,0:0:0:0:
192,192,600206,128,0,600265:0:0:0:0:
64,192,600324,1,0,0:0:0:0:
192,192,600441,1,0,0:0:0:0:
320,192,600441,128,0,600501:0:0:0:0:
448,192,600559,1,0,0:0:0:0:
320,192,600676,1,0,0:0:0:0:
64,192,600676,128,0,600736:0:0:0:0:
448,192,600795,1,0,0:0:0:0:
320,192,600912,1,0,0:0:0:0:
192,192,600912,128,0,600971:0:0:0:0:
64,192,601030,1,0,0:0:0:0:
192,192,601147,1,0,0:0:0:0:
448,192,601147,128,0,601207:0:0:0:0:
320,192,601265,1,0,0:0:0:0:
448,192,601382,1,0,0:0:0:0:
64,192,601382,128,0,601442:0:0:0:0:
192,192,601500,1,0,0:0:0:0:
64,192,601617,1,0,0:0:0:0:
320,192,601617,128,0,601677:0:0:0:0:
192,192,601736,1,0,0:0:0:0:
448,192,601853,1,0,0:0:0:0:
64,192,601853,128,0,601913:0:0:0:0:
320,192,601971,1,0,0:0:0:0:
64,192,602088,1,0,0:0:0:0:
448,192,602088,128,0,602148:0:0:0:0:
192,192,602206,1,0,0:0:0:0:
448,192,602323,1,0,0:0:0:0:
320,192,602323,128,0,602383:0:0:0:0:
64,192,602442,1,0,0:0:0:0:
448,192,602559,1,0,0:0:0:0:
192,192,602559,128,0,602618:0:0:0:0:
320,192,602677,1,0,0:0:0:0:
448,192,602794,1,0,0:0:0:0:
64,192,602794,128,0,602854:0:0:0:0:
192,192,602912,1,0,0:0:0:0:
64,192,603029,1,0,0:0:0:0:
320,192,603029,128,0,603089:0:0:0:0:
448,192,603148,1,0,0:0:0:0:
64,192,603265,1,0,0:0:0:0:
192,192,603265,128,0,603324:0:0:0:0:
448,192,603383,1,0,0:0:0:0:
64,192,603500,1,0,0:0:0:0:
320,192,603500,128,0,603560:0:0:0:0:
192,192,603618,1,0,0:0:0:0:
320,192,603735,1,0,0:0:0:0:
448,192,603735,128,0,603795:0:0:0:0:
64,192,603853,1,0,0:0:0:0:
320,192,603970,1,0,0:0:0:0:
192,192,603970,128,0,604030:0:0:0:0:
64,192,604089,1,0,0:0:0:0:
320,192,604206,1,0,0:0:0:0:
448,192,604206,128,0,604266:0:0:0:0:
64,192,604324,1,0,0:0:0:0:
192,192,604441,1,0,0:0:0:0:
320,192,604441,128,0,604501:0:0:0:0:
448,192,604559,1,0,0:0:0:0:
64,192,604676,1,0,0:0:0:0:
192,192,604676,128,0,604736:0:0:0:0:
320,192,604795,1,0,0:0:0:0:
448,192,604912,1,0,0:0:0:0:
64,192,604912,128,0,604971:0:0:0:0:
192,192,605030,1,0,0:0:0:0:
64,192,605147,1,0,0:0:0:0:
320,192,605147,128,0,605207:0:0:0:0:
448,192,605265,1,0,0:0:0:0:
64,192,605382,1,0,0:0:0:0:
192,192,605382,128,0,605442:0:0:0:0:
448,192,605501,1,0,0:0:0:0:
64,192,605618,1,0,0:0:0:0:
320,192,605618,128,0,605677:0:0:0:0:
448,192,605736,1,0,0:0:0:0:
192,192,605853,1,0,0:0:0:0:
64,192,605853,128,0,605913:0:0:0:0:
320,192,605971,1,0,0:0:0:0:
192,192,606088,1,0,0:0:0:0:
448,192,606088,128,0,606147:0:0:0:0:
64,192,606206,1,0,0:0:0:0:
320,192,606323,1,0,0:0:0:0:
192,192,606323,128,0,606382:0:0:0:0:
64,192,606442,1,0,0:0:0:0:
320,192,606559,128,0,606617:0:0:0:0:
448,192,606559,1,0,0:0:0:0:
192,192,606677,1,0,0:0:0:0:
448,192,606794,1,0,0:0:0:0:
64,192,606794,128,0,606853:0:0:0:0:
320,192,606912,1,0,0:0:0:0:
64,192,607029,1,0,0:0:0:0:
192,192,607029,128,0,607088:0:0:0:0:
320,192,607148,1,0,0:0:0:0:
448,192,607265,1,0,0:0:0:0:
64,192,607265,128,0,607323:0:0:0:0:
192,192,607383,1,0,0:0:0:0:
64,192,607500,1,0,0:0:0:0:
320,192,607500,128,0,607558:0:0:0:0:
192,192,607618,1,0,0:0:0:0:
320,192,607735,1,0,0:0:0:0:
448,192,607735,128,0,607794:0:0:0:0:
64,192,607854,1,0,0:0:0:0:
448,192,607971,1,0,0:0:0:0:
192,192,607971,128,0,608029:0:0:0:0:
320,192,608089,1,0,0:0:0:0:
448,192,608206,1,0,0:0:0:0:
64,192,608206,128,0,608264:0:0:0:0:
320,192,608324,1,0,0:0:0:0:
64,192,608441,1,0,0:0:0:0:
192,192,608441,128,0,608500:0:0:0:0:
320,192,608559,1,0,0:0:0:0:
192,192,608676,1,0,0:0:0:0:
448,192,608676,128,0,608735:0:0:0:0:
64,192,608795,1,0,0:0:0:0:
192,192,608912,1,0,0:0:0:0:
320,192,608912,128,0,608970:0:0:0:0:
448,192,609030,1,0,0:0:0:0:
320,192,609147,1,0,0:0:0:0:
64,192,609147,128,0,609206:0:0:0:0:
192,192,609265,1,0,0:0:0:0:
64,192,609382,1,0,0:0:0:0:
448,192,609382,128,0,609441:0:0:0:0:
320,192,609501,1,0,0:0:0:0:
64,192,609618,1,0,0:0:0:0:
192,192,609618,128,0,609676:0:0:0:0:
320,192,609736,1,0,0:0:0:0:
192,192,609853,1,0,0:0:0:0:
448,192,609853,128,0,609911:0:0:0:0:
64,192,609971,1,0,0:0:0:0:
192,192,610088,1,0,0:0:0:0:
320,192,610088,128,0,610147:0:0:0:0:
448,192,610207,1,0,0:0:0:0:
320,192,610324,1,0,0:0:0:0:
64,192,610324,128,0,610382:0:0:0:0:
192,192,610442,1,0,0:0:0:0:
320,192,610559,1,0,0:0:0:0:
448,192,610559,128,0,610617:0:0:0:0:
64,192,610677,1,0,0:0:0:0:
448,192,610794,1,0,0:0:0:0:
192,192,610794,128,0,610853:0:0:0:0:
320,192,610912,1,0,0:0:0:0:
448,192,611029,1,0,0:0:0:0:
64,192,611029,128,0,611088:0:0:0:0:
192,192,611148,1,0,0:0:0:0:
64,192,611265,1,0,0:0:0:0:
320,192,611265,128,0,611323:0:0:0:0:
448,192,611383,1,0,0:0:0:0:
320,192,611500,1,0,0:0:0:0:
192,192,611500,128,0,611559:0:0:0:0:
64,192,611618,1,0,0:0:0:0:
192,192,611735,1,0,0:0:0:0:
448,192,611735,128,0,611794:0:0:0:0:
320,192,611854,1,0,0:0:0:0:
448,192,611971,1,0,0:0:0:0:
64,192,611971,128,0,612029:0:0:0:0:
192,192,612089,1,0,0:0:0:0:
64,192,612206,1,0,0:0:0:0:
320,192,612206,128,0,612264:0:0:0:0:
448,192,612324,1,0,0:0:0:0:
320,192,612441,1,0,0:0:0:0:
192,192,612441,128,0,612500:0:0:0:0:
64,192,612560,1,0,0:0:0:0:
192,192,612677,1,0,0:0:0:0:
448,192,612677,128,0,612735:0:0:0:0:
320,192,612795,1,0,0:0:0:0:
448,192,612912,1,0,0:0:0:0:
64,192,612912,128,0,612970:0:0:0:0:
192,192,613030,1,0,0:0:0:0:
64,192,613147,1,0,0:0:0:0:
448,192,613147,128,0,613206:0:0:0:0:
320,192,613265,1,0,0:0:0:0:
448,192,613382,1,0,0:0:0:0:
192,192,613382,128,0,613441:0:0:0:0:
64,192,613501,1,0,0:0:0:0:
448,192,613618,1,0,0:0:0:0:
320,192,613618,128,0,613676:0:0:0:0:
64,192,613736,1,0,0:0:0:0:
448,192,613853,1,0,0:0:0:0:
192,192,613853,128,0,613912:0:0:0:0:
320,192,613971,1,0,0:0:0:0:
192,192,614088,1,0,0:0:0:0:
64,192,614088,128,0,614147:0:0:0:0:
320,192,614207,1,0,0:0:0:0:
192,192,614324,1,0,0:0:0:0:
448,192,614324,128,0,614382:0:0:0:0:
64,192,614442,1,0,0:0:0:0:
320,192,614559,1,0,0:0:0:0:
192,192,614559,128,0,614617:0:0:0:0:
64,192,614677,1,0,0:0:0:0:
192,192,614794,1,0,0:0:0:0:
448,192,614794,128,0,614853:0:0:0:0:
320,192,614913,1,0,0:0:0:0:
448,192,615030,1,0,0:0:0:0:
64,192,615030,128,0,615088:0:0:0:0:
320,192,615148,1,0,0:0:0:0:
448,192,615265,1,0,0:0:0:0:
192,192,615265,128,0,615323:0:0:0:0:
64,192,615383,1,0,0:0:0:0:
192,192,615500,1,0,0:0:0:0:
320,192,615500,128,0,615559:0:0:0:0:
448,192,615618,1,0,0:0:0:0:
320,192,615735,1,0,0:0:0:0:
64,192,615735,128,0,615794:0:0:0:0:
448,192,615854,1,0,0:0:0:0:
320,192,615971,1,0,0:0:0:0:
192,192,615971,128,0,616029:0:0:0:0:
64,192,616089,1,0,0:0:0:0:
192,192,616206,1,0,0:0:0:0:
448,192,616206,128,0,616265:0:0:0:0:
320,192,616324,1,0,0:0:0:0:
448,192,616441,1,0,0:0:0:0:
64,192,616441,128,0,616500:0:0:0:0:
192,192,616560,1,0,0:0:0:0:
64,192,616677,1,0,0:0:0:0:
320,192,616677,128,0,616735:0:0:0:0:
192,192,616795,1,0,0:0:0:0:
448,192,616912,1,0,0:0:0:0:
64,192,616912,128,0,616970:0:0:0:0:
320,192,617030,1,0,0:0:0:0:
64,192,617147,1,0,0:0:0:0:
448,192,617147,128,0,617206:0:0:0:0:
192,192,617266,1,0,0:0:0:0:
448,192,617383,1,0,0:0:0:0:
320,192,617383,128,0,617441:0:0:0:0:
64,192,617501,1,0,0:0:0:0:
448,192,617618,1,0,0:0:0:0:
192,192,617618,128,0,617676:0:0:0:0:
320,192,617736,1,0,0:0:0:0:
448,192,617853,1,0,0:0:0:0:
64,192,617853,128,0,617912:0:0:0:0:
192,192,617971,1,0,0:0:0:0:
64,192,618088,1,0,0:0:0:0:
320,192,618088,128,0,618147:0:0:0:0:
448,192,618207,1,0,0:0:0:0:
64,192,618324,1,0,0:0:0:0:
192,192,618324,128,0,618382:0:0:0:0:
448,192,618442,1,0,0:0:0:0:
64,192,618559,1,0,0:0:0:0:
320,192,618559,128,0,618618:0:0:0:0:
192,192,618677,1,0,0:0:0:0:
320,192,618794,1,0,0:0:0:0:
448,192,618794,128,0,618853:0:0:0:0:
64,192,618913,1,0,0:0:0:0:
320,192,619030,1,0,0:0:0:0:
192,192,619030,128,0,619088:0:0:0:0:
64,192,619147,1,0,0:0:0:0:
320,192,619265,1,0,0:0:0:0:
448,192,619265,128,0,619323:0:0:0:0:
64,192,619382,1,0,0:0:0:0:
192,192,619500,1,0,0:0:0:0:
320,192,619500,128,0,619559:0:0:0:0:
448,192,619617,1,0,0:0:0:0:
64,192,619736,1,0,0:0:0:0:
192,192,619736,128,0,619794:0:0:0:0:
320,192,619853,1,0,0:0:0:0:
448,192,619971,1,0,0:0:0:0:
64,192,619971,128,0,620029:0:0:0:0:
192,192,620088,1,0,0:0:0:0:
64,192,620206,1,0,0:0:0:0:
320,192,620206,128,0,620265:0:0:0:0:
448,192,620323,1,0,0:0:0:0:
64,192,620441,1,0,0:0:0:0:
192,192,620441,128,0,620500:0:0:0:0:
448,192,620558,1,0,0:0:0:0:
64,192,620677,1,0,0:0:0:0:
320,192,620677,128,0,620735:0:0:0:0:
448,192,620794,1,0,0:0:0:0:
192,192,620912,1,0,0:0:0:0:
64,192,620912,128,0,620971:0:0:0:0:
320,192,621029,1,0,0:0:0:0:
192,192,621147,1,0,0:0:0:0:
448,192,621147,128,0,621206:0:0:0:0:
64,192,621264,1,0,0:0:0:0:
320,192,621383,1,0,0:0:0:0:
192,192,621383,128,0,621441:0:0:0:0:
64,192,621500,1,0,0:0:0:0:
320,192,621618,128,0,621676:0:0:0:0:
448,192,621618,1,0,0:0:0:0:
192,192,621735,1,0,0:0:0:0:
448,192,621853,1,0,0:0:0:0:
64,192,621853,128,0,621912:0:0:0:0:
320,192,621970,1,0,0:0:0:0:
64,192,622089,1,0,0:0:0:0:
192,192,622089,128,0,622147:0:0:0:0:
320,192,622206,1,0,0:0:0:0:
448,192,622324,1,0,0:0:0:0:
64,192,622324,128,0,622382:0:0:0:0:
192,192,622441,1,0,0:0:0:0:
64,192,622559,1,0,0:0:0:0:
320,192,622559,128,0,622618:0:0:0:0:
192,192,622676,1,0,0:0:0:0:
320,192,622794,1,0,0:0:0:0:
448,192,622794,128,0,622853:0:0:0:0:
64,192,622911,1,0,0:0:0:0:
448,192,623030,1,0,0:0:0:0:
192,192,623030,128,0,623088:0:0:0:0:
320,192,623147,1,0,0:0:0:0:
448,192,623265,1,0,0:0:0:0:
64,192,623265,128,0,623324:0:0:0:0:
320,192,623382,1,0,0:0:0:0:
64,192,623500,1,0,0:0:0:0:
192,192,623500,128,0,623559:0:0:0:0:
320,192,623617,1,0,0:0:0:0:
192,192,623736,1,0,0:0:0:0:
448,192,623736,128,0,623794:0:0:0:0:
64,192,623853,1,0,0:0:0:0:
192,192,623971,1,0,0:0:0:0:
320,192,623971,128,0,624029:0:0:0:0:
448,192,624088,1,0,0:0:0:0:
64,192,624206,128,0,624265:0:0:0:0:
192,192,624323,1,0,0:0:0:0:
448,192,624442,128,0,624500:0:0:0:0:
320,192,624559,1,0,0:0:0:0:
192,192,624677,128,0,624735:0:0:0:0:
320,192,624794,1,0,0:0:0:0:
448,192,624912,128,0,625001:0:0:0:0:
64,192,625029,1,0,0:0:0:0:
320,192,625147,128,0,625264:0:0:0:0:
448,192,625264,5,0,0:0:0:0:
64,192,625383,128,0,625530:0:0:0:0:
320,192,625500,1,0,0:0:0:0:
192,192,625618,128,0,625795:0:0:0:0:
448,192,625735,1,0,0:0:0:0:
320,192,625853,128,0,626059:0:0:0:0:
64,192,625970,1,0,0:0:0:0:
448,192,626089,1,0,0:0:0:0:
192,192,626206,128,0,626441:0:0:0:0:
64,192,626324,1,0,0:0:0:0:
320,192,626441,128,0,626706:0:0:0:0:
192,192,626559,1,0,0:0:0:0:
64,192,626676,1,0,0:0:0:0:
320,192,626795,1,0,0:0:0:0:
