osu file format v14

[General]
AudioFilename: shawarma.mp3
AudioLeadIn: 0
PreviewTime: 311243
Countdown: 0
SampleSet: Normal
StackLeniency: 0.7
Mode: 1
LetterboxInBreaks: 0
WidescreenStoryboard: 0

[Editor]
DistanceSpacing: 1.1
BeatDivisor: 4
GridSize: 16
TimelineZoom: 2.74

[Metadata]
Title:The Legend of the Black Shawarma
TitleUnicode:The Legend of the Black Shawarma
Artist:Infected Mushroom
ArtistUnicode:Infected Mushroom
Creator:Invective
Version:Inner Oni
Source:
Tags:marathon psychedelic trance
BeatmapID:731440
BeatmapSetID:329958

[Difficulty]
HPDrainRate:5
CircleSize:2
OverallDifficulty:6
ApproachRate:5
SliderMultiplier:1.4
SliderTickRate:1

[Events]
//Background and Video events
0,0,"IM.jpg",0,0
//Break Periods
//Storyboard Layer 0 (Background)
//Storyboard Layer 1 (Fail)
//Storyboard Layer 2 (Pass)
//Storyboard Layer 3 (Foreground)
//Storyboard Sound Samples

[TimingPoints]
13416,413.793103448276,4,1,0,50,1,0
23036,-100,4,1,0,60,0,0
26657,-100,4,1,0,50,0,0
36278,-100,4,1,0,60,0,0
39898,-100,4,1,0,40,0,0
46519,-100,4,1,0,50,0,0
48174,-100,4,1,0,55,0,0
49829,-100,4,1,0,60,0,0
51484,-100,4,1,0,65,0,0
53140,-100,4,1,0,70,0,0
106105,-100,4,1,0,75,0,0
132588,-100,4,1,0,80,0,0
145829,-100,4,1,0,70,0,0
152140,-97.5609756097561,4,1,0,70,0,0
152450,-95.2380952380952,4,1,0,75,0,0
153898,-93.0232558139535,4,1,0,75,0,0
154105,-90.9090909090909,4,1,0,75,0,0
155553,-88.8888888888889,4,1,0,75,0,0
155760,-86.9565217391304,4,1,0,75,0,0
157209,-85.1063829787234,4,1,0,75,0,0
157415,-83.3333333333333,4,1,0,75,0,0
158243,-81.6326530612245,4,1,0,75,0,0
158553,-80,4,1,0,75,0,0
158864,-78.4313725490196,4,1,0,75,0,0
159071,-76.9230769230769,4,1,0,80,0,0
159278,-76.3358778625954,4,1,0,80,0,0
159484,-75.7575757575758,4,1,0,80,0,0
159588,-75.187969924812,4,1,0,80,0,0
159691,-74.6268656716418,4,1,0,80,0,0
159898,-74.0740740740741,4,1,0,80,0,0
160105,-73.5294117647059,4,1,0,80,0,0
160312,-72.992700729927,4,1,0,80,0,0
160416,-72.463768115942,4,1,0,80,0,0
160519,-71.9424460431655,4,1,0,80,0,0
160726,-71.4285714285714,4,1,0,85,0,0
160933,-70.9219858156028,4,1,0,85,0,0
161140,-70.4225352112676,4,1,0,85,0,0
161243,-69.9300699300699,4,1,0,85,0,0
161347,-69.4444444444444,4,1,0,85,0,0
161553,-68.9655172413793,4,1,0,85,0,0
161760,-68.4931506849315,4,1,0,85,0,0
161967,-68.0272108843537,4,1,0,85,0,0
162071,-67.5675675675676,4,1,0,85,0,0
162174,-67.1140939597315,4,1,0,85,0,0
162381,-66.6666666666667,4,1,0,90,0,0
162588,-66.2251655629139,4,1,0,90,0,0
162691,-65.7894736842105,4,1,0,90,0,0
162795,-65.359477124183,4,1,0,90,0,0
162898,-64.9350649350649,4,1,0,90,0,0
163002,-64.5161290322581,4,1,0,91,0,0
163105,-64.1025641025641,4,1,0,92,0,0
163209,-63.6942675159236,4,1,0,93,0,0
163519,-63.2911392405063,4,1,0,94,0,0
163829,-62.8930817610063,4,1,0,95,0,0
164036,-62.5,4,1,0,90,0,0
164864,-100,4,1,0,80,0,0
165691,-100,4,1,0,70,0,0
192174,-100,4,1,0,50,0,0
205416,-100,4,1,0,60,0,0
218657,-100,4,1,0,65,0,0
231898,-100,4,1,0,60,0,0
258381,-100,4,1,0,50,0,0
271622,-100,4,1,0,60,0,0
284864,-100,4,1,0,70,0,0
290450,-100,4,1,0,70,0,0
290760,-100,4,1,0,75,0,0
291174,-97.5609756097561,4,1,0,75,0,0
291484,-95.2380952380952,4,1,0,80,0,0
292312,-93.0232558139535,4,1,0,80,0,0
293140,-90.9090909090909,4,1,0,80,0,0
293967,-88.8888888888889,4,1,0,80,0,0
294795,-86.9565217391304,4,1,0,80,0,0
295622,-85.1063829787234,4,1,0,80,0,0
296450,-83.3333333333333,4,1,0,80,0,0
297278,-81.6326530612245,4,1,0,80,0,0
298105,-80,4,1,0,80,0,0
304933,-66.6666666666667,4,1,0,80,0,0
309691,-100,4,1,0,80,0,0
311347,-90.9090909090909,4,1,0,90,0,1
336174,-90.9090909090909,4,1,0,90,0,0
336588,-80,4,1,0,90,0,0
337002,-66.6666666666667,4,1,0,90,0,0
337416,-50,4,1,0,90,0,0
337829,-40,4,1,0,90,0,1
338243,-90.9090909090909,4,1,0,90,0,1
363071,-80,4,1,0,90,0,1
363484,-66.6666666666667,4,1,0,90,0,1
363898,-50,4,1,0,90,0,1
364312,-40,4,1,0,80,0,0
364313,-100,4,1,0,80,0,0
404243,-100,4,1,0,60,0,0

[HitObjects]
160,176,13416,5,8,0:0:0:0:
208,176,13622,1,0,0:0:0:0:
320,112,13726,1,8,0:0:0:0:
288,224,14243,1,0,0:0:0:0:
432,80,14347,1,8,0:0:0:0:
448,176,14450,1,0,0:0:0:0:
432,240,14553,1,8,0:0:0:0:
64,320,14657,1,0,0:0:0:0:
240,80,15071,1,8,0:0:0:0:
320,144,15278,1,0,0:0:0:0:
192,144,15381,1,8,0:0:0:0:
144,208,15898,1,0,0:0:0:0:
304,192,16105,1,0,0:0:0:0:
176,144,16209,1,0,0:0:0:0:
240,64,16726,1,8,0:0:0:0:
448,96,16933,1,0,0:0:0:0:
448,208,17036,1,8,0:0:0:0:
240,288,17553,1,0,0:0:0:0:
64,64,17657,1,8,0:0:0:0:
320,144,17760,1,0,0:0:0:0:
336,192,17864,1,8,0:0:0:0:
224,112,17967,1,0,0:0:0:0:
352,288,18381,1,8,0:0:0:0:
192,192,18588,1,0,0:0:0:0:
416,352,18691,1,8,0:0:0:0:
16,352,19209,1,0,0:0:0:0:
368,208,19416,1,0,0:0:0:0:
16,352,19519,1,0,0:0:0:0:
416,112,19726,1,0,0:0:0:0:
208,288,20036,1,8,0:0:0:0:
384,304,20243,1,0,0:0:0:0:
288,224,20347,1,8,0:0:0:0:
320,176,20864,1,0,0:0:0:0:
256,160,20968,1,8,0:0:0:0:
9,68,21071,1,8,0:0:0:0:
416,80,21278,1,0,0:0:0:0:
80,176,21484,1,0,0:0:0:0:
400,304,21588,1,0,0:0:0:0:
416,160,21691,1,8,0:0:0:0:
256,272,21898,1,0,0:0:0:0:
352,304,22002,1,8,0:0:0:0:
144,64,22519,1,0,0:0:0:0:
368,272,22726,1,0,0:0:0:0:
144,64,22829,1,0,0:0:0:0:
272,96,23347,1,8,0:0:0:0:
336,112,23553,1,0,0:0:0:0:
272,176,23657,1,8,0:0:0:0:
192,112,23967,1,0,0:0:0:0:
240,288,24071,1,0,0:0:0:0:
336,192,24174,1,0,0:0:0:0:
336,272,24278,1,8,0:0:0:0:
391,65,24484,1,8,0:0:0:0:
96,80,25002,1,8,0:0:0:0:
272,112,25209,1,0,0:0:0:0:
368,320,25312,1,8,0:0:0:0:
224,256,25622,1,0,0:0:0:0:
96,272,25726,1,0,0:0:0:0:
384,224,25829,1,8,0:0:0:0:
208,304,26036,1,0,0:0:0:0:
256,160,26140,1,8,0:0:0:0:
61,204,26347,1,8,0:0:0:0:
448,304,26553,1,0,0:0:0:0:
480,224,26657,1,8,0:0:0:0:
336,304,26864,1,0,0:0:0:0:
256,48,26967,1,8,0:0:0:0:
112,96,27484,1,0,0:0:0:0:
208,192,27588,1,8,0:0:0:0:
128,304,27691,1,0,0:0:0:0:
416,320,27898,1,8,0:0:0:0:
224,272,28105,1,0,0:0:0:0:
384,224,28209,1,8,0:0:0:0:
432,224,28312,1,8,0:0:0:0:
80,272,28519,1,0,0:0:0:0:
384,48,28622,1,8,0:0:0:0:
48,112,29140,1,0,0:0:0:0:
208,192,29243,1,8,0:0:0:0:
48,112,29347,1,0,0:0:0:0:
48,112,29450,1,0,0:0:0:0:
208,192,29553,1,8,0:0:0:0:
256,256,29760,1,0,0:0:0:0:
336,240,29864,1,8,0:0:0:0:
464,192,29967,1,8,0:0:0:0:
64,208,30174,1,0,0:0:0:0:
208,64,30278,1,8,0:0:0:0:
272,272,30484,1,0,0:0:0:0:
224,288,30588,1,0,0:0:0:0:
272,272,30691,1,0,0:0:0:0:
352,320,30795,1,0,0:0:0:0:
464,320,30899,1,8,0:0:0:0:
416,144,31002,1,8,0:0:0:0:
288,208,31105,1,8,0:0:0:0:
64,112,31416,1,0,0:0:0:0:
192,272,31519,1,0,0:0:0:0:
192,112,31622,1,8,0:0:0:0:
128,288,31829,1,0,0:0:0:0:
176,64,31933,1,8,0:0:0:0:
144,352,32450,1,0,0:0:0:0:
400,96,32657,1,0,0:0:0:0:
272,336,32760,1,0,0:0:0:0:
128,80,32967,1,8,0:0:0:0:
139,190,33071,1,0,0:0:0:0:
112,144,33174,1,0,0:0:0:0:
249,212,33278,1,8,0:0:0:0:
272,128,33484,1,0,0:0:0:0:
400,304,33588,1,8,0:0:0:0:
240,288,34105,1,0,0:0:0:0:
240,192,34209,1,0,0:0:0:0:
128,192,34416,1,0,0:0:0:0:
240,192,34519,1,0,0:0:0:0:
208,192,34726,1,0,0:0:0:0:
128,192,34829,1,0,0:0:0:0:
464,288,34933,1,8,0:0:0:0:
320,320,35140,1,0,0:0:0:0:
160,16,35243,1,8,0:0:0:0:
464,304,35760,1,0,0:0:0:0:
464,64,35967,1,0,0:0:0:0:
464,304,36071,1,0,0:0:0:0:
320,240,36278,1,0,0:0:0:0:
176,128,36381,1,0,0:0:0:0:
352,160,36484,1,0,0:0:0:0:
432,256,36588,1,8,0:0:0:0:
432,336,36795,1,0,0:0:0:0:
176,48,36898,1,8,0:0:0:0:
208,288,37105,1,0,0:0:0:0:
83,281,37209,1,0,0:0:0:0:
272,208,37312,1,0,0:0:0:0:
464,304,37416,1,0,0:0:0:0:
336,160,37622,1,0,0:0:0:0:
320,80,37726,1,8,0:0:0:0:
464,304,37933,1,0,0:0:0:0:
64,64,38036,1,0,0:0:0:0:
272,208,38140,1,0,0:0:0:0:
438,185,38243,1,8,0:0:0:0:
440,332,38450,1,0,0:0:0:0:
222,125,38553,1,8,0:0:0:0:
384,288,38760,1,0,0:0:0:0:
33,310,38864,1,0,0:0:0:0:
20,310,38967,1,0,0:0:0:0:
318,32,39071,1,8,0:0:0:0:
336,256,39278,1,0,0:0:0:0:
128,112,39381,1,8,0:0:0:0:
208,160,39484,1,0,0:0:0:0:
377,78,39588,1,8,0:0:0:0:
200,224,39691,1,0,0:0:0:0:
16,288,39898,1,0,0:0:0:0:
411,330,40002,1,0,0:0:0:0:
64,144,40209,1,0,0:0:0:0:
64,208,40312,1,0,0:0:0:0:
166,114,40519,1,0,0:0:0:0:
156,121,40622,1,0,0:0:0:0:
371,220,40829,1,0,0:0:0:0:
64,208,40933,1,0,0:0:0:0:
229,227,41140,1,0,0:0:0:0:
327,160,41243,1,0,0:0:0:0:
415,172,41347,1,0,0:0:0:0:
448,208,41553,1,8,0:0:0:0:
160,80,41657,1,0,0:0:0:0:
272,256,41760,1,0,0:0:0:0:
384,208,41864,1,0,0:0:0:0:
448,208,41967,1,8,0:0:0:0:
25,223,42174,1,0,0:0:0:0:
215,209,42278,1,0,0:0:0:0:
272,256,42381,1,0,0:0:0:0:
128,80,42484,1,0,0:0:0:0:
96,272,42588,1,8,0:0:0:0:
338,232,42795,1,0,0:0:0:0:
48,80,42898,1,0,0:0:0:0:
381,204,43002,1,0,0:0:0:0:
416,224,43209,1,8,0:0:0:0:
264,142,43312,1,0,0:0:0:0:
240,320,43416,1,0,0:0:0:0:
240,320,43519,1,0,0:0:0:0:
416,240,43622,1,8,0:0:0:0:
166,218,43829,1,0,0:0:0:0:
96,128,43933,1,0,0:0:0:0:
208,208,44036,1,0,0:0:0:0:
232,125,44140,1,0,0:0:0:0:
315,131,44243,1,8,0:0:0:0:
225,115,44450,1,0,0:0:0:0:
80,80,44553,1,0,0:0:0:0:
269,311,44657,1,0,0:0:0:0:
204,85,44864,1,8,0:0:0:0:
315,116,44967,1,0,0:0:0:0:
288,240,45071,1,0,0:0:0:0:
80,144,45174,1,0,0:0:0:0:
450,292,45278,1,8,0:0:0:0:
253,253,45484,1,0,0:0:0:0:
309,233,45588,1,0,0:0:0:0:
336,256,45691,1,0,0:0:0:0:
128,304,45795,1,0,0:0:0:0:
320,151,45898,1,8,0:0:0:0:
239,145,46105,1,0,0:0:0:0:
482,172,46209,1,0,0:0:0:0:
283,63,46312,1,8,0:0:0:0:
249,56,46416,1,8,0:0:0:0:
297,114,46519,1,0,0:0:0:0:
288,256,46933,1,8,0:0:0:0:
368,208,47553,1,8,0:0:0:0:
336,336,47967,1,0,0:0:0:0:
80,112,48381,1,0,0:0:0:0:
272,192,48588,1,8,0:0:0:0:
128,192,49002,1,0,0:0:0:0:
240,240,49209,1,8,0:0:0:0:
144,256,49622,1,0,0:0:0:0:
160,48,50036,1,0,0:0:0:0:
160,240,50243,1,8,0:0:0:0:
368,208,50450,1,0,0:0:0:0:
288,224,50657,1,0,0:0:0:0:
144,240,50864,1,8,0:0:0:0:
128,112,51278,1,0,0:0:0:0:
464,256,51691,1,0,0:0:0:0:
368,224,51898,1,8,0:0:0:0:
496,240,52105,1,0,0:0:0:0:
273,343,52312,1,0,0:0:0:0:
180,159,52519,1,8,0:0:0:0:
97,301,52726,1,0,0:0:0:0:
188,308,52933,1,0,0:0:0:0:
216,50,53140,1,12,0:0:0:0:
269,192,53347,1,0,0:0:0:0:
385,230,53450,1,0,0:0:0:0:
390,99,53553,1,8,0:0:0:0:
157,208,53760,1,8,0:0:0:0:
244,116,53967,1,0,0:0:0:0:
329,292,54174,1,8,0:0:0:0:
314,139,54381,1,0,0:0:0:0:
225,300,54484,1,0,0:0:0:0:
202,74,54795,1,8,0:0:0:0:
64,145,55002,1,0,0:0:0:0:
143,141,55105,1,0,0:0:0:0:
432,192,55209,1,8,0:0:0:0:
382,130,55416,1,8,0:0:0:0:
382,61,55519,1,0,0:0:0:0:
431,50,55622,1,0,0:0:0:0:
262,41,55829,1,8,0:0:0:0:
258,248,56036,1,0,0:0:0:0:
335,74,56140,1,0,0:0:0:0:
395,283,56450,1,8,0:0:0:0:
186,188,56657,1,0,0:0:0:0:
281,168,56864,1,8,0:0:0:0:
118,116,56967,1,0,0:0:0:0:
364,168,57071,1,8,0:0:0:0:
278,69,57174,1,8,0:0:0:0:
64,96,57278,1,0,0:0:0:0:
333,188,57484,1,8,0:0:0:0:
433,217,57691,1,0,0:0:0:0:
503,131,57795,1,0,0:0:0:0:
302,283,58105,1,8,0:0:0:0:
124,186,58312,1,0,0:0:0:0:
187,240,58416,1,0,0:0:0:0:
152,105,58519,1,8,0:0:0:0:
208,144,58622,1,0,0:0:0:0:
309,93,58726,1,8,0:0:0:0:
208,144,58829,1,0,0:0:0:0:
64,112,58933,1,0,0:0:0:0:
398,78,59140,1,8,0:0:0:0:
331,198,59347,1,0,0:0:0:0:
460,172,59450,1,0,0:0:0:0:
400,294,59760,1,8,0:0:0:0:
92,223,59967,1,0,0:0:0:0:
225,244,60071,1,0,0:0:0:0:
203,130,60174,1,8,0:0:0:0:
176,110,60381,1,8,0:0:0:0:
333,145,60588,1,0,0:0:0:0:
195,79,60691,1,0,0:0:0:0:
306,263,60795,1,8,0:0:0:0:
387,165,61002,1,0,0:0:0:0:
473,211,61105,1,0,0:0:0:0:
191,167,61416,1,8,0:0:0:0:
353,270,61622,1,0,0:0:0:0:
233,236,61726,1,0,0:0:0:0:
447,89,61829,1,8,0:0:0:0:
80,80,61933,1,0,0:0:0:0:
322,85,62036,1,8,0:0:0:0:
261,94,62140,1,8,0:0:0:0:
296,136,62243,1,0,0:0:0:0:
324,211,62450,1,8,0:0:0:0:
371,196,62657,1,0,0:0:0:0:
415,256,62760,1,0,0:0:0:0:
261,94,62967,1,0,0:0:0:0:
142,238,63071,1,8,0:0:0:0:
220,266,63278,1,0,0:0:0:0:
324,184,63381,1,0,0:0:0:0:
331,322,63484,1,8,0:0:0:0:
48,64,63588,1,0,0:0:0:0:
411,80,63691,1,8,0:0:0:0:
380,166,63898,1,0,0:0:0:0:
128,99,64105,1,8,0:0:0:0:
210,88,64312,1,0,0:0:0:0:
331,114,64416,1,0,0:0:0:0:
369,130,64519,1,0,0:0:0:0:
80,240,64622,1,0,0:0:0:0:
433,250,64726,1,8,0:0:0:0:
199,236,64933,1,0,0:0:0:0:
244,262,65036,1,0,0:0:0:0:
349,208,65140,1,8,0:0:0:0:
64,80,65243,1,0,0:0:0:0:
140,167,65347,1,8,0:0:0:0:
256,192,65553,8,0,65967,0:0:0:0:
365,102,66381,5,12,0:0:0:0:
408,199,66588,1,0,0:0:0:0:
251,169,66691,1,8,0:0:0:0:
384,320,66795,1,8,0:0:0:0:
144,226,67002,1,0,0:0:0:0:
198,252,67105,1,0,0:0:0:0:
355,308,67209,1,8,0:0:0:0:
371,56,67312,1,8,0:0:0:0:
417,225,67416,1,8,0:0:0:0:
456,233,67519,1,8,0:0:0:0:
223,126,67622,1,0,0:0:0:0:
282,157,67726,1,0,0:0:0:0:
144,272,67933,1,0,0:0:0:0:
331,114,68036,1,8,0:0:0:0:
268,303,68243,1,0,0:0:0:0:
304,294,68347,1,0,0:0:0:0:
313,179,68450,1,8,0:0:0:0:
112,64,68553,1,0,0:0:0:0:
355,292,68657,1,8,0:0:0:0:
380,226,68760,1,0,0:0:0:0:
128,288,68864,1,0,0:0:0:0:
162,184,69071,1,8,0:0:0:0:
440,130,69278,1,0,0:0:0:0:
294,58,69381,1,0,0:0:0:0:
245,104,69691,1,8,0:0:0:0:
286,162,69898,1,0,0:0:0:0:
509,196,70002,1,8,0:0:0:0:
339,215,70105,1,8,0:0:0:0:
238,243,70312,1,0,0:0:0:0:
303,265,70416,1,0,0:0:0:0:
48,192,70519,1,0,0:0:0:0:
317,61,70622,1,8,0:0:0:0:
48,192,70726,1,0,0:0:0:0:
411,101,70829,1,8,0:0:0:0:
382,188,70933,1,0,0:0:0:0:
192,175,71036,1,0,0:0:0:0:
160,304,71243,1,0,0:0:0:0:
136,112,71347,1,8,0:0:0:0:
271,132,71553,1,0,0:0:0:0:
112,32,71657,1,8,0:0:0:0:
470,196,71760,1,0,0:0:0:0:
271,319,71967,1,0,0:0:0:0:
195,236,72071,1,0,0:0:0:0:
310,231,72174,1,8,0:0:0:0:
465,295,72381,1,0,0:0:0:0:
155,88,72484,1,8,0:0:0:0:
96,112,72588,1,0,0:0:0:0:
188,168,72691,1,0,0:0:0:0:
295,174,72898,1,0,0:0:0:0:
262,56,73002,1,8,0:0:0:0:
377,135,73209,1,0,0:0:0:0:
372,265,73312,1,8,0:0:0:0:
465,126,73416,1,8,0:0:0:0:
102,247,73622,1,0,0:0:0:0:
213,271,73726,1,0,0:0:0:0:
284,227,73829,1,0,0:0:0:0:
229,125,73933,1,8,0:0:0:0:
155,99,74036,1,8,0:0:0:0:
252,83,74140,1,8,0:0:0:0:
323,141,74243,1,0,0:0:0:0:
357,160,74347,1,0,0:0:0:0:
473,211,74450,1,8,0:0:0:0:
451,286,74553,1,0,0:0:0:0:
342,56,74657,1,8,0:0:0:0:
298,290,74864,1,0,0:0:0:0:
336,240,74967,1,8,0:0:0:0:
463,99,75071,1,8,0:0:0:0:
100,193,75278,1,0,0:0:0:0:
144,64,75381,1,8,0:0:0:0:
200,188,75484,1,0,0:0:0:0:
185,154,75691,1,8,0:0:0:0:
325,148,75898,1,0,0:0:0:0:
96,160,76002,1,0,0:0:0:0:
80,240,76209,1,0,0:0:0:0:
434,218,76312,1,8,0:0:0:0:
216,261,76519,1,0,0:0:0:0:
336,240,76622,1,8,0:0:0:0:
455,290,76726,1,8,0:0:0:0:
142,32,76933,1,0,0:0:0:0:
262,196,77036,1,0,0:0:0:0:
335,83,77140,1,0,0:0:0:0:
307,42,77243,1,8,0:0:0:0:
438,159,77347,1,0,0:0:0:0:
407,111,77450,1,8,0:0:0:0:
440,36,77553,1,0,0:0:0:0:
347,141,77657,1,0,0:0:0:0:
350,206,77760,1,0,0:0:0:0:
178,253,77864,1,0,0:0:0:0:
158,152,77967,1,8,0:0:0:0:
258,288,78174,1,0,0:0:0:0:
413,228,78278,1,8,0:0:0:0:
96,64,78381,1,8,0:0:0:0:
178,150,78588,1,0,0:0:0:0:
235,183,78691,1,0,0:0:0:0:
209,31,78795,1,8,0:0:0:0:
377,90,79002,1,0,0:0:0:0:
297,61,79105,1,8,0:0:0:0:
315,134,79312,1,8,0:0:0:0:
267,154,79416,1,0,0:0:0:0:
496,246,79622,1,12,0:0:0:0:
79,193,79829,1,0,0:0:0:0:
151,222,79933,1,0,0:0:0:0:
333,214,80036,1,8,0:0:0:0:
121,55,80243,1,8,0:0:0:0:
250,297,80347,1,0,0:0:0:0:
156,78,80553,1,8,0:0:0:0:
96,176,80657,1,0,0:0:0:0:
356,114,80864,1,8,0:0:0:0:
250,297,80967,1,0,0:0:0:0:
216,207,81174,1,8,0:0:0:0:
250,297,81278,1,0,0:0:0:0:
216,207,81484,1,8,0:0:0:0:
96,256,81588,1,0,0:0:0:0:
432,32,81691,1,0,0:0:0:0:
127,33,81795,1,8,0:0:0:0:
250,297,81898,1,0,0:0:0:0:
261,141,82105,1,8,0:0:0:0:
64,176,82312,1,0,0:0:0:0:
343,232,82416,1,8,0:0:0:0:
440,290,82519,1,0,0:0:0:0:
343,232,82726,1,8,0:0:0:0:
386,249,82933,1,8,0:0:0:0:
289,76,83140,1,0,0:0:0:0:
289,76,83243,1,0,0:0:0:0:
420,157,83347,1,8,0:0:0:0:
381,134,83553,1,0,0:0:0:0:
174,210,83657,1,0,0:0:0:0:
174,210,83864,1,0,0:0:0:0:
233,127,83967,1,8,0:0:0:0:
174,210,84174,1,0,0:0:0:0:
307,208,84278,1,0,0:0:0:0:
174,210,84484,1,0,0:0:0:0:
310,256,84588,1,0,0:0:0:0:
174,210,84795,1,0,0:0:0:0:
166,70,85002,1,8,0:0:0:0:
174,210,85105,1,0,0:0:0:0:
193,270,85209,1,8,0:0:0:0:
255,300,85312,1,0,0:0:0:0:
174,210,85416,1,0,0:0:0:0:
174,210,85726,1,0,0:0:0:0:
320,192,86243,1,8,0:0:0:0:
417,190,86450,1,0,0:0:0:0:
234,61,86657,1,0,0:0:0:0:
417,190,86760,1,8,0:0:0:0:
353,273,86864,1,0,0:0:0:0:
233,159,86967,1,0,0:0:0:0:
417,190,87071,1,8,0:0:0:0:
229,76,87278,1,0,0:0:0:0:
417,190,87381,1,8,0:0:0:0:
64,112,87484,1,0,0:0:0:0:
112,128,87588,1,0,0:0:0:0:
415,195,87691,1,8,0:0:0:0:
189,250,87898,1,0,0:0:0:0:
415,195,88002,1,8,0:0:0:0:
64,256,88209,1,0,0:0:0:0:
411,96,88312,1,8,0:0:0:0:
439,121,88416,1,0,0:0:0:0:
415,195,88519,1,0,0:0:0:0:
270,241,88622,1,8,0:0:0:0:
80,144,88726,1,0,0:0:0:0:
471,248,88933,1,8,0:0:0:0:
415,195,89140,1,0,0:0:0:0:
185,143,89243,1,8,0:0:0:0:
306,74,89450,1,8,0:0:0:0:
371,49,89553,1,0,0:0:0:0:
338,114,89760,1,0,0:0:0:0:
387,271,89967,1,8,0:0:0:0:
173,241,90071,1,0,0:0:0:0:
204,301,90278,1,0,0:0:0:0:
282,153,90381,1,0,0:0:0:0:
449,116,90588,1,8,0:0:0:0:
282,153,90691,1,0,0:0:0:0:
467,243,90795,1,0,0:0:0:0:
484,250,90898,1,0,0:0:0:0:
282,153,91002,1,0,0:0:0:0:
288,215,91209,1,0,0:0:0:0:
360,81,91312,1,8,0:0:0:0:
73,221,91416,1,0,0:0:0:0:
91,261,91519,1,0,0:0:0:0:
408,176,91622,1,8,0:0:0:0:
187,129,91726,1,0,0:0:0:0:
181,182,91829,1,8,0:0:0:0:
193,261,91933,1,0,0:0:0:0:
204,269,92036,1,0,0:0:0:0:
318,272,92450,1,8,0:0:0:0:
388,41,92864,1,4,0:0:0:0:
280,162,93071,1,0,0:0:0:0:
72,160,93174,1,0,0:0:0:0:
171,96,93278,1,8,0:0:0:0:
371,196,93484,1,0,0:0:0:0:
335,90,93588,1,8,0:0:0:0:
311,81,93691,1,0,0:0:0:0:
367,192,93898,1,8,0:0:0:0:
256,260,94105,1,0,0:0:0:0:
311,254,94312,1,0,0:0:0:0:
147,132,94519,1,0,0:0:0:0:
244,219,94726,1,0,0:0:0:0:
357,204,94829,1,0,0:0:0:0:
435,129,94933,1,8,0:0:0:0:
179,99,95140,1,8,0:0:0:0:
207,104,95243,1,8,0:0:0:0:
259,42,95347,1,0,0:0:0:0:
430,296,95553,1,8,0:0:0:0:
315,186,95760,1,0,0:0:0:0:
341,183,95967,1,0,0:0:0:0:
341,183,96174,1,0,0:0:0:0:
445,192,96381,1,0,0:0:0:0:
240,224,96484,1,0,0:0:0:0:
325,296,96588,1,8,0:0:0:0:
214,54,96795,1,8,0:0:0:0:
306,48,96898,1,0,0:0:0:0:
336,81,97002,1,0,0:0:0:0:
95,180,97209,1,8,0:0:0:0:
82,184,97416,1,0,0:0:0:0:
82,184,97622,1,0,0:0:0:0:
180,216,97829,1,0,0:0:0:0:
289,231,98036,1,0,0:0:0:0:
441,190,98243,1,8,0:0:0:0:
276,76,98450,1,0,0:0:0:0:
176,288,98864,1,0,0:0:0:0:
388,41,99484,1,4,0:0:0:0:
280,162,99691,1,0,0:0:0:0:
72,160,99794,1,0,0:0:0:0:
171,96,99898,1,8,0:0:0:0:
371,196,100104,1,0,0:0:0:0:
335,90,100208,1,8,0:0:0:0:
311,81,100311,1,0,0:0:0:0:
367,192,100518,1,8,0:0:0:0:
256,260,100725,1,0,0:0:0:0:
311,254,100932,1,0,0:0:0:0:
147,132,101139,1,0,0:0:0:0:
244,219,101346,1,0,0:0:0:0:
357,204,101449,1,0,0:0:0:0:
435,129,101553,1,8,0:0:0:0:
179,99,101760,1,8,0:0:0:0:
207,104,101863,1,8,0:0:0:0:
259,42,101967,1,0,0:0:0:0:
430,296,102173,1,8,0:0:0:0:
315,186,102380,1,0,0:0:0:0:
341,183,102587,1,0,0:0:0:0:
341,183,102794,1,0,0:0:0:0:
445,192,103001,1,0,0:0:0:0:
325,296,103208,1,8,0:0:0:0:
208,288,103312,1,0,0:0:0:0:
214,54,103415,1,8,0:0:0:0:
306,48,103518,1,0,0:0:0:0:
336,81,103622,1,0,0:0:0:0:
95,180,103829,1,8,0:0:0:0:
82,184,104036,1,0,0:0:0:0:
96,80,104140,1,0,0:0:0:0:
82,184,104242,1,0,0:0:0:0:
180,216,104449,1,0,0:0:0:0:
289,231,104656,1,0,0:0:0:0:
441,190,104863,1,8,0:0:0:0:
276,76,105070,1,8,0:0:0:0:
302,147,106105,1,4,0:0:0:0:
315,224,106312,1,0,0:0:0:0:
317,264,106381,1,0,0:0:0:0:
176,64,106450,1,0,0:0:0:0:
192,128,106519,1,8,0:0:0:0:
90,223,106726,1,8,0:0:0:0:
160,227,106795,1,0,0:0:0:0:
32,112,106864,1,0,0:0:0:0:
188,234,106933,1,0,0:0:0:0:
291,76,107140,1,8,0:0:0:0:
448,176,107347,1,0,0:0:0:0:
302,147,107760,1,0,0:0:0:0:
315,224,107967,1,0,0:0:0:0:
322,278,108036,1,0,0:0:0:0:
144,64,108105,1,0,0:0:0:0:
240,80,108174,1,8,0:0:0:0:
90,223,108381,1,8,0:0:0:0:
160,227,108450,1,0,0:0:0:0:
64,96,108519,1,0,0:0:0:0:
188,234,108588,1,0,0:0:0:0:
291,76,108795,1,8,0:0:0:0:
398,210,109002,1,0,0:0:0:0:
178,139,109209,1,8,0:0:0:0:
302,147,109416,1,0,0:0:0:0:
315,224,109622,1,0,0:0:0:0:
322,278,109691,1,0,0:0:0:0:
160,96,109760,1,0,0:0:0:0:
512,160,109829,1,8,0:0:0:0:
90,223,110036,1,8,0:0:0:0:
122,225,110105,1,0,0:0:0:0:
64,48,110174,1,0,0:0:0:0:
188,234,110243,1,0,0:0:0:0:
291,76,110450,1,8,0:0:0:0:
96,288,110657,1,0,0:0:0:0:
302,147,111071,1,0,0:0:0:0:
315,224,111278,1,0,0:0:0:0:
317,264,111347,1,0,0:0:0:0:
144,64,111416,1,0,0:0:0:0:
320,160,111484,1,8,0:0:0:0:
90,223,111691,1,8,0:0:0:0:
432,208,111760,1,0,0:0:0:0:
160,227,111829,1,0,0:0:0:0:
224,48,111898,1,0,0:0:0:0:
291,76,112105,1,8,0:0:0:0:
161,123,112312,1,12,0:0:0:0:
373,159,112519,1,0,0:0:0:0:
302,147,112726,1,4,0:0:0:0:
315,224,112933,1,0,0:0:0:0:
322,278,113002,1,0,0:0:0:0:
160,96,113071,1,0,0:0:0:0:
431,191,113140,1,8,0:0:0:0:
90,223,113347,1,8,0:0:0:0:
160,227,113416,1,0,0:0:0:0:
192,64,113484,1,0,0:0:0:0:
188,234,113553,1,0,0:0:0:0:
291,76,113760,1,8,0:0:0:0:
240,320,113967,1,0,0:0:0:0:
302,147,114381,1,0,0:0:0:0:
315,224,114588,1,0,0:0:0:0:
322,278,114657,1,0,0:0:0:0:
176,48,114726,1,0,0:0:0:0:
431,191,114795,1,8,0:0:0:0:
90,223,115002,1,8,0:0:0:0:
122,225,115071,1,0,0:0:0:0:
192,112,115140,1,0,0:0:0:0:
188,234,115209,1,0,0:0:0:0:
291,76,115416,1,8,0:0:0:0:
89,139,115622,1,0,0:0:0:0:
436,98,115829,1,8,0:0:0:0:
302,147,116036,1,0,0:0:0:0:
315,224,116243,1,0,0:0:0:0:
322,278,116312,1,0,0:0:0:0:
192,32,116381,1,0,0:0:0:0:
431,191,116450,1,8,0:0:0:0:
90,223,116657,1,8,0:0:0:0:
122,225,116726,1,0,0:0:0:0:
80,64,116795,1,0,0:0:0:0:
188,234,116864,1,0,0:0:0:0:
291,76,117071,1,8,0:0:0:0:
384,256,117278,1,0,0:0:0:0:
302,147,117691,1,0,0:0:0:0:
315,224,117898,1,0,0:0:0:0:
322,278,117967,1,0,0:0:0:0:
144,96,118036,1,0,0:0:0:0:
431,191,118105,1,8,0:0:0:0:
112,192,118312,1,8,0:0:0:0:
128,224,118381,1,8,0:0:0:0:
128,256,118450,1,8,0:0:0:0:
112,288,118519,1,0,0:0:0:0:
208,128,118726,1,0,0:0:0:0:
356,142,118933,1,8,0:0:0:0:
420,73,119140,1,0,0:0:0:0:
376,219,119347,1,4,0:0:0:0:
262,252,119553,1,0,0:0:0:0:
284,284,119622,1,0,0:0:0:0:
322,298,119691,1,0,0:0:0:0:
378,250,119760,1,8,0:0:0:0:
189,155,119967,1,8,0:0:0:0:
194,88,120036,1,0,0:0:0:0:
214,98,120105,1,0,0:0:0:0:
276,50,120174,1,8,0:0:0:0:
50,99,120381,1,8,0:0:0:0:
325,164,120588,1,0,0:0:0:0:
372,105,121002,1,0,0:0:0:0:
260,266,121209,1,0,0:0:0:0:
260,266,121278,1,0,0:0:0:0:
211,292,121347,1,0,0:0:0:0:
210,234,121416,1,8,0:0:0:0:
153,161,121622,1,0,0:0:0:0:
147,159,121691,1,0,0:0:0:0:
141,169,121760,1,0,0:0:0:0:
87,199,121829,1,8,0:0:0:0:
335,238,122036,1,8,0:0:0:0:
333,271,122243,1,0,0:0:0:0:
333,271,122450,1,8,0:0:0:0:
376,219,122657,1,0,0:0:0:0:
262,252,122864,1,0,0:0:0:0:
284,284,122933,1,0,0:0:0:0:
322,298,123002,1,0,0:0:0:0:
378,250,123071,1,8,0:0:0:0:
189,155,123278,1,8,0:0:0:0:
194,88,123347,1,0,0:0:0:0:
214,98,123416,1,0,0:0:0:0:
276,50,123484,1,8,0:0:0:0:
50,99,123691,1,8,0:0:0:0:
91,205,123898,1,0,0:0:0:0:
376,219,124312,1,0,0:0:0:0:
262,252,124519,1,0,0:0:0:0:
284,284,124588,1,0,0:0:0:0:
322,298,124657,1,0,0:0:0:0:
378,250,124726,1,8,0:0:0:0:
409,114,124933,1,0,0:0:0:0:
194,88,125002,1,0,0:0:0:0:
64,208,125071,1,0,0:0:0:0:
276,50,125140,1,8,0:0:0:0:
50,99,125347,1,8,0:0:0:0:
264,169,125553,1,8,0:0:0:0:
144,288,125657,1,0,0:0:0:0:
442,180,125760,1,0,0:0:0:0:
376,219,125967,1,4,0:0:0:0:
262,252,126174,1,0,0:0:0:0:
284,284,126243,1,0,0:0:0:0:
322,298,126312,1,0,0:0:0:0:
378,250,126381,1,8,0:0:0:0:
189,155,126588,1,8,0:0:0:0:
194,88,126657,1,0,0:0:0:0:
214,98,126726,1,0,0:0:0:0:
276,50,126795,1,8,0:0:0:0:
50,99,127002,1,8,0:0:0:0:
423,159,127209,1,0,0:0:0:0:
376,219,127622,1,0,0:0:0:0:
262,252,127829,1,0,0:0:0:0:
284,284,127898,1,0,0:0:0:0:
322,298,127967,1,0,0:0:0:0:
378,250,128036,1,8,0:0:0:0:
131,223,128243,1,0,0:0:0:0:
194,88,128312,1,0,0:0:0:0:
214,98,128381,1,0,0:0:0:0:
276,50,128450,1,8,0:0:0:0:
50,99,128657,1,8,0:0:0:0:
301,228,128864,1,0,0:0:0:0:
442,178,129071,1,8,0:0:0:0:
376,219,129278,1,0,0:0:0:0:
262,252,129484,1,0,0:0:0:0:
284,284,129553,1,0,0:0:0:0:
322,298,129622,1,0,0:0:0:0:
378,250,129691,1,8,0:0:0:0:
189,155,129898,1,8,0:0:0:0:
194,88,129967,1,0,0:0:0:0:
214,98,130036,1,0,0:0:0:0:
276,50,130105,1,8,0:0:0:0:
50,99,130312,1,8,0:0:0:0:
122,288,130519,1,0,0:0:0:0:
376,219,130933,1,0,0:0:0:0:
262,252,131140,1,0,0:0:0:0:
284,284,131209,1,0,0:0:0:0:
322,298,131278,1,0,0:0:0:0:
378,250,131347,1,8,0:0:0:0:
343,150,131553,1,0,0:0:0:0:
194,88,131622,1,0,0:0:0:0:
214,98,131691,1,0,0:0:0:0:
276,50,131760,1,8,0:0:0:0:
50,99,131967,1,8,0:0:0:0:
40,234,132174,1,8,0:0:0:0:
288,320,132278,1,0,0:0:0:0:
169,263,132381,1,8,0:0:0:0:
451,278,132588,1,4,0:0:0:0:
284,219,132795,1,8,0:0:0:0:
353,70,132864,1,0,0:0:0:0:
404,90,132933,1,0,0:0:0:0:
459,177,133002,1,8,0:0:0:0:
123,145,133209,1,8,0:0:0:0:
254,156,133278,1,8,0:0:0:0:
323,157,133347,1,0,0:0:0:0:
344,268,133416,1,0,0:0:0:0:
344,349,133622,1,8,0:0:0:0:
121,254,133829,1,0,0:0:0:0:
160,208,133933,1,0,0:0:0:0:
222,300,134036,1,0,0:0:0:0:
293,84,134243,1,0,0:0:0:0:
107,97,134450,1,8,0:0:0:0:
228,81,134519,1,0,0:0:0:0:
389,140,134588,1,0,0:0:0:0:
478,163,134657,1,8,0:0:0:0:
418,259,134864,1,8,0:0:0:0:
335,202,134933,1,8,0:0:0:0:
210,175,135002,1,0,0:0:0:0:
380,203,135071,1,8,0:0:0:0:
444,60,135278,1,0,0:0:0:0:
402,87,135484,1,8,0:0:0:0:
306,51,135691,1,8,0:0:0:0:
261,274,135898,1,0,0:0:0:0:
161,106,136105,1,8,0:0:0:0:
316,116,136174,1,0,0:0:0:0:
389,145,136243,1,0,0:0:0:0:
453,162,136312,1,8,0:0:0:0:
347,224,136519,1,8,0:0:0:0:
349,311,136588,1,8,0:0:0:0:
134,196,136657,1,0,0:0:0:0:
168,216,136726,1,0,0:0:0:0:
234,185,136933,1,0,0:0:0:0:
301,218,137140,1,0,0:0:0:0:
212,91,137553,1,0,0:0:0:0:
325,94,137760,1,8,0:0:0:0:
360,145,137829,1,0,0:0:0:0:
422,78,137898,1,0,0:0:0:0:
451,220,137967,1,8,0:0:0:0:
208,272,138174,1,8,0:0:0:0:
352,304,138243,1,8,0:0:0:0:
272,224,138312,1,8,0:0:0:0:
256,208,138381,1,0,0:0:0:0:
480,208,138588,1,8,0:0:0:0:
42,132,138795,1,0,0:0:0:0:
368,320,138898,1,0,0:0:0:0:
59,214,139002,1,0,0:0:0:0:
140,59,139209,1,4,0:0:0:0:
300,83,139416,1,8,0:0:0:0:
413,41,139484,1,0,0:0:0:0:
382,81,139553,1,0,0:0:0:0:
432,181,139622,1,8,0:0:0:0:
102,230,139829,1,8,0:0:0:0:
192,247,139898,1,8,0:0:0:0:
280,208,139967,1,0,0:0:0:0:
330,329,140036,1,0,0:0:0:0:
228,133,140243,1,8,0:0:0:0:
16,80,140450,1,0,0:0:0:0:
80,128,140657,1,0,0:0:0:0:
32,96,140760,1,0,0:0:0:0:
253,63,140864,1,0,0:0:0:0:
358,88,141071,1,8,0:0:0:0:
369,157,141140,1,0,0:0:0:0:
452,263,141209,1,0,0:0:0:0:
413,184,141278,1,8,0:0:0:0:
255,295,141484,1,8,0:0:0:0:
328,289,141553,1,8,0:0:0:0:
109,234,141622,1,0,0:0:0:0:
129,209,141691,1,8,0:0:0:0:
198,155,141898,1,0,0:0:0:0:
193,179,142105,1,8,0:0:0:0:
260,212,142312,1,8,0:0:0:0:
232,95,142519,1,0,0:0:0:0:
298,94,142726,1,8,0:0:0:0:
291,175,142795,1,0,0:0:0:0:
378,198,142864,1,0,0:0:0:0:
431,245,142933,1,8,0:0:0:0:
204,283,143140,1,8,0:0:0:0:
281,309,143209,1,8,0:0:0:0:
383,312,143278,1,0,0:0:0:0:
429,317,143347,1,0,0:0:0:0:
138,164,143553,1,8,0:0:0:0:
111,58,143760,1,0,0:0:0:0:
178,74,144174,1,0,0:0:0:0:
302,121,144381,1,8,0:0:0:0:
354,169,144484,1,8,0:0:0:0:
342,248,144588,1,0,0:0:0:0:
218,281,144795,1,0,0:0:0:0:
192,16,144898,1,0,0:0:0:0:
176,80,145002,1,8,0:0:0:0:
437,250,145209,1,8,0:0:0:0:
453,321,145416,1,0,0:0:0:0:
272,240,145519,1,0,0:0:0:0:
356,315,145622,1,0,0:0:0:0:
279,128,145829,1,4,0:0:0:0:
144,256,146243,1,0,0:0:0:0:
336,224,146450,1,8,0:0:0:0:
368,256,146657,1,0,0:0:0:0:
256,272,146864,1,0,0:0:0:0:
192,80,146933,1,0,0:0:0:0:
272,112,147002,1,0,0:0:0:0:
160,240,147071,1,0,0:0:0:0:
128,160,147278,1,0,0:0:0:0:
208,192,147484,1,8,0:0:0:0:
256,48,147691,1,0,0:0:0:0:
320,96,147760,1,0,0:0:0:0:
96,64,147829,1,0,0:0:0:0:
480,256,147898,1,0,0:0:0:0:
320,208,148105,1,8,0:0:0:0:
336,288,148312,1,0,0:0:0:0:
176,304,148519,1,0,0:0:0:0:
128,128,148726,1,0,0:0:0:0:
496,176,148933,1,0,0:0:0:0:
128,0,149140,1,8,0:0:0:0:
240,160,149347,1,0,0:0:0:0:
352,208,149416,1,0,0:0:0:0:
0,176,149484,1,0,0:0:0:0:
352,208,149553,1,0,0:0:0:0:
208,80,149760,1,8,0:0:0:0:
176,224,149967,1,0,0:0:0:0:
224,256,150174,1,0,0:0:0:0:
320,288,150243,1,0,0:0:0:0:
96,160,150312,1,0,0:0:0:0:
416,112,150381,1,0,0:0:0:0:
320,128,150588,1,0,0:0:0:0:
480,256,150795,1,8,0:0:0:0:
240,176,151002,1,0,0:0:0:0:
272,208,151071,1,0,0:0:0:0:
80,64,151140,1,0,0:0:0:0:
320,208,151209,1,0,0:0:0:0:
272,272,151416,1,8,0:0:0:0:
144,240,151622,1,0,0:0:0:0:
80,80,151933,1,0,0:0:0:0:
224,304,152140,1,0,0:0:0:0:
320,320,152243,1,0,0:0:0:0:
102,223,152450,1,4,0:0:0:0:
389,234,152657,1,0,0:0:0:0:
238,63,152726,1,0,0:0:0:0:
144,64,152795,1,0,0:0:0:0:
295,152,152864,1,0,0:0:0:0:
442,101,153071,1,8,0:0:0:0:
225,256,153278,1,0,0:0:0:0:
302,284,153484,1,0,0:0:0:0:
476,165,153553,1,0,0:0:0:0:
96,112,153622,1,0,0:0:0:0:
211,273,153691,1,0,0:0:0:0:
378,319,153898,1,0,0:0:0:0:
167,294,154105,1,8,0:0:0:0:
439,202,154312,1,0,0:0:0:0:
456,277,154381,1,0,0:0:0:0:
128,112,154450,1,0,0:0:0:0:
135,303,154519,1,0,0:0:0:0:
333,135,154726,1,8,0:0:0:0:
126,305,154933,1,0,0:0:0:0:
115,117,155140,1,0,0:0:0:0:
125,305,155347,1,0,0:0:0:0:
252,203,155553,1,0,0:0:0:0:
273,267,155760,1,8,0:0:0:0:
379,228,155967,1,0,0:0:0:0:
374,310,156036,1,0,0:0:0:0:
128,128,156105,1,0,0:0:0:0:
126,305,156174,1,0,0:0:0:0:
271,116,156381,1,8,0:0:0:0:
349,102,156588,1,0,0:0:0:0:
431,172,156795,1,0,0:0:0:0:
168,96,156864,1,0,0:0:0:0:
48,144,156933,1,0,0:0:0:0:
125,305,157002,1,0,0:0:0:0:
227,237,157209,1,0,0:0:0:0:
384,64,157416,1,8,0:0:0:0:
294,183,157622,1,0,0:0:0:0:
355,241,157691,1,0,0:0:0:0:
64,160,157760,1,0,0:0:0:0:
365,250,157829,1,0,0:0:0:0:
296,48,158036,1,8,0:0:0:0:
324,127,158243,1,0,0:0:0:0:
171,205,158553,1,4,0:0:0:0:
198,254,158864,1,0,0:0:0:0:
31,134,159071,1,4,0:0:0:0:
444,190,159278,1,8,0:0:0:0:
398,281,159484,1,0,0:0:0:0:
80,288,159588,1,0,0:0:0:0:
256,285,159691,1,8,0:0:0:0:
315,174,159898,1,0,0:0:0:0:
295,299,160105,1,8,0:0:0:0:
80,288,160312,1,0,0:0:0:0:
80,288,160416,1,0,0:0:0:0:
295,299,160519,1,8,0:0:0:0:
315,174,160726,1,4,0:0:0:0:
295,299,160933,1,8,0:0:0:0:
80,288,161140,1,0,0:0:0:0:
80,288,161243,1,0,0:0:0:0:
295,299,161347,1,8,0:0:0:0:
315,174,161553,1,0,0:0:0:0:
295,299,161760,1,8,0:0:0:0:
315,174,161967,1,0,0:0:0:0:
80,288,162071,1,0,0:0:0:0:
295,299,162174,1,8,0:0:0:0:
178,44,162381,1,4,0:0:0:0:
334,93,162588,1,8,0:0:0:0:
157,200,162691,1,0,0:0:0:0:
212,226,162795,1,0,0:0:0:0:
347,220,162898,1,0,0:0:0:0:
397,245,163002,1,8,0:0:0:0:
438,323,163105,1,0,0:0:0:0:
275,303,163209,1,0,0:0:0:0:
420,96,163519,1,8,0:0:0:0:
257,149,163829,1,8,0:0:0:0:
162,66,164036,1,0,0:0:0:0:
256,208,165071,2,0,L|208:160,4,35
208,80,165691,5,4,0:0:0:0:
208,208,166105,1,8,0:0:0:0:
345,248,166312,1,0,0:0:0:0:
184,291,166416,1,0,0:0:0:0:
455,248,166519,1,0,0:0:0:0:
304,113,166726,1,8,0:0:0:0:
272,136,166933,1,0,0:0:0:0:
453,116,167036,1,8,0:0:0:0:
343,197,167140,1,0,0:0:0:0:
450,167,167347,1,0,0:0:0:0:
169,180,167553,1,0,0:0:0:0:
173,243,167657,1,0,0:0:0:0:
80,192,167760,1,8,0:0:0:0:
344,264,167967,1,0,0:0:0:0:
477,261,168071,1,8,0:0:0:0:
381,172,168174,1,0,0:0:0:0:
418,94,168381,1,8,0:0:0:0:
185,73,168588,1,8,0:0:0:0:
307,161,168795,1,8,0:0:0:0:
9,145,169002,1,8,0:0:0:0:
235,157,169209,1,8,0:0:0:0:
162,221,169416,1,0,0:0:0:0:
254,258,169622,1,0,0:0:0:0:
368,212,169726,1,8,0:0:0:0:
270,281,169829,1,0,0:0:0:0:
414,252,170036,1,8,0:0:0:0:
455,210,170243,1,0,0:0:0:0:
391,78,170347,1,8,0:0:0:0:
240,43,170450,1,0,0:0:0:0:
157,105,170657,1,0,0:0:0:0:
181,107,170864,1,0,0:0:0:0:
302,234,171071,1,8,0:0:0:0:
198,316,171278,1,0,0:0:0:0:
374,321,171381,1,8,0:0:0:0:
455,312,171484,1,0,0:0:0:0:
333,56,171691,1,8,0:0:0:0:
360,159,171898,1,8,0:0:0:0:
382,196,172105,1,8,0:0:0:0:
216,125,172312,1,12,0:0:0:0:
306,230,172519,1,8,0:0:0:0:
213,228,172726,1,0,0:0:0:0:
303,303,172933,1,0,0:0:0:0:
222,294,173036,1,8,0:0:0:0:
430,262,173140,1,0,0:0:0:0:
340,50,173347,1,8,0:0:0:0:
378,118,173553,1,8,0:0:0:0:
467,144,173657,1,8,0:0:0:0:
475,243,173760,1,0,0:0:0:0:
234,183,173967,1,0,0:0:0:0:
272,214,174071,1,0,0:0:0:0:
295,221,174174,1,0,0:0:0:0:
239,83,174381,1,8,0:0:0:0:
204,232,174588,1,0,0:0:0:0:
333,297,174691,1,8,0:0:0:0:
389,316,174795,1,8,0:0:0:0:
289,70,175002,1,8,0:0:0:0:
388,165,175209,1,8,0:0:0:0:
383,127,175416,1,8,0:0:0:0:
115,163,175622,1,8,0:0:0:0:
199,168,175829,1,8,0:0:0:0:
320,196,176036,1,0,0:0:0:0:
169,286,176243,1,0,0:0:0:0:
267,250,176347,1,8,0:0:0:0:
367,323,176450,1,0,0:0:0:0:
315,85,176657,1,8,0:0:0:0:
128,192,176864,1,8,0:0:0:0:
413,236,176967,1,8,0:0:0:0:
449,313,177071,1,0,0:0:0:0:
47,131,177278,1,0,0:0:0:0:
92,192,177381,1,0,0:0:0:0:
104,214,177484,1,0,0:0:0:0:
100,242,177588,1,0,0:0:0:0:
235,123,177691,1,8,0:0:0:0:
262,205,177898,1,0,0:0:0:0:
389,74,178002,1,8,0:0:0:0:
348,196,178105,1,0,0:0:0:0:
210,235,178312,1,8,0:0:0:0:
351,285,178519,1,8,0:0:0:0:
436,271,178726,1,8,0:0:0:0:
244,269,178933,1,12,0:0:0:0:
202,76,179140,1,8,0:0:0:0:
140,128,179347,1,0,0:0:0:0:
294,154,179553,1,0,0:0:0:0:
391,205,179657,1,8,0:0:0:0:
393,149,179760,1,0,0:0:0:0:
211,240,179967,1,8,0:0:0:0:
238,261,180174,1,0,0:0:0:0:
365,303,180278,1,8,0:0:0:0:
298,218,180381,1,0,0:0:0:0:
277,317,180484,1,0,0:0:0:0:
186,313,180588,1,0,0:0:0:0:
138,56,180795,1,8,0:0:0:0:
411,253,181002,1,8,0:0:0:0:
77,201,181105,1,0,0:0:0:0:
422,92,181209,1,0,0:0:0:0:
458,193,181312,1,8,0:0:0:0:
211,159,181416,1,8,0:0:0:0:
322,151,181622,1,8,0:0:0:0:
131,234,181829,1,8,0:0:0:0:
174,237,182036,1,8,0:0:0:0:
295,63,182243,1,8,0:0:0:0:
369,259,182450,1,8,0:0:0:0:
364,159,182657,1,0,0:0:0:0:
237,205,182864,1,0,0:0:0:0:
242,228,182967,1,8,0:0:0:0:
283,316,183071,1,8,0:0:0:0:
48,112,183174,1,0,0:0:0:0:
173,172,183278,1,8,0:0:0:0:
302,182,183484,1,0,0:0:0:0:
435,261,183588,1,8,0:0:0:0:
315,69,183691,1,0,0:0:0:0:
403,100,183795,1,8,0:0:0:0:
448,166,183898,1,0,0:0:0:0:
340,243,184105,1,0,0:0:0:0:
339,275,184209,1,0,0:0:0:0:
320,144,184312,1,8,0:0:0:0:
89,221,184519,1,0,0:0:0:0:
162,294,184622,1,8,0:0:0:0:
210,207,184726,1,0,0:0:0:0:
195,119,184933,1,8,0:0:0:0:
349,183,185140,1,8,0:0:0:0:
391,303,185347,1,8,0:0:0:0:
275,78,185553,1,12,0:0:0:0:
383,79,185760,1,8,0:0:0:0:
217,216,185967,1,0,0:0:0:0:
200,268,186174,1,0,0:0:0:0:
298,243,186278,1,8,0:0:0:0:
295,148,186381,1,0,0:0:0:0:
239,172,186484,1,0,0:0:0:0:
480,80,186588,1,8,0:0:0:0:
398,190,186795,1,8,0:0:0:0:
223,63,186898,1,8,0:0:0:0:
464,230,187002,1,0,0:0:0:0:
355,316,187209,1,0,0:0:0:0:
439,288,187312,1,0,0:0:0:0:
455,317,187416,1,8,0:0:0:0:
458,160,187519,1,8,0:0:0:0:
364,55,187622,1,0,0:0:0:0:
310,128,187829,1,0,0:0:0:0:
169,187,187933,1,8,0:0:0:0:
134,79,188036,1,8,0:0:0:0:
138,257,188243,1,8,0:0:0:0:
202,282,188450,1,8,0:0:0:0:
244,288,188657,1,8,0:0:0:0:
276,46,188864,1,8,0:0:0:0:
409,172,189071,1,8,0:0:0:0:
467,227,189278,1,0,0:0:0:0:
243,193,189484,1,0,0:0:0:0:
354,220,189588,1,8,0:0:0:0:
449,286,189691,1,0,0:0:0:0:
249,255,189795,1,0,0:0:0:0:
400,112,189898,1,8,0:0:0:0:
255,88,190105,1,0,0:0:0:0:
115,121,190209,1,8,0:0:0:0:
204,153,190312,1,0,0:0:0:0:
90,248,190519,1,0,0:0:0:0:
102,277,190622,1,0,0:0:0:0:
132,281,190726,1,0,0:0:0:0:
235,307,190933,1,8,0:0:0:0:
379,39,191140,1,0,0:0:0:0:
304,96,191243,1,8,0:0:0:0:
422,117,191347,1,8,0:0:0:0:
367,229,191553,1,8,0:0:0:0:
431,313,191760,1,8,0:0:0:0:
256,208,191864,1,8,0:0:0:0:
131,133,191967,1,8,0:0:0:0:
402,174,192174,1,12,0:0:0:0:
304,208,193002,1,8,0:0:0:0:
240,112,193622,1,8,0:0:0:0:
192,240,194864,2,8,L|544:96,1,350
192,80,196726,1,0,0:0:0:0:
64,144,197036,1,8,0:0:0:0:
192,160,197140,1,0,0:0:0:0:
288,48,197450,1,8,0:0:0:0:
112,160,198174,2,0,L|480:192,1,350
144,160,200036,1,0,0:0:0:0:
400,160,200347,1,8,0:0:0:0:
416,192,200450,1,0,0:0:0:0:
464,304,200760,1,8,0:0:0:0:
288,208,201691,1,8,0:0:0:0:
384,128,202002,1,8,0:0:0:0:
416,208,202105,1,0,0:0:0:0:
448,96,202416,1,8,0:0:0:0:
224,240,203347,1,8,0:0:0:0:
320,192,203657,1,8,0:0:0:0:
400,176,203760,1,0,0:0:0:0:
336,112,203967,1,8,0:0:0:0:
96,192,204071,1,0,0:0:0:0:
144,112,204278,1,8,0:0:0:0:
80,224,204381,1,0,0:0:0:0:
240,64,204588,1,8,0:0:0:0:
64,240,204691,1,0,0:0:0:0:
460,51,204898,1,8,0:0:0:0:
224,208,205002,1,8,0:0:0:0:
192,132,205416,1,4,0:0:0:0:
349,188,205622,1,0,0:0:0:0:
184,269,206036,1,0,0:0:0:0:
349,188,206243,1,0,0:0:0:0:
416,64,206657,1,0,0:0:0:0:
350,201,207071,1,0,0:0:0:0:
255,121,207278,1,0,0:0:0:0:
228,104,207691,1,0,0:0:0:0:
204,128,207898,1,0,0:0:0:0:
112,32,208312,1,0,0:0:0:0:
208,320,208519,1,0,0:0:0:0:
288,177,208726,1,8,0:0:0:0:
367,186,208933,1,8,0:0:0:0:
329,78,209347,1,8,0:0:0:0:
455,72,209553,1,8,0:0:0:0:
224,80,209967,1,8,0:0:0:0:
256,176,210381,1,8,0:0:0:0:
304,256,210588,1,8,0:0:0:0:
448,144,211002,1,8,0:0:0:0:
384,160,211209,1,8,0:0:0:0:
144,96,211622,1,8,0:0:0:0:
416,80,211829,1,8,0:0:0:0:
256,64,212036,1,0,0:0:0:0:
224,176,212243,1,0,0:0:0:0:
320,224,212657,1,0,0:0:0:0:
320,208,212864,1,0,0:0:0:0:
416,96,213278,1,0,0:0:0:0:
208,32,213691,1,0,0:0:0:0:
160,144,213898,1,0,0:0:0:0:
176,192,214312,1,0,0:0:0:0:
160,192,214519,1,0,0:0:0:0:
336,240,214933,1,0,0:0:0:0:
416,64,215140,1,8,0:0:0:0:
432,160,215347,1,0,0:0:0:0:
176,16,215553,1,0,0:0:0:0:
160,176,215967,1,0,0:0:0:0:
256,160,216174,1,0,0:0:0:0:
112,64,216588,1,0,0:0:0:0:
400,240,217002,1,0,0:0:0:0:
80,208,217209,1,0,0:0:0:0:
160,224,217622,1,0,0:0:0:0:
208,256,217829,1,0,0:0:0:0:
208,96,218243,1,0,0:0:0:0:
296,239,218657,1,4,0:0:0:0:
301,73,218864,1,8,0:0:0:0:
275,159,219278,1,8,0:0:0:0:
423,248,219484,1,0,0:0:0:0:
386,11,219898,1,8,0:0:0:0:
185,42,220312,1,0,0:0:0:0:
175,178,220519,1,8,0:0:0:0:
201,210,220933,1,8,0:0:0:0:
304,241,221140,1,0,0:0:0:0:
452,241,221553,1,8,0:0:0:0:
181,107,221967,1,0,0:0:0:0:
283,163,222174,1,8,0:0:0:0:
281,252,222588,1,8,0:0:0:0:
424,92,222795,1,0,0:0:0:0:
328,93,223209,1,8,0:0:0:0:
424,263,223622,1,0,0:0:0:0:
312,161,223829,1,8,0:0:0:0:
110,208,224243,1,8,0:0:0:0:
213,241,224450,1,8,0:0:0:0:
261,66,224864,1,8,0:0:0:0:
428,197,225278,1,0,0:0:0:0:
343,198,225484,1,8,0:0:0:0:
208,163,225898,1,8,0:0:0:0:
316,304,226105,1,0,0:0:0:0:
401,300,226519,1,8,0:0:0:0:
322,84,226933,1,0,0:0:0:0:
315,134,227140,1,8,0:0:0:0:
298,201,227553,1,8,0:0:0:0:
81,123,227760,1,0,0:0:0:0:
90,212,228174,1,8,0:0:0:0:
193,37,228381,1,8,0:0:0:0:
349,39,228484,1,8,0:0:0:0:
418,130,228588,1,0,0:0:0:0:
372,230,228795,1,8,0:0:0:0:
189,253,229209,1,8,0:0:0:0:
129,145,229416,1,0,0:0:0:0:
223,96,229829,1,8,0:0:0:0:
183,156,230243,1,0,0:0:0:0:
340,161,230450,1,8,0:0:0:0:
361,227,230864,1,8,0:0:0:0:
247,294,231071,1,0,0:0:0:0:
334,79,231484,1,8,0:0:0:0:
220,113,231898,1,12,0:0:0:0:
235,150,232312,1,0,0:0:0:0:
442,101,232726,1,8,0:0:0:0:
278,81,232933,1,8,0:0:0:0:
404,321,233140,1,0,0:0:0:0:
239,287,233347,1,8,0:0:0:0:
480,224,233553,1,0,0:0:0:0:
400,112,233967,1,0,0:0:0:0:
113,212,234174,1,0,0:0:0:0:
368,272,234381,1,8,0:0:0:0:
280,163,234588,1,8,0:0:0:0:
448,128,234795,1,0,0:0:0:0:
167,127,235002,1,8,0:0:0:0:
173,127,235209,1,0,0:0:0:0:
416,112,235622,1,0,0:0:0:0:
402,190,235829,1,0,0:0:0:0:
278,181,236036,1,8,0:0:0:0:
183,60,236450,1,0,0:0:0:0:
369,76,236657,1,8,0:0:0:0:
208,176,236864,1,0,0:0:0:0:
328,239,237071,1,8,0:0:0:0:
347,142,237278,1,8,0:0:0:0:
157,299,237691,1,8,0:0:0:0:
349,308,237898,1,0,0:0:0:0:
407,280,238105,1,8,0:0:0:0:
64,112,238312,1,0,0:0:0:0:
413,168,238519,1,8,0:0:0:0:
202,219,238933,1,0,0:0:0:0:
201,54,239140,1,8,0:0:0:0:
283,154,239347,1,8,0:0:0:0:
295,64,239553,1,0,0:0:0:0:
334,94,239760,1,0,0:0:0:0:
349,136,239967,1,0,0:0:0:0:
283,282,240174,1,8,0:0:0:0:
240,80,240588,1,0,0:0:0:0:
105,163,240795,1,0,0:0:0:0:
401,199,241002,1,8,0:0:0:0:
401,116,241209,1,0,0:0:0:0:
242,213,241416,1,8,0:0:0:0:
193,50,241622,1,8,0:0:0:0:
245,233,241829,1,0,0:0:0:0:
48,176,242036,1,0,0:0:0:0:
173,93,242450,1,8,0:0:0:0:
184,292,242657,1,8,0:0:0:0:
184,292,242864,1,0,0:0:0:0:
240,226,243071,1,8,0:0:0:0:
284,220,243278,1,0,0:0:0:0:
192,96,243484,1,0,0:0:0:0:
383,304,243898,1,0,0:0:0:0:
361,197,244105,1,8,0:0:0:0:
398,82,244312,1,8,0:0:0:0:
75,142,244519,1,0,0:0:0:0:
115,215,244726,1,8,0:0:0:0:
144,320,245140,1,0,0:0:0:0:
128,176,245347,1,8,0:0:0:0:
112,96,245760,1,0,0:0:0:0:
442,101,245967,1,8,0:0:0:0:
278,81,246174,1,8,0:0:0:0:
404,321,246381,1,0,0:0:0:0:
239,287,246588,1,8,0:0:0:0:
480,224,246794,1,0,0:0:0:0:
400,112,247209,1,0,0:0:0:0:
113,212,247415,1,0,0:0:0:0:
368,272,247622,1,8,0:0:0:0:
280,163,247829,1,8,0:0:0:0:
448,128,248036,1,0,0:0:0:0:
167,127,248243,1,8,0:0:0:0:
173,127,248450,1,0,0:0:0:0:
416,112,248863,1,0,0:0:0:0:
402,190,249070,1,0,0:0:0:0:
278,181,249277,1,8,0:0:0:0:
183,60,249691,1,0,0:0:0:0:
369,76,249898,1,8,0:0:0:0:
208,176,250105,1,0,0:0:0:0:
328,239,250312,1,8,0:0:0:0:
347,142,250519,1,8,0:0:0:0:
157,299,250932,1,8,0:0:0:0:
349,308,251139,1,0,0:0:0:0:
407,280,251346,1,8,0:0:0:0:
64,112,251553,1,0,0:0:0:0:
413,168,251760,1,8,0:0:0:0:
202,219,252174,1,0,0:0:0:0:
201,54,252381,1,8,0:0:0:0:
283,154,252588,1,8,0:0:0:0:
295,64,252794,1,0,0:0:0:0:
334,94,253001,1,0,0:0:0:0:
349,136,253208,1,0,0:0:0:0:
283,282,253415,1,8,0:0:0:0:
240,80,253829,1,0,0:0:0:0:
105,163,254036,1,0,0:0:0:0:
401,199,254243,1,8,0:0:0:0:
401,116,254450,1,0,0:0:0:0:
242,213,254657,1,8,0:0:0:0:
193,50,254863,1,8,0:0:0:0:
245,233,255070,1,0,0:0:0:0:
48,176,255277,1,0,0:0:0:0:
171,145,256105,1,0,0:0:0:0:
80,224,256519,1,0,0:0:0:0:
156,229,256726,1,0,0:0:0:0:
383,304,257140,1,0,0:0:0:0:
319,208,257553,1,0,0:0:0:0:
415,111,257967,1,8,0:0:0:0:
80,160,258381,1,8,0:0:0:0:
384,128,258691,1,0,0:0:0:0:
448,176,258795,1,8,0:0:0:0:
240,240,259002,1,0,0:0:0:0:
224,304,259105,1,0,0:0:0:0:
304,256,259312,1,0,0:0:0:0:
240,176,259416,1,8,0:0:0:0:
32,144,259622,1,8,0:0:0:0:
384,224,259726,1,0,0:0:0:0:
384,272,259829,1,0,0:0:0:0:
80,160,260036,1,8,0:0:0:0:
384,128,260346,1,0,0:0:0:0:
448,176,260450,1,8,0:0:0:0:
336,112,260657,1,0,0:0:0:0:
224,304,260760,1,0,0:0:0:0:
304,256,260967,1,0,0:0:0:0:
240,176,261071,1,8,0:0:0:0:
32,144,261277,1,8,0:0:0:0:
384,224,261381,1,8,0:0:0:0:
368,304,261484,1,0,0:0:0:0:
80,160,261691,1,8,0:0:0:0:
384,128,262001,1,0,0:0:0:0:
448,176,262105,1,8,0:0:0:0:
336,112,262312,1,0,0:0:0:0:
224,304,262416,1,0,0:0:0:0:
304,256,262622,1,0,0:0:0:0:
240,176,262726,1,8,0:0:0:0:
32,144,262932,1,8,0:0:0:0:
384,224,263036,1,0,0:0:0:0:
384,112,263140,1,8,0:0:0:0:
368,288,263347,1,0,0:0:0:0:
496,192,263657,1,0,0:0:0:0:
416,304,263760,1,8,0:0:0:0:
400,256,263967,1,0,0:0:0:0:
320,288,264071,1,0,0:0:0:0:
112,128,264278,1,0,0:0:0:0:
208,80,264381,1,8,0:0:0:0:
400,112,264588,1,8,0:0:0:0:
432,128,264691,1,8,0:0:0:0:
512,240,264795,1,0,0:0:0:0:
80,160,265002,1,8,0:0:0:0:
384,128,265312,1,0,0:0:0:0:
448,176,265416,1,8,0:0:0:0:
240,240,265623,1,0,0:0:0:0:
256,288,265726,1,0,0:0:0:0:
304,256,265933,1,0,0:0:0:0:
240,176,266037,1,8,0:0:0:0:
32,144,266243,1,8,0:0:0:0:
384,224,266347,1,0,0:0:0:0:
176,48,266450,1,0,0:0:0:0:
80,160,266657,1,8,0:0:0:0:
384,128,266967,1,0,0:0:0:0:
448,176,267071,1,8,0:0:0:0:
240,240,267278,1,0,0:0:0:0:
256,288,267381,1,0,0:0:0:0:
304,256,267588,1,0,0:0:0:0:
240,176,267692,1,8,0:0:0:0:
32,144,267898,1,8,0:0:0:0:
384,224,268002,1,8,0:0:0:0:
96,320,268105,1,0,0:0:0:0:
80,160,268312,1,8,0:0:0:0:
384,128,268622,1,0,0:0:0:0:
448,176,268726,1,8,0:0:0:0:
240,240,268933,1,0,0:0:0:0:
256,288,269036,1,0,0:0:0:0:
304,256,269243,1,0,0:0:0:0:
240,176,269347,1,8,0:0:0:0:
32,144,269553,1,8,0:0:0:0:
384,224,269657,1,0,0:0:0:0:
384,112,269761,1,8,0:0:0:0:
368,288,269968,1,0,0:0:0:0:
496,192,270278,1,0,0:0:0:0:
400,272,270381,1,8,0:0:0:0:
480,336,270588,1,0,0:0:0:0:
480,336,270691,1,0,0:0:0:0:
112,128,270899,1,0,0:0:0:0:
208,80,271002,1,8,0:0:0:0:
400,112,271209,1,8,0:0:0:0:
432,128,271312,1,8,0:0:0:0:
512,240,271416,1,0,0:0:0:0:
80,160,271622,1,8,0:0:0:0:
384,128,271932,1,0,0:0:0:0:
448,176,272036,1,8,0:0:0:0:
240,240,272243,1,0,0:0:0:0:
336,112,272346,1,0,0:0:0:0:
304,256,272553,1,0,0:0:0:0:
240,176,272657,1,8,0:0:0:0:
32,144,272863,1,8,0:0:0:0:
384,224,272967,1,0,0:0:0:0:
128,48,273071,1,0,0:0:0:0:
400,288,273174,1,8,0:0:0:0:
80,160,273277,1,8,0:0:0:0:
384,128,273587,1,0,0:0:0:0:
448,176,273691,1,8,0:0:0:0:
240,240,273898,1,0,0:0:0:0:
336,112,274001,1,0,0:0:0:0:
304,256,274208,1,0,0:0:0:0:
240,176,274312,1,8,0:0:0:0:
32,144,274518,1,8,0:0:0:0:
384,224,274622,1,8,0:0:0:0:
32,288,274726,1,0,0:0:0:0:
64,304,274829,1,0,0:0:0:0:
80,160,274932,1,8,0:0:0:0:
384,128,275242,1,0,0:0:0:0:
448,176,275346,1,8,0:0:0:0:
240,240,275553,1,0,0:0:0:0:
336,112,275656,1,0,0:0:0:0:
304,256,275863,1,0,0:0:0:0:
240,176,275967,1,8,0:0:0:0:
32,144,276173,1,8,0:0:0:0:
384,224,276277,1,0,0:0:0:0:
384,112,276381,1,8,0:0:0:0:
432,112,276484,1,8,0:0:0:0:
368,288,276588,1,0,0:0:0:0:
496,192,276898,1,0,0:0:0:0:
208,288,277001,1,0,0:0:0:0:
368,64,277208,1,8,0:0:0:0:
352,240,277312,1,0,0:0:0:0:
112,128,277519,1,0,0:0:0:0:
208,80,277622,1,8,0:0:0:0:
400,112,277829,1,8,0:0:0:0:
512,240,277932,1,0,0:0:0:0:
432,128,278036,1,8,0:0:0:0:
384,240,278139,1,0,0:0:0:0:
80,160,278243,1,8,0:0:0:0:
384,128,278553,1,0,0:0:0:0:
448,176,278657,1,8,0:0:0:0:
240,240,278864,1,0,0:0:0:0:
336,112,278967,1,0,0:0:0:0:
304,256,279174,1,0,0:0:0:0:
240,176,279278,1,8,0:0:0:0:
32,144,279484,1,8,0:0:0:0:
384,224,279588,1,0,0:0:0:0:
128,48,279692,1,0,0:0:0:0:
400,288,279795,1,8,0:0:0:0:
80,160,279898,1,8,0:0:0:0:
384,128,280208,1,0,0:0:0:0:
448,176,280312,1,8,0:0:0:0:
240,240,280519,1,0,0:0:0:0:
336,112,280622,1,0,0:0:0:0:
304,256,280829,1,0,0:0:0:0:
240,176,280933,1,8,0:0:0:0:
32,144,281139,1,8,0:0:0:0:
384,224,281243,1,8,0:0:0:0:
32,288,281347,1,0,0:0:0:0:
64,304,281450,1,0,0:0:0:0:
80,160,281553,1,8,0:0:0:0:
384,128,281863,1,0,0:0:0:0:
448,176,281967,1,8,0:0:0:0:
240,240,282174,1,0,0:0:0:0:
336,112,282277,1,0,0:0:0:0:
304,256,282484,1,0,0:0:0:0:
240,176,282588,1,8,0:0:0:0:
32,144,282794,1,8,0:0:0:0:
384,224,282898,1,0,0:0:0:0:
384,112,283002,1,8,0:0:0:0:
432,112,283105,1,8,0:0:0:0:
368,288,283209,1,0,0:0:0:0:
496,192,283519,1,0,0:0:0:0:
208,288,283622,1,0,0:0:0:0:
368,64,283829,1,8,0:0:0:0:
352,240,283933,1,0,0:0:0:0:
112,128,284140,1,0,0:0:0:0:
208,80,284243,1,8,0:0:0:0:
400,112,284450,1,8,0:0:0:0:
512,240,284553,1,8,0:0:0:0:
432,128,284657,1,8,0:0:0:0:
384,240,284760,1,0,0:0:0:0:
410,100,284864,1,8,0:0:0:0:
384,128,285174,1,0,0:0:0:0:
448,176,285278,1,8,0:0:0:0:
240,240,285485,1,0,0:0:0:0:
336,112,285588,1,0,0:0:0:0:
144,288,285691,1,0,0:0:0:0:
240,176,285899,1,8,0:0:0:0:
32,144,286105,1,8,0:0:0:0:
384,224,286209,1,0,0:0:0:0:
128,48,286313,1,0,0:0:0:0:
400,288,286416,1,8,0:0:0:0:
80,160,286519,1,8,0:0:0:0:
384,128,286829,1,0,0:0:0:0:
448,176,286933,1,8,0:0:0:0:
240,240,287140,1,0,0:0:0:0:
336,112,287243,1,0,0:0:0:0:
304,256,287347,1,0,0:0:0:0:
240,176,287554,1,8,0:0:0:0:
32,144,287760,1,8,0:0:0:0:
384,224,287864,1,8,0:0:0:0:
32,288,287968,1,0,0:0:0:0:
64,304,288071,1,0,0:0:0:0:
80,160,288174,1,8,0:0:0:0:
384,128,288484,1,0,0:0:0:0:
448,176,288588,1,8,0:0:0:0:
240,240,288795,1,0,0:0:0:0:
336,112,288898,1,0,0:0:0:0:
304,256,289002,1,0,0:0:0:0:
240,176,289209,1,8,0:0:0:0:
32,144,289415,1,8,0:0:0:0:
384,224,289519,1,0,0:0:0:0:
384,112,289623,1,8,0:0:0:0:
432,112,289726,1,8,0:0:0:0:
368,288,289830,1,0,0:0:0:0:
496,192,290140,1,0,0:0:0:0:
368,64,290243,1,8,0:0:0:0:
208,288,290450,1,0,0:0:0:0:
352,240,290554,1,0,0:0:0:0:
112,128,290761,1,0,0:0:0:0:
208,80,290864,1,8,0:0:0:0:
247,188,291174,1,8,0:0:0:0:
391,250,291484,1,12,0:0:0:0:
349,165,291691,1,0,0:0:0:0:
320,261,291898,1,0,0:0:0:0:
222,311,292105,1,0,0:0:0:0:
238,50,292312,1,8,0:0:0:0:
175,126,292519,1,0,0:0:0:0:
275,126,292726,1,0,0:0:0:0:
349,124,292933,1,0,0:0:0:0:
76,234,293140,1,8,0:0:0:0:
244,211,293347,1,8,0:0:0:0:
353,223,293553,1,0,0:0:0:0:
324,303,293760,1,0,0:0:0:0:
175,262,293967,1,8,0:0:0:0:
98,243,294174,1,8,0:0:0:0:
189,94,294381,1,0,0:0:0:0:
291,148,294588,1,0,0:0:0:0:
245,234,294795,1,8,0:0:0:0:
416,64,294898,1,8,0:0:0:0:
376,136,295002,1,8,0:0:0:0:
333,246,295209,1,0,0:0:0:0:
451,296,295416,1,0,0:0:0:0:
116,284,295622,1,8,0:0:0:0:
288,80,295726,1,8,0:0:0:0:
102,147,295829,1,8,0:0:0:0:
220,116,296036,1,0,0:0:0:0:
254,186,296243,1,0,0:0:0:0:
116,284,296450,1,8,0:0:0:0:
400,112,296553,1,8,0:0:0:0:
102,147,296657,1,8,0:0:0:0:
220,116,296864,1,0,0:0:0:0:
464,240,296967,1,0,0:0:0:0:
254,186,297071,1,0,0:0:0:0:
116,284,297278,1,8,0:0:0:0:
432,144,297381,1,8,0:0:0:0:
102,147,297484,1,8,0:0:0:0:
220,116,297691,1,0,0:0:0:0:
224,288,297795,1,0,0:0:0:0:
254,186,297898,1,0,0:0:0:0:
338,303,298105,1,8,0:0:0:0:
387,220,298209,1,0,0:0:0:0:
367,108,298312,1,0,0:0:0:0:
291,53,298416,1,0,0:0:0:0:
107,256,298519,1,8,0:0:0:0:
158,262,298622,1,0,0:0:0:0:
239,242,298726,1,0,0:0:0:0:
322,212,298829,1,0,0:0:0:0:
431,137,298933,1,8,0:0:0:0:
288,314,299036,1,8,0:0:0:0:
200,314,299140,1,0,0:0:0:0:
335,296,299243,1,0,0:0:0:0:
144,103,299347,1,8,0:0:0:0:
262,139,299450,1,0,0:0:0:0:
390,301,299553,1,8,0:0:0:0:
433,299,299657,1,0,0:0:0:0:
500,212,299760,1,8,0:0:0:0:
171,92,299864,1,0,0:0:0:0:
234,83,299967,1,0,0:0:0:0:
315,79,300071,1,0,0:0:0:0:
97,249,300174,1,8,0:0:0:0:
362,70,300278,1,0,0:0:0:0:
356,136,300381,1,8,0:0:0:0:
147,168,300484,1,0,0:0:0:0:
165,259,300588,1,8,0:0:0:0:
372,196,300691,1,8,0:0:0:0:
64,256,300795,1,0,0:0:0:0:
351,302,300898,1,0,0:0:0:0:
237,200,301002,1,8,0:0:0:0:
312,231,301105,1,0,0:0:0:0:
356,302,301209,1,8,0:0:0:0:
448,276,301312,1,0,0:0:0:0:
48,56,301416,1,8,0:0:0:0:
232,106,301519,1,0,0:0:0:0:
282,55,301622,1,0,0:0:0:0:
110,79,301726,1,0,0:0:0:0:
199,319,301829,1,8,0:0:0:0:
83,194,301933,1,8,0:0:0:0:
283,108,302036,1,8,0:0:0:0:
342,91,302140,1,0,0:0:0:0:
342,165,302243,1,8,0:0:0:0:
327,312,302347,1,8,0:0:0:0:
16,144,302450,1,0,0:0:0:0:
267,248,302553,1,0,0:0:0:0:
166,183,302657,1,8,0:0:0:0:
222,188,302760,1,0,0:0:0:0:
133,87,302864,1,8,0:0:0:0:
121,275,302967,1,0,0:0:0:0:
191,61,303071,1,8,0:0:0:0:
193,316,303174,1,0,0:0:0:0:
244,99,303278,1,0,0:0:0:0:
216,98,303381,1,0,0:0:0:0:
225,331,303484,1,8,0:0:0:0:
256,117,303588,1,0,0:0:0:0:
264,117,303691,1,8,0:0:0:0:
267,119,303795,1,0,0:0:0:0:
207,257,303898,1,8,0:0:0:0:
404,108,304002,1,8,0:0:0:0:
362,143,304105,1,0,0:0:0:0:
358,248,304209,1,0,0:0:0:0:
412,188,304312,1,8,0:0:0:0:
64,64,304416,1,8,0:0:0:0:
240,64,304519,1,0,0:0:0:0:
352,80,304622,1,0,0:0:0:0:
400,272,304726,1,8,0:0:0:0:
256,192,304933,8,0,309484,0:0:0:0:
202,283,309691,5,12,0:0:0:0:
238,232,310002,1,12,0:0:0:0:
322,108,310312,1,12,0:0:0:0:
300,222,310726,1,0,0:0:0:0:
333,212,310795,1,0,0:0:0:0:
377,223,310864,1,0,0:0:0:0:
449,129,310933,1,8,0:0:0:0:
100,274,311036,1,0,0:0:0:0:
127,94,311347,1,12,0:0:0:0:
267,112,311760,1,8,0:0:0:0:
80,240,311864,1,0,0:0:0:0:
268,269,311967,1,0,0:0:0:0:
373,228,312071,1,0,0:0:0:0:
272,167,312174,1,8,0:0:0:0:
435,90,312381,1,0,0:0:0:0:
352,320,312484,1,0,0:0:0:0:
383,156,312588,1,8,0:0:0:0:
352,320,312691,1,0,0:0:0:0:
423,201,312795,1,8,0:0:0:0:
328,88,312898,1,8,0:0:0:0:
444,243,313002,1,0,0:0:0:0:
162,224,313209,1,0,0:0:0:0:
143,301,313312,1,0,0:0:0:0:
253,285,313416,1,8,0:0:0:0:
239,185,313519,1,0,0:0:0:0:
416,272,313622,1,0,0:0:0:0:
335,321,313726,1,8,0:0:0:0:
411,67,313829,1,0,0:0:0:0:
213,108,314036,1,8,0:0:0:0:
307,132,314140,1,0,0:0:0:0:
192,176,314243,1,8,0:0:0:0:
487,238,314347,1,0,0:0:0:0:
451,137,314450,1,8,0:0:0:0:
372,237,314553,1,8,0:0:0:0:
362,179,314657,1,0,0:0:0:0:
158,291,314864,1,0,0:0:0:0:
189,301,314967,1,0,0:0:0:0:
138,163,315071,1,8,0:0:0:0:
179,180,315174,1,0,0:0:0:0:
252,240,315278,1,0,0:0:0:0:
240,96,315381,1,0,0:0:0:0:
279,58,315484,1,8,0:0:0:0:
403,237,315691,1,0,0:0:0:0:
429,277,315795,1,0,0:0:0:0:
451,137,315898,1,8,0:0:0:0:
322,152,316002,1,8,0:0:0:0:
369,105,316106,1,0,0:0:0:0:
80,160,316209,1,0,0:0:0:0:
89,81,316312,1,8,0:0:0:0:
96,160,316519,1,0,0:0:0:0:
96,160,316622,1,0,0:0:0:0:
213,205,316726,1,8,0:0:0:0:
193,279,316829,1,8,0:0:0:0:
277,295,316933,1,8,0:0:0:0:
320,240,317036,1,0,0:0:0:0:
315,201,317140,1,8,0:0:0:0:
496,160,317347,1,8,0:0:0:0:
384,336,317450,1,0,0:0:0:0:
390,81,317553,1,8,0:0:0:0:
384,288,317657,1,0,0:0:0:0:
480,240,317760,1,8,0:0:0:0:
339,73,317967,1,12,0:0:0:0:
78,212,318174,1,0,0:0:0:0:
64,96,318278,1,0,0:0:0:0:
238,223,318381,1,8,0:0:0:0:
340,325,318484,1,8,0:0:0:0:
138,173,318588,1,0,0:0:0:0:
172,290,318691,1,0,0:0:0:0:
293,162,318795,1,8,0:0:0:0:
131,46,319002,1,0,0:0:0:0:
298,246,319105,1,0,0:0:0:0:
367,232,319209,1,8,0:0:0:0:
413,218,319312,1,0,0:0:0:0:
398,122,319416,1,8,0:0:0:0:
224,304,319519,1,0,0:0:0:0:
315,58,319622,1,8,0:0:0:0:
80,224,319726,1,0,0:0:0:0:
376,36,319829,1,0,0:0:0:0:
96,179,320036,1,8,0:0:0:0:
313,174,320140,1,8,0:0:0:0:
342,172,320243,1,0,0:0:0:0:
168,206,320450,1,8,0:0:0:0:
293,255,320553,1,0,0:0:0:0:
363,174,320657,1,0,0:0:0:0:
448,224,320864,1,8,0:0:0:0:
448,224,320967,1,8,0:0:0:0:
32,208,321071,1,0,0:0:0:0:
432,256,321278,1,0,0:0:0:0:
256,192,321381,1,0,0:0:0:0:
257,48,321484,1,8,0:0:0:0:
299,191,321691,1,0,0:0:0:0:
373,297,321795,1,0,0:0:0:0:
429,159,321898,1,8,0:0:0:0:
208,80,322002,1,0,0:0:0:0:
62,176,322105,1,0,0:0:0:0:
211,227,322312,1,8,0:0:0:0:
278,248,322416,1,0,0:0:0:0:
416,160,322519,1,0,0:0:0:0:
120,289,322622,1,0,0:0:0:0:
256,345,322726,1,8,0:0:0:0:
315,347,322829,1,8,0:0:0:0:
209,88,322933,1,4,0:0:0:0:
260,125,323347,1,4,0:0:0:0:
435,159,323760,1,4,0:0:0:0:
432,128,324174,1,12,0:0:0:0:
27,207,324588,1,4,0:0:0:0:
310,283,324795,1,8,0:0:0:0:
192,336,324898,1,0,0:0:0:0:
219,134,325002,1,0,0:0:0:0:
322,141,325105,1,0,0:0:0:0:
407,250,325209,1,8,0:0:0:0:
144,64,325312,1,0,0:0:0:0:
281,46,325416,1,8,0:0:0:0:
512,144,325622,1,8,0:0:0:0:
0,192,325726,1,0,0:0:0:0:
100,153,325829,1,8,0:0:0:0:
80,64,325933,1,0,0:0:0:0:
202,229,326036,1,8,0:0:0:0:
80,320,326140,1,8,0:0:0:0:
164,294,326243,1,8,0:0:0:0:
344,203,326450,1,0,0:0:0:0:
240,272,326553,1,0,0:0:0:0:
352,336,326657,1,0,0:0:0:0:
256,272,326760,1,0,0:0:0:0:
473,263,326864,1,8,0:0:0:0:
399,148,326967,1,0,0:0:0:0:
280,99,327071,1,8,0:0:0:0:
449,72,327278,1,8,0:0:0:0:
286,205,327381,1,0,0:0:0:0:
322,47,327484,1,8,0:0:0:0:
432,304,327588,1,0,0:0:0:0:
405,241,327691,1,8,0:0:0:0:
432,144,327795,1,8,0:0:0:0:
327,203,327898,1,8,0:0:0:0:
225,285,328105,1,0,0:0:0:0:
313,302,328209,1,0,0:0:0:0:
73,133,328312,1,8,0:0:0:0:
400,224,328416,1,0,0:0:0:0:
262,163,328519,1,0,0:0:0:0:
342,161,328622,1,0,0:0:0:0:
405,241,328726,1,8,0:0:0:0:
166,203,328933,1,0,0:0:0:0:
184,205,329036,1,0,0:0:0:0:
229,52,329140,1,8,0:0:0:0:
304,256,329243,1,8,0:0:0:0:
312,232,329347,1,0,0:0:0:0:
309,86,329450,1,0,0:0:0:0:
122,60,329553,1,8,0:0:0:0:
144,112,329760,1,0,0:0:0:0:
262,288,329864,1,0,0:0:0:0:
407,136,329967,1,8,0:0:0:0:
368,272,330071,1,8,0:0:0:0:
368,272,330174,1,8,0:0:0:0:
69,273,330278,1,0,0:0:0:0:
303,133,330381,1,8,0:0:0:0:
128,160,330588,1,8,0:0:0:0:
512,160,330691,1,0,0:0:0:0:
453,211,330795,1,8,0:0:0:0:
448,160,330898,1,8,0:0:0:0:
496,256,331002,1,0,0:0:0:0:
355,48,331209,1,12,0:0:0:0:
141,142,331416,1,0,0:0:0:0:
119,210,331519,1,0,0:0:0:0:
318,313,331622,1,8,0:0:0:0:
294,182,331726,1,8,0:0:0:0:
387,238,331829,1,0,0:0:0:0:
409,248,331933,1,0,0:0:0:0:
355,97,332036,1,8,0:0:0:0:
233,126,332243,1,0,0:0:0:0:
197,196,332347,1,0,0:0:0:0:
184,276,332450,1,8,0:0:0:0:
496,192,332553,1,0,0:0:0:0:
237,313,332657,1,8,0:0:0:0:
176,336,332760,1,0,0:0:0:0:
455,315,332864,1,8,0:0:0:0:
496,192,332967,1,0,0:0:0:0:
71,238,333071,1,0,0:0:0:0:
184,84,333278,1,8,0:0:0:0:
359,220,333381,1,8,0:0:0:0:
351,301,333484,1,0,0:0:0:0:
392,83,333691,1,8,0:0:0:0:
272,160,333795,1,0,0:0:0:0:
175,256,333898,1,0,0:0:0:0:
374,101,334105,1,8,0:0:0:0:
253,92,334209,1,8,0:0:0:0:
362,174,334312,1,0,0:0:0:0:
352,128,334519,1,0,0:0:0:0:
464,176,334622,1,0,0:0:0:0:
113,76,334726,1,8,0:0:0:0:
331,301,334829,1,0,0:0:0:0:
240,272,334933,1,0,0:0:0:0:
215,313,335036,1,0,0:0:0:0:
255,179,335140,1,8,0:0:0:0:
160,128,335347,1,0,0:0:0:0:
438,228,335450,1,0,0:0:0:0:
400,112,335553,1,8,0:0:0:0:
244,223,335657,1,0,0:0:0:0:
375,110,335760,1,8,0:0:0:0:
387,199,335864,1,8,0:0:0:0:
138,319,335967,1,0,0:0:0:0:
120,112,336174,1,8,0:0:0:0:
160,128,336588,1,8,0:0:0:0:
160,128,337002,1,8,0:0:0:0:
275,220,337416,1,8,0:0:0:0:
260,221,337829,1,12,0:0:0:0:
149,153,338243,1,8,0:0:0:0:
121,296,338347,1,0,0:0:0:0:
127,325,338450,1,0,0:0:0:0:
217,322,338553,1,0,0:0:0:0:
196,108,338657,1,8,0:0:0:0:
259,301,338864,1,0,0:0:0:0:
291,311,338967,1,0,0:0:0:0:
255,232,339071,1,8,0:0:0:0:
341,234,339174,1,0,0:0:0:0:
431,238,339278,1,8,0:0:0:0:
304,50,339381,1,8,0:0:0:0:
176,16,339484,1,0,0:0:0:0:
307,195,339691,1,0,0:0:0:0:
345,173,339795,1,0,0:0:0:0:
109,130,339898,1,8,0:0:0:0:
130,234,340002,1,0,0:0:0:0:
107,294,340105,1,0,0:0:0:0:
341,266,340209,1,8,0:0:0:0:
186,333,340312,1,0,0:0:0:0:
401,161,340519,1,0,0:0:0:0:
0,176,340622,1,0,0:0:0:0:
178,134,340726,1,8,0:0:0:0:
200,212,340829,1,0,0:0:0:0:
260,88,340933,1,8,0:0:0:0:
211,258,341036,1,8,0:0:0:0:
420,71,341140,1,8,0:0:0:0:
64,128,341243,1,0,0:0:0:0:
273,204,341347,1,0,0:0:0:0:
324,185,341450,1,0,0:0:0:0:
364,336,341553,1,8,0:0:0:0:
72,214,341760,1,0,0:0:0:0:
38,261,341864,1,0,0:0:0:0:
155,85,341967,1,8,0:0:0:0:
241,154,342071,1,8,0:0:0:0:
358,163,342174,1,0,0:0:0:0:
431,228,342278,1,0,0:0:0:0:
239,256,342381,1,8,0:0:0:0:
293,106,342588,1,0,0:0:0:0:
336,290,342691,1,0,0:0:0:0:
439,103,342795,1,8,0:0:0:0:
266,68,342898,1,0,0:0:0:0:
133,196,343002,1,0,0:0:0:0:
64,128,343105,1,0,0:0:0:0:
125,281,343209,1,8,0:0:0:0:
291,201,343416,1,0,0:0:0:0:
340,219,343519,1,0,0:0:0:0:
444,159,343622,1,8,0:0:0:0:
454,234,343726,1,8,0:0:0:0:
213,287,343829,1,0,0:0:0:0:
254,317,343933,1,0,0:0:0:0:
194,79,344036,1,8,0:0:0:0:
234,80,344140,1,0,0:0:0:0:
327,133,344243,1,0,0:0:0:0:
382,282,344347,1,0,0:0:0:0:
378,89,344450,1,8,0:0:0:0:
410,68,344657,1,8,0:0:0:0:
155,183,344760,1,0,0:0:0:0:
388,196,344864,1,8,0:0:0:0:
455,135,344967,1,8,0:0:0:0:
432,238,345071,1,0,0:0:0:0:
467,279,345174,1,0,0:0:0:0:
311,206,345278,1,8,0:0:0:0:
195,328,345484,1,0,0:0:0:0:
97,310,345588,1,0,0:0:0:0:
160,83,345691,1,8,0:0:0:0:
262,59,345795,1,0,0:0:0:0:
296,170,345898,1,0,0:0:0:0:
273,274,346002,1,0,0:0:0:0:
363,332,346105,1,8,0:0:0:0:
156,159,346312,1,8,0:0:0:0:
383,173,346416,1,0,0:0:0:0:
341,69,346519,1,8,0:0:0:0:
448,112,346622,1,8,0:0:0:0:
394,240,346726,1,0,0:0:0:0:
422,276,346829,1,0,0:0:0:0:
138,252,346933,1,8,0:0:0:0:
432,64,347036,1,8,0:0:0:0:
248,335,347140,1,0,0:0:0:0:
269,340,347243,1,0,0:0:0:0:
284,184,347347,1,8,0:0:0:0:
80,48,347553,1,0,0:0:0:0:
209,94,347657,1,0,0:0:0:0:
252,103,347760,1,8,0:0:0:0:
400,176,347864,1,0,0:0:0:0:
357,213,347967,1,8,0:0:0:0:
80,197,348174,1,0,0:0:0:0:
182,214,348278,1,0,0:0:0:0:
289,68,348381,1,8,0:0:0:0:
62,176,348588,1,8,0:0:0:0:
175,170,348691,1,0,0:0:0:0:
211,227,348795,1,8,0:0:0:0:
278,248,348898,1,0,0:0:0:0:
384,160,349002,1,0,0:0:0:0:
120,289,349105,1,0,0:0:0:0:
256,345,349209,1,8,0:0:0:0:
315,347,349312,1,8,0:0:0:0:
209,88,349416,1,4,0:0:0:0:
337,126,349829,1,4,0:0:0:0:
254,206,350243,1,4,0:0:0:0:
280,256,350657,1,12,0:0:0:0:
67,125,351071,1,4,0:0:0:0:
377,200,351278,1,8,0:0:0:0:
364,260,351382,1,0,0:0:0:0:
149,153,351485,1,8,0:0:0:0:
121,296,351589,1,0,0:0:0:0:
127,325,351692,1,0,0:0:0:0:
217,322,351795,1,0,0:0:0:0:
196,108,351899,1,8,0:0:0:0:
259,301,352106,1,0,0:0:0:0:
291,311,352209,1,0,0:0:0:0:
255,232,352313,1,8,0:0:0:0:
341,234,352416,1,0,0:0:0:0:
431,238,352520,1,8,0:0:0:0:
304,50,352623,1,8,0:0:0:0:
176,16,352726,1,0,0:0:0:0:
307,195,352933,1,0,0:0:0:0:
345,173,353037,1,0,0:0:0:0:
109,130,353140,1,8,0:0:0:0:
130,234,353244,1,0,0:0:0:0:
107,294,353347,1,0,0:0:0:0:
186,333,353451,1,0,0:0:0:0:
341,266,353554,1,8,0:0:0:0:
401,161,353761,1,0,0:0:0:0:
0,176,353864,1,0,0:0:0:0:
178,134,353968,1,8,0:0:0:0:
200,212,354071,1,0,0:0:0:0:
260,88,354175,1,8,0:0:0:0:
211,258,354278,1,8,0:0:0:0:
420,71,354382,1,8,0:0:0:0:
64,128,354485,1,0,0:0:0:0:
273,204,354589,1,0,0:0:0:0:
324,185,354692,1,0,0:0:0:0:
364,336,354795,1,8,0:0:0:0:
72,214,355002,1,0,0:0:0:0:
38,261,355106,1,0,0:0:0:0:
155,85,355209,1,8,0:0:0:0:
241,154,355313,1,8,0:0:0:0:
358,163,355416,1,0,0:0:0:0:
431,228,355520,1,0,0:0:0:0:
239,256,355623,1,8,0:0:0:0:
293,106,355830,1,0,0:0:0:0:
336,290,355933,1,0,0:0:0:0:
439,103,356037,1,8,0:0:0:0:
266,68,356140,1,0,0:0:0:0:
133,196,356244,1,0,0:0:0:0:
64,128,356347,1,0,0:0:0:0:
125,281,356451,1,8,0:0:0:0:
291,201,356658,1,0,0:0:0:0:
340,219,356761,1,0,0:0:0:0:
444,159,356864,1,8,0:0:0:0:
454,234,356968,1,8,0:0:0:0:
213,287,357071,1,0,0:0:0:0:
254,317,357175,1,0,0:0:0:0:
194,79,357278,1,8,0:0:0:0:
234,80,357382,1,0,0:0:0:0:
327,133,357485,1,0,0:0:0:0:
382,282,357589,1,0,0:0:0:0:
378,89,357692,1,8,0:0:0:0:
410,68,357899,1,8,0:0:0:0:
155,183,358002,1,0,0:0:0:0:
388,196,358106,1,8,0:0:0:0:
455,135,358209,1,8,0:0:0:0:
432,238,358313,1,0,0:0:0:0:
467,279,358416,1,0,0:0:0:0:
311,206,358520,1,8,0:0:0:0:
195,328,358726,1,0,0:0:0:0:
97,310,358830,1,0,0:0:0:0:
160,83,358933,1,8,0:0:0:0:
262,59,359037,1,0,0:0:0:0:
296,170,359140,1,0,0:0:0:0:
273,274,359244,1,0,0:0:0:0:
363,332,359347,1,8,0:0:0:0:
467,279,359450,1,8,0:0:0:0:
156,159,359554,1,8,0:0:0:0:
383,173,359658,1,0,0:0:0:0:
341,69,359761,1,8,0:0:0:0:
448,112,359864,1,8,0:0:0:0:
394,240,359967,1,8,0:0:0:0:
422,276,360071,1,0,0:0:0:0:
138,252,360175,1,8,0:0:0:0:
432,64,360278,1,8,0:0:0:0:
248,335,360381,1,8,0:0:0:0:
269,340,360485,1,0,0:0:0:0:
284,184,360589,1,8,0:0:0:0:
80,48,360795,1,0,0:0:0:0:
209,94,360899,1,0,0:0:0:0:
252,103,361002,1,8,0:0:0:0:
400,176,361106,1,0,0:0:0:0:
357,213,361209,1,8,0:0:0:0:
80,197,361416,1,0,0:0:0:0:
182,214,361520,1,0,0:0:0:0:
289,68,361623,1,8,0:0:0:0:
62,176,361830,1,8,0:0:0:0:
175,170,361933,1,0,0:0:0:0:
211,227,362037,1,8,0:0:0:0:
432,256,362140,1,8,0:0:0:0:
384,160,362244,1,0,0:0:0:0:
432,256,362347,1,8,0:0:0:0:
256,345,362451,1,8,0:0:0:0:
315,347,362554,1,8,0:0:0:0:
184,50,362657,1,4,0:0:0:0:
279,189,363071,1,4,0:0:0:0:
384,252,363484,1,4,0:0:0:0:
338,272,363898,1,12,0:0:0:0:
176,112,364312,1,4,0:0:0:0:
416,224,364726,1,0,0:0:0:0:
416,160,364933,1,8,0:0:0:0:
400,288,365140,1,0,0:0:0:0:
192,192,365347,1,0,0:0:0:0:
256,224,365450,1,0,0:0:0:0:
272,256,365553,1,8,0:0:0:0:
432,192,365760,1,8,0:0:0:0:
400,288,365967,1,0,0:0:0:0:
370,128,366380,1,8,0:0:0:0:
213,305,366587,1,0,0:0:0:0:
249,123,366794,1,0,0:0:0:0:
390,177,367001,1,8,0:0:0:0:
371,269,367208,1,8,0:0:0:0:
176,160,367622,1,0,0:0:0:0:
368,272,367829,1,0,0:0:0:0:
192,64,368036,1,8,0:0:0:0:
288,160,368243,1,8,0:0:0:0:
352,272,368450,1,0,0:0:0:0:
192,240,368657,1,0,0:0:0:0:
336,352,368760,1,0,0:0:0:0:
320,192,368864,1,8,0:0:0:0:
400,224,369071,1,8,0:0:0:0:
208,256,369278,1,0,0:0:0:0:
160,80,369691,1,0,0:0:0:0:
80,144,369898,1,0,0:0:0:0:
320,288,370105,1,0,0:0:0:0:
336,192,370312,1,8,0:0:0:0:
432,64,370519,1,8,0:0:0:0:
176,160,370933,1,8,0:0:0:0:
272,272,371140,1,0,0:0:0:0:
224,48,371347,1,8,0:0:0:0:
384,304,371553,1,0,0:0:0:0:
352,256,371760,1,0,0:0:0:0:
336,240,371967,1,0,0:0:0:0:
368,144,372071,1,0,0:0:0:0:
416,240,372174,1,0,0:0:0:0:
480,176,372381,1,8,0:0:0:0:
448,192,372588,1,0,0:0:0:0:
400,80,373002,1,0,0:0:0:0:
128,192,373209,1,0,0:0:0:0:
240,240,373416,1,0,0:0:0:0:
400,224,373622,1,8,0:0:0:0:
384,160,373829,1,0,0:0:0:0:
176,176,374243,1,0,0:0:0:0:
272,160,374450,1,0,0:0:0:0:
416,224,374657,1,8,0:0:0:0:
352,96,374864,1,0,0:0:0:0:
352,256,375071,1,0,0:0:0:0:
320,304,375278,1,0,0:0:0:0:
320,304,375381,1,0,0:0:0:0:
256,272,375484,1,0,0:0:0:0:
384,208,375691,1,8,0:0:0:0:
288,80,375898,1,12,0:0:0:0:
224,176,376312,1,12,0:0:0:0:
320,208,376726,1,4,0:0:0:0:
224,224,377140,1,8,0:0:0:0:
187,130,377553,1,4,0:0:0:0:
419,160,377760,1,0,0:0:0:0:
300,307,377967,1,0,0:0:0:0:
443,303,378174,1,8,0:0:0:0:
352,256,378381,1,0,0:0:0:0:
141,209,378588,1,0,0:0:0:0:
381,255,378691,1,0,0:0:0:0:
229,141,378795,1,8,0:0:0:0:
432,160,379002,1,8,0:0:0:0:
352,208,379209,1,0,0:0:0:0:
370,128,379622,1,8,0:0:0:0:
213,305,379829,1,0,0:0:0:0:
249,123,380036,1,0,0:0:0:0:
390,177,380243,1,8,0:0:0:0:
371,269,380450,1,8,0:0:0:0:
228,205,380864,1,0,0:0:0:0:
118,169,381071,1,0,0:0:0:0:
255,257,381278,1,8,0:0:0:0:
320,249,381484,1,8,0:0:0:0:
400,208,381691,1,0,0:0:0:0:
204,134,381898,1,0,0:0:0:0:
96,256,382002,1,0,0:0:0:0:
496,160,382105,1,8,0:0:0:0:
334,154,382312,1,8,0:0:0:0:
328,239,382519,1,0,0:0:0:0:
288,288,382933,1,0,0:0:0:0:
170,268,383140,1,0,0:0:0:0:
464,256,383347,1,0,0:0:0:0:
184,102,383553,1,8,0:0:0:0:
227,123,383760,1,8,0:0:0:0:
255,224,384174,1,8,0:0:0:0:
373,192,384381,1,0,0:0:0:0:
397,203,384588,1,8,0:0:0:0:
408,125,384795,1,0,0:0:0:0:
368,224,385002,1,0,0:0:0:0:
169,163,385209,1,0,0:0:0:0:
64,96,385312,1,0,0:0:0:0:
6,298,385416,1,0,0:0:0:0:
240,254,385622,1,8,0:0:0:0:
321,140,385829,1,0,0:0:0:0:
352,288,386243,1,0,0:0:0:0:
146,218,386450,1,0,0:0:0:0:
139,274,386657,1,0,0:0:0:0:
240,144,386864,1,8,0:0:0:0:
73,122,387071,1,0,0:0:0:0:
139,274,387484,1,0,0:0:0:0:
242,285,387691,1,0,0:0:0:0:
384,173,387898,1,8,0:0:0:0:
344,83,388105,1,0,0:0:0:0:
368,224,388312,1,0,0:0:0:0:
194,150,388519,1,0,0:0:0:0:
400,304,388622,1,0,0:0:0:0:
198,246,388726,1,0,0:0:0:0:
297,281,388933,1,8,0:0:0:0:
302,169,389140,1,12,0:0:0:0:
302,169,389553,1,12,0:0:0:0:
302,169,389967,1,4,0:0:0:0:
175,140,390381,1,8,0:0:0:0:
373,105,390795,1,4,0:0:0:0:
455,218,391002,1,0,0:0:0:0:
160,248,391209,1,8,0:0:0:0:
107,308,391416,1,0,0:0:0:0:
244,168,391622,1,8,0:0:0:0:
288,320,391829,1,0,0:0:0:0:
368,320,391933,1,0,0:0:0:0:
224,63,392036,1,8,0:0:0:0:
206,156,392243,1,0,0:0:0:0:
416,224,392347,1,0,0:0:0:0:
282,248,392450,1,0,0:0:0:0:
360,149,392657,1,0,0:0:0:0:
86,303,392864,1,8,0:0:0:0:
262,310,393071,1,0,0:0:0:0:
41,111,393278,1,8,0:0:0:0:
144,208,393484,1,0,0:0:0:0:
304,256,393588,1,0,0:0:0:0:
346,179,393691,1,8,0:0:0:0:
420,236,393898,1,0,0:0:0:0:
416,320,394002,1,0,0:0:0:0:
238,104,394105,1,8,0:0:0:0:
320,240,394209,1,8,0:0:0:0:
128,176,394312,1,0,0:0:0:0:
151,294,394519,1,8,0:0:0:0:
281,316,394726,1,0,0:0:0:0:
217,168,394933,1,8,0:0:0:0:
352,160,395140,1,0,0:0:0:0:
448,288,395243,1,0,0:0:0:0:
406,257,395347,1,8,0:0:0:0:
467,199,395553,1,0,0:0:0:0:
80,176,395657,1,0,0:0:0:0:
233,92,395760,1,8,0:0:0:0:
192,176,395864,1,8,0:0:0:0:
187,193,395967,1,0,0:0:0:0:
247,268,396174,1,8,0:0:0:0:
112,272,396381,1,0,0:0:0:0:
272,192,396588,1,8,0:0:0:0:
320,320,396795,1,0,0:0:0:0:
320,320,396898,1,0,0:0:0:0:
380,201,397002,1,8,0:0:0:0:
463,208,397209,1,8,0:0:0:0:
400,288,397312,1,0,0:0:0:0:
280,221,397416,1,8,0:0:0:0:
100,165,397622,1,0,0:0:0:0:
291,323,397829,1,8,0:0:0:0:
95,199,398036,1,0,0:0:0:0:
291,162,398243,1,8,0:0:0:0:
416,176,398347,1,8,0:0:0:0:
353,252,398450,1,0,0:0:0:0:
352,160,398553,1,0,0:0:0:0:
288,144,398657,1,8,0:0:0:0:
180,221,398864,1,0,0:0:0:0:
208,256,398967,1,0,0:0:0:0:
301,99,399071,1,8,0:0:0:0:
108,301,399278,1,0,0:0:0:0:
309,319,399484,1,8,0:0:0:0:
328,234,399691,1,0,0:0:0:0:
183,80,399898,1,8,0:0:0:0:
191,148,400002,1,8,0:0:0:0:
420,194,400105,1,0,0:0:0:0:
416,288,400209,1,0,0:0:0:0:
71,205,400312,1,8,0:0:0:0:
200,265,400519,1,0,0:0:0:0:
256,320,400622,1,0,0:0:0:0:
432,304,400726,1,0,0:0:0:0:
289,152,400829,1,0,0:0:0:0:
400,105,400933,1,8,0:0:0:0:
256,112,401140,1,8,0:0:0:0:
112,272,401243,1,0,0:0:0:0:
224,256,401347,1,8,0:0:0:0:
416,288,401553,1,0,0:0:0:0:
352,272,401760,1,0,0:0:0:0:
424,241,401864,1,0,0:0:0:0:
432,272,401967,1,8,0:0:0:0:
416,288,402071,1,0,0:0:0:0:
352,272,402174,1,0,0:0:0:0:
299,104,402381,1,8,0:0:0:0:
464,192,402484,1,8,0:0:0:0:
288,256,402588,1,0,0:0:0:0:
16,128,402691,1,0,0:0:0:0:
464,256,402795,1,0,0:0:0:0:
468,183,403002,1,8,0:0:0:0:
331,113,403105,1,8,0:0:0:0:
393,100,403209,1,8,0:0:0:0:
273,76,403312,1,0,0:0:0:0:
309,155,403416,1,0,0:0:0:0:
384,336,403622,1,8,0:0:0:0:
119,128,403726,1,8,0:0:0:0:
297,286,403829,1,8,0:0:0:0:
415,267,403933,1,0,0:0:0:0:
156,57,404036,1,8,0:0:0:0:
240,144,404450,1,0,0:0:0:0:
447,95,404864,1,8,0:0:0:0:
283,75,405071,1,8,0:0:0:0:
409,315,405278,1,0,0:0:0:0:
244,281,405485,1,8,0:0:0:0:
485,218,405691,1,0,0:0:0:0:
405,106,406105,1,0,0:0:0:0:
118,206,406312,1,0,0:0:0:0:
373,266,406519,1,8,0:0:0:0:
285,157,406726,1,8,0:0:0:0:
453,122,406933,1,0,0:0:0:0:
172,121,407140,1,8,0:0:0:0:
178,121,407347,1,0,0:0:0:0:
421,106,407760,1,0,0:0:0:0:
407,184,407967,1,0,0:0:0:0:
283,175,408174,1,8,0:0:0:0:
188,54,408588,1,0,0:0:0:0:
374,70,408795,1,8,0:0:0:0:
213,170,409002,1,0,0:0:0:0:
333,233,409209,1,8,0:0:0:0:
352,136,409416,1,8,0:0:0:0:
162,293,409829,1,8,0:0:0:0:
240,240,410036,1,0,0:0:0:0:
298,212,410243,1,8,0:0:0:0:
69,106,410450,1,0,0:0:0:0:
304,100,410657,1,8,0:0:0:0:
94,210,411071,1,0,0:0:0:0:
128,128,411278,1,8,0:0:0:0:
210,228,411485,1,8,0:0:0:0:
222,138,411691,1,0,0:0:0:0:
261,168,411898,1,0,0:0:0:0:
276,210,412105,1,0,0:0:0:0:
323,359,412312,1,8,0:0:0:0:
240,240,412726,1,0,0:0:0:0:
112,320,412933,1,0,0:0:0:0:
366,276,413140,1,8,0:0:0:0:
366,193,413347,1,0,0:0:0:0:
207,290,413554,1,8,0:0:0:0:
198,44,413760,1,8,0:0:0:0:
210,310,413967,1,0,0:0:0:0:
53,170,414174,1,0,0:0:0:0:
178,87,414588,1,8,0:0:0:0:
189,286,414795,1,8,0:0:0:0:
189,286,415002,1,0,0:0:0:0:
245,220,415209,1,8,0:0:0:0:
289,214,415416,1,0,0:0:0:0:
197,90,415622,1,0,0:0:0:0:
388,298,416036,1,0,0:0:0:0:
366,191,416243,1,8,0:0:0:0:
403,76,416450,1,8,0:0:0:0:
80,136,416657,1,0,0:0:0:0:
120,209,416864,1,8,0:0:0:0:
149,314,417278,1,0,0:0:0:0:
133,170,417485,1,8,0:0:0:0:
117,90,417898,1,0,0:0:0:0:
447,95,418105,1,8,0:0:0:0:
283,75,418312,1,8,0:0:0:0:
409,315,418519,1,0,0:0:0:0:
244,281,418726,1,8,0:0:0:0:
485,218,418932,1,0,0:0:0:0:
405,106,419347,1,0,0:0:0:0:
118,206,419553,1,0,0:0:0:0:
373,266,419760,1,8,0:0:0:0:
285,157,419967,1,8,0:0:0:0:
453,122,420174,1,0,0:0:0:0:
172,121,420381,1,8,0:0:0:0:
178,121,420588,1,0,0:0:0:0:
421,106,421001,1,0,0:0:0:0:
407,184,421208,1,0,0:0:0:0:
283,175,421415,1,8,0:0:0:0:
188,54,421829,1,0,0:0:0:0:
374,70,422036,1,8,0:0:0:0:
213,170,422243,1,0,0:0:0:0:
333,233,422450,1,8,0:0:0:0:
352,136,422657,1,8,0:0:0:0:
162,293,423070,1,8,0:0:0:0:
354,302,423277,1,0,0:0:0:0:
412,274,423484,1,8,0:0:0:0:
69,106,423691,1,0,0:0:0:0:
418,162,423898,1,8,0:0:0:0:
207,213,424312,1,0,0:0:0:0:
206,48,424519,1,8,0:0:0:0:
288,148,424726,1,8,0:0:0:0:
300,58,424932,1,0,0:0:0:0:
339,88,425139,1,0,0:0:0:0:
354,130,425346,1,0,0:0:0:0:
288,276,425553,1,8,0:0:0:0:
245,74,425967,1,0,0:0:0:0:
110,157,426174,1,0,0:0:0:0:
406,193,426381,1,8,0:0:0:0:
406,110,426588,1,0,0:0:0:0:
247,207,426795,1,8,0:0:0:0:
198,44,427001,1,8,0:0:0:0:
250,227,427208,1,0,0:0:0:0:
53,170,427415,1,0,0:0:0:0:
307,150,427829,1,8,0:0:0:0:
168,208,428036,1,8,0:0:0:0:
195,280,428243,1,0,0:0:0:0:
144,144,428657,1,0,0:0:0:0:
270,78,428864,1,8,0:0:0:0:
356,207,429278,1,8,0:0:0:0:
373,116,429691,1,8,0:0:0:0:
175,185,430105,1,8,0:0:0:0:
256,192,430312,12,0,430519,0:0:0:0:
