osu file format v14

[General]
AudioFilename: audio.mp3
AudioLeadIn: 0
PreviewTime: 153061
Countdown: 0
SampleSet: Normal
StackLeniency: 0.7
Mode: 1
LetterboxInBreaks: 0
WidescreenStoryboard: 0

[Editor]
Bookmarks: 27828
DistanceSpacing: 1.2
BeatDivisor: 4
GridSize: 32
TimelineZoom: 2.799999

[Metadata]
Title:Spitfire
TitleUnicode:Spitfire
Artist:Infected Mushroom
ArtistUnicode:Infected Mushroom
Creator:yea
Version:Attack
Source:
Tags:electronic psytrance monstercat
BeatmapID:1841309
BeatmapSetID:880548

[Difficulty]
HPDrainRate:6
CircleSize:5
OverallDifficulty:6
ApproachRate:5
SliderMultiplier:1.4
SliderTickRate:1

[Events]
//Background and Video events
0,0,"bg.png",0,0
//Break Periods
//Storyboard Layer 0 (Background)
//Storyboard Layer 1 (Fail)
//Storyboard Layer 2 (Pass)
//Storyboard Layer 3 (Foreground)
//Storyboard Sound Samples

[TimingPoints]
18,434.782608695652,4,1,0,50,1,0
18,-135.135135135135,4,1,0,50,0,0
27828,-135.135135135135,4,1,0,55,0,0
33713,-125,4,1,0,55,0,0
34039,-116.279069767442,4,1,0,55,0,0
34365,-108.695652173913,4,1,0,55,0,0
34583,-104.166666666667,4,1,0,55,0,0
34800,-90.9090909090909,4,1,0,75,0,0
35017,-100,4,1,0,75,0,0
41757,-90.9090909090909,4,1,0,75,0,0
41974,-100,4,1,0,75,0,0
48713,-90.9090909090909,4,1,0,75,0,0
48931,-100,4,1,0,75,0,0
53931,-83.3333333333333,4,1,0,75,0,0
54148,-90.9090909090909,4,1,0,50,0,0
55235,-83.3333333333333,4,1,0,75,0,0
55670,-100,4,1,0,75,0,0
56322,-90.9090909090909,4,1,0,75,0,0
56539,-100,4,1,0,75,0,0
58061,-90.9090909090909,4,1,0,75,0,0
58278,-100,4,1,0,75,0,0
59800,-90.9090909090909,4,1,0,75,0,0
60017,-100,4,1,0,75,0,0
61539,-90.9090909090909,4,1,0,75,0,0
61757,-100,4,1,0,75,0,0
63278,-90.9090909090909,4,1,0,75,0,0
63496,-100,4,1,0,75,0,0
65017,-90.9090909090909,4,1,0,75,0,0
65235,-100,4,1,0,75,0,0
66757,-90.9090909090909,4,1,0,75,0,0
66974,-100,4,1,0,75,0,0
67191,-106.382978723404,4,1,0,75,0,0
67409,-111.111111111111,4,1,0,75,0,0
67517,-113.636363636364,4,1,0,75,0,0
67626,-116.279069767442,4,1,0,75,0,0
67735,-119.047619047619,4,1,0,75,0,0
67844,-121.951219512195,4,1,0,75,0,0
68061,-58.8235294117647,4,1,0,75,0,0
69583,-100,4,1,0,75,0,0
72191,-86.9565217391304,4,1,0,75,0,0
72264,-87.719298245614,4,1,0,75,0,0
72336,-88.4955752212389,4,1,0,75,0,0
72409,-89.2857142857143,4,1,0,75,0,0
72517,-91.743119266055,4,1,0,75,0,0
72626,-94.3396226415094,4,1,0,75,0,0
72844,-100,4,1,0,75,0,0
75670,-86.9565217391304,4,1,0,75,0,0
75742,-87.719298245614,4,1,0,75,0,0
75815,-88.4955752212389,4,1,0,75,0,0
75887,-89.2857142857143,4,1,0,75,0,0
75996,-91.743119266055,4,1,0,75,0,0
76104,-94.3396226415094,4,1,0,75,0,0
76322,-100,4,1,0,75,0,0
79148,-86.9565217391304,4,1,0,75,0,0
79220,-87.719298245614,4,1,0,75,0,0
79293,-88.4955752212389,4,1,0,75,0,0
79365,-89.2857142857143,4,1,0,75,0,0
79474,-91.743119266055,4,1,0,75,0,0
79583,-94.3396226415094,4,1,0,75,0,0
79800,-100,4,1,0,75,0,0
82409,-106.382978723404,4,1,0,75,0,0
82626,-109.89010989011,4,1,0,75,0,0
82735,-113.636363636364,4,1,0,75,0,0
82844,-117.647058823529,4,1,0,75,0,0
82916,-119.047619047619,4,1,0,75,0,0
82989,-120.481927710843,4,1,0,75,0,0
83061,-121.951219512195,4,1,0,75,0,0
83496,-90.9090909090909,4,1,0,75,0,1
86104,-80,4,1,0,75,0,1
86177,-80.6451612903226,4,1,0,75,0,1
86249,-81.3008130081301,4,1,0,75,0,1
86322,-81.9672131147541,4,1,0,75,0,1
86431,-84.0336134453781,4,1,0,75,0,1
86539,-86.2068965517241,4,1,0,75,0,1
86648,-88.4955752212389,4,1,0,75,0,1
86757,-90.9090909090909,4,1,0,75,0,1
89583,-80,4,1,0,75,0,1
89655,-80.6451612903226,4,1,0,75,0,1
89728,-81.3008130081301,4,1,0,75,0,1
89800,-81.9672131147541,4,1,0,75,0,1
89909,-84.0336134453781,4,1,0,75,0,1
90017,-86.2068965517241,4,1,0,75,0,1
90235,-90.9090909090909,4,1,0,75,0,1
93061,-80,4,1,0,75,0,1
93133,-80.6451612903226,4,1,0,75,0,1
93206,-81.3008130081301,4,1,0,75,0,1
93278,-81.9672131147541,4,1,0,75,0,1
93387,-84.0336134453781,4,1,0,75,0,1
93496,-86.2068965517241,4,1,0,75,0,1
93604,-88.4955752212389,4,1,0,75,0,1
93713,-90.9090909090909,4,1,0,75,0,1
95670,-90.9090909090909,4,1,0,75,0,0
96322,-90.9090909090909,4,1,0,75,0,0
96539,-92.5925925925926,4,1,0,75,0,0
96757,-94.3396226415094,4,1,0,75,0,0
96974,-96.1538461538461,4,1,0,75,0,0
97191,-98.0392156862745,4,1,0,75,0,0
97409,-90.9090909090909,4,1,0,75,0,0
98278,-100,4,1,0,75,0,0
98931,-90.9090909090909,4,1,0,75,0,0
99148,-100,4,1,0,75,0,0
100887,-90.9090909090909,4,1,0,75,0,0
101757,-100,4,1,0,75,0,0
102409,-90.9090909090909,4,1,0,75,0,0
102626,-100,4,1,0,75,0,0
104365,-90.9090909090909,4,1,0,75,0,0
105235,-100,4,1,0,75,0,0
105887,-90.9090909090909,4,1,0,75,0,0
106104,-100,4,1,0,75,0,0
107844,-86.9565217391304,4,1,0,75,0,0
108713,-100,4,1,0,75,0,0
109365,-90.9090909090909,4,1,0,75,0,0
109583,-100,4,1,0,75,0,0
110235,-96.1538461538461,4,1,0,75,0,0
110452,-94.3396226415094,4,1,0,75,0,0
110670,-92.5925925925926,4,1,0,75,0,0
110887,-90.9090909090909,4,1,0,75,0,0
111322,-90.9090909090909,4,1,0,80,0,0
111539,-100,4,1,0,80,0,0
114800,-90.9090909090909,4,1,0,80,0,0
115017,-100,4,1,0,80,0,0
118278,-90.9090909090909,4,1,0,80,0,0
118496,-100,4,1,0,80,0,0
120017,-90.9090909090909,4,1,0,80,0,0
120235,-100,4,1,0,80,0,0
120887,-98.0392156862745,4,1,0,80,0,0
121104,-96.1538461538461,4,1,0,80,0,0
121322,-94.3396226415094,4,1,0,80,0,0
121539,-92.5925925925926,4,1,0,80,0,0
121757,-90.9090909090909,4,1,0,80,0,0
121974,-89.2857142857143,4,1,0,80,0,0
122083,-88.4955752212389,4,1,0,80,0,0
122191,-87.719298245614,4,1,0,80,0,0
123278,-88.4955752212389,4,1,0,80,0,0
123351,-89.2857142857143,4,1,0,80,0,0
123423,-90.0900900900901,4,1,0,80,0,0
123496,-90.9090909090909,4,1,0,75,0,0
123713,-94.3396226415094,4,1,0,75,0,0
123931,-98.0392156862745,4,1,0,75,0,0
124148,-102.040816326531,4,1,0,75,0,0
124365,-106.382978723404,4,1,0,75,0,0
124583,-111.111111111111,4,1,0,75,0,0
124800,-116.279069767442,4,1,0,75,0,0
128061,-102.040816326531,4,1,0,75,0,0
128278,-106.382978723404,4,1,0,75,0,0
128496,-111.111111111111,4,1,0,75,0,0
128713,-116.279069767442,4,1,0,75,0,0
131539,-102.040816326531,4,1,0,75,0,0
131757,-106.382978723404,4,1,0,75,0,0
131974,-111.111111111111,4,1,0,75,0,0
132191,-116.279069767442,4,1,0,75,0,1
135017,-102.040816326531,4,1,0,75,0,1
135235,-106.382978723404,4,1,0,75,0,1
135452,-111.111111111111,4,1,0,75,0,1
135670,-116.279069767442,4,1,0,75,0,1
137409,-111.111111111111,4,1,0,75,0,0
137626,-106.382978723404,4,1,0,75,0,0
137844,-102.040816326531,4,1,0,75,0,0
139148,-90.9090909090909,4,1,0,75,0,0
139365,-100,4,1,0,75,0,0
151539,-104.166666666667,4,1,0,75,0,0
151757,-108.695652173913,4,1,0,75,0,0
151974,-113.636363636364,4,1,0,75,0,0
152046,-114.942528735632,4,1,0,75,0,0
152119,-116.279069767442,4,1,0,75,0,0
152191,-117.647058823529,4,1,0,75,0,0
152300,-121.951219512195,4,1,0,75,0,0
152409,-125,4,1,0,75,0,0
153061,-86.9565217391304,4,1,0,75,0,1
161757,-88.4955752212389,4,1,0,75,0,0
161865,-90.0900900900901,4,1,0,75,0,0
161974,-91.743119266055,4,1,0,75,0,0
162083,-93.4579439252336,4,1,0,75,0,0
162191,-95.2380952380952,4,1,0,75,0,0
162300,-97.0873786407767,4,1,0,75,0,0
162409,-99.009900990099,4,1,0,75,0,0
162517,-102.040816326531,4,1,0,75,0,0
163496,-80,4,1,0,75,0,1
163713,-86.9565217391304,4,1,0,75,0,1
166104,-90.0900900900901,4,1,0,75,0,1
166213,-91.743119266055,4,1,0,75,0,1
166431,-95.2380952380952,4,1,0,75,0,1
166757,-102.040816326531,4,1,0,75,0,1
166974,-76.9230769230769,4,1,0,55,0,0
167191,-91.743119266055,4,1,0,55,0,0
167844,-95.2380952380952,4,1,0,55,0,0
168278,-99.009900990099,4,1,0,55,0,0
168496,-101.010101010101,4,1,0,55,0,0
168713,-103.092783505155,4,1,0,55,0,0
169148,-107.52688172043,4,1,0,55,0,0
169583,-112.359550561798,4,1,0,55,0,0
169800,-114.942528735632,4,1,0,55,0,0
170017,-117.647058823529,4,1,0,55,0,0
170235,-120.481927710843,4,1,0,55,0,0
170452,-123.456790123457,4,1,0,55,0,0
170887,-129.87012987013,4,1,0,55,0,0
171322,-136.986301369863,4,1,0,55,0,0
171757,-144.927536231884,4,1,0,55,0,0
172191,-153.846153846154,4,1,0,55,0,0
178713,-142.857142857143,4,1,0,55,0,0
179148,-135.135135135135,4,1,0,55,0,0
179365,-131.578947368421,4,1,0,55,0,0
179583,-128.205128205128,4,1,0,55,0,0
179800,-125,4,1,0,55,0,0
180017,-121.951219512195,4,1,0,55,0,0
180235,-119.047619047619,4,1,0,55,0,0
180452,-116.279069767442,4,1,0,55,0,0
180887,-111.111111111111,4,1,0,65,0,0
187844,-111.111111111111,4,1,0,75,0,0
193931,-108.695652173913,4,1,0,75,0,0
194148,-106.382978723404,4,1,0,75,0,0
194365,-104.166666666667,4,1,0,75,0,0
194583,-102.040816326531,4,1,0,75,0,0
194800,-100,4,1,0,75,0,0
208496,-95.2380952380952,4,1,0,75,0,0
208713,-90.9090909090909,4,1,0,75,0,0
222626,-86.9565217391304,4,1,0,75,0,0
222844,-100,4,1,0,75,0,0
236322,-95.2380952380952,4,1,0,75,0,0
236539,-90.9090909090909,4,1,0,75,0,0
250452,-86.9565217391304,4,1,0,75,0,0
250670,-100,4,1,0,75,0,0
253931,-92.5925925925926,4,1,0,75,0,0
254148,-96.1538461538461,4,1,0,75,0,0
254365,-100,4,1,0,75,0,0
257409,-92.5925925925926,4,1,0,75,0,0
257626,-96.1538461538461,4,1,0,75,0,0
257844,-100,4,1,0,75,0,0
260887,-92.5925925925926,4,1,0,75,0,0
261104,-96.1538461538461,4,1,0,75,0,0
261322,-100,4,1,0,75,0,0
261757,-104.166666666667,4,1,0,75,0,0
261974,-106.382978723404,4,1,0,75,0,0
262409,-111.111111111111,4,1,0,75,0,0
262844,-116.279069767442,4,1,0,75,0,0
263278,-121.951219512195,4,1,0,75,0,0
263713,-128.205128205128,4,1,0,75,0,0
264148,-135.135135135135,4,1,0,75,0,0
264365,-86.9565217391304,4,1,0,75,0,0
278496,-100,4,1,0,75,0,0
281757,-86.9565217391304,4,1,0,75,0,0
281974,-100,4,1,0,75,0,0
285235,-86.9565217391304,4,1,0,75,0,0
285452,-100,4,1,0,75,0,0
288713,-86.9565217391304,4,1,0,75,0,0
288931,-100,4,1,0,75,0,0
292191,-86.9565217391304,4,1,0,75,0,0
292409,-100,4,1,0,75,0,0
295670,-86.9565217391304,4,1,0,75,0,0
295887,-100,4,1,0,75,0,0
299148,-86.9565217391304,4,1,0,75,0,0
299365,-100,4,1,0,75,0,0
302626,-86.9565217391304,4,1,0,75,0,0
302844,-100,4,1,0,85,0,0
306104,-90.9090909090909,4,1,0,85,0,0
306322,-100,4,1,0,85,0,0
309583,-90.9090909090909,4,1,0,85,0,0
309800,-100,4,1,0,85,0,0
313061,-90.9090909090909,4,1,0,85,0,0
313278,-100,4,1,0,85,0,0
316539,-90.9090909090909,4,1,0,85,0,0
316757,-100,4,1,0,85,0,0
319148,-98.0392156862745,4,1,0,85,0,0
319365,-96.1538461538461,4,1,0,85,0,0
319474,-95.2380952380952,4,1,0,85,0,0
319583,-94.3396226415094,4,1,0,85,0,0
319691,-93.4579439252336,4,1,0,85,0,0
319800,-92.5925925925926,4,1,0,85,0,0
319909,-91.743119266055,4,1,0,85,0,0
320017,-90.9090909090909,4,1,0,85,0,0
323496,-83.3333333333333,4,1,0,85,0,0
323713,-90.9090909090909,4,1,0,85,0,0
326974,-90.9090909090909,4,1,0,85,0,1
333931,-90.9090909090909,4,1,0,85,0,0
334039,-98.0392156862745,4,1,0,50,0,0
335670,-106.382978723404,4,1,0,50,0,0
336539,-116.279069767442,4,1,0,50,0,0
337409,-128.205128205128,4,1,0,50,0,0
339148,-90.9090909090909,4,1,0,50,0,0
339583,-94.3396226415094,4,1,0,50,0,0
340017,-98.0392156862745,4,1,0,50,0,0
340452,-80,4,1,0,75,0,0
340887,-116.279069767442,4,1,0,75,0,0
343713,-102.040816326531,4,1,0,75,0,0
343931,-106.382978723404,4,1,0,75,0,0
344148,-111.111111111111,4,1,0,75,0,0
344365,-116.279069767442,4,1,0,75,0,0
347191,-102.040816326531,4,1,0,75,0,0
347409,-106.382978723404,4,1,0,75,0,0
347626,-111.111111111111,4,1,0,75,0,0
347844,-116.279069767442,4,1,0,75,0,1
350670,-102.040816326531,4,1,0,75,0,1
350887,-106.382978723404,4,1,0,75,0,1
351104,-111.111111111111,4,1,0,75,0,1
351322,-116.279069767442,4,1,0,75,0,1
353061,-116.279069767442,4,1,0,75,0,0
353931,-126.582278481013,4,1,0,75,0,0
354039,-121.951219512195,4,1,0,75,0,0
354148,-117.647058823529,4,1,0,75,0,0
354257,-113.636363636364,4,1,0,75,0,0
354365,-109.89010989011,4,1,0,75,0,0
354474,-106.382978723404,4,1,0,75,0,0
354583,-103.092783505155,4,1,0,75,0,0
354655,-102.040816326531,4,1,0,75,0,0
354728,-101.010101010101,4,1,0,75,0,0
354800,-100,4,1,0,75,0,0
368496,-95.2380952380952,4,1,0,75,0,0
368713,-90.9090909090909,4,1,0,75,0,0
381865,-89.2857142857143,4,1,0,75,0,0
381974,-88.4955752212389,4,1,0,75,0,0
382083,-87.719298245614,4,1,0,75,0,0
382191,-86.9565217391304,4,1,0,75,0,0
382300,-86.2068965517241,4,1,0,75,0,0
382409,-85.4700854700855,4,1,0,75,0,0
382626,-84.0336134453781,4,1,0,75,0,0
396539,-83.3333333333333,4,1,0,75,0,0

[HitObjects]
256,128,18,5,4,0:0:0:0:
256,192,3061,1,8,0:0:0:0:
256,192,3496,1,0,0:0:0:0:
256,192,6974,1,0,0:0:0:0:
256,192,9148,1,0,0:0:0:0:
256,192,10452,1,8,0:0:0:0:
256,128,13931,1,4,0:0:0:0:
256,192,16539,1,8,0:0:0:0:
256,192,17409,1,0,0:0:0:0:
256,192,20887,1,0,0:0:0:0:
256,192,22626,1,8,0:0:0:0:
256,192,24365,1,0,0:0:0:0:
256,192,27844,1,8,0:0:0:0:
256,192,28170,1,8,0:0:0:0:
256,192,28496,1,8,0:0:0:0:
256,192,28713,1,0,0:0:0:0:
256,192,28822,1,8,0:0:0:0:
256,192,28931,1,0,0:0:0:0:
256,192,29148,1,8,0:0:0:0:
256,192,29583,1,0,0:0:0:0:
256,192,29909,1,0,0:0:0:0:
256,192,30235,1,8,0:0:0:0:
256,192,30561,1,8,0:0:0:0:
256,192,30887,1,0,0:0:0:0:
256,192,31104,1,0,0:0:0:0:
256,192,31322,1,8,0:0:0:0:
256,192,31648,1,8,0:0:0:0:
256,192,31974,1,8,0:0:0:0:
256,192,32191,1,0,0:0:0:0:
256,192,32300,1,8,0:0:0:0:
256,192,32409,1,0,0:0:0:0:
256,192,32626,1,8,0:0:0:0:
256,192,33061,1,0,0:0:0:0:
256,192,33387,1,0,0:0:0:0:
256,192,33713,1,8,0:0:0:0:
256,192,34039,1,8,0:0:0:0:
256,192,34365,1,0,0:0:0:0:
256,192,34583,1,8,0:0:0:0:
256,128,34800,1,4,0:0:0:0:
256,192,35017,1,8,0:0:0:0:
256,192,35126,1,8,0:0:0:0:
256,192,35235,1,0,0:0:0:0:
256,192,35344,1,8,0:0:0:0:
256,192,35452,1,0,0:0:0:0:
256,192,35507,1,0,0:0:0:0:
256,192,35561,1,8,0:0:0:0:
256,192,35670,1,8,0:0:0:0:
256,192,35778,1,0,0:0:0:0:
256,192,35887,1,8,0:0:0:0:
256,192,35996,1,8,0:0:0:0:
256,192,36104,1,0,0:0:0:0:
256,192,36213,1,0,0:0:0:0:
256,192,36322,1,8,0:0:0:0:
256,192,36431,1,8,0:0:0:0:
256,192,36539,1,0,0:0:0:0:
256,192,36757,1,8,0:0:0:0:
256,192,36865,1,0,0:0:0:0:
256,192,36974,1,8,0:0:0:0:
256,192,37191,1,8,0:0:0:0:
256,192,37409,1,0,0:0:0:0:
256,192,37481,1,0,0:0:0:0:
256,192,37554,1,0,0:0:0:0:
256,192,37626,1,8,0:0:0:0:
256,192,37735,1,8,0:0:0:0:
256,192,37844,1,0,0:0:0:0:
256,192,38061,1,8,0:0:0:0:
256,192,38170,1,0,0:0:0:0:
256,192,38278,1,8,0:0:0:0:
256,192,38496,1,8,0:0:0:0:
256,192,38550,1,8,0:0:0:0:
256,192,38604,1,8,0:0:0:0:
256,192,38713,1,0,0:0:0:0:
256,192,38822,1,8,0:0:0:0:
256,192,38931,1,0,0:0:0:0:
256,192,39039,1,0,0:0:0:0:
256,192,39148,1,8,0:0:0:0:
256,192,39202,1,8,0:0:0:0:
256,192,39257,1,0,0:0:0:0:
256,192,39365,1,8,0:0:0:0:
256,192,39583,1,0,0:0:0:0:
256,192,39691,1,0,0:0:0:0:
256,192,39800,1,0,0:0:0:0:
256,192,39909,1,8,0:0:0:0:
256,192,40017,1,0,0:0:0:0:
256,192,40235,1,8,0:0:0:0:
256,192,40344,1,8,0:0:0:0:
256,192,40452,1,0,0:0:0:0:
256,192,40561,1,0,0:0:0:0:
256,192,40670,1,8,0:0:0:0:
256,192,40778,1,8,0:0:0:0:
256,192,40887,1,0,0:0:0:0:
256,192,40960,1,0,0:0:0:0:
256,192,41032,1,8,0:0:0:0:
256,192,41104,1,8,0:0:0:0:
256,192,41213,1,8,0:0:0:0:
256,192,41322,1,8,0:0:0:0:
256,192,41539,1,8,0:0:0:0:
256,128,41757,1,4,0:0:0:0:
256,192,41974,1,8,0:0:0:0:
256,192,42083,1,8,0:0:0:0:
256,192,42191,1,0,0:0:0:0:
256,192,42300,1,8,0:0:0:0:
256,192,42409,1,0,0:0:0:0:
256,192,42517,1,0,0:0:0:0:
256,192,42626,1,8,0:0:0:0:
256,192,42681,1,8,0:0:0:0:
256,192,42735,1,0,0:0:0:0:
256,192,42844,1,8,0:0:0:0:
256,192,43061,1,0,0:0:0:0:
256,192,43170,1,0,0:0:0:0:
256,192,43278,1,8,0:0:0:0:
256,192,43387,1,0,0:0:0:0:
256,192,43496,1,0,0:0:0:0:
256,192,43713,1,8,0:0:0:0:
256,192,43822,1,0,0:0:0:0:
256,192,43931,1,8,0:0:0:0:
256,192,44039,1,0,0:0:0:0:
256,192,44148,1,8,0:0:0:0:
256,192,44257,1,8,0:0:0:0:
256,192,44365,1,0,0:0:0:0:
256,192,44474,1,8,0:0:0:0:
256,192,44583,1,0,0:0:0:0:
256,192,44655,1,8,0:0:0:0:
256,192,44728,1,8,0:0:0:0:
256,192,44800,1,0,0:0:0:0:
256,192,44909,1,8,0:0:0:0:
256,192,45017,1,0,0:0:0:0:
256,192,45235,1,8,0:0:0:0:
256,192,45344,1,0,0:0:0:0:
256,192,45452,1,8,0:0:0:0:
256,192,45507,1,8,0:0:0:0:
256,192,45561,1,0,0:0:0:0:
256,192,45670,1,8,0:0:0:0:
256,192,45778,1,8,0:0:0:0:
256,192,45887,1,0,0:0:0:0:
256,192,45996,1,0,0:0:0:0:
256,192,46104,1,8,0:0:0:0:
256,192,46177,1,0,0:0:0:0:
256,192,46249,1,0,0:0:0:0:
256,192,46322,1,8,0:0:0:0:
256,192,46539,1,0,0:0:0:0:
256,192,46648,1,8,0:0:0:0:
256,192,46757,1,0,0:0:0:0:
256,192,46865,1,8,0:0:0:0:
256,192,46974,1,0,0:0:0:0:
256,192,47191,1,8,0:0:0:0:
256,192,47264,1,0,0:0:0:0:
256,192,47336,1,0,0:0:0:0:
256,192,47409,1,8,0:0:0:0:
256,192,47517,1,0,0:0:0:0:
256,192,47626,1,8,0:0:0:0:
256,192,47735,1,8,0:0:0:0:
256,192,47844,1,0,0:0:0:0:
256,192,47916,1,0,0:0:0:0:
256,192,47989,1,0,0:0:0:0:
256,192,48061,1,8,0:0:0:0:
256,192,48170,1,8,0:0:0:0:
256,192,48278,1,8,0:0:0:0:
256,192,48496,1,8,0:0:0:0:
256,128,48713,1,4,0:0:0:0:
256,192,49039,1,0,0:0:0:0:
256,192,49148,1,8,0:0:0:0:
256,192,49365,1,8,0:0:0:0:
256,192,49474,1,8,0:0:0:0:
256,192,49583,1,0,0:0:0:0:
256,192,49800,1,8,0:0:0:0:
256,192,49909,1,0,0:0:0:0:
256,192,50017,1,8,0:0:0:0:
256,192,50126,1,8,0:0:0:0:
256,192,50235,1,0,0:0:0:0:
256,192,50344,1,0,0:0:0:0:
256,192,50452,1,8,0:0:0:0:
256,192,50778,1,0,0:0:0:0:
256,192,50887,1,8,0:0:0:0:
256,192,51104,1,0,0:0:0:0:
256,192,51213,1,8,0:0:0:0:
256,192,51322,1,0,0:0:0:0:
256,192,51431,1,0,0:0:0:0:
256,192,51539,1,8,0:0:0:0:
256,192,51648,1,0,0:0:0:0:
256,192,51757,1,8,0:0:0:0:
256,192,51865,1,8,0:0:0:0:
256,192,51974,1,0,0:0:0:0:
256,192,52083,1,0,0:0:0:0:
256,192,52191,1,8,0:0:0:0:
256,192,52517,1,0,0:0:0:0:
256,192,52626,1,8,0:0:0:0:
256,192,52844,1,8,0:0:0:0:
256,192,52952,1,0,0:0:0:0:
256,192,53061,1,8,0:0:0:0:
256,192,53278,1,0,0:0:0:0:
256,192,53387,1,8,0:0:0:0:
256,192,53496,1,0,0:0:0:0:
256,192,53604,1,0,0:0:0:0:
256,192,53713,1,8,0:0:0:0:
256,128,53931,1,4,0:0:0:0:
256,192,54257,1,0,0:0:0:0:
256,192,54365,1,8,0:0:0:0:
256,192,54583,1,0,0:0:0:0:
256,192,54800,1,8,0:0:0:0:
256,192,54873,1,8,0:0:0:0:
256,192,54945,1,8,0:0:0:0:
256,192,55017,1,0,0:0:0:0:
256,128,55235,1,12,0:0:0:0:
256,192,55670,1,0,0:0:0:0:
256,192,55778,1,0,0:0:0:0:
256,192,55887,1,8,0:0:0:0:
256,192,55960,1,8,0:0:0:0:
256,192,56032,1,8,0:0:0:0:
256,192,56104,1,0,0:0:0:0:
256,192,56322,1,8,0:0:0:0:
256,192,56539,1,0,0:0:0:0:
256,192,56757,1,8,0:0:0:0:
256,192,56974,1,0,0:0:0:0:
256,192,57083,1,8,0:0:0:0:
256,192,57191,1,8,0:0:0:0:
256,192,57300,1,8,0:0:0:0:
256,192,57409,1,0,0:0:0:0:
256,192,57517,1,0,0:0:0:0:
256,192,57626,1,8,0:0:0:0:
256,192,57699,1,0,0:0:0:0:
256,192,57771,1,0,0:0:0:0:
256,192,57844,1,8,0:0:0:0:
256,192,58061,1,8,0:0:0:0:
256,192,58278,1,0,0:0:0:0:
256,192,58387,1,8,0:0:0:0:
256,192,58496,1,0,0:0:0:0:
256,192,58604,1,0,0:0:0:0:
256,192,58713,1,8,0:0:0:0:
256,192,58822,1,8,0:0:0:0:
256,192,58931,1,0,0:0:0:0:
256,192,59039,1,8,0:0:0:0:
256,192,59148,1,0,0:0:0:0:
256,192,59220,1,0,0:0:0:0:
256,192,59293,1,0,0:0:0:0:
256,192,59365,1,8,0:0:0:0:
256,192,59474,1,8,0:0:0:0:
256,192,59583,1,0,0:0:0:0:
256,192,59800,1,8,0:0:0:0:
256,192,60017,1,0,0:0:0:0:
256,192,60235,1,8,0:0:0:0:
256,192,60452,1,0,0:0:0:0:
256,192,60561,1,0,0:0:0:0:
256,192,60670,1,8,0:0:0:0:
256,192,60778,1,8,0:0:0:0:
256,192,60887,1,0,0:0:0:0:
256,192,60960,1,8,0:0:0:0:
256,192,61032,1,8,0:0:0:0:
256,192,61104,1,0,0:0:0:0:
256,192,61213,1,8,0:0:0:0:
256,192,61322,1,0,0:0:0:0:
256,192,61539,1,8,0:0:0:0:
256,192,61757,1,0,0:0:0:0:
256,192,61974,1,8,0:0:0:0:
256,192,62083,1,0,0:0:0:0:
256,192,62191,1,8,0:0:0:0:
256,192,62300,1,0,0:0:0:0:
256,192,62409,1,8,0:0:0:0:
256,192,62517,1,8,0:0:0:0:
256,192,62626,1,0,0:0:0:0:
256,192,62699,1,0,0:0:0:0:
256,192,62771,1,0,0:0:0:0:
256,192,62844,1,8,0:0:0:0:
256,192,62952,1,8,0:0:0:0:
256,192,63061,1,0,0:0:0:0:
256,192,63278,1,8,0:0:0:0:
256,192,63496,1,0,0:0:0:0:
256,192,63713,1,8,0:0:0:0:
256,192,63931,1,0,0:0:0:0:
256,192,64039,1,8,0:0:0:0:
256,192,64148,1,0,0:0:0:0:
256,192,64257,1,0,0:0:0:0:
256,192,64365,1,8,0:0:0:0:
256,192,64438,1,8,0:0:0:0:
256,192,64510,1,8,0:0:0:0:
256,192,64583,1,0,0:0:0:0:
256,192,64691,1,8,0:0:0:0:
256,192,64800,1,0,0:0:0:0:
256,192,65017,1,8,0:0:0:0:
256,192,65235,1,0,0:0:0:0:
256,192,65344,1,8,0:0:0:0:
256,192,65452,1,0,0:0:0:0:
256,192,65561,1,0,0:0:0:0:
256,192,65670,1,8,0:0:0:0:
256,192,65778,1,0,0:0:0:0:
256,192,65887,1,8,0:0:0:0:
256,192,65996,1,8,0:0:0:0:
256,192,66104,1,0,0:0:0:0:
256,192,66177,1,0,0:0:0:0:
256,192,66249,1,0,0:0:0:0:
256,192,66322,1,8,0:0:0:0:
256,192,66431,1,8,0:0:0:0:
256,192,66539,1,0,0:0:0:0:
256,192,66757,1,8,0:0:0:0:
256,192,66974,1,0,0:0:0:0:
256,192,67191,1,8,0:0:0:0:
256,192,67409,1,0,0:0:0:0:
256,192,67517,1,0,0:0:0:0:
256,192,67626,1,0,0:0:0:0:
256,192,67735,1,0,0:0:0:0:
256,192,67844,1,0,0:0:0:0:
256,192,68061,12,0,69148,0:0:0:0:
256,128,69583,5,4,0:0:0:0:
256,192,69800,1,0,0:0:0:0:
256,192,69909,1,0,0:0:0:0:
256,192,70017,1,8,0:0:0:0:
256,192,70090,1,8,0:0:0:0:
256,192,70162,1,8,0:0:0:0:
256,192,70235,1,0,0:0:0:0:
256,192,70452,1,8,0:0:0:0:
256,192,70670,1,0,0:0:0:0:
256,192,70778,1,0,0:0:0:0:
256,192,70887,1,8,0:0:0:0:
256,192,70960,1,8,0:0:0:0:
256,192,71032,1,0,0:0:0:0:
256,192,71104,1,0,0:0:0:0:
256,192,71213,1,0,0:0:0:0:
256,192,71322,1,8,0:0:0:0:
256,192,71431,1,0,0:0:0:0:
256,192,71539,1,8,0:0:0:0:
256,192,71648,1,8,0:0:0:0:
256,192,71757,1,0,0:0:0:0:
256,192,71974,1,8,0:0:0:0:
256,192,72191,1,0,0:0:0:0:
256,192,72264,1,8,0:0:0:0:
256,192,72336,1,8,0:0:0:0:
256,192,72409,1,0,0:0:0:0:
256,192,72517,1,0,0:0:0:0:
256,192,72626,1,8,0:0:0:0:
256,192,72844,1,8,0:0:0:0:
256,192,73061,5,0,0:0:0:0:
256,192,73278,1,0,0:0:0:0:
256,192,73387,1,0,0:0:0:0:
256,192,73496,1,8,0:0:0:0:
256,192,73568,1,8,0:0:0:0:
256,192,73641,1,8,0:0:0:0:
256,192,73713,1,0,0:0:0:0:
256,192,73822,1,0,0:0:0:0:
256,192,73931,1,8,0:0:0:0:
256,192,74148,1,0,0:0:0:0:
256,192,74257,1,0,0:0:0:0:
256,192,74365,1,8,0:0:0:0:
256,192,74438,1,8,0:0:0:0:
256,192,74510,1,0,0:0:0:0:
256,192,74583,1,0,0:0:0:0:
256,192,74691,1,0,0:0:0:0:
256,192,74800,1,8,0:0:0:0:
256,192,74909,1,0,0:0:0:0:
256,192,75017,1,8,0:0:0:0:
256,192,75126,1,8,0:0:0:0:
256,192,75235,1,0,0:0:0:0:
256,192,75452,1,8,0:0:0:0:
256,192,75670,1,0,0:0:0:0:
256,192,75742,1,8,0:0:0:0:
256,192,75815,1,8,0:0:0:0:
256,192,75887,1,8,0:0:0:0:
256,192,75996,1,8,0:0:0:0:
256,192,76104,1,8,0:0:0:0:
256,192,76322,1,8,0:0:0:0:
256,192,76539,5,0,0:0:0:0:
256,192,76757,1,0,0:0:0:0:
256,192,76865,1,0,0:0:0:0:
256,192,76974,1,8,0:0:0:0:
256,192,77046,1,8,0:0:0:0:
256,192,77119,1,8,0:0:0:0:
256,192,77191,1,0,0:0:0:0:
256,192,77409,1,8,0:0:0:0:
256,192,77626,1,0,0:0:0:0:
256,192,77735,1,0,0:0:0:0:
256,192,77844,1,8,0:0:0:0:
256,192,77916,1,8,0:0:0:0:
256,192,77989,1,0,0:0:0:0:
256,192,78061,1,0,0:0:0:0:
256,192,78170,1,0,0:0:0:0:
256,192,78278,1,8,0:0:0:0:
256,192,78387,1,0,0:0:0:0:
256,192,78496,1,8,0:0:0:0:
256,192,78604,1,8,0:0:0:0:
256,192,78713,1,0,0:0:0:0:
256,192,78931,1,8,0:0:0:0:
256,192,79148,1,0,0:0:0:0:
256,192,79220,1,0,0:0:0:0:
256,192,79293,1,0,0:0:0:0:
256,192,79365,1,8,0:0:0:0:
256,192,79474,1,8,0:0:0:0:
256,192,79583,1,0,0:0:0:0:
256,192,79800,1,8,0:0:0:0:
256,192,80017,5,0,0:0:0:0:
256,192,80235,1,0,0:0:0:0:
256,192,80344,1,0,0:0:0:0:
256,192,80452,1,8,0:0:0:0:
256,192,80525,1,8,0:0:0:0:
256,192,80597,1,8,0:0:0:0:
256,192,80670,1,0,0:0:0:0:
256,192,80778,1,0,0:0:0:0:
256,192,80887,1,8,0:0:0:0:
256,192,81104,1,0,0:0:0:0:
256,192,81213,1,0,0:0:0:0:
256,192,81322,1,8,0:0:0:0:
256,192,81394,1,8,0:0:0:0:
256,192,81467,1,0,0:0:0:0:
256,192,81539,1,0,0:0:0:0:
256,192,81648,1,0,0:0:0:0:
256,192,81757,1,8,0:0:0:0:
256,192,81974,1,0,0:0:0:0:
256,192,82191,1,8,0:0:0:0:
256,192,82409,1,8,0:0:0:0:
256,192,82626,1,0,0:0:0:0:
256,192,82735,1,8,0:0:0:0:
256,192,82844,1,0,0:0:0:0:
256,192,82916,1,8,0:0:0:0:
256,192,82989,1,8,0:0:0:0:
256,192,83061,1,0,0:0:0:0:
256,192,83278,1,0,0:0:0:0:
256,128,83496,5,4,0:0:0:0:
256,192,83713,1,0,0:0:0:0:
256,192,83822,1,0,0:0:0:0:
256,192,83931,1,8,0:0:0:0:
256,192,84003,1,8,0:0:0:0:
256,192,84075,1,8,0:0:0:0:
256,192,84148,1,0,0:0:0:0:
256,192,84365,1,8,0:0:0:0:
256,192,84583,1,0,0:0:0:0:
256,192,84691,1,0,0:0:0:0:
256,192,84800,1,8,0:0:0:0:
256,192,84873,1,8,0:0:0:0:
256,192,84945,1,0,0:0:0:0:
256,192,85017,1,0,0:0:0:0:
256,192,85126,1,0,0:0:0:0:
256,192,85235,1,8,0:0:0:0:
256,192,85344,1,0,0:0:0:0:
256,192,85452,1,8,0:0:0:0:
256,192,85561,1,8,0:0:0:0:
256,192,85670,1,0,0:0:0:0:
256,192,85887,1,8,0:0:0:0:
256,192,86104,1,8,0:0:0:0:
256,192,86177,1,8,0:0:0:0:
256,192,86249,1,8,0:0:0:0:
256,192,86322,1,0,0:0:0:0:
256,192,86431,1,0,0:0:0:0:
256,192,86539,1,8,0:0:0:0:
256,192,86648,1,8,0:0:0:0:
256,192,86757,1,0,0:0:0:0:
256,192,86974,5,8,0:0:0:0:
256,192,87191,1,0,0:0:0:0:
256,192,87300,1,0,0:0:0:0:
256,192,87409,1,8,0:0:0:0:
256,192,87481,1,8,0:0:0:0:
256,192,87554,1,8,0:0:0:0:
256,192,87626,1,0,0:0:0:0:
256,192,87735,1,0,0:0:0:0:
256,192,87844,1,8,0:0:0:0:
256,192,87952,1,8,0:0:0:0:
256,192,88061,1,0,0:0:0:0:
256,192,88170,1,0,0:0:0:0:
256,192,88278,1,8,0:0:0:0:
256,192,88351,1,8,0:0:0:0:
256,192,88423,1,0,0:0:0:0:
256,192,88496,1,0,0:0:0:0:
256,192,88604,1,0,0:0:0:0:
256,192,88713,1,8,0:0:0:0:
256,192,88822,1,0,0:0:0:0:
256,192,88931,1,8,0:0:0:0:
256,192,89039,1,8,0:0:0:0:
256,192,89148,1,0,0:0:0:0:
256,192,89365,1,8,0:0:0:0:
256,192,89583,1,0,0:0:0:0:
256,192,89655,1,8,0:0:0:0:
256,192,89728,1,8,0:0:0:0:
256,192,89800,1,8,0:0:0:0:
256,192,89909,1,8,0:0:0:0:
256,192,90017,1,8,0:0:0:0:
256,192,90235,1,8,0:0:0:0:
256,192,90452,5,0,0:0:0:0:
256,192,90670,1,0,0:0:0:0:
256,192,90778,1,0,0:0:0:0:
256,192,90887,1,8,0:0:0:0:
256,192,90960,1,8,0:0:0:0:
256,192,91032,1,8,0:0:0:0:
256,192,91104,1,0,0:0:0:0:
256,192,91213,1,0,0:0:0:0:
256,192,91322,1,8,0:0:0:0:
256,192,91539,1,0,0:0:0:0:
256,192,91648,1,0,0:0:0:0:
256,192,91757,1,8,0:0:0:0:
256,192,91829,1,8,0:0:0:0:
256,192,91902,1,0,0:0:0:0:
256,192,91974,1,0,0:0:0:0:
256,192,92083,1,0,0:0:0:0:
256,192,92191,1,8,0:0:0:0:
256,192,92300,1,0,0:0:0:0:
256,192,92409,1,8,0:0:0:0:
256,192,92517,1,8,0:0:0:0:
256,192,92626,1,0,0:0:0:0:
256,192,92844,1,8,0:0:0:0:
256,192,93061,1,0,0:0:0:0:
256,192,93133,1,0,0:0:0:0:
256,192,93206,1,8,0:0:0:0:
256,192,93278,1,8,0:0:0:0:
256,192,93387,1,8,0:0:0:0:
256,192,93496,1,0,0:0:0:0:
256,192,93604,1,0,0:0:0:0:
256,192,93713,1,8,0:0:0:0:
256,192,93822,1,8,0:0:0:0:
256,192,93931,5,0,0:0:0:0:
256,192,94148,1,0,0:0:0:0:
256,192,94257,1,0,0:0:0:0:
256,192,94365,1,8,0:0:0:0:
256,192,94438,1,8,0:0:0:0:
256,192,94510,1,8,0:0:0:0:
256,192,94583,1,0,0:0:0:0:
256,192,94691,1,0,0:0:0:0:
256,192,94800,1,8,0:0:0:0:
256,192,95017,1,0,0:0:0:0:
256,192,95126,1,0,0:0:0:0:
256,192,95235,1,8,0:0:0:0:
256,192,95307,1,8,0:0:0:0:
256,192,95380,1,8,0:0:0:0:
256,192,95452,1,8,0:0:0:0:
256,192,95561,1,8,0:0:0:0:
256,192,95670,1,0,0:0:0:0:
256,192,96322,1,0,0:0:0:0:
256,192,96539,1,8,0:0:0:0:
256,192,96757,1,0,0:0:0:0:
256,192,96974,1,0,0:0:0:0:
256,192,97191,1,8,0:0:0:0:
256,128,97409,1,4,0:0:0:0:
256,128,97735,1,12,0:0:0:0:
256,192,98278,1,8,0:0:0:0:
256,192,98496,1,0,0:0:0:0:
256,192,98931,1,8,0:0:0:0:
256,192,98967,1,8,0:0:0:0:
256,192,100017,1,8,0:0:0:0:
256,192,100235,1,8,0:0:0:0:
256,192,100452,1,0,0:0:0:0:
256,192,100670,1,0,0:0:0:0:
256,128,100887,1,4,0:0:0:0:
256,128,101213,1,12,0:0:0:0:
256,192,101757,1,8,0:0:0:0:
256,192,101974,1,0,0:0:0:0:
256,192,102409,1,8,0:0:0:0:
256,192,102844,1,0,0:0:0:0:
256,192,103061,1,8,0:0:0:0:
256,192,103278,1,0,0:0:0:0:
256,192,103496,1,8,0:0:0:0:
256,192,103713,1,8,0:0:0:0:
256,192,103931,1,0,0:0:0:0:
256,192,104148,1,8,0:0:0:0:
256,128,104365,1,4,0:0:0:0:
256,128,104691,1,4,0:0:0:0:
256,192,105235,1,8,0:0:0:0:
256,192,105452,1,0,0:0:0:0:
256,192,105887,1,8,0:0:0:0:
256,192,105923,1,8,0:0:0:0:
256,192,106322,1,8,0:0:0:0:
256,192,106539,1,0,0:0:0:0:
256,192,106757,1,8,0:0:0:0:
256,192,106974,1,0,0:0:0:0:
256,192,107191,1,0,0:0:0:0:
256,192,107409,1,8,0:0:0:0:
256,192,107626,1,0,0:0:0:0:
256,128,107844,1,4,0:0:0:0:
256,192,108061,1,8,0:0:0:0:
256,128,108170,1,4,0:0:0:0:
256,192,108387,1,8,0:0:0:0:
256,128,108496,1,4,0:0:0:0:
256,192,108713,1,8,0:0:0:0:
256,192,108931,1,0,0:0:0:0:
256,192,109365,1,8,0:0:0:0:
256,192,109402,1,8,0:0:0:0:
256,192,110235,1,0,0:0:0:0:
256,192,110452,1,8,0:0:0:0:
256,192,110670,1,0,0:0:0:0:
256,192,110887,1,8,0:0:0:0:
256,192,111104,1,8,0:0:0:0:
256,128,111322,1,4,0:0:0:0:
256,192,111648,1,0,0:0:0:0:
256,192,111757,1,8,0:0:0:0:
256,192,112191,1,0,0:0:0:0:
256,192,112409,1,8,0:0:0:0:
256,192,112626,1,8,0:0:0:0:
256,192,112844,1,0,0:0:0:0:
256,192,113278,1,0,0:0:0:0:
256,192,113496,1,8,0:0:0:0:
256,192,113713,1,0,0:0:0:0:
256,192,113931,1,8,0:0:0:0:
256,192,114148,1,8,0:0:0:0:
256,192,114365,1,8,0:0:0:0:
256,192,114583,1,8,0:0:0:0:
256,128,114800,1,4,0:0:0:0:
256,192,115126,1,0,0:0:0:0:
256,192,115235,1,8,0:0:0:0:
256,192,115670,1,8,0:0:0:0:
256,192,115887,1,0,0:0:0:0:
256,192,116104,1,0,0:0:0:0:
256,192,116322,1,8,0:0:0:0:
256,192,116757,1,0,0:0:0:0:
256,192,116974,1,8,0:0:0:0:
256,192,117191,1,0,0:0:0:0:
256,192,117409,1,8,0:0:0:0:
256,192,117626,1,8,0:0:0:0:
256,192,117844,1,0,0:0:0:0:
256,192,118061,1,8,0:0:0:0:
256,128,118278,1,4,0:0:0:0:
256,192,118496,1,0,0:0:0:0:
256,192,118604,1,0,0:0:0:0:
256,192,118713,1,8,0:0:0:0:
256,192,118931,1,8,0:0:0:0:
256,192,119148,1,0,0:0:0:0:
256,192,119365,1,0,0:0:0:0:
256,192,119583,1,8,0:0:0:0:
256,192,119800,1,8,0:0:0:0:
256,128,120017,1,4,0:0:0:0:
256,192,120235,1,8,0:0:0:0:
256,192,120452,1,8,0:0:0:0:
256,192,120670,1,0,0:0:0:0:
256,192,120887,1,8,0:0:0:0:
256,192,121104,1,8,0:0:0:0:
256,192,121322,1,8,0:0:0:0:
256,192,121539,1,0,0:0:0:0:
256,128,121757,1,4,0:0:0:0:
256,192,121974,1,0,0:0:0:0:
256,192,122083,1,0,0:0:0:0:
256,192,122191,1,8,0:0:0:0:
256,192,122409,1,0,0:0:0:0:
256,192,122626,1,8,0:0:0:0:
256,192,122735,1,8,0:0:0:0:
256,192,122844,1,0,0:0:0:0:
256,192,123061,1,0,0:0:0:0:
256,192,123278,1,8,0:0:0:0:
256,192,123351,1,8,0:0:0:0:
256,192,123423,1,8,0:0:0:0:
256,192,123496,1,0,0:0:0:0:
256,192,123713,1,0,0:0:0:0:
256,192,123931,1,8,0:0:0:0:
256,192,124148,1,8,0:0:0:0:
256,192,124365,1,8,0:0:0:0:
256,192,124583,1,8,0:0:0:0:
256,192,124800,1,8,0:0:0:0:
256,192,125017,1,8,0:0:0:0:
256,192,125235,1,0,0:0:0:0:
256,192,125452,1,8,0:0:0:0:
256,192,125561,1,0,0:0:0:0:
256,192,125670,1,8,0:0:0:0:
256,192,125887,1,0,0:0:0:0:
256,192,125996,1,0,0:0:0:0:
256,192,126104,1,8,0:0:0:0:
256,192,126322,1,0,0:0:0:0:
256,192,126431,1,8,0:0:0:0:
256,192,126539,1,0,0:0:0:0:
256,192,126757,1,8,0:0:0:0:
256,192,126829,1,8,0:0:0:0:
256,192,126902,1,8,0:0:0:0:
256,192,126974,1,0,0:0:0:0:
256,192,127191,1,0,0:0:0:0:
256,192,127300,1,8,0:0:0:0:
256,192,127409,1,0,0:0:0:0:
256,192,127626,1,0,0:0:0:0:
256,192,127735,1,0,0:0:0:0:
256,192,127844,1,8,0:0:0:0:
256,192,128061,1,8,0:0:0:0:
256,192,128278,1,0,0:0:0:0:
256,192,128496,1,0,0:0:0:0:
256,192,128713,1,0,0:0:0:0:
256,192,128931,1,8,0:0:0:0:
256,192,129039,1,0,0:0:0:0:
256,192,129148,1,8,0:0:0:0:
256,192,129365,1,0,0:0:0:0:
256,192,129474,1,0,0:0:0:0:
256,192,129583,1,8,0:0:0:0:
256,192,129800,1,0,0:0:0:0:
256,192,129909,1,8,0:0:0:0:
256,192,130017,1,0,0:0:0:0:
256,192,130235,1,8,0:0:0:0:
256,192,130307,1,8,0:0:0:0:
256,192,130380,1,8,0:0:0:0:
256,192,130452,1,0,0:0:0:0:
256,192,130670,1,0,0:0:0:0:
256,192,130778,1,8,0:0:0:0:
256,192,130887,1,0,0:0:0:0:
256,192,131104,1,0,0:0:0:0:
256,192,131213,1,0,0:0:0:0:
256,192,131322,1,8,0:0:0:0:
256,192,131539,1,8,0:0:0:0:
256,192,131757,1,0,0:0:0:0:
256,192,131974,1,0,0:0:0:0:
256,192,132191,1,0,0:0:0:0:
256,192,132409,1,8,0:0:0:0:
256,192,132517,1,0,0:0:0:0:
256,192,132626,1,8,0:0:0:0:
256,192,132844,1,0,0:0:0:0:
256,192,132952,1,8,0:0:0:0:
256,192,133061,1,0,0:0:0:0:
256,192,133278,1,0,0:0:0:0:
256,192,133387,1,0,0:0:0:0:
256,192,133496,1,8,0:0:0:0:
256,192,133713,1,8,0:0:0:0:
256,192,133786,1,8,0:0:0:0:
256,192,133858,1,8,0:0:0:0:
256,192,133931,1,0,0:0:0:0:
256,192,134148,1,0,0:0:0:0:
256,192,134257,1,0,0:0:0:0:
256,192,134365,1,8,0:0:0:0:
256,192,134583,1,0,0:0:0:0:
256,192,134691,1,8,0:0:0:0:
256,192,134800,1,0,0:0:0:0:
256,192,135017,1,0,0:0:0:0:
256,192,135235,1,8,0:0:0:0:
256,192,135452,1,0,0:0:0:0:
256,192,135670,1,0,0:0:0:0:
256,192,135887,1,8,0:0:0:0:
256,192,135996,1,0,0:0:0:0:
256,192,136104,1,8,0:0:0:0:
256,192,136322,1,0,0:0:0:0:
256,192,136431,1,8,0:0:0:0:
256,192,136539,1,0,0:0:0:0:
256,192,136757,1,8,0:0:0:0:
256,192,136865,1,0,0:0:0:0:
256,192,137083,1,8,0:0:0:0:
256,192,137191,1,0,0:0:0:0:
256,192,137409,1,0,0:0:0:0:
256,192,137626,1,8,0:0:0:0:
256,192,137844,1,0,0:0:0:0:
256,192,138061,1,8,0:0:0:0:
256,192,138278,1,0,0:0:0:0:
256,192,138387,1,0,0:0:0:0:
256,192,138496,1,8,0:0:0:0:
256,192,138604,1,8,0:0:0:0:
256,192,138713,1,0,0:0:0:0:
256,192,138931,1,8,0:0:0:0:
256,128,139148,1,4,0:0:0:0:
256,192,139365,1,0,0:0:0:0:
256,192,139474,1,0,0:0:0:0:
256,192,139583,1,8,0:0:0:0:
256,192,139800,1,8,0:0:0:0:
256,192,140017,1,0,0:0:0:0:
256,192,140235,1,0,0:0:0:0:
256,192,140344,1,0,0:0:0:0:
256,192,140452,1,8,0:0:0:0:
256,192,140561,1,8,0:0:0:0:
256,192,140670,1,0,0:0:0:0:
256,192,140778,1,8,0:0:0:0:
256,192,140887,1,0,0:0:0:0:
256,192,140996,1,0,0:0:0:0:
256,192,141104,1,8,0:0:0:0:
256,192,141322,1,0,0:0:0:0:
256,192,141539,1,0,0:0:0:0:
256,192,141757,1,8,0:0:0:0:
256,192,141865,1,8,0:0:0:0:
256,192,141974,1,0,0:0:0:0:
256,192,142083,1,0,0:0:0:0:
256,192,142191,1,8,0:0:0:0:
256,192,142300,1,0,0:0:0:0:
256,192,142409,1,8,0:0:0:0:
256,192,142517,1,8,0:0:0:0:
256,192,142626,1,0,0:0:0:0:
256,192,142844,1,0,0:0:0:0:
256,192,142952,1,0,0:0:0:0:
256,192,143061,1,8,0:0:0:0:
256,192,143278,1,8,0:0:0:0:
256,192,143496,1,0,0:0:0:0:
256,192,143713,1,0,0:0:0:0:
256,192,143822,1,8,0:0:0:0:
256,192,143931,1,0,0:0:0:0:
256,192,144039,1,8,0:0:0:0:
256,192,144148,1,0,0:0:0:0:
256,192,144257,1,0,0:0:0:0:
256,192,144365,1,8,0:0:0:0:
256,192,144474,1,8,0:0:0:0:
256,192,144583,1,0,0:0:0:0:
256,192,144800,1,8,0:0:0:0:
256,192,145017,1,0,0:0:0:0:
256,192,145235,1,8,0:0:0:0:
256,192,145344,1,8,0:0:0:0:
256,192,145452,1,0,0:0:0:0:
256,192,145561,1,0,0:0:0:0:
256,192,145670,1,8,0:0:0:0:
256,192,145778,1,0,0:0:0:0:
256,192,145887,1,8,0:0:0:0:
256,192,145996,1,8,0:0:0:0:
256,192,146104,1,0,0:0:0:0:
256,192,146213,1,0,0:0:0:0:
256,192,146322,1,0,0:0:0:0:
256,192,146431,1,0,0:0:0:0:
256,192,146539,1,8,0:0:0:0:
256,192,146757,1,8,0:0:0:0:
256,192,146974,1,0,0:0:0:0:
256,192,147191,1,0,0:0:0:0:
256,192,147300,1,0,0:0:0:0:
256,192,147409,1,8,0:0:0:0:
256,192,147517,1,8,0:0:0:0:
256,192,147626,1,0,0:0:0:0:
256,192,147735,1,8,0:0:0:0:
256,192,147844,1,0,0:0:0:0:
256,192,147952,1,0,0:0:0:0:
256,192,148061,1,8,0:0:0:0:
256,192,148278,1,0,0:0:0:0:
256,192,148496,1,0,0:0:0:0:
256,192,148713,1,8,0:0:0:0:
256,192,148822,1,8,0:0:0:0:
256,192,148931,1,0,0:0:0:0:
256,192,149039,1,0,0:0:0:0:
256,192,149148,1,8,0:0:0:0:
256,192,149257,1,0,0:0:0:0:
256,192,149365,1,8,0:0:0:0:
256,192,149474,1,8,0:0:0:0:
256,192,149583,1,0,0:0:0:0:
256,192,149800,1,0,0:0:0:0:
256,192,149909,1,0,0:0:0:0:
256,192,150017,1,8,0:0:0:0:
256,192,150235,1,8,0:0:0:0:
256,192,150452,1,0,0:0:0:0:
256,192,150670,1,0,0:0:0:0:
256,192,150778,1,0,0:0:0:0:
256,192,150887,1,8,0:0:0:0:
256,192,150996,1,8,0:0:0:0:
256,192,151104,1,0,0:0:0:0:
256,192,151213,1,0,0:0:0:0:
256,192,151322,1,8,0:0:0:0:
256,192,151539,1,8,0:0:0:0:
256,192,151757,1,8,0:0:0:0:
256,192,151974,1,8,0:0:0:0:
256,192,152046,1,8,0:0:0:0:
256,192,152119,1,8,0:0:0:0:
256,192,152191,1,8,0:0:0:0:
256,192,152300,1,8,0:0:0:0:
256,192,152409,1,8,0:0:0:0:
256,192,152626,1,0,0:0:0:0:
256,192,152844,1,8,0:0:0:0:
256,128,153061,1,4,0:0:0:0:
256,192,153278,1,0,0:0:0:0:
256,192,153387,1,0,0:0:0:0:
256,192,153496,1,8,0:0:0:0:
256,192,153568,1,8,0:0:0:0:
256,192,153641,1,8,0:0:0:0:
256,192,153713,1,8,0:0:0:0:
256,192,153822,1,8,0:0:0:0:
256,192,153931,1,0,0:0:0:0:
256,192,154148,1,0,0:0:0:0:
256,192,154257,1,0,0:0:0:0:
256,192,154365,1,8,0:0:0:0:
256,192,154474,1,8,0:0:0:0:
256,192,154583,1,0,0:0:0:0:
256,192,154691,1,0,0:0:0:0:
256,192,154800,1,8,0:0:0:0:
256,192,154873,1,8,0:0:0:0:
256,192,154945,1,8,0:0:0:0:
256,192,155017,1,8,0:0:0:0:
256,192,155126,1,8,0:0:0:0:
256,192,155235,1,0,0:0:0:0:
256,192,155452,1,0,0:0:0:0:
256,192,155670,1,8,0:0:0:0:
256,192,155778,1,8,0:0:0:0:
256,192,155887,1,0,0:0:0:0:
256,192,155996,1,0,0:0:0:0:
256,192,156104,1,8,0:0:0:0:
256,192,156213,1,0,0:0:0:0:
256,192,156322,1,8,0:0:0:0:
256,192,156431,1,8,0:0:0:0:
256,192,156539,1,0,0:0:0:0:
256,192,156757,1,0,0:0:0:0:
256,192,156865,1,0,0:0:0:0:
256,192,156974,1,8,0:0:0:0:
256,192,157046,1,8,0:0:0:0:
256,192,157119,1,8,0:0:0:0:
256,192,157191,1,8,0:0:0:0:
256,192,157300,1,8,0:0:0:0:
256,192,157409,1,0,0:0:0:0:
256,192,157626,1,0,0:0:0:0:
256,192,157735,1,8,0:0:0:0:
256,192,157844,1,0,0:0:0:0:
256,192,157952,1,8,0:0:0:0:
256,192,158061,1,0,0:0:0:0:
256,192,158170,1,0,0:0:0:0:
256,192,158278,1,8,0:0:0:0:
256,192,158351,1,8,0:0:0:0:
256,192,158423,1,8,0:0:0:0:
256,192,158496,1,0,0:0:0:0:
256,192,158713,1,8,0:0:0:0:
256,192,158931,1,0,0:0:0:0:
256,192,159148,1,8,0:0:0:0:
256,192,159257,1,8,0:0:0:0:
256,192,159365,1,0,0:0:0:0:
256,192,159474,1,0,0:0:0:0:
256,192,159583,1,8,0:0:0:0:
256,192,159691,1,0,0:0:0:0:
256,192,159800,1,8,0:0:0:0:
256,192,159909,1,8,0:0:0:0:
256,192,160017,1,0,0:0:0:0:
256,192,160235,1,0,0:0:0:0:
256,192,160344,1,0,0:0:0:0:
256,192,160452,1,8,0:0:0:0:
256,192,160525,1,8,0:0:0:0:
256,192,160597,1,8,0:0:0:0:
256,192,160670,1,8,0:0:0:0:
256,192,160778,1,8,0:0:0:0:
256,192,160887,1,0,0:0:0:0:
256,192,161104,1,0,0:0:0:0:
256,192,161213,1,0,0:0:0:0:
256,192,161322,1,8,0:0:0:0:
256,192,161431,1,8,0:0:0:0:
256,192,161539,1,0,0:0:0:0:
256,192,161648,1,0,0:0:0:0:
256,192,161757,1,8,0:0:0:0:
256,192,161865,1,8,0:0:0:0:
256,192,161974,1,0,0:0:0:0:
256,192,162083,1,8,0:0:0:0:
256,192,162191,1,0,0:0:0:0:
256,192,162300,1,0,0:0:0:0:
256,192,162409,1,8,0:0:0:0:
256,192,162517,1,0,0:0:0:0:
256,128,163496,1,4,0:0:0:0:
256,192,163713,1,0,0:0:0:0:
256,192,163822,1,0,0:0:0:0:
256,192,163931,1,8,0:0:0:0:
256,192,164003,1,8,0:0:0:0:
256,192,164075,1,8,0:0:0:0:
256,192,164148,1,8,0:0:0:0:
256,192,164257,1,8,0:0:0:0:
256,192,164365,1,0,0:0:0:0:
256,192,164583,1,0,0:0:0:0:
256,192,164691,1,0,0:0:0:0:
256,192,164800,1,8,0:0:0:0:
256,192,164909,1,8,0:0:0:0:
256,192,165017,1,0,0:0:0:0:
256,192,165126,1,0,0:0:0:0:
256,192,165235,1,8,0:0:0:0:
256,192,165307,1,8,0:0:0:0:
256,192,165380,1,8,0:0:0:0:
256,192,165452,1,8,0:0:0:0:
256,192,165561,1,8,0:0:0:0:
256,192,165670,1,0,0:0:0:0:
256,192,165778,1,0,0:0:0:0:
256,192,165887,1,8,0:0:0:0:
256,192,166104,1,0,0:0:0:0:
256,192,166213,1,8,0:0:0:0:
256,192,166431,1,8,0:0:0:0:
256,192,166757,1,0,0:0:0:0:
256,128,166974,1,12,0:0:0:0:
256,192,167409,1,0,0:0:0:0:
256,192,167844,1,0,0:0:0:0:
256,192,168278,1,8,0:0:0:0:
256,192,168496,1,8,0:0:0:0:
256,192,168713,1,0,0:0:0:0:
256,192,169148,1,0,0:0:0:0:
256,192,169583,1,8,0:0:0:0:
256,192,169800,1,0,0:0:0:0:
256,192,170017,1,8,0:0:0:0:
256,192,170235,1,0,0:0:0:0:
256,192,170452,1,0,0:0:0:0:
256,192,170887,1,0,0:0:0:0:
256,192,171322,1,8,0:0:0:0:
256,192,171757,1,0,0:0:0:0:
256,192,172191,1,8,0:0:0:0:
256,192,172409,1,0,0:0:0:0:
256,192,172626,1,8,0:0:0:0:
256,192,172844,1,0,0:0:0:0:
256,192,173061,1,8,0:0:0:0:
256,192,173278,1,8,0:0:0:0:
256,192,173496,1,0,0:0:0:0:
256,192,173931,1,0,0:0:0:0:
256,192,174365,1,0,0:0:0:0:
256,192,174583,1,0,0:0:0:0:
256,192,174800,1,8,0:0:0:0:
256,192,175235,1,8,0:0:0:0:
256,192,175670,1,8,0:0:0:0:
256,192,175887,1,0,0:0:0:0:
256,192,176104,1,8,0:0:0:0:
256,192,176322,1,0,0:0:0:0:
256,192,176539,1,8,0:0:0:0:
256,192,176757,1,8,0:0:0:0:
256,192,176974,1,0,0:0:0:0:
256,192,177191,1,0,0:0:0:0:
256,192,177409,1,0,0:0:0:0:
256,192,177844,1,8,0:0:0:0:
256,192,178278,1,0,0:0:0:0:
256,192,178713,1,0,0:0:0:0:
256,192,179148,1,8,0:0:0:0:
256,192,179365,1,0,0:0:0:0:
256,192,179583,1,8,0:0:0:0:
256,192,179800,1,0,0:0:0:0:
256,192,180017,1,8,0:0:0:0:
256,192,180235,1,8,0:0:0:0:
256,192,180452,1,0,0:0:0:0:
256,192,180887,1,0,0:0:0:0:
256,192,181104,1,0,0:0:0:0:
256,192,181322,1,0,0:0:0:0:
256,192,181539,1,0,0:0:0:0:
256,192,181757,1,8,0:0:0:0:
256,192,182191,1,8,0:0:0:0:
256,192,182409,1,0,0:0:0:0:
256,192,182626,1,8,0:0:0:0:
256,192,183061,1,8,0:0:0:0:
256,192,183278,1,0,0:0:0:0:
256,192,183387,1,0,0:0:0:0:
256,192,183496,1,8,0:0:0:0:
256,192,183713,1,8,0:0:0:0:
256,192,183931,1,0,0:0:0:0:
256,192,184148,1,8,0:0:0:0:
256,192,184365,1,0,0:0:0:0:
256,192,184800,1,8,0:0:0:0:
256,192,185017,1,0,0:0:0:0:
256,192,185235,1,8,0:0:0:0:
256,192,185452,1,8,0:0:0:0:
256,192,185670,1,0,0:0:0:0:
256,192,186104,1,8,0:0:0:0:
256,192,186322,1,0,0:0:0:0:
256,192,186539,1,8,0:0:0:0:
256,192,186757,1,0,0:0:0:0:
256,192,186865,1,0,0:0:0:0:
256,192,186974,1,8,0:0:0:0:
256,192,187191,1,8,0:0:0:0:
256,192,187409,1,0,0:0:0:0:
256,192,187626,1,0,0:0:0:0:
256,192,187844,1,0,0:0:0:0:
256,192,188278,1,8,0:0:0:0:
256,192,188496,1,0,0:0:0:0:
256,192,188713,1,8,0:0:0:0:
256,192,188931,1,8,0:0:0:0:
256,192,189148,1,0,0:0:0:0:
256,192,189583,1,8,0:0:0:0:
256,192,189800,1,0,0:0:0:0:
256,192,190017,1,8,0:0:0:0:
256,192,190235,1,8,0:0:0:0:
256,192,190344,1,0,0:0:0:0:
256,192,190452,1,8,0:0:0:0:
256,192,190670,1,8,0:0:0:0:
256,192,190887,1,0,0:0:0:0:
256,192,191104,1,0,0:0:0:0:
256,192,191322,1,8,0:0:0:0:
256,192,191539,1,0,0:0:0:0:
256,192,191757,1,8,0:0:0:0:
256,192,191974,1,0,0:0:0:0:
256,192,192191,1,8,0:0:0:0:
256,192,192300,1,8,0:0:0:0:
256,192,192409,1,8,0:0:0:0:
256,192,192626,1,8,0:0:0:0:
256,192,192844,1,8,0:0:0:0:
256,192,193061,1,0,0:0:0:0:
256,192,193278,1,8,0:0:0:0:
256,192,193496,1,0,0:0:0:0:
256,192,193713,1,0,0:0:0:0:
256,192,193931,1,8,0:0:0:0:
256,192,194148,1,8,0:0:0:0:
256,192,194365,1,8,0:0:0:0:
256,192,194583,1,8,0:0:0:0:
256,192,194800,1,0,0:0:0:0:
256,192,195017,1,8,0:0:0:0:
256,192,195090,1,8,0:0:0:0:
256,192,195162,1,8,0:0:0:0:
256,192,195235,1,0,0:0:0:0:
256,192,195452,1,8,0:0:0:0:
256,192,195561,1,0,0:0:0:0:
256,192,195670,1,8,0:0:0:0:
256,192,195887,1,0,0:0:0:0:
256,192,196104,1,0,0:0:0:0:
256,192,196322,1,8,0:0:0:0:
256,192,196431,1,8,0:0:0:0:
256,192,196539,1,0,0:0:0:0:
256,192,196757,1,0,0:0:0:0:
256,192,196829,1,0,0:0:0:0:
256,192,196902,1,0,0:0:0:0:
256,192,196974,1,8,0:0:0:0:
256,192,197083,1,8,0:0:0:0:
256,192,197191,1,0,0:0:0:0:
256,192,197300,1,0,0:0:0:0:
256,192,197409,1,8,0:0:0:0:
256,192,197626,1,8,0:0:0:0:
256,192,197699,1,8,0:0:0:0:
256,192,197771,1,8,0:0:0:0:
256,192,197844,1,8,0:0:0:0:
256,192,197952,1,8,0:0:0:0:
256,192,198061,1,8,0:0:0:0:
256,192,198278,1,0,0:0:0:0:
256,192,198496,1,8,0:0:0:0:
256,192,198568,1,8,0:0:0:0:
256,192,198641,1,8,0:0:0:0:
256,192,198713,1,0,0:0:0:0:
256,192,198822,1,8,0:0:0:0:
256,192,198931,1,8,0:0:0:0:
256,192,199039,1,0,0:0:0:0:
256,192,199148,1,8,0:0:0:0:
256,192,199365,1,0,0:0:0:0:
256,192,199438,1,0,0:0:0:0:
256,192,199510,1,0,0:0:0:0:
256,192,199583,1,8,0:0:0:0:
256,192,199800,1,8,0:0:0:0:
256,192,199909,1,8,0:0:0:0:
256,192,200017,1,0,0:0:0:0:
256,192,200235,1,8,0:0:0:0:
256,192,200307,1,8,0:0:0:0:
256,192,200380,1,8,0:0:0:0:
256,192,200452,1,0,0:0:0:0:
256,192,200670,1,8,0:0:0:0:
256,192,200887,1,0,0:0:0:0:
256,192,200960,1,0,0:0:0:0:
256,192,201032,1,0,0:0:0:0:
256,192,201104,1,8,0:0:0:0:
256,192,201322,1,0,0:0:0:0:
256,192,201539,1,8,0:0:0:0:
256,192,201757,1,0,0:0:0:0:
256,192,201974,1,8,0:0:0:0:
256,192,202046,1,8,0:0:0:0:
256,192,202119,1,8,0:0:0:0:
256,192,202191,1,0,0:0:0:0:
256,192,202300,1,0,0:0:0:0:
256,192,202409,1,8,0:0:0:0:
256,192,202626,1,8,0:0:0:0:
256,192,202735,1,8,0:0:0:0:
256,192,202844,1,0,0:0:0:0:
256,192,203061,1,0,0:0:0:0:
256,192,203278,1,8,0:0:0:0:
256,192,203387,1,0,0:0:0:0:
256,192,203496,1,8,0:0:0:0:
256,192,203604,1,8,0:0:0:0:
256,192,203713,1,0,0:0:0:0:
256,192,203786,1,0,0:0:0:0:
256,192,203858,1,0,0:0:0:0:
256,192,203931,1,8,0:0:0:0:
256,192,204039,1,8,0:0:0:0:
256,192,204148,1,0,0:0:0:0:
256,192,204257,1,8,0:0:0:0:
256,192,204365,1,0,0:0:0:0:
256,192,204583,1,8,0:0:0:0:
256,192,204655,1,8,0:0:0:0:
256,192,204728,1,8,0:0:0:0:
256,192,204800,1,0,0:0:0:0:
256,192,204909,1,0,0:0:0:0:
256,192,205017,1,8,0:0:0:0:
256,192,205235,1,0,0:0:0:0:
256,192,205452,1,8,0:0:0:0:
256,192,205525,1,8,0:0:0:0:
256,192,205597,1,8,0:0:0:0:
256,192,205670,1,0,0:0:0:0:
256,192,205778,1,8,0:0:0:0:
256,192,205887,1,8,0:0:0:0:
256,192,205996,1,0,0:0:0:0:
256,192,206104,1,8,0:0:0:0:
256,192,206322,1,0,0:0:0:0:
256,192,206394,1,0,0:0:0:0:
256,192,206467,1,0,0:0:0:0:
256,192,206539,1,8,0:0:0:0:
256,192,206757,1,8,0:0:0:0:
256,192,206865,1,8,0:0:0:0:
256,192,206974,1,0,0:0:0:0:
256,192,207083,1,0,0:0:0:0:
256,192,207191,1,8,0:0:0:0:
256,192,207264,1,8,0:0:0:0:
256,192,207336,1,8,0:0:0:0:
256,192,207409,1,0,0:0:0:0:
256,192,207626,1,8,0:0:0:0:
256,192,207844,1,0,0:0:0:0:
256,192,207916,1,8,0:0:0:0:
256,192,207989,1,8,0:0:0:0:
256,192,208061,1,0,0:0:0:0:
256,192,208170,1,0,0:0:0:0:
256,192,208278,1,8,0:0:0:0:
256,192,208496,1,0,0:0:0:0:
256,128,208713,1,12,0:0:0:0:
256,192,208931,1,0,0:0:0:0:
256,192,209003,1,8,0:0:0:0:
256,192,209075,1,8,0:0:0:0:
256,192,209148,1,0,0:0:0:0:
256,192,209257,1,0,0:0:0:0:
256,192,209365,1,8,0:0:0:0:
256,192,209474,1,8,0:0:0:0:
256,192,209583,1,0,0:0:0:0:
256,192,209691,1,0,0:0:0:0:
256,192,209800,1,8,0:0:0:0:
256,192,210017,1,0,0:0:0:0:
256,192,210235,1,8,0:0:0:0:
256,192,210344,1,8,0:0:0:0:
256,192,210452,1,0,0:0:0:0:
256,192,210561,1,8,0:0:0:0:
256,192,210670,1,0,0:0:0:0:
256,192,210778,1,0,0:0:0:0:
256,192,210887,1,8,0:0:0:0:
256,192,210996,1,8,0:0:0:0:
256,192,211104,1,8,0:0:0:0:
256,192,211213,1,8,0:0:0:0:
256,192,211322,1,0,0:0:0:0:
256,192,211539,1,8,0:0:0:0:
256,192,211612,1,8,0:0:0:0:
256,192,211684,1,8,0:0:0:0:
256,192,211757,1,0,0:0:0:0:
256,192,211865,1,0,0:0:0:0:
256,192,211974,1,0,0:0:0:0:
256,192,212191,1,8,0:0:0:0:
256,192,212409,1,8,0:0:0:0:
256,192,212481,1,8,0:0:0:0:
256,192,212554,1,8,0:0:0:0:
256,192,212626,1,0,0:0:0:0:
256,192,212735,1,8,0:0:0:0:
256,192,212844,1,8,0:0:0:0:
256,192,212952,1,0,0:0:0:0:
256,192,213061,1,8,0:0:0:0:
256,192,213278,1,0,0:0:0:0:
256,192,213351,1,0,0:0:0:0:
256,192,213423,1,0,0:0:0:0:
256,192,213496,1,8,0:0:0:0:
256,192,213713,1,8,0:0:0:0:
256,192,213822,1,8,0:0:0:0:
256,192,213931,1,0,0:0:0:0:
256,192,214039,1,0,0:0:0:0:
256,192,214148,1,8,0:0:0:0:
256,192,214220,1,8,0:0:0:0:
256,192,214293,1,8,0:0:0:0:
256,192,214365,1,0,0:0:0:0:
256,192,214474,1,0,0:0:0:0:
256,192,214583,1,8,0:0:0:0:
256,192,214691,1,8,0:0:0:0:
256,192,214800,1,0,0:0:0:0:
256,192,214873,1,0,0:0:0:0:
256,192,214945,1,0,0:0:0:0:
256,192,215017,1,8,0:0:0:0:
256,192,215235,1,0,0:0:0:0:
256,192,215452,1,8,0:0:0:0:
256,192,215561,1,0,0:0:0:0:
256,192,215670,1,8,0:0:0:0:
256,192,215778,1,8,0:0:0:0:
256,192,215887,1,0,0:0:0:0:
256,192,215960,1,8,0:0:0:0:
256,192,216032,1,8,0:0:0:0:
256,192,216104,1,0,0:0:0:0:
256,192,216213,1,0,0:0:0:0:
256,192,216322,1,8,0:0:0:0:
256,192,216431,1,0,0:0:0:0:
256,192,216539,1,8,0:0:0:0:
256,192,216648,1,8,0:0:0:0:
256,192,216757,1,0,0:0:0:0:
256,192,216974,1,8,0:0:0:0:
256,192,217191,1,8,0:0:0:0:
256,192,217300,1,8,0:0:0:0:
256,192,217409,1,0,0:0:0:0:
256,192,217517,1,0,0:0:0:0:
256,192,217626,1,8,0:0:0:0:
256,192,217699,1,0,0:0:0:0:
256,192,217771,1,0,0:0:0:0:
256,192,217844,1,8,0:0:0:0:
256,192,217952,1,8,0:0:0:0:
256,192,218061,1,0,0:0:0:0:
256,192,218170,1,8,0:0:0:0:
256,192,218278,1,0,0:0:0:0:
256,192,218387,1,0,0:0:0:0:
256,192,218496,1,8,0:0:0:0:
256,192,218568,1,8,0:0:0:0:
256,192,218641,1,8,0:0:0:0:
256,192,218713,1,0,0:0:0:0:
256,192,218822,1,0,0:0:0:0:
256,192,218931,1,8,0:0:0:0:
256,192,219148,1,0,0:0:0:0:
256,192,219365,1,8,0:0:0:0:
256,192,219438,1,8,0:0:0:0:
256,192,219510,1,8,0:0:0:0:
256,192,219583,1,0,0:0:0:0:
256,192,219691,1,8,0:0:0:0:
256,192,219800,1,8,0:0:0:0:
256,192,219909,1,0,0:0:0:0:
256,192,220017,1,8,0:0:0:0:
256,192,220235,1,0,0:0:0:0:
256,192,220344,1,0,0:0:0:0:
256,192,220452,1,8,0:0:0:0:
256,192,220670,1,8,0:0:0:0:
256,192,220778,1,8,0:0:0:0:
256,192,220887,1,0,0:0:0:0:
256,192,220996,1,0,0:0:0:0:
256,192,221104,1,8,0:0:0:0:
256,192,221177,1,8,0:0:0:0:
256,192,221249,1,8,0:0:0:0:
256,192,221322,1,0,0:0:0:0:
256,192,221431,1,0,0:0:0:0:
256,192,221539,1,8,0:0:0:0:
256,192,221757,1,8,0:0:0:0:
256,192,221865,1,0,0:0:0:0:
256,192,221974,1,8,0:0:0:0:
256,192,222083,1,8,0:0:0:0:
256,192,222191,1,0,0:0:0:0:
256,192,222300,1,0,0:0:0:0:
256,192,222409,1,8,0:0:0:0:
256,128,222626,1,12,0:0:0:0:
256,192,222844,1,0,0:0:0:0:
256,192,222952,1,0,0:0:0:0:
256,192,223061,1,8,0:0:0:0:
256,192,223278,1,8,0:0:0:0:
256,192,223496,1,0,0:0:0:0:
256,192,223713,1,8,0:0:0:0:
256,192,223822,1,0,0:0:0:0:
256,192,223931,1,8,0:0:0:0:
256,192,224148,1,0,0:0:0:0:
256,192,224365,1,0,0:0:0:0:
256,192,224691,1,8,0:0:0:0:
256,192,224800,1,0,0:0:0:0:
256,192,225017,1,8,0:0:0:0:
256,192,225235,1,0,0:0:0:0:
256,192,225344,1,0,0:0:0:0:
256,192,225452,1,8,0:0:0:0:
256,192,225561,1,8,0:0:0:0:
256,192,225670,1,0,0:0:0:0:
256,192,225887,1,8,0:0:0:0:
256,192,226104,1,8,0:0:0:0:
256,192,226322,1,0,0:0:0:0:
256,192,226431,1,8,0:0:0:0:
256,192,226539,1,0,0:0:0:0:
256,192,226757,1,8,0:0:0:0:
256,192,226974,1,0,0:0:0:0:
256,192,227191,1,8,0:0:0:0:
256,192,227300,1,0,0:0:0:0:
256,192,227409,1,8,0:0:0:0:
256,192,227517,1,8,0:0:0:0:
256,192,227626,1,0,0:0:0:0:
256,192,227844,1,0,0:0:0:0:
256,192,228170,1,8,0:0:0:0:
256,192,228278,1,0,0:0:0:0:
256,192,228496,1,8,0:0:0:0:
256,192,228713,1,0,0:0:0:0:
256,192,228822,1,0,0:0:0:0:
256,192,228931,1,8,0:0:0:0:
256,192,229039,1,8,0:0:0:0:
256,192,229148,1,0,0:0:0:0:
256,192,229365,1,8,0:0:0:0:
256,192,229583,1,0,0:0:0:0:
256,192,229800,1,8,0:0:0:0:
256,192,229909,1,0,0:0:0:0:
256,192,230017,1,8,0:0:0:0:
256,192,230235,1,8,0:0:0:0:
256,192,230452,1,0,0:0:0:0:
256,192,230670,1,8,0:0:0:0:
256,192,230778,1,0,0:0:0:0:
256,192,230887,1,8,0:0:0:0:
256,192,230996,1,8,0:0:0:0:
256,192,231104,1,0,0:0:0:0:
256,192,231322,1,0,0:0:0:0:
256,192,231648,1,8,0:0:0:0:
256,192,231757,1,0,0:0:0:0:
256,192,231974,1,8,0:0:0:0:
256,192,232191,1,0,0:0:0:0:
256,192,232300,1,0,0:0:0:0:
256,192,232409,1,0,0:0:0:0:
256,192,232517,1,8,0:0:0:0:
256,192,232626,1,0,0:0:0:0:
256,192,232844,1,8,0:0:0:0:
256,192,233061,1,8,0:0:0:0:
256,192,233278,1,0,0:0:0:0:
256,192,233387,1,8,0:0:0:0:
256,192,233496,1,0,0:0:0:0:
256,192,233713,1,8,0:0:0:0:
256,192,233931,1,0,0:0:0:0:
256,192,234148,1,8,0:0:0:0:
256,192,234257,1,0,0:0:0:0:
256,192,234365,1,8,0:0:0:0:
256,192,234474,1,8,0:0:0:0:
256,192,234583,1,0,0:0:0:0:
256,192,234800,1,8,0:0:0:0:
256,192,235126,1,8,0:0:0:0:
256,192,235235,1,0,0:0:0:0:
256,192,235452,1,8,0:0:0:0:
256,192,235670,1,0,0:0:0:0:
256,192,235778,1,0,0:0:0:0:
256,192,235887,1,8,0:0:0:0:
256,192,235996,1,0,0:0:0:0:
256,192,236104,1,8,0:0:0:0:
256,192,236322,1,8,0:0:0:0:
256,128,236539,1,4,0:0:0:0:
256,192,236757,1,0,0:0:0:0:
256,192,236865,1,0,0:0:0:0:
256,192,236974,1,8,0:0:0:0:
256,192,237083,1,0,0:0:0:0:
256,192,237191,1,8,0:0:0:0:
256,192,237300,1,8,0:0:0:0:
256,192,237409,1,0,0:0:0:0:
256,192,237626,1,8,0:0:0:0:
256,192,237735,1,0,0:0:0:0:
256,192,237844,1,8,0:0:0:0:
256,192,238061,1,0,0:0:0:0:
256,192,238278,1,0,0:0:0:0:
256,192,238496,1,8,0:0:0:0:
256,192,238604,1,8,0:0:0:0:
256,192,238713,1,0,0:0:0:0:
256,192,238931,1,8,0:0:0:0:
256,192,239148,1,0,0:0:0:0:
256,192,239257,1,0,0:0:0:0:
256,192,239365,1,8,0:0:0:0:
256,192,239474,1,8,0:0:0:0:
256,192,239583,1,0,0:0:0:0:
256,192,239691,1,0,0:0:0:0:
256,192,239800,1,8,0:0:0:0:
256,192,240017,1,8,0:0:0:0:
256,192,240235,1,0,0:0:0:0:
256,192,240344,1,8,0:0:0:0:
256,192,240452,1,0,0:0:0:0:
256,192,240561,1,0,0:0:0:0:
256,192,240670,1,8,0:0:0:0:
256,192,240887,1,0,0:0:0:0:
256,192,241104,1,8,0:0:0:0:
256,192,241213,1,0,0:0:0:0:
256,192,241322,1,8,0:0:0:0:
256,192,241431,1,8,0:0:0:0:
256,192,241539,1,0,0:0:0:0:
256,192,241648,1,8,0:0:0:0:
256,192,241757,1,0,0:0:0:0:
256,192,241974,1,8,0:0:0:0:
256,192,242083,1,8,0:0:0:0:
256,192,242191,1,0,0:0:0:0:
256,192,242409,1,8,0:0:0:0:
256,192,242626,1,0,0:0:0:0:
256,192,242735,1,0,0:0:0:0:
256,192,242844,1,8,0:0:0:0:
256,192,242952,1,8,0:0:0:0:
256,192,243061,1,0,0:0:0:0:
256,192,243170,1,0,0:0:0:0:
256,192,243278,1,8,0:0:0:0:
256,192,243496,1,0,0:0:0:0:
256,192,243713,1,8,0:0:0:0:
256,192,243822,1,0,0:0:0:0:
256,192,243931,1,8,0:0:0:0:
256,192,244039,1,8,0:0:0:0:
256,192,244148,1,0,0:0:0:0:
256,192,244257,1,0,0:0:0:0:
256,192,244365,1,8,0:0:0:0:
256,192,244583,1,0,0:0:0:0:
256,192,244691,1,0,0:0:0:0:
256,192,244800,1,8,0:0:0:0:
256,192,244909,1,0,0:0:0:0:
256,192,245017,1,8,0:0:0:0:
256,192,245126,1,8,0:0:0:0:
256,192,245235,1,0,0:0:0:0:
256,192,245452,1,8,0:0:0:0:
256,192,245561,1,8,0:0:0:0:
256,192,245670,1,0,0:0:0:0:
256,192,245887,1,8,0:0:0:0:
256,192,246104,1,0,0:0:0:0:
256,192,246213,1,0,0:0:0:0:
256,192,246322,1,0,0:0:0:0:
256,192,246431,1,8,0:0:0:0:
256,192,246539,1,0,0:0:0:0:
256,192,246757,1,8,0:0:0:0:
256,192,246974,1,8,0:0:0:0:
256,192,247083,1,8,0:0:0:0:
256,192,247191,1,0,0:0:0:0:
256,192,247300,1,8,0:0:0:0:
256,192,247409,1,0,0:0:0:0:
256,192,247517,1,0,0:0:0:0:
256,192,247626,1,8,0:0:0:0:
256,192,247844,1,0,0:0:0:0:
256,192,248061,1,8,0:0:0:0:
256,192,248170,1,0,0:0:0:0:
256,192,248278,1,8,0:0:0:0:
256,192,248496,1,0,0:0:0:0:
256,192,248713,1,8,0:0:0:0:
256,192,248931,1,8,0:0:0:0:
256,192,249039,1,8,0:0:0:0:
256,192,249148,1,0,0:0:0:0:
256,192,249365,1,8,0:0:0:0:
256,192,249583,1,0,0:0:0:0:
256,192,249691,1,0,0:0:0:0:
256,192,249800,1,8,0:0:0:0:
256,192,249909,1,8,0:0:0:0:
256,192,250017,1,8,0:0:0:0:
256,192,250235,1,8,0:0:0:0:
256,128,250452,1,4,0:0:0:0:
256,192,250670,1,0,0:0:0:0:
256,192,250887,1,8,0:0:0:0:
256,192,251322,1,8,0:0:0:0:
256,192,251539,1,0,0:0:0:0:
256,192,251974,1,8,0:0:0:0:
256,192,252409,1,0,0:0:0:0:
256,192,252626,1,8,0:0:0:0:
256,192,253061,1,8,0:0:0:0:
256,192,253278,1,0,0:0:0:0:
256,192,253496,1,0,0:0:0:0:
256,192,253713,1,8,0:0:0:0:
256,192,253931,1,0,0:0:0:0:
256,192,254148,1,0,0:0:0:0:
256,192,254365,1,8,0:0:0:0:
256,192,254800,1,8,0:0:0:0:
256,192,255017,1,0,0:0:0:0:
256,192,255452,1,8,0:0:0:0:
256,192,255887,1,0,0:0:0:0:
256,192,256104,1,8,0:0:0:0:
256,192,256539,1,8,0:0:0:0:
256,192,256757,1,0,0:0:0:0:
256,192,256974,1,8,0:0:0:0:
256,192,257191,1,8,0:0:0:0:
256,192,257409,1,0,0:0:0:0:
256,192,257626,1,0,0:0:0:0:
256,192,257844,1,8,0:0:0:0:
256,192,258278,1,8,0:0:0:0:
256,192,258496,1,0,0:0:0:0:
256,192,258931,1,8,0:0:0:0:
256,192,259365,1,0,0:0:0:0:
256,192,259583,1,8,0:0:0:0:
256,192,260017,1,8,0:0:0:0:
256,192,260235,1,0,0:0:0:0:
256,192,260452,1,0,0:0:0:0:
256,192,260670,1,8,0:0:0:0:
256,192,260887,1,0,0:0:0:0:
256,192,261104,1,0,0:0:0:0:
256,192,261322,1,8,0:0:0:0:
256,192,261757,1,0,0:0:0:0:
256,192,261974,1,8,0:0:0:0:
256,192,262409,1,8,0:0:0:0:
256,192,262844,1,8,0:0:0:0:
256,192,263278,1,0,0:0:0:0:
256,192,263713,1,8,0:0:0:0:
256,192,264148,1,8,0:0:0:0:
256,128,264365,1,4,0:0:0:0:
256,128,267844,1,4,0:0:0:0:
256,128,271322,1,4,0:0:0:0:
256,128,274800,1,4,0:0:0:0:
256,128,278278,1,4,0:0:0:0:
256,192,278604,1,0,0:0:0:0:
256,192,278931,1,0,0:0:0:0:
256,192,279257,1,8,0:0:0:0:
256,192,279583,1,8,0:0:0:0:
256,192,279655,1,8,0:0:0:0:
256,192,279728,1,8,0:0:0:0:
256,192,279800,1,8,0:0:0:0:
256,192,280017,1,0,0:0:0:0:
256,192,280344,1,0,0:0:0:0:
256,192,280670,1,0,0:0:0:0:
256,192,280996,1,0,0:0:0:0:
256,192,281322,1,8,0:0:0:0:
256,192,281539,1,8,0:0:0:0:
256,128,281757,1,4,0:0:0:0:
256,192,282083,1,0,0:0:0:0:
256,192,282409,1,0,0:0:0:0:
256,192,282735,1,8,0:0:0:0:
256,192,283061,1,8,0:0:0:0:
256,192,283133,1,8,0:0:0:0:
256,192,283496,1,0,0:0:0:0:
256,192,283604,1,8,0:0:0:0:
256,192,283822,1,0,0:0:0:0:
256,192,284148,1,0,0:0:0:0:
256,192,284474,1,0,0:0:0:0:
256,192,284800,1,8,0:0:0:0:
256,192,285017,1,8,0:0:0:0:
256,128,285235,1,4,0:0:0:0:
256,192,285561,1,8,0:0:0:0:
256,192,285887,1,8,0:0:0:0:
256,192,286213,1,0,0:0:0:0:
256,192,286267,1,0,0:0:0:0:
256,192,286322,1,0,0:0:0:0:
256,192,286539,1,8,0:0:0:0:
256,192,286974,1,8,0:0:0:0:
256,192,287300,1,8,0:0:0:0:
256,192,287626,1,8,0:0:0:0:
256,192,287952,1,8,0:0:0:0:
256,192,288007,1,8,0:0:0:0:
256,192,288061,1,0,0:0:0:0:
256,192,288278,1,8,0:0:0:0:
256,192,288496,1,8,0:0:0:0:
256,128,288713,1,4,0:0:0:0:
256,192,289039,1,8,0:0:0:0:
256,192,289365,1,8,0:0:0:0:
256,192,289691,1,0,0:0:0:0:
256,192,289746,1,0,0:0:0:0:
256,192,289800,1,0,0:0:0:0:
256,192,290017,1,8,0:0:0:0:
256,192,290452,1,0,0:0:0:0:
256,192,290778,1,0,0:0:0:0:
256,192,291104,1,8,0:0:0:0:
256,192,291431,1,8,0:0:0:0:
256,192,291485,1,8,0:0:0:0:
256,192,291539,1,8,0:0:0:0:
256,192,291757,1,8,0:0:0:0:
256,192,291974,1,8,0:0:0:0:
256,128,292191,1,4,0:0:0:0:
256,192,292517,1,0,0:0:0:0:
256,192,292844,1,0,0:0:0:0:
256,192,293170,1,8,0:0:0:0:
256,192,293278,1,0,0:0:0:0:
256,192,293496,1,8,0:0:0:0:
256,192,293931,1,0,0:0:0:0:
256,192,294257,1,0,0:0:0:0:
256,192,294583,1,0,0:0:0:0:
256,192,294909,1,0,0:0:0:0:
256,192,295235,1,8,0:0:0:0:
256,192,295452,1,8,0:0:0:0:
256,128,295670,1,4,0:0:0:0:
256,192,295996,1,0,0:0:0:0:
256,192,296322,1,0,0:0:0:0:
256,192,296376,1,0,0:0:0:0:
256,192,296431,1,0,0:0:0:0:
256,192,296648,1,8,0:0:0:0:
256,192,296757,1,0,0:0:0:0:
256,192,296974,1,8,0:0:0:0:
256,192,297409,1,0,0:0:0:0:
256,192,297463,1,0,0:0:0:0:
256,192,297517,1,8,0:0:0:0:
256,192,297735,1,0,0:0:0:0:
256,192,298061,1,0,0:0:0:0:
256,192,298387,1,0,0:0:0:0:
256,192,298713,1,8,0:0:0:0:
256,192,298931,1,8,0:0:0:0:
256,128,299148,1,4,0:0:0:0:
256,192,299474,1,8,0:0:0:0:
256,192,299800,1,0,0:0:0:0:
256,192,299854,1,0,0:0:0:0:
256,192,299909,1,8,0:0:0:0:
256,192,300126,1,8,0:0:0:0:
256,192,300181,1,8,0:0:0:0:
256,192,300235,1,0,0:0:0:0:
256,192,300452,1,8,0:0:0:0:
256,192,300670,1,0,0:0:0:0:
256,192,300887,1,8,0:0:0:0:
256,192,301213,1,8,0:0:0:0:
256,192,301539,1,8,0:0:0:0:
256,192,301865,1,0,0:0:0:0:
256,192,302191,1,8,0:0:0:0:
256,192,302246,1,8,0:0:0:0:
256,128,302626,1,4,0:0:0:0:
256,192,302952,1,8,0:0:0:0:
256,192,303278,1,8,0:0:0:0:
256,192,303333,1,8,0:0:0:0:
256,192,303387,1,8,0:0:0:0:
256,192,303604,1,0,0:0:0:0:
256,192,303931,1,8,0:0:0:0:
256,192,304365,1,0,0:0:0:0:
256,192,304691,1,0,0:0:0:0:
256,192,305017,1,8,0:0:0:0:
256,192,305344,1,8,0:0:0:0:
256,192,305670,1,8,0:0:0:0:
256,192,305887,1,8,0:0:0:0:
256,128,306104,1,4,0:0:0:0:
256,192,306322,1,8,0:0:0:0:
256,192,306431,1,8,0:0:0:0:
256,192,306539,1,0,0:0:0:0:
256,192,306757,1,8,0:0:0:0:
256,192,306974,1,0,0:0:0:0:
256,192,307083,1,0,0:0:0:0:
256,192,307191,1,8,0:0:0:0:
256,192,307300,1,0,0:0:0:0:
256,192,307409,1,8,0:0:0:0:
256,192,307517,1,8,0:0:0:0:
256,192,307626,1,0,0:0:0:0:
256,192,307735,1,0,0:0:0:0:
256,192,307844,1,8,0:0:0:0:
256,192,308061,1,0,0:0:0:0:
256,192,308278,1,8,0:0:0:0:
256,192,308387,1,8,0:0:0:0:
256,192,308496,1,0,0:0:0:0:
256,192,308713,1,8,0:0:0:0:
256,192,308931,1,0,0:0:0:0:
256,192,309039,1,8,0:0:0:0:
256,192,309148,1,0,0:0:0:0:
256,192,309257,1,0,0:0:0:0:
256,192,309365,1,8,0:0:0:0:
256,128,309583,1,4,0:0:0:0:
256,192,309800,1,8,0:0:0:0:
256,192,309909,1,8,0:0:0:0:
256,192,310017,1,0,0:0:0:0:
256,192,310235,1,8,0:0:0:0:
256,192,310452,1,0,0:0:0:0:
256,192,310561,1,0,0:0:0:0:
256,192,310670,1,8,0:0:0:0:
256,192,310778,1,0,0:0:0:0:
256,192,310887,1,8,0:0:0:0:
256,192,310996,1,8,0:0:0:0:
256,192,311104,1,0,0:0:0:0:
256,192,311213,1,0,0:0:0:0:
256,192,311322,1,8,0:0:0:0:
256,192,311539,1,0,0:0:0:0:
256,192,311757,1,0,0:0:0:0:
256,192,311865,1,8,0:0:0:0:
256,192,311974,1,0,0:0:0:0:
256,192,312191,1,8,0:0:0:0:
256,192,312409,1,0,0:0:0:0:
256,192,312517,1,8,0:0:0:0:
256,192,312626,1,0,0:0:0:0:
256,192,312735,1,0,0:0:0:0:
256,192,312844,1,8,0:0:0:0:
256,128,313061,1,4,0:0:0:0:
256,192,313278,1,8,0:0:0:0:
256,192,313387,1,0,0:0:0:0:
256,192,313496,1,0,0:0:0:0:
256,192,313713,1,8,0:0:0:0:
256,192,313931,1,0,0:0:0:0:
256,192,314039,1,0,0:0:0:0:
256,192,314148,1,8,0:0:0:0:
256,192,314257,1,0,0:0:0:0:
256,192,314365,1,8,0:0:0:0:
256,192,314474,1,8,0:0:0:0:
256,192,314583,1,8,0:0:0:0:
256,192,314691,1,8,0:0:0:0:
256,192,314800,1,0,0:0:0:0:
256,192,315017,1,0,0:0:0:0:
256,192,315235,1,8,0:0:0:0:
256,192,315344,1,8,0:0:0:0:
256,192,315452,1,0,0:0:0:0:
256,192,315670,1,8,0:0:0:0:
256,192,315887,1,0,0:0:0:0:
256,192,315996,1,0,0:0:0:0:
256,192,316104,1,8,0:0:0:0:
256,192,316213,1,8,0:0:0:0:
256,192,316322,1,8,0:0:0:0:
256,128,316539,1,4,0:0:0:0:
256,192,316757,1,0,0:0:0:0:
256,192,316865,1,8,0:0:0:0:
256,192,316974,1,0,0:0:0:0:
256,192,317191,1,8,0:0:0:0:
256,192,317409,1,0,0:0:0:0:
256,192,317517,1,0,0:0:0:0:
256,192,317626,1,8,0:0:0:0:
256,192,317735,1,0,0:0:0:0:
256,192,317844,1,8,0:0:0:0:
256,192,317952,1,8,0:0:0:0:
256,192,318061,1,0,0:0:0:0:
256,192,318170,1,0,0:0:0:0:
256,192,318278,1,8,0:0:0:0:
256,192,318496,1,0,0:0:0:0:
256,192,318713,1,8,0:0:0:0:
256,192,318822,1,8,0:0:0:0:
256,192,318931,1,0,0:0:0:0:
256,192,319148,1,8,0:0:0:0:
256,192,319365,1,0,0:0:0:0:
256,192,319474,1,0,0:0:0:0:
256,192,319583,1,8,0:0:0:0:
256,192,319691,1,8,0:0:0:0:
256,192,319800,1,8,0:0:0:0:
256,192,319909,1,8,0:0:0:0:
256,128,320017,1,4,0:0:0:0:
256,192,320235,1,8,0:0:0:0:
256,192,320344,1,8,0:0:0:0:
256,192,320452,1,0,0:0:0:0:
256,192,320670,1,8,0:0:0:0:
256,192,320887,1,0,0:0:0:0:
256,192,320996,1,0,0:0:0:0:
256,192,321104,1,8,0:0:0:0:
256,192,321213,1,0,0:0:0:0:
256,192,321322,1,8,0:0:0:0:
256,192,321394,1,8,0:0:0:0:
256,192,321467,1,8,0:0:0:0:
256,192,321539,1,0,0:0:0:0:
256,192,321648,1,0,0:0:0:0:
256,192,321757,1,8,0:0:0:0:
256,192,321974,1,0,0:0:0:0:
256,192,322191,1,8,0:0:0:0:
256,192,322300,1,8,0:0:0:0:
256,192,322409,1,0,0:0:0:0:
256,192,322626,1,8,0:0:0:0:
256,192,322844,1,0,0:0:0:0:
256,192,322952,1,8,0:0:0:0:
256,192,323061,1,8,0:0:0:0:
256,192,323170,1,8,0:0:0:0:
256,192,323278,1,0,0:0:0:0:
256,128,323496,1,4,0:0:0:0:
256,192,323713,1,8,0:0:0:0:
256,192,323822,1,0,0:0:0:0:
256,192,323931,1,0,0:0:0:0:
256,192,324148,1,8,0:0:0:0:
256,192,324220,1,8,0:0:0:0:
256,192,324293,1,8,0:0:0:0:
256,192,324365,1,0,0:0:0:0:
256,192,324474,1,8,0:0:0:0:
256,192,324583,1,0,0:0:0:0:
256,192,324691,1,0,0:0:0:0:
256,192,324800,1,8,0:0:0:0:
256,192,324873,1,8,0:0:0:0:
256,192,324945,1,8,0:0:0:0:
256,192,325017,1,0,0:0:0:0:
256,192,325126,1,0,0:0:0:0:
256,192,325235,1,8,0:0:0:0:
256,192,325452,1,0,0:0:0:0:
256,192,325670,1,8,0:0:0:0:
256,192,325778,1,0,0:0:0:0:
256,192,325887,1,8,0:0:0:0:
256,192,325996,1,0,0:0:0:0:
256,192,326104,1,8,0:0:0:0:
256,192,326322,1,0,0:0:0:0:
256,192,326431,1,0,0:0:0:0:
256,192,326539,1,8,0:0:0:0:
256,192,326612,1,8,0:0:0:0:
256,192,326684,1,8,0:0:0:0:
256,192,326757,1,0,0:0:0:0:
256,192,326974,1,8,0:0:0:0:
256,192,327083,1,8,0:0:0:0:
256,192,327191,1,0,0:0:0:0:
256,192,327300,1,0,0:0:0:0:
256,192,327409,1,8,0:0:0:0:
256,192,327517,1,0,0:0:0:0:
256,192,327626,1,0,0:0:0:0:
256,192,327735,1,0,0:0:0:0:
256,192,327844,1,8,0:0:0:0:
256,192,327916,1,8,0:0:0:0:
256,192,327989,1,8,0:0:0:0:
256,192,328061,1,0,0:0:0:0:
256,192,328170,1,0,0:0:0:0:
256,192,328278,1,8,0:0:0:0:
256,192,328351,1,0,0:0:0:0:
256,160,328423,1,0,0:0:0:0:
256,192,328496,1,8,0:0:0:0:
256,192,328604,1,0,0:0:0:0:
256,192,328713,1,8,0:0:0:0:
256,192,328822,1,8,0:0:0:0:
256,192,328931,1,0,0:0:0:0:
256,192,329039,1,8,0:0:0:0:
256,192,329148,1,0,0:0:0:0:
256,192,329257,1,0,0:0:0:0:
256,192,329365,1,8,0:0:0:0:
256,192,329474,1,8,0:0:0:0:
256,192,329583,1,0,0:0:0:0:
256,192,329655,1,8,0:0:0:0:
256,192,329728,1,8,0:0:0:0:
256,192,329800,1,0,0:0:0:0:
256,192,329909,1,0,0:0:0:0:
256,192,330017,1,8,0:0:0:0:
256,192,330090,1,8,0:0:0:0:
256,192,330162,1,8,0:0:0:0:
256,192,330235,1,0,0:0:0:0:
256,192,330344,1,0,0:0:0:0:
256,192,330452,1,8,0:0:0:0:
256,192,330561,1,0,0:0:0:0:
256,192,330670,1,8,0:0:0:0:
256,192,330778,1,0,0:0:0:0:
256,192,330887,1,8,0:0:0:0:
256,192,330996,1,8,0:0:0:0:
256,192,331104,1,8,0:0:0:0:
256,192,331213,1,0,0:0:0:0:
256,192,331322,1,8,0:0:0:0:
256,192,331394,1,8,0:0:0:0:
256,192,331467,1,8,0:0:0:0:
256,192,331539,1,0,0:0:0:0:
256,192,331648,1,0,0:0:0:0:
256,192,331757,1,8,0:0:0:0:
256,192,331829,1,8,0:0:0:0:
256,192,331902,1,8,0:0:0:0:
256,192,331974,1,0,0:0:0:0:
256,192,332083,1,8,0:0:0:0:
256,192,332191,1,0,0:0:0:0:
256,192,332300,1,0,0:0:0:0:
256,192,332409,1,8,0:0:0:0:
256,192,332517,1,0,0:0:0:0:
256,192,332626,1,8,0:0:0:0:
256,192,332735,1,8,0:0:0:0:
256,192,332844,1,0,0:0:0:0:
256,192,332952,1,0,0:0:0:0:
256,192,333061,1,8,0:0:0:0:
256,192,333170,1,8,0:0:0:0:
256,192,333278,1,8,0:0:0:0:
256,192,333387,1,0,0:0:0:0:
256,192,333496,1,8,0:0:0:0:
256,192,333568,1,8,0:0:0:0:
256,192,333641,1,8,0:0:0:0:
256,192,333713,1,8,0:0:0:0:
256,192,333822,1,8,0:0:0:0:
256,192,333931,1,0,0:0:0:0:
256,192,334800,1,8,0:0:0:0:
256,192,335670,1,8,0:0:0:0:
256,192,336539,1,8,0:0:0:0:
256,192,337409,1,8,0:0:0:0:
256,192,338278,1,8,0:0:0:0:
256,192,339148,1,8,0:0:0:0:
256,192,339583,1,0,0:0:0:0:
256,192,340017,1,0,0:0:0:0:
256,128,340452,1,12,0:0:0:0:
256,192,340887,1,0,0:0:0:0:
256,192,341104,1,8,0:0:0:0:
256,192,341213,1,0,0:0:0:0:
256,192,341322,1,8,0:0:0:0:
256,192,341539,1,0,0:0:0:0:
256,192,341648,1,0,0:0:0:0:
256,192,341757,1,8,0:0:0:0:
256,192,341974,1,0,0:0:0:0:
256,192,342083,1,0,0:0:0:0:
256,192,342191,1,8,0:0:0:0:
256,192,342300,1,0,0:0:0:0:
256,192,342409,1,8,0:0:0:0:
256,192,342481,1,8,0:0:0:0:
256,192,342554,1,8,0:0:0:0:
256,192,342626,1,0,0:0:0:0:
256,192,342844,1,0,0:0:0:0:
256,192,342952,1,8,0:0:0:0:
256,192,343061,1,0,0:0:0:0:
256,192,343278,1,0,0:0:0:0:
256,192,343387,1,0,0:0:0:0:
256,192,343496,1,8,0:0:0:0:
256,192,343713,1,8,0:0:0:0:
256,192,343931,1,0,0:0:0:0:
256,192,344148,1,0,0:0:0:0:
256,192,344365,1,0,0:0:0:0:
256,192,344583,1,8,0:0:0:0:
256,192,344691,1,0,0:0:0:0:
256,192,344800,1,8,0:0:0:0:
256,192,345017,1,0,0:0:0:0:
256,192,345126,1,0,0:0:0:0:
256,192,345235,1,8,0:0:0:0:
256,192,345452,1,0,0:0:0:0:
256,192,345561,1,8,0:0:0:0:
256,192,345670,1,0,0:0:0:0:
256,192,345887,1,8,0:0:0:0:
256,192,345960,1,8,0:0:0:0:
256,192,346032,1,8,0:0:0:0:
256,192,346104,1,0,0:0:0:0:
256,192,346322,1,0,0:0:0:0:
256,192,346431,1,8,0:0:0:0:
256,192,346539,1,0,0:0:0:0:
256,192,346757,1,0,0:0:0:0:
256,192,346865,1,0,0:0:0:0:
256,192,346974,1,8,0:0:0:0:
256,192,347191,1,8,0:0:0:0:
256,192,347409,1,0,0:0:0:0:
256,192,347626,1,0,0:0:0:0:
256,192,347844,1,0,0:0:0:0:
256,192,348061,1,8,0:0:0:0:
256,192,348170,1,0,0:0:0:0:
256,192,348278,1,8,0:0:0:0:
256,192,348496,1,0,0:0:0:0:
256,192,348604,1,8,0:0:0:0:
256,192,348713,1,0,0:0:0:0:
256,192,348931,1,0,0:0:0:0:
256,192,349039,1,0,0:0:0:0:
256,192,349148,1,8,0:0:0:0:
256,192,349365,1,8,0:0:0:0:
256,192,349438,1,8,0:0:0:0:
256,192,349510,1,8,0:0:0:0:
256,192,349583,1,0,0:0:0:0:
256,192,349800,1,0,0:0:0:0:
256,192,349909,1,0,0:0:0:0:
256,192,350017,1,8,0:0:0:0:
256,192,350235,1,0,0:0:0:0:
256,192,350344,1,8,0:0:0:0:
256,192,350452,1,0,0:0:0:0:
256,192,350670,1,8,0:0:0:0:
256,192,350887,1,8,0:0:0:0:
256,192,351104,1,0,0:0:0:0:
256,192,351322,1,0,0:0:0:0:
256,192,351539,1,8,0:0:0:0:
256,192,351648,1,0,0:0:0:0:
256,192,351757,1,8,0:0:0:0:
256,192,351974,1,0,0:0:0:0:
256,192,352083,1,8,0:0:0:0:
256,192,352191,1,0,0:0:0:0:
256,192,352409,1,8,0:0:0:0:
256,192,352517,1,0,0:0:0:0:
256,192,352735,1,8,0:0:0:0:
256,192,352844,1,0,0:0:0:0:
256,192,353061,1,0,0:0:0:0:
256,192,353931,1,8,0:0:0:0:
256,192,354039,1,8,0:0:0:0:
256,192,354148,1,8,0:0:0:0:
256,192,354257,1,8,0:0:0:0:
256,192,354365,1,8,0:0:0:0:
256,192,354474,1,8,0:0:0:0:
256,192,354583,1,8,0:0:0:0:
256,192,354655,1,8,0:0:0:0:
256,192,354728,1,8,0:0:0:0:
256,128,354800,1,4,0:0:0:0:
256,192,355017,1,8,0:0:0:0:
256,192,355126,1,0,0:0:0:0:
256,192,355235,1,8,0:0:0:0:
256,192,355452,1,8,0:0:0:0:
256,192,355670,1,0,0:0:0:0:
256,192,355778,1,0,0:0:0:0:
256,192,355887,1,8,0:0:0:0:
256,192,355996,1,0,0:0:0:0:
256,192,356104,1,8,0:0:0:0:
256,192,356213,1,8,0:0:0:0:
256,192,356322,1,8,0:0:0:0:
256,192,356431,1,8,0:0:0:0:
256,192,356539,1,0,0:0:0:0:
256,192,356757,1,8,0:0:0:0:
256,192,356865,1,8,0:0:0:0:
256,192,356974,1,0,0:0:0:0:
256,192,357191,1,0,0:0:0:0:
256,192,357300,1,8,0:0:0:0:
256,192,357409,1,0,0:0:0:0:
256,192,357517,1,8,0:0:0:0:
256,192,357735,1,0,0:0:0:0:
256,192,357844,1,8,0:0:0:0:
256,192,357952,1,8,0:0:0:0:
256,192,358061,1,0,0:0:0:0:
256,192,358170,1,0,0:0:0:0:
256,192,358278,1,8,0:0:0:0:
256,192,358496,1,8,0:0:0:0:
256,192,358604,1,8,0:0:0:0:
256,192,358713,1,0,0:0:0:0:
256,192,358822,1,0,0:0:0:0:
256,192,358931,1,8,0:0:0:0:
256,192,359148,1,0,0:0:0:0:
256,192,359257,1,8,0:0:0:0:
256,192,359474,1,0,0:0:0:0:
256,192,359583,1,8,0:0:0:0:
256,192,359691,1,8,0:0:0:0:
256,192,359909,1,8,0:0:0:0:
256,192,360017,1,0,0:0:0:0:
256,192,360126,1,8,0:0:0:0:
256,192,360235,1,8,0:0:0:0:
256,192,360344,1,8,0:0:0:0:
256,192,360452,1,0,0:0:0:0:
256,192,360561,1,8,0:0:0:0:
256,192,360670,1,0,0:0:0:0:
256,192,360887,1,8,0:0:0:0:
256,192,360996,1,8,0:0:0:0:
256,192,361104,1,0,0:0:0:0:
256,192,361213,1,8,0:0:0:0:
256,192,361322,1,0,0:0:0:0:
256,192,361431,1,0,0:0:0:0:
256,192,361539,1,8,0:0:0:0:
256,192,361648,1,8,0:0:0:0:
256,192,361757,1,0,0:0:0:0:
256,192,361974,1,8,0:0:0:0:
256,192,362083,1,0,0:0:0:0:
256,192,362191,1,0,0:0:0:0:
256,192,362409,1,8,0:0:0:0:
256,192,362626,1,0,0:0:0:0:
256,192,362735,1,0,0:0:0:0:
256,192,362844,1,8,0:0:0:0:
256,192,362952,1,0,0:0:0:0:
256,192,363061,1,8,0:0:0:0:
256,192,363170,1,8,0:0:0:0:
256,192,363278,1,8,0:0:0:0:
256,192,363387,1,8,0:0:0:0:
256,192,363496,1,0,0:0:0:0:
256,192,363713,1,0,0:0:0:0:
256,192,363822,1,0,0:0:0:0:
256,192,363931,1,8,0:0:0:0:
256,192,364148,1,8,0:0:0:0:
256,192,364257,1,0,0:0:0:0:
256,192,364365,1,8,0:0:0:0:
256,192,364474,1,0,0:0:0:0:
256,192,364691,1,8,0:0:0:0:
256,192,364800,1,0,0:0:0:0:
256,192,364909,1,8,0:0:0:0:
256,192,365017,1,0,0:0:0:0:
256,192,365126,1,0,0:0:0:0:
256,192,365235,1,8,0:0:0:0:
256,192,365452,1,0,0:0:0:0:
256,192,365561,1,8,0:0:0:0:
256,192,365670,1,0,0:0:0:0:
256,192,365778,1,0,0:0:0:0:
256,192,365887,1,8,0:0:0:0:
256,192,366104,1,0,0:0:0:0:
256,192,366213,1,0,0:0:0:0:
256,192,366322,1,8,0:0:0:0:
256,192,366431,1,8,0:0:0:0:
256,192,366539,1,0,0:0:0:0:
256,192,366648,1,8,0:0:0:0:
256,192,366974,1,0,0:0:0:0:
256,192,367083,1,8,0:0:0:0:
256,192,367300,1,0,0:0:0:0:
256,192,367409,1,8,0:0:0:0:
256,192,367626,1,0,0:0:0:0:
256,192,367952,1,8,0:0:0:0:
256,192,368278,1,0,0:0:0:0:
256,192,368496,1,8,0:0:0:0:
256,192,368713,1,0,0:0:0:0:
256,192,368931,1,8,0:0:0:0:
256,192,369039,1,0,0:0:0:0:
256,192,369148,1,8,0:0:0:0:
256,192,369365,1,8,0:0:0:0:
256,192,369583,1,0,0:0:0:0:
256,192,369691,1,0,0:0:0:0:
256,192,369800,1,8,0:0:0:0:
256,192,369909,1,0,0:0:0:0:
256,192,370017,1,8,0:0:0:0:
256,192,370090,1,8,0:0:0:0:
256,192,370162,1,8,0:0:0:0:
256,192,370235,1,8,0:0:0:0:
256,192,370344,1,8,0:0:0:0:
256,192,370452,1,0,0:0:0:0:
256,192,370670,1,8,0:0:0:0:
256,192,370778,1,8,0:0:0:0:
256,192,370887,1,0,0:0:0:0:
256,192,371104,1,0,0:0:0:0:
256,192,371213,1,0,0:0:0:0:
256,192,371322,1,8,0:0:0:0:
256,192,371431,1,8,0:0:0:0:
256,192,371539,1,8,0:0:0:0:
256,192,371648,1,8,0:0:0:0:
256,192,371757,1,0,0:0:0:0:
256,192,371865,1,8,0:0:0:0:
256,192,371974,1,0,0:0:0:0:
256,192,372083,1,0,0:0:0:0:
256,192,372191,1,8,0:0:0:0:
256,192,372517,1,8,0:0:0:0:
256,192,372626,1,0,0:0:0:0:
256,192,372735,1,0,0:0:0:0:
256,192,372844,1,8,0:0:0:0:
256,192,373061,1,0,0:0:0:0:
256,192,373170,1,0,0:0:0:0:
256,192,373278,1,8,0:0:0:0:
256,192,373387,1,0,0:0:0:0:
256,192,373496,1,8,0:0:0:0:
256,192,373568,1,8,0:0:0:0:
256,192,373641,1,8,0:0:0:0:
256,192,373713,1,8,0:0:0:0:
256,192,373822,1,8,0:0:0:0:
256,192,373931,1,0,0:0:0:0:
256,192,374039,1,8,0:0:0:0:
256,192,374148,1,0,0:0:0:0:
256,192,374257,1,8,0:0:0:0:
256,192,374365,1,0,0:0:0:0:
256,192,374474,1,0,0:0:0:0:
256,192,374583,1,8,0:0:0:0:
256,192,374800,1,8,0:0:0:0:
256,192,374909,1,8,0:0:0:0:
256,192,375017,1,0,0:0:0:0:
256,192,375126,1,8,0:0:0:0:
256,192,375235,1,0,0:0:0:0:
256,192,375344,1,0,0:0:0:0:
256,192,375452,1,8,0:0:0:0:
256,192,375670,1,0,0:0:0:0:
256,192,375887,1,8,0:0:0:0:
256,192,375996,1,0,0:0:0:0:
256,192,376104,1,0,0:0:0:0:
256,192,376322,1,8,0:0:0:0:
256,192,376539,1,0,0:0:0:0:
256,192,376648,1,0,0:0:0:0:
256,192,376757,1,8,0:0:0:0:
256,192,376865,1,0,0:0:0:0:
256,192,376974,1,8,0:0:0:0:
256,192,377046,1,8,0:0:0:0:
256,192,377119,1,8,0:0:0:0:
256,192,377191,1,8,0:0:0:0:
256,192,377300,1,8,0:0:0:0:
256,192,377409,1,0,0:0:0:0:
256,192,377517,1,8,0:0:0:0:
256,192,377626,1,0,0:0:0:0:
256,192,377735,1,8,0:0:0:0:
256,192,377844,1,0,0:0:0:0:
256,192,377952,1,0,0:0:0:0:
256,192,378061,1,8,0:0:0:0:
256,192,378278,1,0,0:0:0:0:
256,192,378496,1,0,0:0:0:0:
256,192,378604,1,8,0:0:0:0:
256,192,378713,1,0,0:0:0:0:
256,192,378822,1,0,0:0:0:0:
256,192,378931,1,8,0:0:0:0:
256,192,379039,1,8,0:0:0:0:
256,192,379148,1,0,0:0:0:0:
256,192,379365,1,0,0:0:0:0:
256,192,379474,1,8,0:0:0:0:
256,192,379583,1,0,0:0:0:0:
256,192,379691,1,0,0:0:0:0:
256,192,379800,1,8,0:0:0:0:
256,192,380017,1,0,0:0:0:0:
256,192,380126,1,0,0:0:0:0:
256,192,380235,1,8,0:0:0:0:
256,192,380344,1,8,0:0:0:0:
256,192,380452,1,0,0:0:0:0:
256,192,380525,1,0,0:0:0:0:
256,192,380597,1,0,0:0:0:0:
256,192,380670,1,8,0:0:0:0:
256,192,380887,1,0,0:0:0:0:
256,192,380996,1,8,0:0:0:0:
256,192,381104,1,0,0:0:0:0:
256,192,381213,1,0,0:0:0:0:
256,192,381322,1,8,0:0:0:0:
256,192,381539,1,0,0:0:0:0:
256,192,381648,1,8,0:0:0:0:
256,192,381865,1,8,0:0:0:0:
256,192,381974,1,0,0:0:0:0:
256,192,382083,1,8,0:0:0:0:
256,192,382191,1,0,0:0:0:0:
256,192,382300,1,0,0:0:0:0:
256,192,382409,1,8,0:0:0:0:
256,192,382626,1,0,0:0:0:0:
256,192,382844,1,8,0:0:0:0:
256,192,382952,1,0,0:0:0:0:
256,192,383061,1,8,0:0:0:0:
256,192,383278,1,8,0:0:0:0:
256,192,383496,1,0,0:0:0:0:
256,192,383604,1,0,0:0:0:0:
256,192,383713,1,8,0:0:0:0:
256,192,383822,1,0,0:0:0:0:
256,192,383931,1,8,0:0:0:0:
256,192,384003,1,8,0:0:0:0:
256,192,384075,1,8,0:0:0:0:
256,192,384148,1,8,0:0:0:0:
256,192,384257,1,8,0:0:0:0:
256,192,384365,1,0,0:0:0:0:
256,192,384583,1,8,0:0:0:0:
256,192,384691,1,8,0:0:0:0:
256,192,384800,1,0,0:0:0:0:
256,192,384909,1,8,0:0:0:0:
256,192,385017,1,0,0:0:0:0:
256,192,385126,1,0,0:0:0:0:
256,192,385235,1,0,0:0:0:0:
256,192,385344,1,8,0:0:0:0:
256,192,385561,1,0,0:0:0:0:
256,192,385670,1,8,0:0:0:0:
256,192,385778,1,8,0:0:0:0:
256,192,385887,1,0,0:0:0:0:
256,192,385996,1,0,0:0:0:0:
256,192,386104,1,8,0:0:0:0:
256,192,386322,1,8,0:0:0:0:
256,192,386431,1,0,0:0:0:0:
256,192,386539,1,8,0:0:0:0:
256,192,386757,1,8,0:0:0:0:
256,192,386974,1,8,0:0:0:0:
256,192,387083,1,0,0:0:0:0:
256,192,387191,1,8,0:0:0:0:
256,192,387300,1,0,0:0:0:0:
256,192,387409,1,8,0:0:0:0:
256,192,387481,1,8,0:0:0:0:
256,192,387554,1,8,0:0:0:0:
256,192,387626,1,8,0:0:0:0:
256,192,387735,1,8,0:0:0:0:
256,192,387844,1,0,0:0:0:0:
256,192,387952,1,0,0:0:0:0:
256,192,388061,1,8,0:0:0:0:
256,192,388170,1,0,0:0:0:0:
256,192,388278,1,8,0:0:0:0:
256,192,388387,1,8,0:0:0:0:
256,192,388496,1,0,0:0:0:0:
256,192,388713,1,8,0:0:0:0:
256,192,388822,1,0,0:0:0:0:
256,192,388931,1,0,0:0:0:0:
256,192,389039,1,8,0:0:0:0:
256,192,389148,1,0,0:0:0:0:
256,192,389257,1,0,0:0:0:0:
256,192,389365,1,8,0:0:0:0:
256,192,389474,1,8,0:0:0:0:
256,192,389583,1,0,0:0:0:0:
256,192,389800,1,8,0:0:0:0:
256,192,389909,1,0,0:0:0:0:
256,192,390017,1,0,0:0:0:0:
256,192,390235,1,8,0:0:0:0:
256,192,390452,1,0,0:0:0:0:
256,192,390561,1,0,0:0:0:0:
256,192,390670,1,8,0:0:0:0:
256,192,390778,1,0,0:0:0:0:
256,192,390887,1,8,0:0:0:0:
256,192,390960,1,8,0:0:0:0:
256,192,391032,1,8,0:0:0:0:
256,192,391104,1,8,0:0:0:0:
256,192,391213,1,8,0:0:0:0:
256,192,391322,1,0,0:0:0:0:
256,192,391539,1,0,0:0:0:0:
256,192,391648,1,8,0:0:0:0:
256,192,391757,1,0,0:0:0:0:
256,192,391865,1,0,0:0:0:0:
256,192,391974,1,8,0:0:0:0:
256,192,392083,1,8,0:0:0:0:
256,192,392191,1,0,0:0:0:0:
256,192,392409,1,8,0:0:0:0:
256,192,392517,1,8,0:0:0:0:
256,192,392626,1,0,0:0:0:0:
256,192,392735,1,8,0:0:0:0:
256,192,392844,1,0,0:0:0:0:
256,192,392952,1,0,0:0:0:0:
256,192,393061,1,8,0:0:0:0:
256,192,393278,1,0,0:0:0:0:
256,192,393387,1,8,0:0:0:0:
256,192,393496,1,0,0:0:0:0:
256,192,393604,1,0,0:0:0:0:
256,192,393713,1,8,0:0:0:0:
256,192,393931,1,8,0:0:0:0:
256,192,394039,1,0,0:0:0:0:
256,192,394148,1,8,0:0:0:0:
256,192,394257,1,8,0:0:0:0:
256,192,394365,1,0,0:0:0:0:
256,192,394438,1,0,0:0:0:0:
256,192,394510,1,0,0:0:0:0:
256,192,394583,1,8,0:0:0:0:
256,192,394800,1,0,0:0:0:0:
256,192,394909,1,8,0:0:0:0:
256,192,395017,1,8,0:0:0:0:
256,192,395126,1,8,0:0:0:0:
256,192,395235,1,0,0:0:0:0:
256,192,395452,1,8,0:0:0:0:
256,192,395561,1,0,0:0:0:0:
128,288,395887,2,0,L|320:288,1,166.599996695252
256,128,396539,1,4,0:0:0:0:
