osu file format v14

[General]
AudioFilename: audio.mp3
AudioLeadIn: 0
PreviewTime: 152936
Countdown: 0
SampleSet: Soft
StackLeniency: 0.3
Mode: 0
LetterboxInBreaks: 0
WidescreenStoryboard: 1

[Editor]
Bookmarks: 27828,55654,83480,111306,139132,166741,166958,168371,168806,170001,170328,171088,171523,172284,172936,173154,173806,174675,175001,175436,176088,176523,176958,177067,177175,177284,177719,178588,179675,179784,180545,180871,208697,229567,250436,278262,306088,333915,368697,410436
DistanceSpacing: 1.2
BeatDivisor: 4
GridSize: 8
TimelineZoom: 1.9

[Metadata]
Title:Spitfire
TitleUnicode:Spitfire
Artist:Infected Mushroom
ArtistUnicode:Infected Mushroom
Creator:Testo
Version:Collab
Source:
Tags:Mirash Monstercat Marathon Psytrance Collaboration
BeatmapID:1532489
BeatmapSetID:725851

[Difficulty]
HPDrainRate:6
CircleSize:4
OverallDifficulty:6.9
ApproachRate:8.3
SliderMultiplier:1.4
SliderTickRate:1

[Events]
//Background and Video events
0,0,"YmirashaSpid.png",0,0
//Break Periods
2,167158,180167
//Storyboard Layer 0 (Background)
//Storyboard Layer 1 (Fail)
//Storyboard Layer 2 (Pass)
//Storyboard Layer 3 (Foreground)
Sprite,Foreground,Centre,"Lyrics\Tu.png",320,240 C,0,27828,,80,255,50 P,0,27828,,A F,0,27828,27978,0,1 S,0,27828,55219,0.5 MX,0,27828,55219,401 MY,0,27828,55219,150 F,0,55069,55219,1,0
Sprite,Foreground,Centre,"Lyrics\e.png",320,240 C,0,27828,,80,255,50 P,0,27828,,A F,0,27828,27978,0,1 S,0,27828,55219,0.5 MX,0,27828,55219,415.7 MY,0,27828,55219,150 F,0,55069,55219,1,0
Sprite,Foreground,Centre,"Lyrics\s.png",320,240 C,0,27828,,80,255,50 P,0,27828,,A F,0,27828,27978,0,1 S,0,27828,55219,0.5 MX,0,27828,55219,428.05 MY,0,27828,55219,150 F,0,55069,55219,1,0
Sprite,Foreground,Centre,"Lyrics\t.png",320,240 C,0,27828,,80,255,50 P,0,27828,,A F,0,27828,27978,0,1 S,0,27828,55219,0.5 MX,0,27828,55219,440 MY,0,27828,55219,150 F,0,55069,55219,1,0
Sprite,Foreground,Centre,"Lyrics\o.png",320,240 C,0,27828,,80,255,50 P,0,27828,,A F,0,27828,27978,0,1 S,0,27828,55219,0.5 MX,0,27828,55219,454.1 MY,0,27828,55219,150 F,0,55069,55219,1,0
Sprite,Foreground,Centre,"Lyrics\Mu.png",320,240 C,0,55654,,80,255,50 P,0,55654,,A F,0,55654,55804,0,1 S,0,55654,83480,0.5 MX,0,55654,83480,401 MY,0,55654,83480,150 F,0,83330,83480,1,0
Sprite,Foreground,Centre,"Lyrics\i.png",320,240 C,0,55654,,80,255,50 P,0,55654,,A F,0,55654,55804,0,1 S,0,55654,83480,0.5 MX,0,55654,83480,417.05 MY,0,55654,83480,150 F,0,83330,83480,1,0
Sprite,Foreground,Centre,"Lyrics\r.png",320,240 C,0,55654,,80,255,50 P,0,55654,,A F,0,55654,55804,0,1 S,0,55654,83480,0.5 MX,0,55654,83480,428.25 MY,0,55654,83480,150 F,0,83330,83480,1,0
Sprite,Foreground,Centre,"Lyrics\a.png",320,240 C,0,55654,,80,255,50 P,0,55654,,A F,0,55654,55804,0,1 S,0,55654,83480,0.5 MX,0,55654,83480,440.75 MY,0,55654,83480,150 F,0,83330,83480,1,0
Sprite,Foreground,Centre,"Lyrics\s.png",320,240 C,0,55654,,80,255,50 P,0,55654,,A F,0,55654,55804,0,1 S,0,55654,83480,0.5 MX,0,55654,83480,452.75 MY,0,55654,83480,150 F,0,83330,83480,1,0
Sprite,Foreground,Centre,"Lyrics\h.png",320,240 C,0,55654,,80,255,50 P,0,55654,,A F,0,55654,55804,0,1 S,0,55654,83480,0.5 MX,0,55654,83480,465.8 MY,0,55654,83480,150 F,0,83330,83480,1,0
Sprite,Foreground,Centre,"Lyrics\Tu.png",320,240 C,0,83480,,80,255,50 P,0,83480,,A F,0,83480,83630,0,1 S,0,83480,111306,0.5 MX,0,83480,111306,401 MY,0,83480,111306,150 F,0,111156,111306,1,0
Sprite,Foreground,Centre,"Lyrics\e.png",320,240 C,0,83480,,80,255,50 P,0,83480,,A F,0,83480,83630,0,1 S,0,83480,111306,0.5 MX,0,83480,111306,415.7 MY,0,83480,111306,150 F,0,111156,111306,1,0
Sprite,Foreground,Centre,"Lyrics\s.png",320,240 C,0,83480,,80,255,50 P,0,83480,,A F,0,83480,83630,0,1 S,0,83480,111306,0.5 MX,0,83480,111306,428.05 MY,0,83480,111306,150 F,0,111156,111306,1,0
Sprite,Foreground,Centre,"Lyrics\t.png",320,240 C,0,83480,,80,255,50 P,0,83480,,A F,0,83480,83630,0,1 S,0,83480,111306,0.5 MX,0,83480,111306,440 MY,0,83480,111306,150 F,0,111156,111306,1,0
Sprite,Foreground,Centre,"Lyrics\o.png",320,240 C,0,83480,,80,255,50 P,0,83480,,A F,0,83480,83630,0,1 S,0,83480,111306,0.5 MX,0,83480,111306,454.1 MY,0,83480,111306,150 F,0,111156,111306,1,0
Sprite,Foreground,Centre,"Lyrics\Mu.png",320,240 C,0,111306,,80,255,50 P,0,111306,,A F,0,111306,111456,0,1 S,0,111306,139132,0.5 MX,0,111306,139132,401 MY,0,111306,139132,150 F,0,138982,139132,1,0
Sprite,Foreground,Centre,"Lyrics\i.png",320,240 C,0,111306,,80,255,50 P,0,111306,,A F,0,111306,111456,0,1 S,0,111306,139132,0.5 MX,0,111306,139132,417.05 MY,0,111306,139132,150 F,0,138982,139132,1,0
Sprite,Foreground,Centre,"Lyrics\r.png",320,240 C,0,111306,,80,255,50 P,0,111306,,A F,0,111306,111456,0,1 S,0,111306,139132,0.5 MX,0,111306,139132,428.25 MY,0,111306,139132,150 F,0,138982,139132,1,0
Sprite,Foreground,Centre,"Lyrics\a.png",320,240 C,0,111306,,80,255,50 P,0,111306,,A F,0,111306,111456,0,1 S,0,111306,139132,0.5 MX,0,111306,139132,440.75 MY,0,111306,139132,150 F,0,138982,139132,1,0
Sprite,Foreground,Centre,"Lyrics\s.png",320,240 C,0,111306,,80,255,50 P,0,111306,,A F,0,111306,111456,0,1 S,0,111306,139132,0.5 MX,0,111306,139132,452.75 MY,0,111306,139132,150 F,0,138982,139132,1,0
Sprite,Foreground,Centre,"Lyrics\h.png",320,240 C,0,111306,,80,255,50 P,0,111306,,A F,0,111306,111456,0,1 S,0,111306,139132,0.5 MX,0,111306,139132,465.8 MY,0,111306,139132,150 F,0,138982,139132,1,0
Sprite,Foreground,Centre,"Lyrics\Tu.png",320,240 C,0,139132,,80,255,50 P,0,139132,,A F,0,139132,139282,0,1 S,0,139132,166958,0.5 MX,0,139132,166958,401 MY,0,139132,166958,150 F,0,166808,166958,1,0
Sprite,Foreground,Centre,"Lyrics\e.png",320,240 C,0,139132,,80,255,50 P,0,139132,,A F,0,139132,139282,0,1 S,0,139132,166958,0.5 MX,0,139132,166958,415.7 MY,0,139132,166958,150 F,0,166808,166958,1,0
Sprite,Foreground,Centre,"Lyrics\s.png",320,240 C,0,139132,,80,255,50 P,0,139132,,A F,0,139132,139282,0,1 S,0,139132,166958,0.5 MX,0,139132,166958,428.05 MY,0,139132,166958,150 F,0,166808,166958,1,0
Sprite,Foreground,Centre,"Lyrics\t.png",320,240 C,0,139132,,80,255,50 P,0,139132,,A F,0,139132,139282,0,1 S,0,139132,166958,0.5 MX,0,139132,166958,440 MY,0,139132,166958,150 F,0,166808,166958,1,0
Sprite,Foreground,Centre,"Lyrics\o.png",320,240 C,0,139132,,80,255,50 P,0,139132,,A F,0,139132,139282,0,1 S,0,139132,166958,0.5 MX,0,139132,166958,454.1 MY,0,139132,166958,150 F,0,166808,166958,1,0
Sprite,Foreground,Centre,"Lyrics\Mu.png",320,240 C,0,180871,,80,255,50 P,0,180871,,A F,0,180871,181021,0,1 S,0,180871,208697,0.5 MX,0,180871,208697,401 MY,0,180871,208697,150 F,0,208547,208697,1,0
Sprite,Foreground,Centre,"Lyrics\i.png",320,240 C,0,180871,,80,255,50 P,0,180871,,A F,0,180871,181021,0,1 S,0,180871,208697,0.5 MX,0,180871,208697,417.05 MY,0,180871,208697,150 F,0,208547,208697,1,0
Sprite,Foreground,Centre,"Lyrics\r.png",320,240 C,0,180871,,80,255,50 P,0,180871,,A F,0,180871,181021,0,1 S,0,180871,208697,0.5 MX,0,180871,208697,428.25 MY,0,180871,208697,150 F,0,208547,208697,1,0
Sprite,Foreground,Centre,"Lyrics\a.png",320,240 C,0,180871,,80,255,50 P,0,180871,,A F,0,180871,181021,0,1 S,0,180871,208697,0.5 MX,0,180871,208697,440.75 MY,0,180871,208697,150 F,0,208547,208697,1,0
Sprite,Foreground,Centre,"Lyrics\s.png",320,240 C,0,180871,,80,255,50 P,0,180871,,A F,0,180871,181021,0,1 S,0,180871,208697,0.5 MX,0,180871,208697,452.75 MY,0,180871,208697,150 F,0,208547,208697,1,0
Sprite,Foreground,Centre,"Lyrics\h.png",320,240 C,0,180871,,80,255,50 P,0,180871,,A F,0,180871,181021,0,1 S,0,180871,208697,0.5 MX,0,180871,208697,465.8 MY,0,180871,208697,150 F,0,208547,208697,1,0
Sprite,Foreground,Centre,"Lyrics\Tu.png",320,240 C,0,208697,,80,255,50 P,0,208697,,A F,0,208697,208847,0,1 S,0,208697,229567,0.5 MX,0,208697,229567,401 MY,0,208697,229567,150 F,0,229417,229567,1,0
Sprite,Foreground,Centre,"Lyrics\e.png",320,240 C,0,208697,,80,255,50 P,0,208697,,A F,0,208697,208847,0,1 S,0,208697,229567,0.5 MX,0,208697,229567,415.7 MY,0,208697,229567,150 F,0,229417,229567,1,0
Sprite,Foreground,Centre,"Lyrics\s.png",320,240 C,0,208697,,80,255,50 P,0,208697,,A F,0,208697,208847,0,1 S,0,208697,229567,0.5 MX,0,208697,229567,428.05 MY,0,208697,229567,150 F,0,229417,229567,1,0
Sprite,Foreground,Centre,"Lyrics\t.png",320,240 C,0,208697,,80,255,50 P,0,208697,,A F,0,208697,208847,0,1 S,0,208697,229567,0.5 MX,0,208697,229567,440 MY,0,208697,229567,150 F,0,229417,229567,1,0
Sprite,Foreground,Centre,"Lyrics\o.png",320,240 C,0,208697,,80,255,50 P,0,208697,,A F,0,208697,208847,0,1 S,0,208697,229567,0.5 MX,0,208697,229567,454.1 MY,0,208697,229567,150 F,0,229417,229567,1,0
Sprite,Foreground,Centre,"Lyrics\Mu.png",320,240 C,0,229567,,80,255,50 P,0,229567,,A F,0,229567,229717,0,1 S,0,229567,250436,0.5 MX,0,229567,250436,401 MY,0,229567,250436,150 F,0,250286,250436,1,0
Sprite,Foreground,Centre,"Lyrics\i.png",320,240 C,0,229567,,80,255,50 P,0,229567,,A F,0,229567,229717,0,1 S,0,229567,250436,0.5 MX,0,229567,250436,417.05 MY,0,229567,250436,150 F,0,250286,250436,1,0
Sprite,Foreground,Centre,"Lyrics\r.png",320,240 C,0,229567,,80,255,50 P,0,229567,,A F,0,229567,229717,0,1 S,0,229567,250436,0.5 MX,0,229567,250436,428.25 MY,0,229567,250436,150 F,0,250286,250436,1,0
Sprite,Foreground,Centre,"Lyrics\a.png",320,240 C,0,229567,,80,255,50 P,0,229567,,A F,0,229567,229717,0,1 S,0,229567,250436,0.5 MX,0,229567,250436,440.75 MY,0,229567,250436,150 F,0,250286,250436,1,0
Sprite,Foreground,Centre,"Lyrics\s.png",320,240 C,0,229567,,80,255,50 P,0,229567,,A F,0,229567,229717,0,1 S,0,229567,250436,0.5 MX,0,229567,250436,452.75 MY,0,229567,250436,150 F,0,250286,250436,1,0
Sprite,Foreground,Centre,"Lyrics\h.png",320,240 C,0,229567,,80,255,50 P,0,229567,,A F,0,229567,229717,0,1 S,0,229567,250436,0.5 MX,0,229567,250436,465.8 MY,0,229567,250436,150 F,0,250286,250436,1,0
Sprite,Foreground,Centre,"Lyrics\Tu.png",320,240 C,0,250436,,80,255,50 P,0,250436,,A F,0,250436,250586,0,1 S,0,250436,278262,0.5 MX,0,250436,278262,401 MY,0,250436,278262,150 F,0,278112,278262,1,0
Sprite,Foreground,Centre,"Lyrics\e.png",320,240 C,0,250436,,80,255,50 P,0,250436,,A F,0,250436,250586,0,1 S,0,250436,278262,0.5 MX,0,250436,278262,415.7 MY,0,250436,278262,150 F,0,278112,278262,1,0
Sprite,Foreground,Centre,"Lyrics\s.png",320,240 C,0,250436,,80,255,50 P,0,250436,,A F,0,250436,250586,0,1 S,0,250436,278262,0.5 MX,0,250436,278262,428.05 MY,0,250436,278262,150 F,0,278112,278262,1,0
Sprite,Foreground,Centre,"Lyrics\t.png",320,240 C,0,250436,,80,255,50 P,0,250436,,A F,0,250436,250586,0,1 S,0,250436,278262,0.5 MX,0,250436,278262,440 MY,0,250436,278262,150 F,0,278112,278262,1,0
Sprite,Foreground,Centre,"Lyrics\o.png",320,240 C,0,250436,,80,255,50 P,0,250436,,A F,0,250436,250586,0,1 S,0,250436,278262,0.5 MX,0,250436,278262,454.1 MY,0,250436,278262,150 F,0,278112,278262,1,0
Sprite,Foreground,Centre,"Lyrics\Mu.png",320,240 C,0,278262,,80,255,50 P,0,278262,,A F,0,278262,278412,0,1 S,0,278262,306088,0.5 MX,0,278262,306088,401 MY,0,278262,306088,150 F,0,305938,306088,1,0
Sprite,Foreground,Centre,"Lyrics\i.png",320,240 C,0,278262,,80,255,50 P,0,278262,,A F,0,278262,278412,0,1 S,0,278262,306088,0.5 MX,0,278262,306088,417.05 MY,0,278262,306088,150 F,0,305938,306088,1,0
Sprite,Foreground,Centre,"Lyrics\r.png",320,240 C,0,278262,,80,255,50 P,0,278262,,A F,0,278262,278412,0,1 S,0,278262,306088,0.5 MX,0,278262,306088,428.25 MY,0,278262,306088,150 F,0,305938,306088,1,0
Sprite,Foreground,Centre,"Lyrics\a.png",320,240 C,0,278262,,80,255,50 P,0,278262,,A F,0,278262,278412,0,1 S,0,278262,306088,0.5 MX,0,278262,306088,440.75 MY,0,278262,306088,150 F,0,305938,306088,1,0
Sprite,Foreground,Centre,"Lyrics\s.png",320,240 C,0,278262,,80,255,50 P,0,278262,,A F,0,278262,278412,0,1 S,0,278262,306088,0.5 MX,0,278262,306088,452.75 MY,0,278262,306088,150 F,0,305938,306088,1,0
Sprite,Foreground,Centre,"Lyrics\h.png",320,240 C,0,278262,,80,255,50 P,0,278262,,A F,0,278262,278412,0,1 S,0,278262,306088,0.5 MX,0,278262,306088,465.8 MY,0,278262,306088,150 F,0,305938,306088,1,0
Sprite,Foreground,Centre,"Lyrics\Tu.png",320,240 C,0,306088,,80,255,50 P,0,306088,,A F,0,306088,306238,0,1 S,0,306088,333915,0.5 MX,0,306088,333915,401 MY,0,306088,333915,150 F,0,333765,333915,1,0
Sprite,Foreground,Centre,"Lyrics\e.png",320,240 C,0,306088,,80,255,50 P,0,306088,,A F,0,306088,306238,0,1 S,0,306088,333915,0.5 MX,0,306088,333915,415.7 MY,0,306088,333915,150 F,0,333765,333915,1,0
Sprite,Foreground,Centre,"Lyrics\s.png",320,240 C,0,306088,,80,255,50 P,0,306088,,A F,0,306088,306238,0,1 S,0,306088,333915,0.5 MX,0,306088,333915,428.05 MY,0,306088,333915,150 F,0,333765,333915,1,0
Sprite,Foreground,Centre,"Lyrics\t.png",320,240 C,0,306088,,80,255,50 P,0,306088,,A F,0,306088,306238,0,1 S,0,306088,333915,0.5 MX,0,306088,333915,440 MY,0,306088,333915,150 F,0,333765,333915,1,0
Sprite,Foreground,Centre,"Lyrics\o.png",320,240 C,0,306088,,80,255,50 P,0,306088,,A F,0,306088,306238,0,1 S,0,306088,333915,0.5 MX,0,306088,333915,454.1 MY,0,306088,333915,150 F,0,333765,333915,1,0
Sprite,Foreground,Centre,"Lyrics\Mu.png",320,240 C,0,333915,,80,255,50 P,0,333915,,A F,0,333915,334065,0,1 S,0,333915,368697,0.5 MX,0,333915,368697,401 MY,0,333915,368697,150 F,0,368547,368697,1,0
Sprite,Foreground,Centre,"Lyrics\i.png",320,240 C,0,333915,,80,255,50 P,0,333915,,A F,0,333915,334065,0,1 S,0,333915,368697,0.5 MX,0,333915,368697,417.05 MY,0,333915,368697,150 F,0,368547,368697,1,0
Sprite,Foreground,Centre,"Lyrics\r.png",320,240 C,0,333915,,80,255,50 P,0,333915,,A F,0,333915,334065,0,1 S,0,333915,368697,0.5 MX,0,333915,368697,428.25 MY,0,333915,368697,150 F,0,368547,368697,1,0
Sprite,Foreground,Centre,"Lyrics\a.png",320,240 C,0,333915,,80,255,50 P,0,333915,,A F,0,333915,334065,0,1 S,0,333915,368697,0.5 MX,0,333915,368697,440.75 MY,0,333915,368697,150 F,0,368547,368697,1,0
Sprite,Foreground,Centre,"Lyrics\s.png",320,240 C,0,333915,,80,255,50 P,0,333915,,A F,0,333915,334065,0,1 S,0,333915,368697,0.5 MX,0,333915,368697,452.75 MY,0,333915,368697,150 F,0,368547,368697,1,0
Sprite,Foreground,Centre,"Lyrics\h.png",320,240 C,0,333915,,80,255,50 P,0,333915,,A F,0,333915,334065,0,1 S,0,333915,368697,0.5 MX,0,333915,368697,465.8 MY,0,333915,368697,150 F,0,368547,368697,1,0
Sprite,Foreground,Centre,"Lyrics\Tu.png",320,240 C,0,368697,,80,255,50 P,0,368697,,A F,0,368697,368847,0,1 S,0,368697,410436,0.5 MX,0,368697,410436,401 MY,0,368697,410436,150 F,0,410286,410436,1,0
Sprite,Foreground,Centre,"Lyrics\e.png",320,240 C,0,368697,,80,255,50 P,0,368697,,A F,0,368697,368847,0,1 S,0,368697,410436,0.5 MX,0,368697,410436,415.7 MY,0,368697,410436,150 F,0,410286,410436,1,0
Sprite,Foreground,Centre,"Lyrics\s.png",320,240 C,0,368697,,80,255,50 P,0,368697,,A F,0,368697,368847,0,1 S,0,368697,410436,0.5 MX,0,368697,410436,428.05 MY,0,368697,410436,150 F,0,410286,410436,1,0
Sprite,Foreground,Centre,"Lyrics\t.png",320,240 C,0,368697,,80,255,50 P,0,368697,,A F,0,368697,368847,0,1 S,0,368697,410436,0.5 MX,0,368697,410436,440 MY,0,368697,410436,150 F,0,410286,410436,1,0
Sprite,Foreground,Centre,"Lyrics\o.png",320,240 C,0,368697,,80,255,50 P,0,368697,,A F,0,368697,368847,0,1 S,0,368697,410436,0.5 MX,0,368697,410436,454.1 MY,0,368697,410436,150 F,0,410286,410436,1,0
Sprite,Foreground,Centre,"Lyrics\Mu.png",320,240 C,0,410436,,80,255,50 P,0,410436,,A F,0,410436,410586,0,1 S,0,410436,427828,0.5 MX,0,410436,427828,401 MY,0,410436,427828,150 F,0,427678,427828,1,0
Sprite,Foreground,Centre,"Lyrics\i.png",320,240 C,0,410436,,80,255,50 P,0,410436,,A F,0,410436,410586,0,1 S,0,410436,427828,0.5 MX,0,410436,427828,417.05 MY,0,410436,427828,150 F,0,427678,427828,1,0
Sprite,Foreground,Centre,"Lyrics\r.png",320,240 C,0,410436,,80,255,50 P,0,410436,,A F,0,410436,410586,0,1 S,0,410436,427828,0.5 MX,0,410436,427828,428.25 MY,0,410436,427828,150 F,0,427678,427828,1,0
Sprite,Foreground,Centre,"Lyrics\a.png",320,240 C,0,410436,,80,255,50 P,0,410436,,A F,0,410436,410586,0,1 S,0,410436,427828,0.5 MX,0,410436,427828,440.75 MY,0,410436,427828,150 F,0,427678,427828,1,0
Sprite,Foreground,Centre,"Lyrics\s.png",320,240 C,0,410436,,80,255,50 P,0,410436,,A F,0,410436,410586,0,1 S,0,410436,427828,0.5 MX,0,410436,427828,452.75 MY,0,410436,427828,150 F,0,427678,427828,1,0
Sprite,Foreground,Centre,"Lyrics\h.png",320,240 C,0,410436,,80,255,50 P,0,410436,,A F,0,410436,410586,0,1 S,0,410436,427828,0.5 MX,0,410436,427828,465.8 MY,0,410436,427828,150 F,0,427678,427828,1,0
//Storyboard Sound Samples

[TimingPoints]
2,434.782608695652,4,2,1,40,1,0
27828,-125,4,2,1,40,0,0
34784,-100,4,2,1,50,0,0
48697,-100,4,2,1,50,0,0
55654,-100,4,2,1,50,0,0
69567,-83.3333333333333,4,2,1,50,0,0
81741,-100,4,2,1,50,0,0
83480,-83.3333333333333,4,2,1,50,0,0
97393,-83.3333333333333,4,2,1,40,0,0
111306,-83.3333333333333,4,2,1,50,0,0
125219,-100,4,2,1,40,0,0
126741,-50,4,2,1,40,0,0
128697,-100,4,2,1,40,0,0
130219,-50,4,2,1,40,0,0
132393,-83.3333333333333,4,2,1,40,0,0
133697,-50,4,2,1,40,0,0
135654,-83.3333333333333,4,2,1,40,0,0
139132,-83.3333333333333,4,2,1,50,0,0
151306,-50,4,2,1,50,0,0
153045,-71.4285714285714,4,2,1,55,0,0
180871,-125,4,2,1,45,0,0
191741,-100,4,2,1,50,0,0
194784,-100,4,2,1,45,0,0
208262,-50,4,2,1,45,0,0
208697,-83.3333333333333,4,2,1,45,0,0
222610,-83.3333333333333,4,2,1,50,0,0
250436,-100,4,2,1,40,0,0
262828,-83.3333333333333,4,2,1,40,0,0
263262,-71.4285714285714,4,2,1,40,0,0
263697,-62.5,4,2,1,40,0,0
264349,-100,4,2,1,40,0,0
278262,-100,4,2,1,45,0,0
306088,-83.3333333333333,4,2,1,50,0,0
324132,-50,4,2,1,50,0,0
324675,-83.3333333333333,4,2,1,50,0,0
328262,-50,4,2,1,55,0,0
328697,-83.3333333333333,4,2,1,55,0,0
330001,-50,4,2,1,55,0,0
330436,-83.3333333333333,4,2,1,55,0,0
331741,-50,4,2,1,55,0,0
332175,-83.3333333333333,4,2,1,55,0,0
333480,-33.3333333333333,4,2,1,55,0,0
334458,-33.3333333333333,4,2,1,50,0,0
335328,-33.3333333333333,4,2,1,48,0,0
336197,-33.3333333333333,4,2,1,45,0,0
337067,-33.3333333333333,4,2,1,43,0,0
337936,-33.3333333333333,4,2,1,42,0,0
338806,-33.3333333333333,4,2,1,40,0,0
339132,-100,4,2,1,40,0,0
340871,-100,4,2,1,40,0,0
352175,-66.6666666666667,4,2,1,45,0,0
355219,-83.3333333333333,4,2,1,45,0,0
368697,-83.3333333333333,4,2,1,45,0,0
370001,-50,4,2,1,45,0,0
370436,-83.3333333333333,4,2,1,45,0,0
373480,-50,4,2,1,45,0,0
373915,-83.3333333333333,4,2,1,45,0,0
376958,-50,4,2,1,45,0,0
377828,-83.3333333333333,4,2,1,45,0,0
380436,-50,4,2,1,45,0,0
380871,-83.3333333333333,4,2,1,45,0,0
383915,-50,4,2,1,45,0,0
384349,-83.3333333333333,4,2,1,45,0,0
385871,-50,4,2,1,45,0,0
386523,-83.3333333333333,4,2,1,45,0,0
387393,-50,4,2,1,45,0,0
387828,-83.3333333333333,4,2,1,45,0,0
391088,-50,4,2,1,45,0,0
391306,-83.3333333333333,4,2,1,45,0,0
394349,-166.666666666667,4,2,1,45,0,0
394784,-100,4,2,1,30,0,0
396415,-100,4,2,1,10,0,0
396523,-100,4,2,1,40,0,0

[Colours]
Combo1 : 6,62,164
Combo2 : 128,0,255
Combo3 : 0,128,0
Combo4 : 128,64,64
Combo5 : 128,128,128
Combo6 : 187,6,11

[HitObjects]
272,102,27828,5,0,0:0:0:0:
367,171,28154,1,0,0:0:0:0:
272,240,28480,1,0,0:0:0:0:
367,309,28806,1,0,0:0:0:0:
378,317,28915,1,0,3:0:0:0:
272,240,29132,6,0,P|223:228|148:262,1,112,0|0,3:0|0:0,0:0:0:0:
165,246,29893,1,0,0:0:0:0:
217,141,30219,1,0,0:0:0:0:
112,89,30545,1,0,0:0:0:0:
60,194,30871,2,0,P|92:181|117:179,1,56,0|0,3:0|3:0,0:0:0:0:
217,141,31306,5,0,0:0:0:0:
331,167,31632,1,0,0:0:0:0:
305,281,31958,1,0,0:0:0:0:
191,255,32284,1,0,0:0:0:0:
178,249,32393,1,0,3:0:0:0:
305,281,32610,6,0,P|345:269|417:287,1,112,0|0,3:0|0:0,0:0:0:0:
412,284,33371,1,0,0:0:0:0:
433,168,33697,1,0,0:0:0:0:
284,165,34023,1,0,0:0:0:0:
305,281,34349,2,0,P|327:253|349:232,1,56,0|0,3:0|3:0,0:0:0:0:
433,168,34784,6,0,P|423:122|465:29,1,140,8|0,1:2|3:0,0:0:0:0:
466,30,35436,1,0,3:0:0:0:
319,47,35654,6,0,P|291:49|245:33,1,70
221,18,35980,1,0,3:0:0:0:
215,17,36088,2,0,P|173:29|145:54,1,70,0|0,3:0|0:0,0:0:0:0:
161,167,36523,5,0,3:0:0:0:
247,257,36741,1,0,0:0:0:0:
257,254,36849,1,0,3:0:0:0:
267,251,36958,1,0,0:0:0:0:
362,221,37175,1,0,3:0:0:0:
451,262,37393,2,0,P|410:206|431:139,1,140,0|0,3:0|1:0,0:0:0:0:
350,33,38045,5,0,3:0:0:0:
339,33,38154,1,0,3:0:0:0:
328,32,38262,2,0,P|340:65|339:100,1,70,0|0,1:0|0:0,0:0:0:0:
316,127,38588,1,0,3:0:0:0:
313,132,38697,2,0,P|278:133|245:121,1,70,0|0,3:0|3:0,0:0:0:0:
110,163,39132,6,0,L|119:243,1,70,0|0,3:0|0:0,0:0:0:0:
140,258,39458,1,0,3:0:0:0:
143,262,39567,2,0,P|179:252|217:260,1,70,0|0,3:0|0:0,0:0:0:0:
327,333,40001,5,0,3:0:0:0:
430,273,40219,1,0,0:0:0:0:
429,262,40328,1,0,3:0:0:0:
428,252,40436,1,0,0:0:0:0:
415,147,40654,1,0,3:0:0:0:
331,81,40871,2,0,B|253:100|272:47|177:72,1,140,0|0,3:0|1:0,0:0:0:0:
103,226,41523,5,0,3:0:0:0:
101,236,41632,1,0,3:0:0:0:
99,246,41741,2,0,B|156:218|207:247|207:247|165:264,1,140,12|0,1:2|3:0,0:0:0:0:
181,257,42393,1,0,3:0:0:0:
286,303,42610,6,0,P|324:308|362:298,1,70,0|0,0:0|0:0,0:0:0:0:
382,279,42936,1,0,3:0:0:0:
385,272,43045,2,0,P|390:234|380:196,1,70,0|0,3:0|0:0,0:0:0:0:
296,121,43480,5,0,3:0:0:0:
414,87,43697,1,0,0:0:0:0:
424,88,43806,1,0,3:0:0:0:
434,89,43915,1,0,0:0:0:0:
296,22,44132,2,0,L|204:29,1,70,0|0,3:0|3:0,0:0:0:0:
197,47,44458,1,0,3:0:0:0:
193,53,44567,2,0,P|192:93|182:146,1,70,0|0,3:0|1:0,0:0:0:0:
272,287,45001,5,0,3:0:0:0:
282,285,45110,1,0,3:0:0:0:
292,283,45219,2,0,P|328:293|353:323,1,70,0|0,1:0|0:0,0:0:0:0:
372,342,45545,1,0,3:0:0:0:
378,345,45654,2,0,P|419:345|465:331,1,70,0|0,3:0|0:0,0:0:0:0:
419,209,46088,6,0,P|416:222|415:238,4,17.5,0|0|0|0|0,0:0|0:0|0:0|0:0|0:0,0:0:0:0:
421,202,46415,1,0,3:0:0:0:
423,195,46523,2,0,P|420:143|413:115,1,70,0|0,3:0|0:0,0:0:0:0:
321,52,46958,5,0,3:0:0:0:
234,121,47175,1,0,0:0:0:0:
235,131,47284,1,0,3:0:0:0:
236,142,47393,1,0,0:0:0:0:
225,24,47610,1,0,3:0:0:0:
151,154,47828,1,0,3:0:0:0:
145,162,47936,1,0,3:0:0:0:
139,170,48045,2,0,P|114:154|64:145,1,70,0|0,0:0|1:0,0:0:0:0:
87,282,48480,5,0,3:0:0:0:
89,292,48588,1,0,3:0:0:0:
91,302,48697,2,0,B|146:273|213:283|182:336|241:346|318:319,1,210,8|0,3:0|0:0,0:0:0:0:
373,374,49567,2,0,B|320:344|304:284|354:228|354:228|352:255|369:276,1,210,0|0,3:0|0:0,0:0:0:0:
244,97,50436,6,0,P|266:164|163:231,1,210,0|0,3:0|0:0,0:0:0:0:
322,231,51306,2,0,P|231:193|243:96,1,210,0|0,3:0|0:0,0:0:0:0:
322,231,52175,6,0,B|285:258|268:317|293:369|293:369|328:370|367:334,1,210,0|0,3:0|0:0,0:0:0:0:
158,384,53045,2,0,P|172:330|82:202,1,210,0|0,3:0|0:0,0:0:0:0:
377,161,53915,5,8,3:0:0:0:
377,161,54241,1,0,3:0:0:0:
378,171,54349,1,0,3:0:0:0:
389,268,54567,1,0,3:0:0:0:
328,344,54784,2,0,P|315:341|299:340,4,17.5,0|0|0|0|0,0:0|0:0|0:0|0:0|0:0,0:0:0:0:
335,346,55110,1,0,3:0:0:0:
342,348,55219,1,4,3:0:0:0:
96,340,55654,6,0,P|102:278|113:191,1,140,8|8,3:0|0:0,0:0:0:0:
235,83,56306,1,0,3:0:0:0:
166,108,56523,2,0,P|124:102|89:101,1,70,8|0,3:0|0:0,0:0:0:0:
280,175,56958,5,8,3:2:0:0:
314,167,57067,1,0,3:0:0:0:
348,159,57175,1,0,1:0:0:0:
382,152,57284,1,0,3:0:0:0:
382,152,57393,2,0,P|422:209|415:297,1,140,8|8,3:0|0:0,0:0:0:0:
273,325,58045,1,0,3:0:0:0:
343,368,58262,1,8,3:0:0:0:
343,368,58371,2,0,P|347:313|347:283,1,70,0|0,3:0|0:0,0:0:0:0:
281,247,58697,5,8,3:2:0:0:
246,250,58806,1,0,3:0:0:0:
211,253,58915,1,0,1:0:0:0:
177,261,59023,1,0,3:0:0:0:
177,261,59132,2,0,B|108:242|108:242|36:267,1,140,8|8,3:0|0:0,0:0:0:0:
11,193,59784,1,0,3:0:0:0:
178,184,60001,2,0,L|183:105,1,70,8|0,3:0|0:0,0:0:0:0:
80,27,60436,5,8,3:2:0:0:
73,61,60545,1,0,3:0:0:0:
66,95,60654,1,0,1:0:0:0:
62,129,60762,1,0,3:0:0:0:
62,129,60871,2,0,B|134:137|117:82|216:93,1,140,8|8,3:0|0:0,0:0:0:0:
320,215,61523,1,0,3:0:0:0:
309,139,61741,1,8,3:0:0:0:
309,139,61849,1,0,3:0:0:0:
394,161,62067,5,0,3:0:0:0:
398,195,62175,1,8,3:2:0:0:
402,229,62284,1,0,3:0:0:0:
406,263,62393,1,0,1:0:0:0:
415,296,62501,1,0,3:0:0:0:
415,296,62610,2,0,B|362:291|362:291|335:305|335:305|270:299,1,140,8|8,3:0|0:0,0:0:0:0:
172,274,63262,1,0,3:0:0:0:
102,359,63480,2,0,L|189:369,1,70,8|0,3:0|0:0,0:0:0:0:
40,298,63915,5,8,3:2:0:0:
43,263,64023,1,0,3:0:0:0:
46,228,64132,1,0,1:0:0:0:
49,193,64241,1,0,3:0:0:0:
49,193,64349,2,0,P|72:145|155:122,1,140,8|8,3:0|0:0,0:0:0:0:
278,129,65001,1,0,3:0:0:0:
192,205,65219,1,8,3:0:0:0:
192,205,65328,2,0,P|234:201|280:205,1,70,0|0,3:0|0:0,0:0:0:0:
341,206,65654,5,8,3:2:0:0:
338,240,65762,1,0,3:0:0:0:
335,275,65871,1,0,1:0:0:0:
334,310,65980,1,0,3:0:0:0:
334,310,66088,2,0,L|182:307,1,140,8|8,3:0|0:0,0:0:0:0:
421,373,66741,1,0,3:0:0:0:
414,300,66958,2,0,P|415:253|417:214,1,70,8|0,3:0|0:0,0:0:0:0:
422,49,67393,5,8,3:2:0:0:
394,70,67501,1,0,3:0:0:0:
408,101,67610,1,0,3:0:0:0:
442,98,67719,1,0,3:0:0:0:
443,62,67828,5,8,3:0:0:0:
452,56,67936,1,0,0:0:0:0:
394,70,68045,1,8,3:0:0:0:
383,68,68154,1,0,0:0:0:0:
408,101,68262,5,8,3:0:0:0:
401,106,68371,1,0,0:0:0:0:
442,98,68480,1,8,3:0:0:0:
450,103,68588,1,0,0:0:0:0:
428,172,68697,6,2,L|416:215,1,35
283,215,68915,6,0,L|291:247,3,23.3333333333333,2|2|2|2,3:0|3:0|3:0|3:0,3:0:0:0:
283,215,69567,6,0,L|178:208,1,83.9999974365235,8|0,3:0|0:0,0:0:0:0:
63,189,70001,1,8,3:2:0:0:
65,231,70110,1,0,3:0:0:0:
67,273,70219,1,0,3:0:0:0:
191,144,70436,1,8,3:0:0:0:
95,101,70654,1,0,3:0:0:0:
218,58,70871,5,8,3:2:0:0:
230,68,70980,1,0,3:0:0:0:
333,78,71197,1,0,3:0:0:0:
352,68,71306,2,0,L|362:165,1,83.9999974365235,8|0,3:0|0:0,0:0:0:0:
249,275,71741,2,0,L|333:218,1,83.9999974365235,8|0,0:0|0:0,0:0:0:0:
482,271,72175,2,0,L|400:218,1,83.9999974365235,8|0,3:0|0:0,0:0:0:0:
371,302,72501,1,0,3:0:0:0:
371,302,72610,2,0,L|375:353,1,41.9999987182618,8|0,3:2|0:0,0:0:0:0:
298,328,72828,2,0,L|298:378,1,41.9999987182618,0|0,1:0|0:0,0:0:0:0:
216,368,73045,6,0,L|119:358,1,83.9999974365235,8|0,3:0|0:0,0:0:0:0:
224,288,73480,2,0,L|236:192,1,83.9999974365235,8|0,0:0|3:0,0:0:0:0:
179,150,73806,1,0,3:0:0:0:
136,149,73915,1,8,3:0:0:0:
94,147,74023,1,0,3:0:0:0:
51,145,74132,1,0,3:0:0:0:
45,284,74349,6,0,L|34:367,1,83.9999974365235,8|0,0:0|3:0,0:0:0:0:
34,367,74675,1,0,3:0:0:0:
34,367,74784,1,8,3:0:0:0:
154,369,75001,1,0,3:0:0:0:
157,267,75219,1,8,0:0:0:0:
45,284,75436,1,0,3:0:0:0:
228,318,75654,5,8,3:0:0:0:
246,327,75762,2,0,L|260:226,1,83.9999974365235,0|0,3:0|3:0,0:0:0:0:
248,166,76088,1,8,3:2:0:0:
289,172,76197,1,0,3:0:0:0:
330,178,76306,1,0,1:0:0:0:
371,186,76415,1,0,3:0:0:0:
371,186,76523,2,0,P|376:143|381:95,1,83.9999974365235,8|0,3:0|0:0,0:0:0:0:
214,0,76958,2,0,P|209:41|204:83,1,83.9999974365235,8|0,0:0|3:0,0:0:0:0:
498,76,77393,6,0,P|467:31|439:2,1,83.9999974365235,8|0,3:0|0:0,0:0:0:0:
124,99,77828,2,0,P|155:144|183:173,1,83.9999974365235,8|0,0:0|3:0,0:0:0:0:
385,275,78262,5,8,3:0:0:0:
341,187,78480,1,0,3:0:0:0:
211,292,78697,5,8,0:0:0:0:
290,266,78915,1,0,3:0:0:0:
325,378,79132,5,8,3:0:0:0:
304,363,79241,1,0,3:0:0:0:
283,348,79349,1,0,3:0:0:0:
68,352,79567,5,8,3:2:0:0:
70,310,79675,1,0,3:0:0:0:
73,268,79784,1,0,1:0:0:0:
76,226,79893,1,0,3:0:0:0:
76,226,80001,2,0,B|67:182|67:182|82:130,1,83.9999974365235,8|0,3:0|0:0,0:0:0:0:
218,37,80436,5,8,3:2:0:0:
259,45,80545,1,0,3:0:0:0:
300,53,80654,1,0,3:0:0:0:
340,61,80762,1,0,3:0:0:0:
381,69,80871,1,8,3:0:0:0:
464,48,81088,1,0,3:0:0:0:
450,228,81306,1,8,0:0:0:0:
344,180,81523,1,0,3:0:0:0:
381,69,81741,6,0,L|357:363,1,280,8|0,3:0|0:0,0:0:0:0:
361,352,82828,1,0,0:0:0:0:
481,279,83045,1,0,3:0:0:0:
474,244,83154,1,0,3:0:0:0:
467,209,83262,1,0,3:0:0:0:
384,120,83480,5,8,3:0:0:0:
343,129,83588,1,0,3:0:0:0:
303,118,83697,1,0,3:0:0:0:
196,51,83915,5,8,0:0:0:0:
128,158,84132,1,0,3:0:0:0:
234,226,84349,2,0,P|233:184|218:145,1,83.9999974365235,8|0,3:0|0:0,0:0:0:0:
81,267,84784,1,8,3:2:0:0:
99,279,84893,1,0,3:0:0:0:
118,287,85001,1,0,3:0:0:0:
139,292,85110,1,0,3:0:0:0:
158,296,85219,6,0,P|116:314|82:351,1,83.9999974365235,8|0,3:0|0:0,0:0:0:0:
315,243,85654,2,0,P|272:226|222:228,1,83.9999974365235,8|0,0:0|3:0,0:0:0:0:
462,212,86088,1,8,3:0:0:0:
467,191,86197,1,0,3:0:0:0:
359,103,86415,5,0,3:0:0:0:
364,124,86523,2,0,P|371:99|369:72,1,41.9999987182618,8|0,0:0|3:0,0:0:0:0:
469,12,86741,2,0,P|469:32|475:52,1,41.9999987182618,0|0,1:0|0:0,0:0:0:0:
273,29,86958,6,0,P|229:19|179:35,1,83.9999974365235,8|0,3:0|0:0,0:0:0:0:
163,58,87284,1,0,0:0:0:0:
150,98,87393,1,8,3:2:0:0:
155,118,87501,1,0,3:0:0:0:
160,138,87610,1,0,3:0:0:0:
165,158,87719,1,0,3:0:0:0:
171,180,87828,2,0,P|192:191|216:195,1,41.9999987182618,8|0,3:0|0:0,0:0:0:0:
328,107,88045,2,0,P|307:118|283:122,1,41.9999987182618,0|0,3:0|0:0,0:0:0:0:
116,252,88262,6,0,P|173:277|304:262,1,167.999994873047,8|8,0:0|3:0,0:0:0:0:
390,217,88915,1,0,3:0:0:0:
470,316,89132,2,0,P|481:273|513:239,1,83.9999974365235,8|0,0:0|0:0,0:0:0:0:
277,273,89567,1,8,3:0:0:0:
286,291,89675,1,0,3:0:0:0:
416,107,89893,5,0,3:0:0:0:
395,106,90001,2,0,L|345:104,1,41.9999987182618,8|0,0:0|0:0,0:0:0:0:
221,170,90219,2,0,L|263:169,1,41.9999987182618,0|0,1:0|0:0,0:0:0:0:
212,32,90436,1,8,3:0:0:0:
170,30,90545,1,0,3:0:0:0:
128,28,90654,1,0,3:0:0:0:
27,117,90871,6,0,P|18:163|27:209,1,83.9999974365235,8|0,0:0|0:0,0:0:0:0:
128,28,91306,2,0,P|154:66|193:93,1,83.9999974365235,8|0,3:0|3:0,0:0:0:0:
302,207,91741,1,8,3:2:0:0:
289,223,91849,1,0,3:0:0:0:
280,242,91958,1,0,3:0:0:0:
276,263,92067,1,0,3:0:0:0:
277,286,92175,2,0,P|254:280|235:281,1,41.9999987182618,8|0,3:0|0:0,0:0:0:0:
61,354,92393,5,0,3:0:0:0:
62,345,92501,1,0,3:0:0:0:
63,336,92610,2,0,L|71:242,1,83.9999974365235,8|0,0:0|3:0,0:0:0:0:
295,171,93045,2,0,B|271:178|239:158|239:158|211:167|211:167|181:144|135:154,1,167.999994873047,8|8,3:0|3:2,0:0:0:0:
43,165,93588,1,0,3:0:0:0:
35,169,93697,2,0,P|40:130|37:113,1,41.9999987182618,0|0,1:0|0:0,0:0:0:0:
181,52,93915,6,0,P|235:60|286:38,1,83.9999974365235,8|0,3:0|0:0,0:0:0:0:
304,50,94241,1,0,0:0:0:0:
338,73,94349,1,8,3:2:0:0:
342,93,94458,1,0,3:0:0:0:
346,113,94567,1,0,3:0:0:0:
350,133,94675,1,0,3:0:0:0:
354,153,94784,2,0,P|328:150|300:136,1,41.9999987182618,8|0,3:0|3:0,0:0:0:0:
189,222,95001,2,0,P|163:225|135:239,1,41.9999987182618,0|0,3:0|0:0,0:0:0:0:
296,326,95219,5,8,0:0:0:0:
305,334,95328,1,0,3:0:0:0:
314,342,95436,2,0,L|319:317,2,20.9999993591309,0|0|0,3:0|3:0|3:0,0:0:0:0:
354,153,95654,5,8,3:0:0:0:
354,153,96306,5,0,3:0:0:0:
374,249,96523,1,0,0:0:0:0:
258,185,96741,5,0,3:0:0:0:
278,89,96958,1,0,0:0:0:0:
374,249,97175,6,0,L|380:281,2,20.9999993591309,0|0|0,3:0|3:0|3:0,0:0:0:0:
258,185,97393,6,0,P|222:181|167:193,1,83.9999974365235,8|0,0:0|3:0,0:0:0:0:
126,258,97719,2,0,P|147:215|102:129,1,125.999996154785,8|0,0:0|3:0,0:0:0:0:
123,144,98262,5,0,3:0:0:0:
125,131,98371,1,0,0:0:0:0:
127,119,98480,1,0,3:0:0:0:
396,54,98915,5,2,3:0:0:0:
396,54,100001,5,0,3:0:0:0:
413,153,100219,1,0,0:0:0:0:
300,220,100436,5,0,3:0:0:0:
283,319,100654,1,0,0:0:0:0:
317,121,100871,6,0,B|276:111|276:111|216:125,1,83.9999974365235,8|0,0:0|3:0,0:0:0:0:
167,170,101197,2,0,B|193:154|193:154|193:94|193:94|163:76,1,125.999996154785,8|0,0:0|3:0,0:0:0:0:
163,76,101741,5,0,3:0:0:0:
150,69,101849,1,0,0:0:0:0:
139,63,101958,1,0,3:0:0:0:
139,63,102393,5,2,3:0:0:0:
194,273,102828,5,0,3:0:0:0:
220,158,103045,1,0,0:0:0:0:
311,34,103262,5,0,3:0:0:0:
337,149,103480,1,0,0:0:0:0:
363,264,103697,5,0,0:0:0:0:
451,185,103915,1,0,3:0:0:0:
425,70,104132,2,0,L|418:38,2,20.9999993591309,0|0|0,3:0|3:0|3:0,0:0:0:0:
337,149,104349,6,0,P|299:150|252:129,1,83.9999974365235,8|0,0:0|3:0,0:0:0:0:
190,184,104675,1,8,0:0:0:0:
190,184,105219,5,0,3:0:0:0:
194,195,105328,1,0,0:0:0:0:
198,207,105436,1,0,3:0:0:0:
460,300,105871,5,2,3:0:0:0:
460,300,106306,5,0,3:0:0:0:
416,182,106523,1,0,0:0:0:0:
331,276,106741,1,0,0:0:0:0:
416,182,106958,5,2,0:0:0:0:
322,97,107175,1,2,0:0:0:0:
237,191,107393,1,2,0:0:0:0:
331,276,107610,1,2,0:0:0:0:
139,117,107828,6,0,P|131:85|135:60,1,41.9999987182618,8|0,0:0|0:0,0:0:0:0:
216,188,108045,1,0,3:0:0:0:
237,191,108154,2,0,P|257:195|276:204,1,41.9999987182618,8|0,0:0|0:0,0:0:0:0:
137,222,108371,1,0,3:0:0:0:
123,238,108480,2,0,P|109:253|91:264,1,41.9999987182618,8|0,0:0|0:0,0:0:0:0:
151,135,108697,5,0,3:0:0:0:
139,117,108806,1,0,0:0:0:0:
133,97,108915,1,0,3:0:0:0:
133,97,109349,5,2,3:0:0:0:
397,107,110219,5,0,3:0:0:0:
360,218,110436,1,0,0:0:0:0:
255,270,110654,1,0,0:0:0:0:
143,232,110871,1,2,0:0:0:0:
90,125,111088,1,2,0:0:0:0:
255,270,111306,6,0,L|269:129,1,125.999996154785,0|0,0:0|1:0,0:0:0:0:
283,135,111741,2,0,L|182:122,1,83.9999974365235,8|0,3:0|3:0,0:0:0:0:
335,66,112175,2,0,L|418:76,1,83.9999974365235,0|0,3:0|0:0,0:0:0:0:
418,76,112501,1,0,0:0:0:0:
418,76,112610,1,0,3:0:0:0:
478,150,112828,1,0,3:0:0:0:
335,245,113045,6,0,L|322:370,1,125.999996154785,0|0,3:0|3:0,0:0:0:0:
330,375,113480,2,0,L|430:367,1,83.9999974365235,0|0,0:0|3:0,0:0:0:0:
239,340,113915,6,2,L|178:350,1,41.9999987182618,2|2,1:0|0:0,0:0:0:0:
197,346,114132,2,2,L|136:356,1,41.9999987182618,2|2,3:0|0:0,0:0:0:0:
155,352,114349,2,2,L|94:362,1,41.9999987182618,2|2,1:0|0:0,0:0:0:0:
54,203,114567,2,2,L|104:208,1,41.9999987182618,2|2,3:0|0:0,0:0:0:0:
177,237,114784,6,0,B|146:178|146:178|167:99,1,125.999996154785,0|0,3:0|1:0,0:0:0:0:
158,104,115219,2,0,L|254:130,1,83.9999974365235,8|0,3:0|3:0,0:0:0:0:
327,207,115654,1,0,3:0:0:0:
360,205,115762,1,0,3:0:0:0:
393,203,115871,2,0,L|376:301,1,83.9999974365235,0|0,0:0|0:0,0:0:0:0:
472,151,116306,2,0,L|464:67,1,83.9999974365235,0|0,0:0|0:0,0:0:0:0:
276,35,116741,5,0,3:0:0:0:
190,26,116958,2,0,P|125:30|86:59,1,83.9999974365235,0|0,3:0|0:0,0:0:0:0:
218,184,117393,2,0,P|241:141|250:101,1,83.9999974365235,0|0,3:0|0:0,0:0:0:0:
70,118,117828,2,0,P|99:164|136:192,1,83.9999974365235,0|0,3:0|0:0,0:0:0:0:
309,257,118262,5,8,3:0:0:0:
202,295,118480,1,0,3:0:0:0:
202,295,118588,1,0,3:0:0:0:
202,295,118697,1,0,3:0:0:0:
210,375,118915,1,0,3:0:0:0:
318,347,119132,2,0,P|319:285|322:241,1,83.9999974365235,0|0,3:0|3:0,0:0:0:0:
379,94,119567,1,0,3:0:0:0:
411,101,119675,1,0,3:0:0:0:
443,108,119784,1,0,3:0:0:0:
476,115,119893,1,0,3:0:0:0:
500,152,120001,5,8,3:0:0:0:
323,183,120219,2,0,P|290:142|248:98,1,83.9999974365235,0|0,3:0|0:0,0:0:0:0:
390,230,120654,1,0,3:0:0:0:
197,235,120871,6,2,L|272:246,1,41.9999987182618,2|2,1:0|0:0,0:0:0:0:
155,228,121088,2,2,L|230:239,1,41.9999987182618,2|2,3:0|0:0,0:0:0:0:
113,221,121306,2,2,L|188:232,1,41.9999987182618,2|2,1:0|0:0,0:0:0:0:
129,55,121523,2,2,L|96:101,1,41.9999987182618,2|2,3:0|0:0,0:0:0:0:
27,81,121741,5,8,3:0:0:0:
40,111,121849,1,0,3:0:0:0:
49,143,121958,1,0,3:0:0:0:
52,176,122067,1,0,3:0:0:0:
51,209,122175,1,8,3:0:0:0:
47,242,122284,1,0,3:0:0:0:
36,274,122393,1,0,3:0:0:0:
20,303,122501,1,0,3:0:0:0:
26,336,122610,1,8,3:0:0:0:
53,355,122719,1,0,3:0:0:0:
82,338,122828,1,0,3:0:0:0:
109,318,122936,1,0,3:0:0:0:
142,316,123045,1,8,3:0:0:0:
174,325,123154,1,0,3:0:0:0:
204,338,123262,1,0,3:0:0:0:
237,344,123371,1,0,3:0:0:0:
278,331,123480,5,8,3:0:0:0:
281,334,123697,1,0,3:0:0:0:
320,267,123915,1,2,3:0:0:0:
310,224,124132,1,0,3:0:0:0:
376,158,124349,1,2,3:0:0:0:
365,82,124567,1,0,3:0:0:0:
215,132,124784,1,2,3:0:0:0:
195,22,125001,1,0,3:0:0:0:
52,152,125219,6,0,P|41:212|31:246,1,70,8|0,3:0|3:0,0:0:0:0:
38,220,125545,1,0,3:0:0:0:
38,220,125654,1,8,3:0:0:0:
129,321,125871,1,0,3:0:0:0:
124,307,125980,1,0,3:0:0:0:
119,293,126088,1,8,3:0:0:0:
132,212,126306,1,0,3:0:0:0:
146,214,126415,1,0,3:0:0:0:
161,217,126523,1,8,3:0:0:0:
252,267,126741,6,2,B|235:296|235:296|220:303|220:303|200:338,2,70,2|2|10,2:0|2:0|3:0,0:0:0:0:
274,168,127175,1,0,3:0:0:0:
288,170,127284,1,0,3:0:0:0:
303,173,127393,1,8,3:0:0:0:
366,225,127610,5,0,3:0:0:0:
358,236,127719,1,0,3:0:0:0:
351,249,127828,2,0,L|368:323,1,70,8|0,3:0|0:0,0:0:0:0:
440,344,128045,2,0,L|502:272,1,70,0|0,1:0|0:0,0:0:0:0:
485,210,128262,2,0,L|401:192,1,70,8|0,3:0|0:0,0:0:0:0:
369,118,128480,5,0,1:0:0:0:
379,91,128588,1,0,3:0:0:0:
389,66,128697,2,0,L|467:83,1,70,8|0,3:0|3:0,0:0:0:0:
457,80,129023,1,0,3:0:0:0:
457,80,129132,1,8,3:0:0:0:
312,27,129349,1,0,3:0:0:0:
301,35,129458,1,0,3:0:0:0:
290,43,129567,1,8,3:0:0:0:
206,34,129784,1,0,3:0:0:0:
195,42,129893,1,0,3:0:0:0:
184,50,130001,1,8,3:0:0:0:
232,164,130219,6,2,B|235:131|235:131|243:129|243:129|247:99,2,70,2|2|10,2:0|2:0|3:0,0:0:0:0:
143,192,130654,1,0,3:0:0:0:
146,203,130762,1,0,3:0:0:0:
149,214,130871,1,8,3:0:0:0:
227,246,131088,5,0,3:0:0:0:
230,257,131197,1,0,3:0:0:0:
233,268,131306,2,0,L|228:353,1,70,8|0,3:0|0:0,0:0:0:0:
311,277,131523,2,0,L|306:362,1,70,0|0,1:0|0:0,0:0:0:0:
389,281,131741,2,0,L|384:366,1,70,8|0,3:0|0:0,0:0:0:0:
465,359,131958,1,0,1:0:0:0:
465,359,132067,1,0,3:0:0:0:
465,359,132175,1,8,3:0:0:0:
460,225,132393,5,0,3:0:0:0:
452,209,132501,1,0,3:0:0:0:
443,194,132610,2,0,L|467:106,1,83.9999974365235,8|0,3:0|3:0,0:0:0:0:
473,119,132936,1,0,3:0:0:0:
473,119,133045,2,0,L|382:91,1,83.9999974365235,8|0,3:0|3:0,0:0:0:0:
230,54,133480,2,0,L|243:114,1,41.9999987182618,8|0,3:0|0:0,0:0:0:0:
309,147,133697,6,2,B|314:181|314:181|345:218,2,70,2|2|10,2:0|2:0|3:0,0:0:0:0:
226,201,134132,1,0,3:0:0:0:
211,192,134241,1,0,3:0:0:0:
196,183,134349,1,8,3:0:0:0:
125,92,134567,5,0,3:0:0:0:
108,93,134675,1,0,3:0:0:0:
91,94,134784,2,0,L|101:186,1,70,8|0,3:0|0:0,0:0:0:0:
26,192,135001,2,0,L|36:284,1,70,0|0,1:0|0:0,0:0:0:0:
108,279,135219,2,0,L|98:371,1,70,8|0,3:0|0:0,0:0:0:0:
189,378,135436,5,0,1:0:0:0:
215,368,135545,1,0,3:0:0:0:
241,359,135654,2,0,L|344:371,1,83.9999974365235,8|0,3:0|3:0,0:0:0:0:
405,349,135980,1,0,3:0:0:0:
405,349,136088,2,0,L|418:256,1,83.9999974365235,8|0,3:0|3:0,0:0:0:0:
464,109,136523,5,8,3:0:0:0:
381,150,136741,1,0,3:0:0:0:
371,161,136849,1,8,3:0:0:0:
275,117,137067,1,0,3:0:0:0:
261,108,137175,1,8,3:0:0:0:
187,164,137393,5,4,0:0:0:0:
44,137,137610,1,0,3:0:0:0:
152,239,137828,1,4,0:0:0:0:
122,88,138045,1,0,3:0:0:0:
57,230,138262,1,4,3:2:0:0:
59,246,138371,1,0,3:0:0:0:
62,262,138480,1,0,3:0:0:0:
64,278,138588,1,0,3:0:0:0:
88,318,138697,5,4,3:2:0:0:
117,302,138806,1,0,3:0:0:0:
150,302,138915,1,0,3:0:0:0:
181,312,139023,1,0,3:0:0:0:
245,366,139132,6,0,P|232:325|272:205,1,167.999994873047,8|8,3:0|0:0,0:0:0:0:
415,165,139784,1,0,3:0:0:0:
464,303,140001,1,8,3:0:0:0:
411,157,140220,1,0,3:0:0:0:
408,149,140328,1,0,3:0:0:0:
405,141,140436,2,0,L|375:57,1,83.9999974365235,8|0,0:0|3:0,0:0:0:0:
300,26,140762,5,0,3:0:0:0:
291,24,140871,2,0,P|263:36|197:19,1,83.9999974365235,8|0,3:0|3:0,0:0:0:0:
51,103,141306,2,0,P|91:94|131:108,1,83.9999974365235,8|0,0:0|3:0,0:0:0:0:
272,176,141741,1,8,3:0:0:0:
251,175,141849,1,0,3:0:0:0:
230,180,141958,1,0,3:0:0:0:
213,191,142067,1,0,0:0:0:0:
199,207,142175,6,0,L|205:258,1,41.9999987182618,8|0,0:0|0:0,0:0:0:0:
82,217,142393,2,0,L|86:175,1,41.9999987182618,8|0,3:0|0:0,0:0:0:0:
272,176,142610,2,0,L|282:262,1,83.9999974365235,8|0,3:0|3:0,0:0:0:0:
327,330,142936,5,0,0:0:0:0:
333,335,143045,2,0,P|374:323|429:330,1,83.9999974365235,8|0,0:0|3:0,0:0:0:0:
211,321,143480,1,8,3:0:0:0:
272,176,143697,2,0,P|301:145|352:123,1,83.9999974365235,0|8,0:0|0:0,0:0:0:0:
469,237,144132,5,0,3:0:0:0:
468,228,144241,1,0,3:0:0:0:
467,219,144349,1,8,3:0:0:0:
341,43,144567,2,2,B|338:76|338:76|342:93|342:93|337:126,1,83.9999974365235,2|10,3:0|3:2,0:0:0:0:
492,10,145001,1,0,3:0:0:0:
466,210,145219,5,8,3:0:0:0:
465,201,145327,1,0,3:0:0:0:
464,192,145436,1,0,3:0:0:0:
463,183,145545,1,0,3:0:0:0:
462,174,145654,6,0,P|466:144|473:126,1,41.9999987182618,8|0,0:0|0:0,0:0:0:0:
373,257,145871,2,0,P|354:232|346:215,1,41.9999987182618,8|0,3:0|0:0,0:0:0:0:
368,378,146088,2,0,P|338:374|320:367,2,41.9999987182618,8|0|0,3:0|0:0|3:0,0:0:0:0:
181,273,146523,6,0,P|149:275|86:298,1,83.9999974365235,8|0,0:0|3:0,0:0:0:0:
265,164,146958,2,0,P|233:162|170:139,1,83.9999974365235,8|0,3:0|3:0,0:0:0:0:
349,273,147393,1,8,0:0:0:0:
433,164,147610,5,0,3:0:0:0:
437,157,147719,1,0,3:0:0:0:
441,150,147828,2,0,P|444:113|429:64,1,83.9999974365235,8|0,3:0|3:0,0:0:0:0:
342,269,148262,2,0,P|329:308|332:350,1,83.9999974365235,8|0,0:0|3:0,0:0:0:0:
274,137,148697,5,8,3:0:0:0:
261,133,148805,1,0,3:0:0:0:
249,131,148914,1,0,3:0:0:0:
237,129,149023,1,0,3:0:0:0:
224,127,149131,1,8,3:2:0:0:
128,211,149349,5,0,3:0:0:0:
127,223,149458,1,0,3:0:0:0:
126,235,149567,2,0,P|172:243|217:227,1,83.9999974365235,8|0,3:0|3:0,0:0:0:0:
312,65,150001,6,0,P|282:100|273:147,1,83.9999974365235,8|0,0:0|0:0,0:0:0:0:
366,311,150436,2,0,P|349:267|313:236,1,83.9999974365235,8|0,3:0|3:0,0:0:0:0:
241,222,150762,1,0,3:0:0:0:
233,224,150871,1,8,0:0:0:0:
368,137,151088,1,0,3:0:0:0:
389,142,151197,1,8,3:0:0:0:
410,147,151306,6,2,P|407:109|397:73,1,70,10|2,3:0|2:0,0:0:0:0:
273,136,151523,6,2,P|252:104|224:78,1,70,2|2,2:0|2:0,0:0:0:0:
148,194,151741,6,2,P|114:177|77:168,1,70,2|2,2:0|2:0,0:0:0:0:
68,306,151958,6,2,B|50:305|30:308|30:308,12,35,2|2|2|2|2|2|2|2|2|2|2|2|2,2:0|2:0|2:0|2:0|2:0|2:0|2:0|2:0|2:0|2:0|2:0|2:0|3:0,0:0:0:0:
146,355,152719,1,0,0:0:0:0:
159,352,152828,1,0,3:0:0:0:
172,349,152936,1,0,3:0:0:0:
250,300,153045,6,0,P|299:299|345:324,1,97.9999970092774,12|0,3:0|0:0,0:0:0:0:
446,158,153480,1,8,0:0:0:0:
312,187,153697,1,0,3:0:0:0:
341,321,153915,1,8,3:0:0:0:
475,292,154132,1,0,3:0:0:0:
207,350,154349,5,8,3:2:0:0:
183,344,154457,1,0,3:0:0:0:
159,339,154566,1,0,3:0:0:0:
135,333,154675,1,0,3:0:0:0:
111,328,154784,6,0,P|113:272|99:229,1,97.9999970092774,8|0,3:0|0:0,0:0:0:0:
219,90,155219,2,0,P|206:137|209:186,1,97.9999970092774,8|0,0:0|0:0,0:0:0:0:
305,253,155654,1,8,3:0:0:0:
472,178,155871,5,0,3:0:0:0:
470,163,155980,1,0,3:0:0:0:
468,148,156088,1,8,0:0:0:0:
405,234,156306,1,0,3:0:0:0:
395,222,156414,1,0,3:0:0:0:
385,210,156523,6,0,P|390:266|407:312,1,97.9999970092774,8|0,3:0|0:0,0:0:0:0:
466,133,156958,1,8,0:0:0:0:
293,104,157175,1,0,3:0:0:0:
464,118,157393,5,8,3:0:0:0:
317,276,157610,1,0,3:0:0:0:
146,118,157828,5,8,3:2:0:0:
144,142,157936,1,0,3:0:0:0:
142,166,158045,1,0,3:0:0:0:
140,191,158154,1,0,3:0:0:0:
137,218,158262,6,0,P|181:218|240:191,1,97.9999970092774,8|0,3:0|0:0,0:0:0:0:
410,295,158697,2,0,P|365:275|316:275,1,97.9999970092774,8|0,0:0|0:0,0:0:0:0:
485,204,159132,2,0,P|486:171|492:142,1,48.9999985046387,8|0,3:0|0:0,0:0:0:0:
347,68,159349,5,0,3:0:0:0:
351,92,159457,1,0,3:0:0:0:
356,116,159567,2,0,P|331:119|307:119,1,48.9999985046387,8|0,0:0|0:0,0:0:0:0:
137,218,159784,2,0,P|152:237|164:258,1,48.9999985046387,8|0,3:2|0:0,0:0:0:0:
333,356,160001,2,0,P|353:311|382:271,1,97.9999970092774,12|0,3:0|0:0,0:0:0:0:
197,374,160436,5,8,0:0:0:0:
137,218,160654,1,0,3:0:0:0:
19,335,160871,1,8,3:0:0:0:
221,369,161088,1,0,3:0:0:0:
128,196,161306,5,8,3:2:0:0:
120,172,161414,1,0,3:0:0:0:
119,148,161523,1,0,3:0:0:0:
123,124,161632,1,0,3:0:0:0:
134,102,161741,5,8,3:0:0:0:
250,99,161958,1,0,3:0:0:0:
253,215,162175,1,8,0:0:0:0:
137,218,162393,1,0,3:0:0:0:
253,215,162610,5,0,3:0:0:0:
315,278,162828,1,2,0:0:0:0:
314,366,163045,5,0,3:0:0:0:
377,215,163262,1,2,0:0:0:0:
314,64,163480,6,0,P|268:74|217:54,1,97.9999970092774,12|0,3:0|0:0,0:0:0:0:
93,204,163915,5,8,0:0:0:0:
246,188,164132,1,0,3:0:0:0:
85,194,164349,5,8,3:0:0:0:
156,336,164566,1,0,3:0:0:0:
313,292,164784,5,8,3:2:0:0:
336,285,164892,1,0,3:0:0:0:
359,278,165001,1,0,3:0:0:0:
383,271,165110,1,0,3:0:0:0:
406,264,165219,6,0,P|408:211|392:157,1,97.9999970092774,8|0,3:0|0:0,0:0:0:0:
178,128,165654,2,0,P|166:175|168:224,1,97.9999970092774,8|0,0:0|0:0,0:0:0:0:
320,74,166088,5,10,3:0:0:0:
314,49,166197,1,8,3:0:0:0:
323,186,166415,1,8,3:0:0:0:
200,142,166632,1,0,3:0:0:0:
178,128,166741,1,8,3:0:0:0:
323,186,166958,5,4,3:2:0:0:
435,50,180871,6,0,L|427:120,1,56,0|0,3:0|3:0,0:0:0:0:
361,152,181306,2,0,L|359:214,1,56,0|0,3:0|0:0,0:0:0:0:
290,251,181741,2,0,L|284:364,1,112,8|0,3:0|3:0,0:0:0:0:
208,320,182393,1,0,3:0:0:0:
136,227,182610,6,0,L|127:149,1,56,0|0,3:0|3:0,0:0:0:0:
63,137,183045,2,0,L|56:57,1,56,0|0,3:0|3:0,0:0:0:0:
71,64,183335,2,0,L|101:67,2,18.6666666666667,0|0|8,3:0|3:0|3:0,0:0:0:0:
166,20,183697,2,0,L|170:93,2,56,0|0|0,3:0|3:0|3:0,0:0:0:0:
236,140,184349,6,2,P|280:118|289:59,1,112,2|2,0:0|0:0,0:0:0:0:
293,64,185001,1,0,3:0:0:0:
391,17,185219,2,0,L|391:91,1,56,8|0,3:0|3:0,0:0:0:0:
446,133,185654,1,0,3:0:0:0:
450,137,185871,1,0,3:0:0:0:
409,240,186088,6,0,L|348:227,1,56,0|0,3:0|3:0,0:0:0:0:
267,221,186523,2,0,L|281:295,1,56,0|0,3:0|3:0,0:0:0:0:
274,291,186813,2,0,L|246:303,2,18.6666666666667,0|0|8,3:0|3:0|3:0,0:0:0:0:
333,363,187175,2,0,L|380:322,2,56,0|0|0,3:0|3:0|3:0,0:0:0:0:
204,330,187828,6,0,L|136:350,1,56,0|0,3:0|3:0,0:0:0:0:
128,271,188262,2,0,L|69:292,1,56,0|0,3:0|3:0,0:0:0:0:
0,231,188697,2,0,L|52:212,1,56,8|0,3:0|3:0,0:0:0:0:
68,118,189132,2,0,L|15:136,1,56,0|0,3:0|3:0,0:0:0:0:
130,58,189567,5,2,3:0:0:0:
144,78,189784,1,0,3:0:0:0:
227,128,190001,1,2,3:0:0:0:
234,100,190219,1,0,3:0:0:0:
314,31,190436,5,8,3:0:0:0:
326,105,190654,1,0,3:0:0:0:
413,204,190871,1,2,3:0:0:0:
425,114,191088,1,0,3:0:0:0:
289,217,191306,6,0,P|299:265|303:293,1,56,0|0,3:0|0:0,0:0:0:0:
444,365,191741,2,0,P|386:345|364:339,1,70,0|0,3:0|0:0,0:0:0:0:
231,336,192175,1,0,3:0:0:0:
214,342,192284,1,0,3:0:0:0:
197,348,192393,1,0,3:0:0:0:
112,359,192610,1,0,3:0:0:0:
140,253,192828,1,0,3:0:0:0:
63,109,193045,6,0,P|27:135|3:154,1,70,0|0,3:0|0:0,0:0:0:0:
51,32,193480,2,0,P|92:39|125:49,1,70,0|0,3:0|0:0,0:0:0:0:
210,187,193915,1,2,3:0:0:0:
132,189,194132,1,2,3:0:0:0:
208,87,194349,1,2,3:0:0:0:
325,106,194567,1,2,3:0:0:0:
275,222,194784,5,8,3:0:0:0:
393,308,195001,1,0,3:0:0:0:
393,308,195110,1,0,3:0:0:0:
393,308,195219,1,8,0:0:0:0:
281,316,195436,2,0,L|201:308,1,70,0|8,3:0|3:0,0:0:0:0:
211,309,195762,1,0,0:0:0:0:
211,309,195871,1,0,3:0:0:0:
22,353,196088,1,8,0:0:0:0:
83,298,196306,5,0,3:0:0:0:
82,280,196415,1,0,3:0:0:0:
81,262,196523,1,8,3:0:0:0:
80,244,196632,2,0,P|56:186|48:150,1,70,0|0,0:0|0:0,0:0:0:0:
54,179,196958,1,8,0:0:0:0:
54,179,197067,1,0,3:0:0:0:
148,59,197284,1,0,3:0:0:0:
148,59,197393,2,0,L|142:136,1,70,8|0,3:0|3:0,0:0:0:0:
212,171,197719,5,0,3:0:0:0:
210,199,197828,1,8,0:0:0:0:
208,226,197936,1,0,3:0:0:0:
286,315,198154,1,0,3:0:0:0:
284,287,198262,2,0,L|290:203,1,70,8|0,3:0|3:0,0:0:0:0:
334,158,198588,5,0,3:0:0:0:
334,158,198697,1,8,3:2:0:0:
361,161,198806,1,0,3:0:0:0:
388,166,198915,1,0,3:0:0:0:
414,175,199023,1,0,3:0:0:0:
414,175,199132,2,0,L|409:259,1,70,8|0,3:0|3:0,0:0:0:0:
480,142,199567,6,0,L|486:65,1,70,8|0,0:0|3:0,0:0:0:0:
493,79,199893,1,0,3:0:0:0:
493,79,200001,2,0,L|410:76,1,70,8|0,3:0|3:0,0:0:0:0:
343,20,200436,2,0,L|225:31,1,105,8|0,0:0|3:0,0:0:0:0:
227,26,200871,2,0,L|247:103,1,70,8|0,3:0|3:0,0:0:0:0:
179,194,201306,1,8,0:0:0:0:
183,198,201523,2,2,L|149:54,1,140,2|2,3:0|3:0,0:0:0:0:
72,114,202175,5,8,0:0:0:0:
61,140,202284,1,0,3:0:0:0:
59,168,202393,1,0,3:0:0:0:
61,195,202501,1,0,3:0:0:0:
72,220,202610,2,0,P|50:278|33:311,1,70,8|0,3:0|3:0,0:0:0:0:
135,366,203045,2,0,P|173:348|206:339,1,70,8|0,0:0|3:0,0:0:0:0:
210,314,203371,1,0,3:0:0:0:
208,279,203480,5,8,3:0:0:0:
235,285,203588,1,0,3:0:0:0:
262,291,203697,1,0,3:0:0:0:
289,297,203806,1,0,3:0:0:0:
326,266,203915,5,8,3:2:0:0:
353,272,204023,1,0,3:0:0:0:
380,278,204132,1,0,3:0:0:0:
407,284,204241,1,0,3:0:0:0:
436,329,204349,6,0,L|459:240,1,70,0|0,0:0|3:0,0:0:0:0:
406,132,204784,2,0,L|317:109,1,70,8|0,0:0|3:0,0:0:0:0:
311,123,205110,1,0,0:0:0:0:
283,129,205219,1,0,0:0:0:0:
191,85,205436,1,0,3:0:0:0:
102,153,205654,5,8,3:2:0:0:
104,180,205762,1,0,3:0:0:0:
106,207,205871,1,0,3:0:0:0:
108,234,205980,1,0,3:0:0:0:
111,261,206088,1,0,3:0:0:0:
206,318,206306,1,0,3:0:0:0:
303,302,206523,2,0,P|294:349|288:400,1,70,8|0,0:0|3:0,0:0:0:0:
213,220,206958,5,2,3:0:0:0:
240,215,207067,1,0,3:0:0:0:
267,211,207175,1,2,3:0:0:0:
294,206,207284,1,0,3:0:0:0:
362,166,207393,5,10,3:0:0:0:
370,211,207502,1,0,3:0:0:0:
377,257,207610,1,2,3:0:0:0:
385,302,207719,1,0,3:0:0:0:
459,301,207828,5,10,3:0:0:0:
449,247,207937,1,0,3:0:0:0:
441,192,208045,1,2,3:0:0:0:
431,139,208154,1,0,3:0:0:0:
364,86,208262,6,0,B|311:89|311:89|285:111|285:111|223:117,1,140,8|0,3:0|0:0,0:0:0:0:
81,298,208697,6,0,P|109:288|170:306,1,83.9999974365235,8|0,3:0|3:0,0:0:0:0:
190,329,209023,1,0,1:0:0:0:
218,359,209132,1,8,3:2:0:0:
238,356,209241,1,0,3:0:0:0:
258,353,209349,1,0,3:0:0:0:
278,350,209459,1,0,3:0:0:0:
298,347,209567,2,0,L|349:337,1,41.9999987182618,8|0,3:0|0:0,0:0:0:0:
480,365,209784,2,2,P|441:333|422:291,1,83.9999974365235,2|10,2:0|2:0,0:0:0:0:
376,184,210219,1,0,3:0:0:0:
379,163,210327,1,0,3:0:0:0:
364,124,210436,6,0,P|361:103|360:82,1,41.9999987182618,8|0,3:0|0:0,0:0:0:0:
243,148,210654,2,0,P|262:157|281:167,1,41.9999987182618,0|0,3:0|0:0,0:0:0:0:
283,32,210871,2,0,P|266:44|248:55,3,41.9999987182618,8|0|0|0,0:0|3:0|3:0|3:0,0:0:0:0:
159,90,211306,6,0,P|141:78|124:66,1,41.9999987182618,8|0,3:0|0:0,0:0:0:0:
37,138,211523,2,0,P|49:166|45:237,1,83.9999974365235,0|8,3:0|0:0,0:0:0:0:
139,326,211958,2,2,B|182:318|182:318|227:327,2,83.9999974365235,2|10|2,3:0|3:0|3:0,0:0:0:0:
238,234,212610,5,8,3:2:0:0:
258,237,212718,1,0,3:0:0:0:
279,241,212827,1,0,3:0:0:0:
299,245,212936,1,0,3:0:0:0:
319,248,213045,2,0,P|316:216|307:184,1,41.9999987182618,8|0,3:0|0:0,0:0:0:0:
178,121,213262,2,2,P|217:136|259:131,1,83.9999974365235,2|10,3:0|2:0,0:0:0:0:
389,55,213697,1,0,3:0:0:0:
388,64,213806,1,0,3:0:0:0:
377,80,213915,5,8,3:0:0:0:
379,100,214023,1,0,3:0:0:0:
381,121,214132,1,0,3:0:0:0:
384,142,214241,1,0,3:0:0:0:
369,182,214350,5,8,3:2:0:0:
366,202,214458,1,0,3:0:0:0:
364,223,214567,1,0,3:0:0:0:
361,244,214676,1,0,3:0:0:0:
358,265,214784,6,0,P|321:259|263:282,1,83.9999974365235,8|0,3:0|3:0,0:0:0:0:
180,339,215219,1,8,0:0:0:0:
98,254,215436,2,2,P|104:217|81:159,1,83.9999974365235,0|8,3:0|3:0,0:0:0:0:
58,146,215762,1,0,1:0:0:0:
67,104,215871,1,0,1:0:0:0:
76,62,215980,1,0,1:0:0:0:
107,34,216088,5,8,3:2:0:0:
127,31,216197,1,0,3:0:0:0:
148,27,216306,1,0,3:0:0:0:
169,22,216415,1,0,3:0:0:0:
189,18,216523,2,0,P|206:43|216:69,1,41.9999987182618,8|0,3:0|0:0,0:0:0:0:
310,156,216741,2,2,P|317:110|336:73,1,83.9999974365235,2|10,3:0|2:0,0:0:0:0:
463,161,217175,1,0,3:0:0:0:
464,182,217284,1,0,3:0:0:0:
447,220,217393,6,0,L|442:271,1,41.9999987182618,8|0,3:0|0:0,0:0:0:0:
326,256,217610,2,0,L|358:295,1,41.9999987182618,0|0,3:0|0:0,0:0:0:0:
265,367,217828,2,0,L|316:372,3,41.9999987182618,8|0|0|0,0:0|3:0|3:0|3:0,0:0:0:0:
415,364,218262,5,8,3:0:0:0:
326,256,218480,1,0,3:0:0:0:
186,242,218697,1,8,0:0:0:0:
77,331,218915,1,0,3:0:0:0:
76,339,219023,1,0,3:0:0:0:
75,347,219132,6,0,P|71:301|63:257,1,83.9999974365235,8|0,3:0|3:0,0:0:0:0:
32,236,219458,1,0,1:0:0:0:
12,198,219567,1,8,3:2:0:0:
16,177,219675,1,0,3:0:0:0:
20,156,219784,1,0,3:0:0:0:
24,135,219892,1,0,3:0:0:0:
28,114,220001,2,0,L|37:66,1,41.9999987182618,8|0,3:0|0:0,0:0:0:0:
136,176,220219,2,2,P|168:163|231:169,1,83.9999974365235,2|10,3:0|2:0,0:0:0:0:
329,318,220654,6,2,B|321:275|321:275|334:233,1,83.9999974365235,2|10,3:0|3:0,0:0:0:0:
347,197,220980,1,0,1:0:0:0:
359,157,221088,1,0,3:0:0:0:
373,116,221197,1,0,3:0:0:0:
356,77,221306,5,8,3:2:0:0:
317,93,221414,1,0,3:0:0:0:
276,94,221523,1,0,3:0:0:0:
237,79,221632,1,0,3:0:0:0:
207,50,221741,6,2,L|137:58,1,41.9999987182618,2|2,2:0|2:0,0:0:0:0:
135,85,221958,2,2,L|93:89,1,41.9999987182618,2|2,2:0|2:0,0:0:0:0:
17,210,222175,6,2,L|87:217,1,41.9999987182618,10|2,2:0|2:0,0:0:0:0:
89,244,222392,2,2,L|111:246,1,20.9999993591309,2|2,2:0|2:0,0:0:0:0:
90,252,222501,2,2,L|112:254,1,20.9999993591309,2|2,2:0|2:0,0:0:0:0:
150,341,222610,6,0,P|176:333|248:348,1,83.9999974365235,12|0,3:0|3:0,0:0:0:0:
268,358,222936,1,0,3:0:0:0:
276,357,223045,1,0,0:0:0:0:
405,298,223262,2,0,P|397:272|412:200,1,83.9999974365235,0|8,3:0|3:0,0:0:0:0:
426,181,223588,1,2,3:0:0:0:
428,188,223697,1,0,3:0:0:0:
288,258,223915,2,2,P|301:197|251:104,1,167.999994873047,2|10,0:0|3:0,0:0:0:0:
254,106,224675,5,0,3:0:0:0:
253,114,224784,1,0,0:0:0:0:
166,199,225001,2,0,L|66:187,1,83.9999974365235,0|8,3:0|3:0,0:0:0:0:
40,183,225328,1,0,3:0:0:0:
34,176,225436,1,0,0:0:0:0:
255,98,225654,2,0,L|355:86,1,83.9999974365235,0|0,0:0|3:0,0:0:0:0:
461,230,226088,6,0,P|424:215|369:228,1,83.9999974365235,8|0,3:0|3:0,0:0:0:0:
346,245,226415,1,0,3:0:0:0:
344,253,226523,1,0,0:0:0:0:
255,98,226741,2,0,P|292:113|347:100,1,83.9999974365235,0|8,3:0|3:0,0:0:0:0:
370,83,227068,1,0,3:0:0:0:
372,75,227176,1,0,3:0:0:0:
188,173,227393,2,2,B|100:149|122:206|24:179,1,167.999994873047,2|10,0:0|3:0,0:0:0:0:
24,179,228154,5,0,3:0:0:0:
25,187,228262,1,0,0:0:0:0:
83,302,228480,2,0,L|175:307,1,83.9999974365235,0|8,3:0|3:0,0:0:0:0:
205,290,228806,1,0,3:0:0:0:
206,281,228915,1,0,0:0:0:0:
138,127,229132,1,0,0:0:0:0:
306,135,229349,1,0,3:0:0:0:
369,74,229567,5,0,3:0:0:0:
421,174,229784,1,0,3:0:0:0:
414,194,229893,1,0,3:0:0:0:
364,287,230110,1,0,3:0:0:0:
376,307,230219,1,0,3:0:0:0:
258,238,230436,1,8,3:0:0:0:
258,238,230545,2,0,L|167:257,1,83.9999974365235,0|0,3:0|0:0,0:0:0:0:
89,333,230871,5,8,0:0:0:0:
81,249,231016,5,0,3:0:0:0:
73,165,231161,5,0,3:0:0:0:
19,107,231306,6,0,P|51:89|116:71,1,83.9999974365235,8|0,3:0|0:0,0:0:0:0:
159,123,231632,1,0,3:0:0:0:
159,123,231741,2,0,P|221:128|256:135,1,83.9999974365235,8|0,0:0|3:0,0:0:0:0:
316,186,232067,1,0,3:0:0:0:
316,186,232175,1,8,3:0:0:0:
316,186,232284,2,0,L|296:283,1,83.9999974365235,0|0,3:0|0:0,0:0:0:0:
341,341,232610,6,0,L|393:353,1,41.9999987182618,8|0,0:0|0:0,0:0:0:0:
448,344,232828,2,0,L|396:344,1,41.9999987182618,0|0,3:0|0:0,0:0:0:0:
393,268,233045,6,0,L|416:160,1,83.9999974365235,8|0,3:0|3:0,0:0:0:0:
445,113,233371,1,0,3:0:0:0:
445,113,233480,2,0,L|351:102,1,83.9999974365235,8|0,0:0|3:0,0:0:0:0:
300,48,233806,1,0,3:0:0:0:
300,48,233915,1,8,3:0:0:0:
300,48,234023,2,0,L|193:58,1,83.9999974365235,0|0,3:0|0:0,0:0:0:0:
164,120,234349,2,0,L|51:104,1,83.9999974365235,8|0,0:0|3:0,0:0:0:0:
41,331,234784,6,0,L|140:341,1,83.9999974365235,8|0,3:0|3:0,0:0:0:0:
185,293,235110,1,0,3:0:0:0:
185,293,235219,2,0,L|196:202,1,83.9999974365235,8|0,0:0|3:0,0:0:0:0:
271,175,235545,1,0,3:0:0:0:
271,175,235654,1,8,3:0:0:0:
271,175,235762,2,0,L|332:182,1,41.9999987182618,0|0,3:0|0:0,0:0:0:0:
417,293,236088,5,8,3:2:0:0:
383,286,236197,1,0,3:0:0:0:
349,279,236306,1,0,3:0:0:0:
315,274,236415,1,0,3:0:0:0:
315,274,236523,6,0,L|319:365,1,83.9999974365235,12|0,3:0|3:0,0:0:0:0:
313,380,236849,2,0,L|401:372,1,83.9999974365235,0|0,3:0|0:0,0:0:0:0:
418,381,237175,2,0,L|423:324,1,41.9999987182618,0|0,3:0|0:0,0:0:0:0:
477,260,237393,1,8,3:0:0:0:
477,260,237501,1,0,3:0:0:0:
477,260,237610,2,0,L|473:206,1,41.9999987182618,0|0,3:0|0:0,0:0:0:0:
414,151,237828,2,0,L|431:47,1,83.9999974365235,8|0,0:0|3:0,0:0:0:0:
172,21,238262,6,0,P|178:83|177:130,1,83.9999974365235,8|0,3:0|3:0,0:0:0:0:
142,179,238588,1,0,3:0:0:0:
142,179,238697,2,0,P|71:183|44:183,1,83.9999974365235,8|0,0:0|3:0,0:0:0:0:
8,119,239023,2,0,P|8:96|9:57,1,41.9999987182618,0|8,3:0|3:0,0:0:0:0:
6,235,239241,1,0,3:0:0:0:
21,264,239349,1,0,3:0:0:0:
37,293,239458,1,0,3:0:0:0:
55,320,239567,2,0,L|121:316,1,41.9999987182618,8|0,3:2|0:0,0:0:0:0:
152,263,239784,2,0,L|202:268,1,41.9999987182618,0|0,3:0|3:0,0:0:0:0:
373,328,240001,6,0,P|323:316|277:308,1,83.9999974365235,8|0,3:0|3:0,0:0:0:0:
276,313,240328,2,0,L|288:220,1,83.9999974365235,0|0,3:0|0:0,0:0:0:0:
316,219,240654,2,0,L|315:166,1,41.9999987182618,0|0,3:0|0:0,0:0:0:0:
271,113,240871,1,8,3:0:0:0:
271,113,240980,1,0,3:0:0:0:
271,113,241088,2,0,P|214:103|181:98,2,83.9999974365235,0|8|0,3:0|0:0|3:0,0:0:0:0:
431,39,241741,6,0,P|446:96|451:152,1,83.9999974365235,8|0,3:0|3:0,0:0:0:0:
385,170,242067,1,0,3:0:0:0:
385,170,242175,2,0,P|371:243|359:281,1,83.9999974365235,8|0,0:0|3:0,0:0:0:0:
307,298,242501,2,0,L|326:344,1,41.9999987182618,0|8,3:0|3:0,0:0:0:0:
491,361,242719,1,0,3:0:0:0:
460,346,242828,1,0,3:0:0:0:
429,332,242936,1,0,3:0:0:0:
398,317,243045,1,8,3:2:0:0:
246,362,243262,1,0,3:0:0:0:
84,298,243480,5,12,3:0:0:0:
176,269,243697,1,0,3:0:0:0:
191,278,243806,1,0,3:0:0:0:
88,197,244023,1,0,3:0:0:0:
63,199,244132,1,0,3:0:0:0:
161,145,244349,1,8,3:0:0:0:
170,125,244458,2,0,L|165:30,1,83.9999974365235,0|0,3:0|3:0,0:0:0:0:
238,22,244784,5,8,0:0:0:0:
320,40,244929,5,0,3:0:0:0:
401,60,245074,5,0,3:0:0:0:
440,130,245219,6,0,P|431:182|426:235,1,83.9999974365235,8|0,3:0|3:0,0:0:0:0:
426,241,245545,2,0,L|321:216,1,83.9999974365235,0|0,3:0|0:0,0:0:0:0:
309,212,245871,2,0,L|312:268,1,41.9999987182618,0|0,3:0|0:0,0:0:0:0:
282,333,246088,1,8,3:0:0:0:
282,333,246197,1,0,3:0:0:0:
282,333,246306,2,0,L|382:358,1,83.9999974365235,0|8,3:0|0:0,0:0:0:0:
437,320,246741,1,0,3:0:0:0:
217,230,246958,6,0,P|179:263|156:296,1,83.9999974365235,8|0,3:0|3:0,0:0:0:0:
167,150,247284,2,0,P|103:143|63:134,1,83.9999974365235,0|0,3:0|3:0,0:0:0:0:
68,284,247610,2,0,P|55:228|34:186,1,83.9999974365235,0|8,3:0|3:0,0:0:0:0:
168,311,247936,6,0,P|193:277|225:250,1,83.9999974365235,0|0,3:0|3:0,0:0:0:0:
171,135,248262,2,0,P|107:128|67:119,1,83.9999974365235,8|0,0:0|3:0,0:0:0:0:
403,92,248697,5,8,3:0:0:0:
396,133,248806,1,0,3:0:0:0:
389,174,248915,1,2,3:0:0:0:
382,215,249023,1,0,3:0:0:0:
376,256,249132,1,8,3:2:0:0:
188,68,249349,5,2,3:0:0:0:
229,72,249458,1,0,3:0:0:0:
270,76,249567,1,8,3:0:0:0:
311,81,249675,1,2,3:0:0:0:
201,333,250001,5,8,3:2:0:0:
149,267,250219,1,0,3:0:0:0:
233,255,250436,6,0,L|244:180,1,70,8|0,3:0|0:0,0:0:0:0:
321,150,250871,2,0,L|310:80,1,70,0|0,3:0|0:0,0:0:0:0:
238,37,251306,5,0,3:0:0:0:
201,112,251523,2,0,P|166:115|131:122,1,70,0|0,3:0|0:0,0:0:0:0:
243,185,251958,2,0,P|275:188|312:195,1,70,0|0,3:0|0:0,0:0:0:0:
391,222,252393,5,0,3:0:0:0:
434,293,252610,2,0,P|429:255|459:150,1,140,0|0,3:0|3:0,0:0:0:0:
400,92,253262,2,0,P|370:110|329:117,1,70,0|0,3:0|0:0,0:0:0:0:
224,63,253697,1,0,3:0:0:0:
215,131,253915,6,0,P|214:96|228:57,1,70,0|0,0:0|3:0,0:0:0:0:
159,205,254349,2,0,P|133:180|116:142,1,70,0|0,3:0|0:0,0:0:0:0:
185,300,254784,5,0,3:0:0:0:
245,358,255001,2,0,P|279:358|318:344,1,70,0|0,3:0|0:0,0:0:0:0:
394,218,255436,2,0,B|364:299|417:284|390:355,1,140,0|0,3:0|3:0,0:0:0:0:
301,261,256088,6,0,P|303:226|313:193,1,70,0|0,3:0|0:0,0:0:0:0:
351,117,256523,1,0,3:0:0:0:
270,93,256741,2,0,P|238:108|204:117,1,70,0|0,3:0|0:0,0:0:0:0:
139,204,257175,2,0,P|167:223|192:248,1,70,0|0,3:0|0:0,0:0:0:0:
57,224,257610,5,0,3:0:0:0:
40,141,257828,2,0,L|50:64,1,70,0|0,3:0|0:0,0:0:0:0:
57,224,258262,1,0,3:0:0:0:
127,177,258480,2,0,L|188:129,1,70,0|0,3:0|0:0,0:0:0:0:
163,263,258915,2,0,L|301:281,1,140,0|0,3:0|3:0,0:0:0:0:
432,201,259567,6,0,P|399:212|372:233,1,70,0|0,3:0|0:0,0:0:0:0:
476,130,260001,1,0,3:0:0:0:
325,161,260219,2,0,P|292:149|264:128,1,70,0|0,3:0|0:0,0:0:0:0:
214,60,260654,2,0,P|223:126|208:209,1,140,0|0,3:0|3:0,0:0:0:0:
117,283,261306,6,0,P|118:248|129:215,1,70,0|0,3:0|0:0,0:0:0:0:
192,338,261741,1,0,3:0:0:0:
243,214,261958,2,0,P|254:248|255:283,1,70,0|0,3:0|0:0,0:0:0:0:
344,342,262393,6,0,P|341:295|355:245,1,70,0|0,3:0|3:0,0:0:0:0:
344,342,262828,6,0,P|349:295|387:236,1,83.9999974365235,2|0,3:0|3:0,0:0:0:0:
344,342,263262,6,0,P|357:296|413:243,1,97.9999970092774,0|0,3:0|3:0,0:0:0:0:
344,342,263697,6,0,P|364:299|436:256,1,112,2|0,3:0|3:0,0:0:0:0:
487,369,264132,5,0,3:0:0:0:
440,186,264349,6,0,P|406:135|276:174,1,210,8|0,3:0|0:0,0:0:0:0:
217,250,265219,2,0,B|156:255|156:255|136:234|136:234|108:273|108:273|75:261|75:261|5:268,1,210,0|0,0:0|0:0,0:0:0:0:
38,264,266088,6,0,B|75:261|75:261|108:273|108:273|136:234|136:234|156:255|156:255|217:250,1,210,0|0,3:0|0:0,0:0:0:0:
283,331,266958,2,0,P|261:294|352:168,1,210,0|0,0:0|0:0,0:0:0:0:
448,264,267828,6,0,B|485:226|485:226|485:114|485:114|445:74,1,210,8|0,3:0|0:0,0:0:0:0:
355,45,268697,2,0,B|247:69|265:-5|147:11,1,210,0|0,0:0|0:0,0:0:0:0:
153,10,269567,6,0,B|264:-6|246:68|354:44,1,210,0|0,3:0|0:0,0:0:0:0:
451,4,270436,2,0,P|406:32|429:186,1,210,0|0,0:0|0:0,0:0:0:0:
416,329,271306,6,0,P|381:321|290:379,1,140,8|0,3:0|0:0,0:0:0:0:
294,369,271958,1,0,0:0:0:0:
210,368,272175,2,0,P|207:335|192:295,1,70,0|0,0:0|0:0,0:0:0:0:
286,197,272610,2,0,P|274:230|271:265,1,70,0|0,0:0|0:0,0:0:0:0:
213,154,273045,6,0,L|143:147,1,70,0|0,3:0|0:0,0:0:0:0:
285,113,273480,2,0,L|438:99,1,140,0|0,0:0|0:0,0:0:0:0:
460,176,274132,2,0,L|390:182,1,70,0|0,0:0|0:0,0:0:0:0:
390,182,274567,1,0,0:0:0:0:
276,320,274784,6,0,B|238:332|210:311|210:311|172:300|125:328,1,140,8|0,3:0|0:0,0:0:0:0:
141,319,275436,1,0,0:0:0:0:
64,284,275654,2,0,P|67:244|56:205,1,70,0|0,0:0|0:0,0:0:0:0:
109,147,276088,2,0,P|105:112|112:78,1,70,0|0,0:0|0:0,0:0:0:0:
112,78,276523,1,0,3:0:0:0:
187,40,276741,5,0,0:0:0:0:
247,97,276958,2,0,P|282:90|328:71,1,70,0|0,0:0|0:0,0:0:0:0:
396,62,277393,1,0,0:0:0:0:
373,142,277610,2,0,P|361:175|355:225,1,70,0|0,0:0|0:0,0:0:0:0:
355,293,278045,1,0,0:0:0:0:
75,356,278262,5,4,3:2:0:0:
179,336,278480,1,0,3:0:0:0:
179,336,278588,1,0,3:0:0:0:
184,340,278915,2,0,P|186:292|184:239,1,70,0|0,3:0|0:0,0:0:0:0:
185,270,279241,1,0,3:0:0:0:
106,166,279567,2,0,P|103:220|101:289,1,105,0|0,3:0|0:0,0:0:0:0:
88,281,280001,5,0,3:0:0:0:
16,214,280219,1,0,3:0:0:0:
24,206,280328,1,0,3:0:0:0:
54,113,280545,1,0,3:0:0:0:
42,103,280654,1,0,3:0:0:0:
162,120,280871,1,0,3:0:0:0:
175,107,280980,1,0,3:0:0:0:
171,225,281197,1,0,3:0:0:0:
189,238,281306,2,0,P|233:232|266:227,1,70,0|0,3:0|3:0,0:0:0:0:
443,130,281741,5,4,3:2:0:0:
434,141,281849,1,0,0:0:0:0:
441,153,281958,1,0,0:0:0:0:
452,145,282067,1,0,3:0:0:0:
344,107,282284,1,0,3:0:0:0:
348,126,282393,1,0,3:0:0:0:
370,218,282610,1,0,3:0:0:0:
363,239,282719,1,0,3:0:0:0:
321,333,282936,1,0,3:0:0:0:
336,354,283045,2,0,P|383:352|414:353,1,70,0|0,3:0|0:0,0:0:0:0:
214,303,283480,5,0,3:0:0:0:
202,327,283588,2,0,L|150:331,1,35,0|0,3:0|0:0,0:0:0:0:
141,338,283806,2,0,P|127:296|124:252,1,70,0|0,3:0|3:0,0:0:0:0:
135,253,284132,1,0,3:0:0:0:
177,174,284349,1,0,0:0:0:0:
164,159,284458,1,0,3:0:0:0:
164,159,284784,2,0,P|167:113|166:79,1,70,0|0,3:0|3:0,0:0:0:0:
431,25,285219,6,0,P|427:69|426:123,1,70,4|0,3:2|0:0,0:0:0:0:
412,106,285545,1,0,3:0:0:0:
453,215,285762,1,0,3:0:0:0:
434,211,285871,1,0,3:0:0:0:
420,327,286088,1,0,3:0:0:0:
441,328,286197,2,2,L|466:322,4,17.5,2|2|2|2|2,3:0|3:0|3:0|3:0|3:0,0:0:0:0:
370,274,286523,6,0,L|290:293,1,70,0|0,3:0|0:0,0:0:0:0:
286,279,286813,2,0,L|278:244,1,23.3333333333333,0|0,3:0|0:0,0:0:0:0:
274,298,286958,2,0,L|205:317,1,70,0|0,3:0|0:0,0:0:0:0:
187,310,287284,1,0,3:0:0:0:
99,237,287501,1,0,3:0:0:0:
115,247,287610,1,0,3:0:0:0:
200,152,287828,1,0,3:0:0:0:
185,164,287936,2,2,L|156:162,4,17.5,2|2|2|2|2,3:0|3:0|3:0|3:0|3:0,0:0:0:0:
260,195,288262,2,0,L|371:160,1,105,0|0,3:0|0:0,0:0:0:0:
395,42,288697,6,0,L|316:68,1,70,4|0,3:2|0:0,0:0:0:0:
308,56,289023,1,0,3:0:0:0:
189,30,289241,1,0,3:0:0:0:
169,47,289349,1,0,3:0:0:0:
73,135,289567,1,0,3:0:0:0:
50,123,289675,2,2,L|18:132,3,17.5,2|2|2|2,3:0|3:0|3:0|3:0,0:0:0:0:
119,200,290001,2,2,P|114:240|109:298,1,70,2|2,3:0|2:0,0:0:0:0:
204,352,290436,6,0,P|251:352|286:356,1,70,0|0,3:0|0:0,0:0:0:0:
288,364,290762,1,0,3:0:0:0:
371,308,290980,1,0,3:0:0:0:
367,330,291088,1,0,3:0:0:0:
469,351,291306,1,0,3:0:0:0:
455,366,291415,2,2,L|434:371,4,17.5,2|2|2|2|2,3:0|3:0|3:0|3:0|3:0,0:0:0:0:
447,284,291741,2,2,P|447:238|449:190,1,70,2|2,3:0|2:0,0:0:0:0:
225,31,292175,6,0,P|216:84|208:132,1,70,4|0,3:2|3:0,0:0:0:0:
223,118,292501,1,0,3:0:0:0:
123,187,292719,1,0,3:0:0:0:
141,182,292828,1,0,3:0:0:0:
265,249,293045,1,0,3:0:0:0:
249,242,293154,2,0,P|206:245|158:255,1,70,0|0,3:0|0:0,0:0:0:0:
119,296,293480,2,0,P|122:339|132:387,1,70,0|0,3:0|3:0,0:0:0:0:
40,258,293915,6,0,P|35:219|30:172,1,70,0|0,3:0|3:0,0:0:0:0:
49,175,294241,1,0,3:0:0:0:
88,87,294458,1,0,3:0:0:0:
98,106,294567,1,0,3:0:0:0:
198,115,294784,1,0,3:0:0:0:
182,131,294893,1,0,3:0:0:0:
124,232,295110,1,0,3:0:0:0:
145,243,295219,2,0,P|161:294|172:343,1,70,0|0,3:0|3:0,0:0:0:0:
396,332,295654,6,0,P|403:280|411:234,1,70,4|0,3:2|3:0,0:0:0:0:
421,252,295980,1,0,3:0:0:0:
423,153,296197,1,0,3:0:0:0:
404,163,296306,2,2,L|374:161,4,17.5,2|2|2|2|2,3:0|3:0|3:0|3:0|3:0,0:0:0:0:
355,93,296632,2,0,L|271:108,1,70,0|0,3:0|3:0,0:0:0:0:
266,121,296958,2,0,L|186:113,1,70,0|0,3:0|3:0,0:0:0:0:
51,60,297393,5,0,3:0:0:0:
71,75,297501,2,2,L|68:135,1,35,2|2,3:0|2:0,0:0:0:0:
52,132,297719,2,0,P|55:180|48:232,1,70,0|0,3:0|3:0,0:0:0:0:
38,220,298045,1,0,3:0:0:0:
98,317,298262,1,0,3:0:0:0:
96,296,298371,1,0,3:0:0:0:
199,221,298588,1,0,3:0:0:0:
197,244,298697,2,2,P|198:299|201:334,1,70,2|2,3:0|2:0,0:0:0:0:
438,243,299132,6,0,P|436:201|436:152,1,70,4|0,3:2|3:0,0:0:0:0:
446,158,299458,2,0,L|481:138,1,35,0|0,3:0|0:0,0:0:0:0:
437,49,299675,1,0,3:0:0:0:
428,70,299784,2,0,L|393:90,1,35,0|0,3:0|3:0,0:0:0:0:
305,194,300001,1,0,3:0:0:0:
321,172,300110,2,2,L|319:148,4,17.5,2|2|2|2|2,3:0|3:0|3:0|3:0|3:0,0:0:0:0:
244,150,300436,2,2,P|244:90|242:52,1,70,2|2,3:0|3:0,0:0:0:0:
111,30,300871,6,0,P|119:88|125:130,1,70,0|0,3:0|3:0,0:0:0:0:
20,155,301197,2,0,P|15:120|9:85,1,70,0|0,3:0|3:0,0:0:0:0:
129,195,301523,2,0,P|127:251|122:285,1,70,0|0,3:0|3:0,0:0:0:0:
18,327,301849,2,0,P|22:292|25:257,1,70,0|0,3:0|3:0,0:0:0:0:
152,352,302175,6,0,B|196:368|220:352|220:352|244:336|288:352,1,140,0|4,3:0|3:2,0:0:0:0:
433,267,302828,5,0,3:0:0:0:
410,278,302936,2,0,L|367:272,1,35,0|0,3:0|0:0,0:0:0:0:
285,189,303154,1,0,3:0:0:0:
308,200,303262,2,2,L|325:198,4,17.5,2|2|10|2|10,3:0|3:0|3:0|3:0|3:0,0:0:0:0:
263,261,303588,5,0,0:0:0:0:
255,283,303697,2,0,L|201:274,1,35,0|0,3:0|0:0,0:0:0:0:
169,187,303915,2,0,L|203:192,1,35,0|0,3:0|0:0,0:0:0:0:
288,126,304132,2,0,L|253:120,1,35,10|0,3:0|0:0,0:0:0:0:
155,82,304349,6,0,B|150:41|150:41|173:-15,1,70,0|0,3:0|3:0,0:0:0:0:
229,40,304675,2,0,L|292:37,1,35,0|0,3:0|0:0,0:0:0:0:
378,0,304893,1,0,3:0:0:0:
357,17,305001,2,0,L|362:61,1,35,0|0,3:0|3:0,0:0:0:0:
404,148,305219,1,0,3:0:0:0:
425,165,305327,2,0,L|420:209,1,35,0|0,0:0|3:0,0:0:0:0:
131,217,305654,5,8,3:0:0:0:
133,227,305762,1,0,3:0:0:0:
135,237,305871,1,0,3:0:0:0:
137,247,305980,1,0,3:0:0:0:
139,256,306088,2,0,P|140:298|148:353,1,83.9999974365235,8|0,3:0|3:0,0:0:0:0:
180,363,306415,1,0,3:0:0:0:
186,368,306523,2,0,P|228:367|283:359,1,83.9999974365235,8|0,0:0|3:0,0:0:0:0:
381,293,306958,5,8,3:0:0:0:
384,272,307067,1,0,3:0:0:0:
387,251,307175,1,0,3:0:0:0:
390,230,307284,1,0,3:0:0:0:
393,209,307393,2,0,L|404:123,1,83.9999974365235,10|0,0:0|3:0,0:0:0:0:
351,59,307719,5,0,3:0:0:0:
342,60,307828,1,8,3:0:0:0:
333,61,307936,2,0,L|291:66,1,41.9999987182618,0|0,3:0|0:0,0:0:0:0:
222,152,308154,1,0,3:0:0:0:
224,159,308262,2,0,L|265:164,1,41.9999987182618,8|0,0:0|3:0,0:0:0:0:
375,184,308480,6,0,P|366:217|382:277,1,83.9999974365235,0|8,3:0|3:0,0:0:0:0:
445,224,308806,2,0,P|414:195|374:183,1,83.9999974365235,0|0,3:0|3:0,0:0:0:0:
449,307,309132,1,8,0:0:0:0:
291,172,309349,1,0,3:0:0:0:
133,307,309567,6,0,P|138:269|125:206,1,83.9999974365235,8|0,3:0|3:0,0:0:0:0:
103,192,309893,1,0,3:0:0:0:
99,184,310001,2,0,P|94:142|100:101,1,83.9999974365235,8|0,0:0|3:0,0:0:0:0:
171,54,310328,5,0,3:0:0:0:
179,53,310436,1,8,3:0:0:0:
187,53,310545,2,0,P|212:58|237:58,1,41.9999987182618,0|0,0:0|3:0,0:0:0:0:
311,160,310762,5,0,3:0:0:0:
308,168,310871,2,0,P|273:194|273:293,1,125.999996154785,8|0,0:0|3:0,0:0:0:0:
319,337,311306,5,8,3:0:0:0:
339,333,311415,1,0,3:0:0:0:
440,262,311632,1,0,3:0:0:0:
420,258,311741,2,0,L|330:242,1,83.9999974365235,8|0,0:0|3:0,0:0:0:0:
241,220,312067,5,0,3:0:0:0:
239,211,312175,1,8,3:0:0:0:
237,202,312284,2,0,L|241:153,1,41.9999987182618,0|0,3:0|3:0,0:0:0:0:
245,67,312501,1,0,3:0:0:0:
226,77,312610,1,8,0:0:0:0:
404,143,312828,1,0,3:0:0:0:
162,201,313045,5,8,3:0:0:0:
163,180,313154,2,0,P|141:202|126:263,1,83.9999974365235,0|0,3:0|3:0,0:0:0:0:
160,327,313480,1,8,0:0:0:0:
180,331,313588,1,0,3:0:0:0:
201,335,313697,2,0,P|226:328|250:327,1,41.9999987182618,0|0,3:0|3:0,0:0:0:0:
355,291,313915,1,8,3:0:0:0:
341,275,314023,2,0,P|334:250|333:226,1,41.9999987182618,0|0,3:0|3:0,0:0:0:0:
410,107,314241,5,0,3:0:0:0:
409,115,314349,2,0,B|379:130|353:118|353:118|343:127|343:127|308:107|260:131,1,125.999996154785,8|0,0:0|0:0,0:0:0:0:
181,144,314784,5,8,3:0:0:0:
165,158,314893,2,0,P|165:201|171:256,1,83.9999974365235,0|0,3:0|3:0,0:0:0:0:
220,308,315219,1,8,0:0:0:0:
219,329,315328,1,0,3:0:0:0:
218,349,315436,2,0,P|245:348|267:343,1,41.9999987182618,0|0,3:0|3:0,0:0:0:0:
366,268,315654,1,8,3:0:0:0:
367,248,315762,2,0,P|339:249|318:254,1,41.9999987182618,0|0,3:0|3:0,0:0:0:0:
465,351,315980,5,0,3:0:0:0:
465,342,316088,2,0,B|468:290|468:290|452:269|452:269|456:197,1,125.999996154785,8|0,0:0|0:0,0:0:0:0:
499,103,316523,6,0,P|471:113|401:92,1,83.9999974365235,8|0,3:0|3:0,0:0:0:0:
334,94,316849,1,0,3:0:0:0:
330,101,316958,2,0,L|336:151,1,41.9999987182618,8|0,0:0|3:0,0:0:0:0:
260,249,317175,2,0,L|300:218,1,41.9999987182618,0|0,3:0|3:0,0:0:0:0:
430,238,317393,1,8,3:0:0:0:
423,235,317501,2,0,L|376:215,1,41.9999987182618,0|0,0:0|3:0,0:0:0:0:
337,317,317719,5,0,3:0:0:0:
334,325,317828,2,0,P|282:353|186:323,1,125.999996154785,8|0,0:0|0:0,0:0:0:0:
116,259,318262,6,0,L|60:268,1,41.9999987182618,8|0,3:0|3:0,0:0:0:0:
185,181,318480,1,0,3:0:0:0:
190,187,318588,2,0,L|246:196,1,41.9999987182618,0|8,3:0|0:0,0:0:0:0:
121,109,318806,5,0,3:0:0:0:
116,115,318915,2,0,L|13:131,1,83.9999974365235,0|8,3:0|3:0,0:0:0:0:
46,211,319241,1,0,3:0:0:0:
66,207,319349,1,2,3:0:0:0:
190,187,319567,2,0,L|292:203,1,83.9999974365235,10|0,0:0|3:0,0:0:0:0:
414,316,320001,6,0,P|405:279|421:229,1,83.9999974365235,10|0,3:0|3:0,0:0:0:0:
478,176,320328,1,0,3:0:0:0:
482,183,320436,2,0,L|473:131,1,41.9999987182618,10|0,0:0|3:0,0:0:0:0:
373,77,320654,1,0,3:0:0:0:
377,70,320762,2,0,L|368:122,1,41.9999987182618,2|8,3:0|3:0,0:0:0:0:
244,206,320980,6,0,L|347:188,1,83.9999974365235,2|0,3:0|3:0,0:0:0:0:
297,270,321306,2,0,L|229:189,1,83.9999974365235,10|0,0:0|3:0,0:0:0:0:
381,263,321632,5,0,3:0:0:0:
388,266,321741,2,0,P|420:265|433:262,1,41.9999987182618,10|0,3:0|3:0,0:0:0:0:
322,359,321958,1,0,3:0:0:0:
315,362,322067,2,0,P|283:361|270:358,1,41.9999987182618,2|8,3:0|0:0,0:0:0:0:
151,301,322284,5,0,3:0:0:0:
158,304,322393,2,0,P|166:271|160:206,1,83.9999974365235,2|8,3:0|3:0,0:0:0:0:
170,138,322719,2,0,P|162:171|168:236,1,83.9999974365235,2|0,3:0|3:0,0:0:0:0:
238,324,323045,1,10,3:2:0:0:
243,303,323153,1,0,3:0:0:0:
246,283,323262,1,2,3:0:0:0:
248,262,323371,1,0,3:0:0:0:
249,241,323480,6,0,P|292:248|334:230,1,83.9999974365235,10|0,3:0|3:0,0:0:0:0:
392,178,323806,1,0,3:0:0:0:
398,183,323915,2,0,P|434:184|454:179,1,41.9999987182618,10|0,0:0|3:0,0:0:0:0:
319,109,324132,6,2,B|301:112|279:105|279:105|272:88|272:88|263:104|263:104|256:87|256:87|247:102|247:102|240:86|240:86|231:101|231:101|224:84|224:84|215:99|215:99|177:72|111:90,1,280,2|2,3:0|3:0,0:0:0:0:
50,168,324675,1,0,3:0:0:0:
47,175,324784,2,0,B|50:232|85:259|85:259|114:256|128:226,1,125.999996154785,10|0,0:0|3:0,0:0:0:0:
286,144,325219,5,0,0:0:0:0:
302,182,325328,2,0,L|263:187,1,20.9999993591309,2|0,3:0|0:0,0:0:0:0:
301,224,325436,2,2,L|410:236,1,83.9999974365235,2|10,3:0|3:2,0:0:0:0:
153,302,325871,6,0,L|86:309,1,41.9999987182618,0|0,3:0|0:0,0:0:0:0:
25,215,326088,1,8,3:0:0:0:
29,222,326197,2,0,L|71:227,1,41.9999987182618,0|0,3:0|3:0,0:0:0:0:
235,163,326415,1,0,3:0:0:0:
230,170,326524,2,0,L|147:180,1,83.9999974365235,10|2,0:0|3:0,0:0:0:0:
396,328,326958,5,10,3:0:0:0:
399,307,327067,1,0,3:0:0:0:
401,286,327175,1,0,3:0:0:0:
384,247,327284,6,0,P|381:208|384:184,1,41.9999987182618,2|8,3:0|3:2,0:0:0:0:
458,100,327501,1,0,3:0:0:0:
457,108,327610,2,0,P|441:121|423:132,1,41.9999987182618,2|0,3:0|3:0,0:0:0:0:
292,117,327827,5,8,3:0:0:0:
300,113,327936,2,0,P|319:120|337:131,1,41.9999987182618,2|0,3:0|3:0,0:0:0:0:
205,192,328154,1,0,3:0:0:0:
194,201,328262,6,2,B|154:204|154:204|124:231|124:231|90:210|90:210|52:237|52:237|-11:243,1,210,10|2,3:2|3:0,0:0:0:0:
78,353,328697,5,10,3:0:0:0:
98,351,328806,1,0,3:0:0:0:
118,349,328915,1,0,3:0:0:0:
152,324,329023,6,8,L|201:330,1,41.9999987182618,2|8,3:0|3:2,0:0:0:0:
302,259,329241,1,0,3:0:0:0:
293,261,329349,2,0,L|252:267,1,41.9999987182618,2|0,3:0|3:0,0:0:0:0:
141,200,329567,5,8,3:0:0:0:
149,201,329675,2,0,L|191:207,1,41.9999987182618,2|0,3:0|3:0,0:0:0:0:
280,104,329893,1,0,3:0:0:0:
269,113,330001,6,2,B|253:103|253:103|237:109|237:109|222:100|222:100|205:106|205:106|190:96|190:96|173:102|173:102|158:93|158:93|141:99|141:99|126:89|126:89|109:96|109:96|94:86|94:86|78:92,1,210,10|0,3:2|3:0,0:0:0:0:
23,221,330436,5,10,3:0:0:0:
43,218,330544,1,0,3:0:0:0:
64,216,330653,1,0,3:0:0:0:
99,192,330762,6,0,P|126:195|151:206,1,41.9999987182618,2|8,3:0|3:2,0:0:0:0:
185,100,330980,1,0,3:0:0:0:
193,98,331088,2,0,P|214:114|231:136,1,41.9999987182618,2|0,3:0|3:0,0:0:0:0:
313,61,331307,5,8,3:0:0:0:
321,63,331415,2,0,P|331:87|334:115,1,41.9999987182618,2|0,3:0|3:0,0:0:0:0:
443,90,331632,1,0,3:0:0:0:
449,96,331741,6,2,B|446:149|402:179|402:179|340:209|340:291,1,210,10|2,3:2|3:0,0:0:0:0:
243,350,332175,1,10,3:0:0:0:
222,348,332284,1,0,3:0:0:0:
201,346,332393,1,0,3:0:0:0:
174,314,332501,6,0,P|180:293|191:273,1,41.9999987182618,2|8,3:0|3:2,0:0:0:0:
110,171,332719,1,0,3:0:0:0:
116,173,332828,2,0,P|126:191|132:212,1,41.9999987182618,2|0,3:0|3:0,0:0:0:0:
196,126,333045,5,8,3:0:0:0:
189,129,333154,2,0,P|194:109|204:91,1,41.9999987182618,2|0,3:0|3:0,0:0:0:0:
345,48,333371,1,0,3:0:0:0:
348,55,333480,6,0,B|350:70|350:70|343:79|343:79|353:86|353:86|359:77|359:77|354:94|354:94|346:122|364:157,1,105.000004005432,10|0,3:2|3:0,0:0:0:0:
417,299,333697,2,0,B|419:283|419:283|412:274|412:274|422:267|422:267|428:276|428:276|423:259|423:259|415:231|433:196,1,105.000004005432,2|0,3:0|3:0,0:0:0:0:
331,288,333915,5,8,3:0:0:0:
299,291,334023,1,0,3:0:0:0:
267,294,334132,1,0,3:0:0:0:
235,297,334241,1,0,3:0:0:0:
140,202,334458,5,0,3:0:0:0:
172,205,334566,1,0,3:0:0:0:
204,208,334675,1,0,3:0:0:0:
236,211,334784,1,8,3:0:0:0:
265,199,334893,1,0,3:0:0:0:
294,188,335001,1,0,3:0:0:0:
322,175,335110,1,0,3:0:0:0:
138,174,335328,5,0,3:0:0:0:
167,176,335436,1,0,3:0:0:0:
195,179,335545,1,0,3:0:0:0:
224,182,335654,1,8,3:0:0:0:
250,171,335763,1,0,3:0:0:0:
276,161,335871,1,0,3:0:0:0:
302,149,335980,1,0,3:0:0:0:
137,150,336197,5,0,3:0:0:0:
163,152,336305,1,0,3:0:0:0:
189,155,336414,1,0,3:0:0:0:
215,157,336523,1,8,3:0:0:0:
238,147,336632,1,0,3:0:0:0:
261,138,336740,1,0,3:0:0:0:
284,128,336849,1,0,3:0:0:0:
136,129,337067,5,0,3:0:0:0:
160,131,337175,1,0,3:0:0:0:
183,134,337284,1,0,3:0:0:0:
206,136,337393,1,8,3:0:0:0:
227,127,337502,1,0,3:0:0:0:
248,119,337610,1,0,3:0:0:0:
269,110,337719,1,0,3:0:0:0:
137,108,337936,5,0,3:0:0:0:
158,110,338044,1,0,3:0:0:0:
180,112,338153,1,0,3:0:0:0:
200,115,338262,1,8,3:0:0:0:
219,106,338371,1,0,3:0:0:0:
238,99,338479,1,0,3:0:0:0:
256,90,338588,1,0,3:0:0:0:
167,35,338806,5,0,3:0:0:0:
135,32,338915,1,0,3:0:0:0:
103,29,339024,1,0,3:0:0:0:
71,26,339132,2,0,L|74:108,1,70,0|0,1:0|3:0,0:0:0:0:
23,165,339567,2,0,L|34:316,1,140,0|0,1:0|1:0,0:0:0:0:
91,350,340219,1,0,3:0:0:0:
303,289,340436,2,0,L|434:308,1,105,4|0,3:0|0:0,0:0:0:0:
435,288,340871,5,8,3:0:0:0:
356,204,341088,2,0,L|317:199,2,35,0|0|8,3:0|3:0|3:0,0:0:0:0:
437,148,341523,1,0,3:0:0:0:
456,155,341633,1,0,3:0:0:0:
474,163,341741,1,8,3:0:0:0:
379,74,341958,1,0,3:0:0:0:
360,81,342067,1,0,3:0:0:0:
342,88,342175,2,0,L|217:79,1,105,8|0,3:0|3:0,0:0:0:0:
206,69,342610,6,0,L|200:155,1,70,8|0,3:0|3:0,0:0:0:0:
201,138,342936,1,0,3:0:0:0:
201,138,343045,1,8,3:0:0:0:
157,247,343262,1,0,3:0:0:0:
149,227,343371,1,0,3:0:0:0:
140,207,343480,2,0,L|126:168,1,35,8|0,3:0|0:0,0:0:0:0:
79,261,343697,2,0,L|65:222,1,35,0|0,1:0|0:0,0:0:0:0:
22,322,343915,2,0,L|8:283,1,35,8|0,3:0|0:0,0:0:0:0:
101,351,344132,5,0,1:0:0:0:
122,354,344241,1,0,3:0:0:0:
144,356,344350,2,0,L|220:371,1,70,8|0,3:0|3:0,0:0:0:0:
212,369,344675,1,0,3:0:0:0:
212,369,344784,1,8,3:0:0:0:
360,356,345001,1,0,3:0:0:0:
339,357,345110,1,0,3:0:0:0:
317,358,345219,1,8,3:0:0:0:
207,262,345436,1,0,3:0:0:0:
228,263,345545,1,0,3:0:0:0:
250,264,345654,1,8,3:0:0:0:
402,266,345871,6,2,L|396:224,1,35,2|2,3:0|3:0,0:0:0:0:
417,214,346088,2,0,L|422:136,1,70,8|0,3:0|3:0,0:0:0:0:
421,144,346415,1,0,3:0:0:0:
421,144,346523,1,8,3:0:0:0:
303,47,346741,1,0,3:0:0:0:
306,67,346849,1,0,3:0:0:0:
308,87,346958,2,0,L|314:128,1,35,8|0,3:0|0:0,0:0:0:0:
230,85,347175,2,0,L|236:126,1,35,0|0,1:0|0:0,0:0:0:0:
152,83,347393,2,0,L|158:124,1,35,8|0,3:0|0:0,0:0:0:0:
93,193,347610,5,0,1:0:0:0:
96,213,347718,1,0,3:0:0:0:
98,233,347827,2,0,L|106:312,1,70,8|0,3:0|3:0,0:0:0:0:
186,345,348154,1,0,3:0:0:0:
189,349,348262,2,0,L|195:261,1,70,8|0,3:0|0:0,0:0:0:0:
193,279,348588,1,0,3:0:0:0:
193,279,348697,1,8,3:0:0:0:
331,346,348915,1,0,3:0:0:0:
347,333,349023,1,0,3:0:0:0:
364,320,349132,2,0,L|361:265,1,35,8|0,3:0|0:0,0:0:0:0:
468,206,349349,2,2,L|466:240,1,35,2|2,3:0|3:0,0:0:0:0:
385,206,349567,6,0,L|391:118,1,70,8|0,3:0|3:0,0:0:0:0:
297,68,349893,1,0,3:0:0:0:
297,68,350001,2,0,L|283:149,1,70,8|0,3:0|3:0,0:0:0:0:
292,144,350328,1,0,3:0:0:0:
292,144,350436,2,0,L|254:142,1,35,8|0,3:0|0:0,0:0:0:0:
268,220,350654,2,0,L|230:218,1,35,0|0,1:0|0:0,0:0:0:0:
243,297,350871,2,0,L|205:295,1,35,8|0,3:0|0:0,0:0:0:0:
121,206,351088,5,0,1:0:0:0:
117,185,351197,1,0,3:0:0:0:
114,164,351306,2,0,L|98:89,1,70,8|0,3:0|3:0,0:0:0:0:
20,41,351632,1,0,3:0:0:0:
20,41,351741,2,0,L|13:128,1,70,8|0,3:0|3:0,0:0:0:0:
91,332,352175,6,0,B|140:322|140:322|198:347,1,105.000004005432,8|0,3:0|3:0,0:0:0:0:
326,251,352501,2,0,B|310:298|310:298|259:336,1,105.000004005432,8|0,3:0|3:0,0:0:0:0:
215,268,352828,2,0,L|201:205,1,52.5000020027161,8|0,3:0|3:0,0:0:0:0:
189,143,353045,1,10,3:0:0:0:
256,192,353480,12,8,354784,3:0:0:0:
426,132,355001,5,0,3:0:0:0:
426,132,355110,1,0,3:0:0:0:
426,132,355219,2,0,L|317:120,1,83.9999974365235,8|0,0:0|3:0,0:0:0:0:
239,57,355545,1,0,3:0:0:0:
239,57,355654,1,8,3:0:0:0:
239,57,355762,2,0,L|271:114,1,41.9999987182618,0|0,3:0|3:0,0:0:0:0:
256,207,355980,1,0,3:0:0:0:
256,207,356088,2,0,L|289:150,1,41.9999987182618,8|0,0:0|0:0,0:0:0:0:
146,141,356306,5,0,3:0:0:0:
121,137,356415,1,0,3:0:0:0:
96,132,356523,2,0,L|109:237,1,83.9999974365235,8|0,3:0|3:0,0:0:0:0:
95,238,356849,2,0,L|-8:220,1,83.9999974365235,0|0,3:0|0:0,0:0:0:0:
12,223,357175,1,0,3:0:0:0:
12,223,357284,1,0,3:0:0:0:
12,223,357393,1,8,3:0:0:0:
21,200,357501,1,0,3:0:0:0:
29,176,357610,1,0,3:0:0:0:
38,152,357719,1,0,3:0:0:0:
59,138,357828,2,0,L|117:140,1,41.9999987182618,8|0,0:0|0:0,0:0:0:0:
151,75,358045,2,0,L|209:77,1,41.9999987182618,0|0,3:0|3:0,0:0:0:0:
314,45,358262,5,8,3:0:0:0:
314,45,358371,2,0,L|301:141,1,83.9999974365235,0|0,0:0|3:0,0:0:0:0:
393,219,358697,2,0,L|392:129,1,83.9999974365235,8|0,0:0|3:0,0:0:0:0:
295,217,359023,1,0,3:0:0:0:
295,217,359132,1,8,3:0:0:0:
295,217,359241,2,0,L|295:283,1,41.9999987182618,0|0,3:0|3:0,0:0:0:0:
231,314,359458,1,0,3:0:0:0:
231,314,359567,2,0,L|231:380,1,41.9999987182618,8|0,0:0|0:0,0:0:0:0:
242,367,360001,5,8,3:0:0:0:
242,367,360110,1,0,3:0:0:0:
242,367,360219,2,0,L|242:301,1,41.9999987182618,0|0,3:0|3:0,0:0:0:0:
188,275,360436,1,8,0:0:0:0:
188,275,360545,2,0,L|188:209,1,41.9999987182618,0|0,3:0|3:0,0:0:0:0:
138,172,360762,5,0,3:0:0:0:
112,173,360871,1,8,3:0:0:0:
87,180,360980,1,0,3:0:0:0:
62,178,361088,1,0,3:0:0:0:
36,174,361197,1,0,3:0:0:0:
36,174,361306,2,0,L|34:235,1,41.9999987182618,8|0,0:0|0:0,0:0:0:0:
78,106,361523,2,0,L|74:41,1,41.9999987182618,0|0,3:0|3:0,0:0:0:0:
155,27,361741,6,0,P|222:30|252:35,1,83.9999974365235,8|0,3:0|3:0,0:0:0:0:
298,103,362067,1,0,3:0:0:0:
298,103,362175,2,0,L|349:102,1,41.9999987182618,8|0,0:0|0:0,0:0:0:0:
416,75,362393,1,0,3:0:0:0:
413,99,362501,1,0,3:0:0:0:
410,124,362610,1,8,3:0:0:0:
410,151,362719,1,0,3:0:0:0:
410,151,362828,2,0,L|431:217,1,41.9999987182618,0|0,3:0|3:0,0:0:0:0:
361,258,363045,2,0,L|337:194,1,41.9999987182618,8|0,0:0|0:0,0:0:0:0:
449,271,363262,5,0,3:0:0:0:
460,293,363371,1,0,3:0:0:0:
473,314,363480,2,0,L|382:325,1,83.9999974365235,8|0,3:0|3:0,0:0:0:0:
325,363,363806,2,0,L|221:329,1,83.9999974365235,0|0,3:0|0:0,0:0:0:0:
191,288,364132,1,0,3:0:0:0:
166,292,364241,1,0,3:0:0:0:
141,296,364349,1,8,3:0:0:0:
116,301,364458,2,0,L|123:249,1,41.9999987182618,0|0,3:0|3:0,0:0:0:0:
171,197,364675,1,0,3:0:0:0:
171,197,364784,2,0,L|162:149,1,41.9999987182618,8|0,0:0|0:0,0:0:0:0:
68,64,365001,5,0,3:0:0:0:
68,64,365110,1,0,3:0:0:0:
68,64,365219,2,0,L|164:65,1,83.9999974365235,8|0,3:0|3:0,0:0:0:0:
221,35,365545,1,0,3:0:0:0:
221,35,365654,2,0,L|321:41,1,83.9999974365235,8|0,0:0|3:0,0:0:0:0:
366,102,365980,1,0,3:0:0:0:
366,102,366088,2,0,L|362:153,1,41.9999987182618,8|0,3:0|3:0,0:0:0:0:
419,210,366306,2,0,L|423:261,1,41.9999987182618,0|0,3:0|3:0,0:0:0:0:
373,318,366523,1,8,0:0:0:0:
373,318,366632,1,0,3:0:0:0:
254,369,366958,5,8,3:0:0:0:
254,369,367067,1,8,3:0:0:0:
254,369,367175,1,0,3:0:0:0:
254,369,367284,1,8,3:0:0:0:
394,340,367501,1,0,3:0:0:0:
394,340,367610,1,10,3:0:0:0:
297,262,367936,1,10,3:0:0:0:
303,284,368045,1,0,3:0:0:0:
380,206,368262,1,10,3:0:0:0:
258,175,368480,1,10,3:0:0:0:
185,267,368697,6,0,P|163:264|102:285,1,83.9999974365235,8|0,3:0|3:0,0:0:0:0:
83,318,369023,1,0,3:0:0:0:
79,338,369132,1,8,0:0:0:0:
124,184,369349,5,0,3:0:0:0:
129,163,369458,2,0,L|175:153,1,41.9999987182618,0|8,3:0|3:0,0:0:0:0:
322,208,369675,2,0,P|352:251|356:289,1,83.9999974365235,0|0,3:0|3:0,3:0:0:0:
272,200,370001,6,0,P|319:228|340:310,1,140,8|0,0:0|3:0,0:0:0:0:
448,141,370436,6,0,P|415:120|383:75,1,83.9999974365235,8|0,3:0|3:0,0:0:0:0:
370,46,370762,1,0,3:0:0:0:
374,25,370871,1,8,0:0:0:0:
259,137,371088,5,0,3:0:0:0:
263,158,371197,2,0,L|276:221,1,41.9999987182618,0|8,3:0|3:0,0:0:0:0:
390,300,371415,2,0,L|406:217,1,83.9999974365235,0|0,3:0|3:0,0:0:0:0:
262,331,371741,6,0,L|304:323,1,41.9999987182618,8|0,0:0|0:0,0:0:0:0:
196,246,371958,2,0,L|154:237,1,41.9999987182618,0|0,1:0|3:0,0:0:0:0:
98,299,372175,6,0,P|111:248|82:169,1,125.999996154785,8|0,3:0|3:0,0:0:0:0:
29,120,372610,1,8,0:0:0:0:
33,99,372719,1,0,3:0:0:0:
42,80,372828,2,0,P|61:75|87:73,1,41.9999987182618,0|0,3:0|0:0,0:0:0:0:
192,177,373045,5,8,3:0:0:0:
182,157,373154,2,0,P|176:113|189:60,1,83.9999974365235,0|0,3:0|3:0,0:0:0:0:
186,210,373480,6,0,P|163:146|173:52,1,140,8|0,0:0|3:0,0:0:0:0:
355,64,373915,5,8,3:0:0:0:
351,84,374023,1,0,3:0:0:0:
305,174,374241,1,0,3:0:0:0:
309,194,374349,2,0,P|356:196|397:181,1,83.9999974365235,8|0,0:0|3:0,0:0:0:0:
456,235,374675,6,0,P|476:236|497:242,1,41.9999987182618,0|8,0:0|3:0,0:0:0:0:
392,292,374893,2,0,P|371:292|316:335,1,83.9999974365235,0|0,3:0|3:0,0:0:0:0:
224,345,375219,6,0,P|228:310|227:301,1,41.9999987182618,8|0,0:0|0:0,0:0:0:0:
141,212,375436,2,0,P|157:225|176:236,1,41.9999987182618,0|0,1:0|0:0,0:0:0:0:
332,185,375654,6,0,P|293:200|259:224,1,83.9999974365235,8|0,3:0|3:0,0:0:0:0:
232,145,375980,1,0,3:0:0:0:
250,135,376088,1,8,0:0:0:0:
351,62,376306,5,0,3:0:0:0:
368,70,376415,2,0,P|392:66|414:57,1,41.9999987182618,0|8,3:0|3:0,0:0:0:0:
443,201,376632,2,0,P|402:187|332:187,1,83.9999974365235,0|0,3:0|0:0,0:0:0:0:
471,235,376958,6,0,P|381:204|307:215,1,140,8|0,0:0|3:0,0:0:0:0:
184,262,377393,5,8,3:0:0:0:
184,262,377465,2,2,B|156:247|156:247|119:249,4,46.6666666666667,2|2|2|2|2,3:0|3:0|3:0|3:0|3:0,0:0:0:0:
253,214,377828,5,8,0:0:0:0:
190,151,378045,1,0,3:0:0:0:
204,135,378154,2,0,P|203:108|198:80,1,41.9999987182618,0|8,3:0|3:0,0:0:0:0:
307,21,378371,1,0,3:0:0:0:
293,37,378480,2,0,P|294:64|299:92,1,41.9999987182618,0|0,3:0|3:0,0:0:0:0:
407,213,378697,6,0,L|341:205,1,41.9999987182618,8|0,0:0|0:0,0:0:0:0:
254,322,378915,2,0,L|320:314,1,41.9999987182618,0|0,1:0|0:0,0:0:0:0:
181,201,379132,6,0,L|89:189,1,83.9999974365235,8|0,3:0|3:0,0:0:0:0:
58,176,379458,1,0,3:0:0:0:
50,156,379567,1,8,0:0:0:0:
42,136,379675,1,0,3:0:0:0:
59,97,379784,2,0,L|121:89,1,41.9999987182618,0|0,3:0|0:0,0:0:0:0:
270,75,380001,5,8,3:0:0:0:
287,87,380110,2,0,P|301:132|306:181,1,83.9999974365235,0|0,3:0|3:0,0:0:0:0:
209,196,380436,6,0,P|248:114|288:85,1,140,8|0,0:0|3:0,0:0:0:0:
440,118,380871,5,8,3:0:0:0:
443,138,380980,1,0,3:0:0:0:
357,234,381197,1,0,3:0:0:0:
353,255,381306,2,0,P|323:252|294:259,1,41.9999987182618,8|0,0:0|3:0,0:0:0:0:
231,279,381523,6,0,P|201:277|145:255,1,83.9999974365235,0|8,3:0|3:0,0:0:0:0:
125,224,381849,1,0,3:0:0:0:
127,203,381958,1,0,3:0:0:0:
222,123,382175,6,0,L|184:140,1,41.9999987182618,8|0,0:0|0:0,0:0:0:0:
68,96,382393,2,0,L|102:122,1,41.9999987182618,0|0,1:0|0:0,0:0:0:0:
223,230,382610,6,0,P|266:238|311:221,1,83.9999974365235,8|0,3:0|3:0,0:0:0:0:
328,192,382936,1,0,3:0:0:0:
331,171,383045,1,8,0:0:0:0:
289,88,383262,1,0,3:0:0:0:
374,49,383480,5,8,3:0:0:0:
377,70,383589,1,0,3:0:0:0:
380,91,383697,1,0,3:0:0:0:
269,226,383915,6,0,L|288:87,1,140,8|0,0:0|3:0,0:0:0:0:
214,28,384241,5,0,3:0:0:0:
198,41,384349,2,0,P|157:50|100:33,1,83.9999974365235,8|0,3:0|3:0,0:0:0:0:
77,57,384675,1,0,3:0:0:0:
72,77,384784,1,8,0:0:0:0:
168,187,385001,5,0,3:0:0:0:
163,167,385110,2,0,P|135:170|98:185,1,41.9999987182618,0|8,3:0|3:0,0:0:0:0:
22,229,385328,2,0,P|43:230|64:236,1,41.9999987182618,0|0,3:0|0:0,0:0:0:0:
122,296,385545,5,0,3:0:0:0:
138,308,385654,2,0,L|191:296,1,41.9999987182618,8|0,0:0|3:0,0:0:0:0:
351,367,385871,2,2,P|340:334|354:278,1,70,2|2,1:0|0:0,0:0:0:0:
418,225,386088,6,2,P|384:265|258:193,1,210,10|2,3:0|3:0,0:0:0:0:
262,118,386523,1,8,0:0:0:0:
266,97,386632,1,0,3:0:0:0:
270,76,386741,1,0,3:0:0:0:
143,58,386958,5,8,3:0:0:0:
136,78,387067,2,0,L|144:119,1,41.9999987182618,0|0,3:0|0:0,0:0:0:0:
227,0,387284,1,0,3:0:0:0:
155,36,387393,6,0,L|183:175,1,140,8|0,0:0|3:0,0:0:0:0:
266,314,387828,5,8,3:0:0:0:
287,318,387937,1,0,3:0:0:0:
308,322,388046,1,0,3:0:0:0:
329,326,388154,2,0,P|326:296|319:272,1,41.9999987182618,0|8,3:0|0:0,0:0:0:0:
303,182,388371,1,0,3:0:0:0:
284,170,388479,2,0,P|280:191|279:212,1,41.9999987182618,0|0,3:0|0:0,0:0:0:0:
358,109,388697,5,8,3:0:0:0:
326,82,388805,1,0,3:0:0:0:
285,72,388914,1,0,3:0:0:0:
245,80,389023,1,0,3:0:0:0:
212,106,389132,2,0,L|160:96,1,41.9999987182618,8|0,0:0|0:0,0:0:0:0:
71,167,389349,2,0,L|113:160,1,41.9999987182618,0|0,1:0|3:0,0:0:0:0:
264,216,389567,6,0,P|225:202|183:206,1,83.9999974365235,8|0,3:0|3:0,0:0:0:0:
160,241,389893,1,0,3:0:0:0:
155,261,390001,1,8,0:0:0:0:
328,271,390219,6,0,P|367:256|408:260,1,83.9999974365235,0|8,3:0|3:0,0:0:0:0:
468,201,390545,2,0,P|445:188|431:175,1,41.9999987182618,0|0,3:0|0:0,0:0:0:0:
395,102,390762,1,0,3:0:0:0:
379,87,390871,2,0,L|327:82,1,41.9999987182618,8|0,0:0|0:0,0:0:0:0:
272,143,391088,6,2,L|203:150,1,70,2|2,1:0|0:0,0:0:0:0:
137,23,391306,6,0,L|129:107,1,83.9999974365235,8|0,3:0|3:0,0:0:0:0:
104,140,391632,1,0,3:0:0:0:
107,160,391741,1,8,0:0:0:0:
175,258,391958,1,0,3:0:0:0:
216,262,392066,1,0,3:0:0:0:
258,267,392175,1,8,3:0:0:0:
363,138,392393,5,0,3:0:0:0:
342,140,392501,1,0,3:0:0:0:
308,165,392610,2,0,P|279:149|252:115,1,41.9999987182618,8|0,0:0|0:0,0:0:0:0:
258,267,392828,2,0,P|286:249|329:243,1,41.9999987182618,0|0,1:0|0:0,0:0:0:0:
194,172,393045,6,0,P|194:205|146:248,1,83.9999974365235,8|0,3:0|3:0,0:0:0:0:
125,261,393371,1,0,3:0:0:0:
121,281,393480,1,8,0:0:0:0:
117,301,393588,1,0,3:0:0:0:
112,323,393697,6,0,P|133:324|159:315,1,41.9999987182618,0|0,3:0|0:0,0:0:0:0:
256,283,393915,1,8,3:0:0:0:
261,261,394024,2,0,P|240:260|220:266,1,41.9999987182618,0|0,3:0|3:0,0:0:0:0:
326,338,394241,1,0,3:0:0:0:
320,359,394350,6,0,P|340:360|378:340,1,62.9999980773926,8|0,1:2|0:0,0:0:0:0:
436,223,394784,6,0,B|456:143|403:162|422:78,1,140,8|0,3:0|0:0,0:0:0:0:
420,87,395436,1,2,0:0:0:0:
365,23,395654,1,2,0:0:0:0:
160,58,396523,5,8,3:0:0:0:
162,75,396631,1,0,3:0:0:0:
165,92,396740,1,0,3:0:0:0:
233,188,396958,2,0,P|268:200|315:187,1,70,8|0,0:0|3:0,0:0:0:0:
334,171,397284,1,0,3:0:0:0:
340,168,397393,2,0,P|374:163|406:175,1,70,8|0,3:0|3:0,0:0:0:0:
482,302,397828,1,8,0:0:0:0:
482,302,398262,5,8,3:0:0:0:
464,304,398370,1,0,3:0:0:0:
447,307,398479,1,0,3:0:0:0:
329,326,398697,2,0,P|295:317|247:328,1,70,8|0,0:0|3:0,0:0:0:0:
230,339,399023,1,0,3:0:0:0:
226,345,399132,2,0,P|191:349|157:340,1,70,8|0,3:0|3:0,0:0:0:0:
108,272,399567,1,8,0:0:0:0:
210,157,399784,1,0,3:0:0:0:
313,270,400001,5,8,3:0:0:0:
330,267,400110,1,0,3:0:0:0:
348,265,400218,1,0,3:0:0:0:
452,249,400436,2,0,P|441:215|446:168,1,70,8|0,0:0|3:0,0:0:0:0:
456,149,400762,1,0,3:0:0:0:
458,142,400871,2,0,P|428:123|394:116,1,70,8|0,3:0|3:0,0:0:0:0:
312,134,401306,1,8,0:0:0:0:
163,95,401523,1,0,3:0:0:0:
150,248,401741,5,8,3:0:0:0:
147,265,401850,1,0,3:0:0:0:
145,283,401958,1,0,3:0:0:0:
214,355,402175,2,0,P|251:356|297:341,1,70,8|0,0:0|3:0,0:0:0:0:
312,328,402501,2,0,L|357:330,1,35,0|8,3:0|3:0,0:0:0:0:
456,287,402719,1,0,3:0:0:0:
451,270,402828,1,0,3:0:0:0:
372,157,403045,1,8,0:0:0:0:
236,132,403262,1,0,3:0:0:0:
253,281,403480,5,8,3:0:0:0:
271,279,403588,1,0,3:0:0:0:
288,276,403697,1,0,3:0:0:0:
179,321,403915,2,0,P|131:315|99:306,1,70,8|0,0:0|3:0,0:0:0:0:
80,279,404241,2,0,P|60:284|42:293,1,35,0|8,3:0|3:0,0:0:0:0:
52,162,404458,1,0,3:0:0:0:
69,166,404567,1,0,3:0:0:0:
86,170,404675,1,0,3:0:0:0:
103,174,404784,1,8,3:2:0:0:
207,196,405001,1,0,3:0:0:0:
297,95,405219,5,8,3:0:0:0:
315,93,405327,1,0,3:0:0:0:
332,90,405436,1,0,3:0:0:0:
447,158,405654,2,0,P|441:187|456:248,1,70,8|0,0:0|3:0,0:0:0:0:
467,254,405980,1,0,3:0:0:0:
450,284,406088,1,8,3:0:0:0:
421,304,406197,1,0,3:0:0:0:
387,309,406306,1,0,3:0:0:0:
203,219,406523,1,0,0:0:0:0:
288,201,406741,1,0,3:0:0:0:
118,201,406958,5,8,3:0:0:0:
100,199,407066,1,0,3:0:0:0:
83,196,407175,1,0,3:0:0:0:
31,78,407393,2,0,P|67:74|111:45,1,70,8|0,0:0|3:0,0:0:0:0:
116,29,407719,1,0,3:0:0:0:
150,31,407827,1,8,3:0:0:0:
185,34,407936,1,0,3:0:0:0:
220,36,408045,1,0,3:0:0:0:
318,136,408262,1,8,0:0:0:0:
220,235,408480,1,0,3:0:0:0:
97,356,408697,5,8,3:0:0:0:
114,358,408805,1,0,3:0:0:0:
131,361,408914,1,0,3:0:0:0:
311,312,409132,2,0,P|276:309|242:319,1,70,8|0,0:0|3:0,0:0:0:0:
213,340,409458,1,0,3:0:0:0:
215,305,409566,1,8,3:0:0:0:
218,270,409675,1,0,3:0:0:0:
220,235,409784,1,0,3:0:0:0:
27,151,410001,1,8,0:0:0:0:
36,298,410219,1,0,3:0:0:0:
136,169,410436,5,8,3:0:0:0:
133,133,410545,1,0,3:0:0:0:
130,97,410654,1,0,3:0:0:0:
194,37,410871,1,8,0:0:0:0:
268,96,411088,1,0,3:0:0:0:
281,114,411197,1,0,3:0:0:0:
309,211,411415,1,0,3:0:0:0:
296,229,411524,1,0,3:0:0:0:
200,301,411741,2,0,P|201:262|205:217,1,70,8|0,0:0|0:0,0:0:0:0:
400,204,412175,5,8,3:0:0:0:
421,198,412285,1,0,3:0:0:0:
439,194,412393,2,0,P|429:258|427:292,1,70,0|8,3:0|0:0,0:0:0:0:
326,358,412828,1,0,3:0:0:0:
306,347,412936,1,0,3:0:0:0:
217,356,413154,1,0,3:0:0:0:
201,358,413262,1,0,3:0:0:0:
91,341,413480,2,0,P|86:291|79:254,1,70,8|0,0:0|0:0,0:0:0:0:
15,191,413915,5,8,3:0:0:0:
20,167,414023,1,0,3:0:0:0:
26,143,414132,1,0,3:0:0:0:
127,66,414349,2,0,P|72:69|38:71,1,70,8|0,0:0|3:0,0:0:0:0:
41,59,414675,1,0,3:0:0:0:
104,149,414892,1,0,3:0:0:0:
119,160,415001,1,0,3:0:0:0:
228,121,415219,2,0,P|265:117|317:117,1,70,8|0,0:0|0:0,0:0:0:0:
452,44,415654,5,8,3:0:0:0:
428,36,415762,1,0,3:0:0:0:
404,27,415871,2,0,P|397:96|396:121,1,70,0|8,3:0|0:0,0:0:0:0:
357,180,416306,1,0,3:0:0:0:
369,196,416415,1,0,3:0:0:0:
412,284,416632,1,0,3:0:0:0:
400,300,416741,1,0,3:0:0:0:
284,368,416958,2,0,P|284:314|280:280,1,70,8|0,0:0|0:0,0:0:0:0:
168,207,417393,5,8,3:0:0:0:
146,219,417501,1,0,3:0:0:0:
124,231,417610,1,0,3:0:0:0:
121,138,417828,2,0,P|125:89|126:56,1,70,8|0,0:0|3:0,0:0:0:0:
125,68,418154,1,0,3:0:0:0:
125,68,418262,1,8,3:0:0:0:
125,68,418371,1,0,3:0:0:0:
125,68,418480,1,0,3:0:0:0:
125,68,418588,1,0,3:0:0:0:
125,68,418697,1,8,3:2:0:0:
363,39,418915,5,0,3:0:0:0:
360,63,419023,1,0,3:0:0:0:
357,87,419132,2,0,P|366:139|371:166,1,70,8|0,3:0|3:0,0:0:0:0:
244,345,419567,2,0,P|256:296|266:265,1,70,8|0,0:0|3:0,0:0:0:0:
261,277,419893,1,0,3:0:0:0:
261,277,420001,1,8,3:0:0:0:
261,277,420110,1,0,3:0:0:0:
261,277,420219,1,0,3:0:0:0:
261,277,420328,1,0,3:0:0:0:
261,277,420436,1,8,3:2:0:0:
364,307,420654,1,0,3:0:0:0:
183,253,420871,5,8,3:0:0:0:
159,260,420980,1,0,3:0:0:0:
136,269,421088,1,0,3:0:0:0:
228,153,421306,2,0,P|271:158|311:162,1,70,8|0,0:0|3:0,0:0:0:0:
313,179,421632,1,0,3:0:0:0:
435,162,421849,1,0,3:0:0:0:
418,144,421958,1,0,3:0:0:0:
195,44,422175,2,0,P|161:80|126:107,1,70,8|0,0:0|0:0,0:0:0:0:
9,180,422610,5,8,3:0:0:0:
15,203,422719,1,0,3:0:0:0:
21,226,422828,1,0,3:0:0:0:
166,351,423045,2,0,P|182:309|196:278,1,70,8|0,0:0|3:0,0:0:0:0:
192,286,423371,1,0,3:0:0:0:
192,286,423480,1,8,3:0:0:0:
192,286,423588,1,0,3:0:0:0:
192,286,423697,1,0,3:0:0:0:
192,286,423806,1,0,3:0:0:0:
192,286,423915,5,8,3:0:0:0:
301,275,424132,1,2,0:0:0:0:
391,234,424349,1,6,3:0:0:0:
256,192,424458,12,0,427828,0:0:0:0:
