osu file format v14

[General]
AudioFilename: audio.mp3
AudioLeadIn: 0
PreviewTime: 336044
Countdown: 0
SampleSet: Normal
StackLeniency: 0.7
Mode: 1
LetterboxInBreaks: 0
WidescreenStoryboard: 0

[Editor]
Bookmarks: 92733,198664,304595,420457
DistanceSpacing: 0.6
BeatDivisor: 8
GridSize: 32
TimelineZoom: 2

[Metadata]
Title:Sa'eed
TitleUnicode:Sa'eed
Artist:Infected Mushroom
ArtistUnicode:Infected Mushroom
Creator:Surono
Version:Infected Oni
Source:
Tags:saeed psychedelic trance The Legend of the Black Shawarma marathon
BeatmapID:1487235
BeatmapSetID:702878

[Difficulty]
HPDrainRate:4
CircleSize:2
OverallDifficulty:6
ApproachRate:10
SliderMultiplier:1.4
SliderTickRate:1

[Events]
//Background and Video events
0,0,"Happy.jpg",0,-75
//Break Periods
//Storyboard Layer 0 (Background)
//Storyboard Layer 1 (Fail)
//Storyboard Layer 2 (Pass)
//Storyboard Layer 3 (Foreground)
//Storyboard Sound Samples

[TimingPoints]
44,413.793103448276,4,1,0,40,1,0
13285,-133.333333333333,4,1,0,40,0,0
16906,-133.333333333333,4,1,0,10,0,0
17216,-133.333333333333,4,1,0,40,0,0
19802,-129.032258064516,4,1,0,40,0,0
19906,-125,4,1,0,25,0,0
21975,-133.333333333333,4,1,0,40,0,0
26526,-105.263157894737,4,1,0,85,0,0
33044,-102.564102564103,4,1,0,85,0,0
33147,-100,4,1,0,35,0,0
34699,-100,4,1,0,85,0,0
35009,-101.010101010101,4,1,0,85,0,0
35112,-102.040816326531,4,1,0,85,0,0
35216,-103.092783505155,4,1,0,85,0,0
35319,-104.166666666667,4,1,0,85,0,0
35423,-105.263157894737,4,1,0,85,0,0
39664,-100,4,1,0,85,0,0
46285,-97.5609756097561,4,1,0,85,0,0
46388,-95.2380952380952,4,1,0,35,0,0
47940,-95.2380952380952,4,1,0,85,0,0
48250,-96.1538461538461,4,1,0,85,0,0
48354,-97.0873786407767,4,1,0,85,0,0
48457,-98.0392156862745,4,1,0,85,0,0
48561,-99.009900990099,4,1,0,85,0,0
48664,-100,4,1,0,85,0,0
64595,-90.9090909090909,4,1,0,45,0,0
65836,-100,4,1,0,85,0,0
72768,-95.2380952380952,4,1,0,85,0,0
72871,-90.9090909090909,4,1,0,85,0,1
76181,-100,4,1,0,85,0,0
85802,-95.2380952380952,4,1,0,85,0,0
89319,-90.9090909090909,4,1,0,85,0,0
92940,-95.2380952380952,4,1,0,85,0,0
93044,-96.1538461538461,4,1,0,85,0,0
93147,-97.0873786407767,4,1,0,85,0,0
93250,-98.0392156862745,4,1,0,85,0,0
93457,-99.009900990099,4,1,0,85,0,0
93509,-100,4,1,0,85,0,0
104216,-105.263157894737,4,1,0,85,0,0
105664,-100,4,1,0,85,0,0
117457,-104.166666666667,4,1,0,85,0,0
118078,-108.695652173913,4,1,0,85,0,0
118698,-113.636363636364,4,1,0,85,0,0
119112,-100,4,1,0,85,0,0
143940,-102.040816326531,4,1,0,85,0,0
144147,-104.166666666667,4,1,0,85,0,0
144353,-106.382978723404,4,1,0,85,0,0
144560,-108.695652173913,4,1,0,85,0,0
145285,-125,4,1,0,70,0,0
158940,-125,4,1,0,75,0,0
170629,-121.951219512195,4,1,0,75,0,0
170836,-119.047619047619,4,1,0,75,0,0
171043,-116.279069767442,4,1,0,75,0,0
171250,-113.636363636364,4,1,0,75,0,0
171560,-111.111111111111,4,1,0,75,0,0
172181,-100,4,1,0,85,0,0
198560,-111.111111111111,4,1,0,85,0,0
211802,-100,4,1,0,85,0,0
223388,-100,4,1,0,25,0,0
225147,-100,4,1,0,85,0,1
250698,-100,4,1,0,25,0,1
251630,-100,4,1,0,85,0,0
263940,-50,4,1,0,85,0,0
264871,-100,4,1,0,85,0,1
264974,-98.0392156862745,4,1,0,85,0,1
265181,-97.0873786407767,4,1,0,85,0,1
265388,-96.1538461538461,4,1,0,85,0,1
265699,-95.2380952380952,4,1,0,85,0,1
265802,-93.4579439252336,4,1,0,85,0,1
266009,-92.5925925925926,4,1,0,85,0,1
266216,-91.743119266055,4,1,0,85,0,1
266526,-90.9090909090909,4,1,0,85,0,1
266629,-89.2857142857143,4,1,0,85,0,1
266836,-88.4955752212389,4,1,0,85,0,1
267043,-87.719298245614,4,1,0,85,0,1
267354,-86.9565217391304,4,1,0,85,0,1
267457,-85.4700854700855,4,1,0,85,0,1
267664,-84.7457627118644,4,1,0,85,0,1
267871,-84.0336134453781,4,1,0,85,0,1
268181,-83.3333333333333,4,1,0,85,0,1
268285,-81.9672131147541,4,1,0,85,0,1
268491,-81.3008130081301,4,1,0,85,0,1
268698,-80.6451612903226,4,1,0,85,0,1
269009,-80,4,1,0,85,0,1
269112,-78.7401574803149,4,1,0,85,0,1
269319,-78.125,4,1,0,85,0,1
269526,-77.5193798449612,4,1,0,85,0,1
269837,-76.9230769230769,4,1,0,85,0,1
269940,-75.7575757575758,4,1,0,85,0,1
270147,-75.187969924812,4,1,0,85,0,1
270353,-74.6268656716418,4,1,0,85,0,1
270664,-74.0740740740741,4,1,0,85,0,1
270767,-72.992700729927,4,1,0,85,0,1
270974,-72.463768115942,4,1,0,85,0,1
271181,-71.9424460431655,4,1,0,85,0,1
271492,-71.4285714285714,4,1,0,85,0,1
271595,-70.9219858156028,4,1,0,85,0,1
271699,-70.4225352112676,4,1,0,85,0,1
271802,-69.9300699300699,4,1,0,85,0,1
271906,-69.4444444444444,4,1,0,85,0,1
272319,-68.9655172413793,4,1,0,85,0,1
272422,-68.0272108843537,4,1,0,85,0,1
272629,-67.5675675675676,4,1,0,85,0,1
272940,-67.1140939597315,4,1,0,85,0,1
273147,-66.6666666666667,4,1,0,85,0,1
275009,-71.4285714285714,4,1,0,85,0,1
275629,-76.9230769230769,4,1,0,85,0,1
276250,-83.3333333333333,4,1,0,85,0,1
276871,-90.9090909090909,4,1,0,85,0,1
277491,-100,4,1,0,85,0,1
278112,-100,4,1,0,85,0,0
278526,-142.857142857143,4,1,0,40,0,0
304595,-99.9999999999999,4,1,0,75,0,0
317837,-95.2380952380952,4,1,0,80,0,0
324353,-90.9090909090909,4,1,0,85,0,0
331026,-86.9565217391304,4,1,0,85,0,0
334388,-87.719298245614,4,1,0,85,0,0
334492,-88.4955752212389,4,1,0,85,0,0
334595,-89.2857142857143,4,1,0,85,0,0
334699,-90.0900900900901,4,1,0,85,0,0
334802,-90.9090909090909,4,1,0,85,0,0
334906,-91.743119266055,4,1,0,85,0,0
335009,-92.5925925925926,4,1,0,85,0,0
335112,-93.4579439252336,4,1,0,85,0,0
335216,-94.3396226415094,4,1,0,85,0,0
335319,-95.2380952380952,4,1,0,85,0,0
335423,-96.1538461538461,4,1,0,85,0,0
335526,-97.0873786407767,4,1,0,85,0,0
335630,-98.0392156862745,4,1,0,85,0,0
335699,-99.009900990099,4,1,0,85,0,0
335768,-100,4,1,0,85,0,0
335837,-101.010101010101,4,1,0,85,0,0
335906,-102.040816326531,4,1,0,85,0,0
335975,-103.092783505155,4,1,0,85,0,0
336044,-104.166666666667,4,1,0,85,0,0
337078,-176.991150442478,4,1,0,50,0,0
337699,-100,4,1,0,85,0,1
363561,-102.040816326531,4,1,0,85,0,1
363664,-104.166666666667,4,1,0,85,0,1
363768,-106.382978723404,4,1,0,85,0,1
363871,-108.695652173913,4,1,0,85,0,1
363975,-111.111111111111,4,1,0,85,0,1
364181,-50,4,1,0,85,0,0
364233,-81.9672131147541,4,1,0,85,0,0
364440,-83.3333333333333,4,1,0,85,0,0
364544,-84.7457627118644,4,1,0,85,0,0
364647,-86.2068965517241,4,1,0,85,0,0
364750,-87.719298245614,4,1,0,85,0,0
364854,-89.2857142857143,4,1,0,85,0,0
364957,-90.9090909090909,4,1,0,85,0,0
365061,-92.5925925925926,4,1,0,85,0,0
365164,-94.3396226415094,4,1,0,85,0,0
365268,-96.1538461538461,4,1,0,85,0,0
365371,-98.0392156862745,4,1,0,85,0,0
365526,-100,4,1,0,85,0,0
377423,-90.9090909090909,4,1,0,85,0,1
387250,-86.9565217391304,4,1,0,85,0,1
387354,-83.3333333333333,4,1,0,85,0,1
387457,-80,4,1,0,85,0,1
387664,-78.4313725490196,4,1,0,85,0,1
387871,-76.9230769230769,4,1,0,85,0,1
388078,-75.4716981132076,4,1,0,85,0,1
388285,-74.0740740740741,4,1,0,85,0,1
388388,-72.7272727272727,4,1,0,85,0,1
388492,-71.4285714285714,4,1,0,85,0,1
388595,-70.1754385964912,4,1,0,85,0,1
388699,-68.9655172413793,4,1,0,85,0,1
388906,-67.7966101694915,4,1,0,85,0,1
389112,-66.6666666666667,4,1,0,85,0,1
389319,-64.5161290322581,4,1,0,85,0,1
389526,-63.4920634920635,4,1,0,85,0,1
389733,-62.5,4,1,0,85,0,1
389940,-60.9756097560976,4,1,0,85,0,1
390147,-60.2409638554217,4,1,0,85,0,1
390354,-59.5238095238095,4,1,0,85,0,1
390664,-58.8235294117647,4,1,0,85,0,0
391078,-76.9230769230769,4,1,0,60,0,0
391181,-83.3333333333333,4,1,0,60,0,0
391388,-90.9090909090909,4,1,0,60,0,0
391698,-100,4,1,0,60,0,0
392112,-102.040816326531,4,1,0,60,0,0
392422,-104.166666666667,4,1,0,60,0,0
392629,-106.382978723404,4,1,0,60,0,0
392940,-108.695652173913,4,1,0,60,0,0
393353,-111.111111111111,4,1,0,60,0,0
393767,-113.636363636364,4,1,0,60,0,0
394078,-116.279069767442,4,1,0,60,0,0
394492,-119.047619047619,4,1,0,60,0,0
394699,-121.951219512195,4,1,0,60,0,0
395009,-125,4,1,0,60,0,0
415285,-142.857142857143,4,1,0,60,0,0
416216,-166.666666666667,4,1,0,60,0,0
417043,-200,4,1,0,25,0,0

[HitObjects]
256,192,13285,5,8,0:0:0:0:
256,192,13492,1,8,0:0:0:0:
265,191,14009,1,0,0:0:0:0:
256,192,14112,1,0,0:0:0:0:
256,192,14216,1,8,0:0:0:0:
256,192,14319,1,0,0:0:0:0:
256,192,14423,1,8,0:0:0:0:
256,192,14526,1,0,0:0:0:0:
256,192,14733,1,0,0:0:0:0:
256,192,14940,1,8,0:0:0:0:
256,192,15147,1,8,0:0:0:0:
256,192,15354,1,0,0:0:0:0:
256,192,15664,1,0,0:0:0:0:
256,192,15768,1,0,0:0:0:0:
256,192,15871,1,8,0:0:0:0:
256,192,15975,1,8,0:0:0:0:
256,192,16181,1,0,0:0:0:0:
256,192,16388,1,8,0:0:0:0:
256,192,16595,1,0,0:0:0:0:
256,192,17009,1,0,0:0:0:0:
256,192,17061,1,0,0:0:0:0:
256,192,17112,1,0,0:0:0:0:
256,192,17319,1,0,0:0:0:0:
256,192,17423,1,0,0:0:0:0:
256,192,17526,1,0,0:0:0:0:
256,192,17630,1,8,0:0:0:0:
256,192,17837,1,0,0:0:0:0:
256,192,18044,1,8,0:0:0:0:
256,192,18147,1,0,0:0:0:0:
256,192,18250,1,8,0:0:0:0:
256,192,18457,1,8,0:0:0:0:
256,192,18664,1,0,0:0:0:0:
256,192,18975,1,8,0:0:0:0:
256,192,19078,1,0,0:0:0:0:
256,192,19181,1,0,0:0:0:0:
256,192,19285,1,8,0:0:0:0:
256,192,19388,1,8,0:0:0:0:
256,192,19492,1,0,0:0:0:0:
256,192,19699,1,0,0:0:0:0:
256,192,19802,1,0,0:0:0:0:
256,192,19906,1,8,0:0:0:0:
256,192,20112,1,8,0:0:0:0:
256,192,20319,1,8,0:0:0:0:
256,192,20526,1,8,0:0:0:0:
256,192,20733,1,8,0:0:0:0:
256,192,20940,1,0,0:0:0:0:
256,192,21147,1,8,0:0:0:0:
256,192,21354,1,0,0:0:0:0:
256,192,21561,1,8,0:0:0:0:
256,192,21768,1,8,0:0:0:0:
256,192,21975,1,0,0:0:0:0:
256,192,22078,1,0,0:0:0:0:
256,192,22595,1,8,0:0:0:0:
256,192,22699,1,8,0:0:0:0:
256,192,22802,1,0,0:0:0:0:
256,192,22906,1,8,0:0:0:0:
256,192,23009,1,0,0:0:0:0:
256,192,23112,1,0,0:0:0:0:
256,192,23216,1,8,0:0:0:0:
256,192,23423,1,8,0:0:0:0:
256,192,23630,1,0,0:0:0:0:
256,192,24664,1,0,0:0:0:0:
256,192,24768,1,0,0:0:0:0:
256,192,24871,1,8,0:0:0:0:
256,192,25078,1,8,0:0:0:0:
256,192,25285,1,8,0:0:0:0:
256,192,26526,5,8,0:0:0:0:
256,192,26733,1,0,0:0:0:0:
256,192,26837,1,8,0:0:0:0:
256,192,27044,1,0,0:0:0:0:
256,192,27147,1,8,0:0:0:0:
256,192,27354,1,0,0:0:0:0:
256,192,27457,1,0,0:0:0:0:
256,192,27561,1,0,0:0:0:0:
256,192,27664,1,0,0:0:0:0:
256,192,27768,1,8,0:0:0:0:
256,192,27975,1,0,0:0:0:0:
256,192,28181,1,8,0:0:0:0:
256,192,28388,1,0,0:0:0:0:
256,192,28492,1,8,0:0:0:0:
256,192,28699,1,0,0:0:0:0:
256,192,28802,1,8,0:0:0:0:
256,192,29009,1,0,0:0:0:0:
256,192,29112,1,8,0:0:0:0:
256,192,29216,1,0,0:0:0:0:
256,192,29319,1,0,0:0:0:0:
256,192,29423,1,8,0:0:0:0:
256,192,29630,1,0,0:0:0:0:
256,192,29837,1,8,0:0:0:0:
256,192,30044,1,0,0:0:0:0:
256,192,30147,1,8,0:0:0:0:
256,192,30354,1,0,0:0:0:0:
256,192,30457,1,8,0:0:0:0:
256,192,30664,1,0,0:0:0:0:
256,192,30768,1,0,0:0:0:0:
256,192,30871,1,8,0:0:0:0:
256,192,30975,1,0,0:0:0:0:
256,192,31078,1,8,0:0:0:0:
256,192,31285,1,0,0:0:0:0:
256,192,31388,1,0,0:0:0:0:
256,192,31492,1,8,0:0:0:0:
256,192,31699,1,0,0:0:0:0:
256,192,31802,1,8,0:0:0:0:
256,192,32009,1,0,0:0:0:0:
256,192,32112,1,8,0:0:0:0:
256,192,32319,1,8,0:0:0:0:
256,192,32423,1,0,0:0:0:0:
256,192,32526,1,0,0:0:0:0:
256,192,32630,1,0,0:0:0:0:
256,192,32733,1,8,0:0:0:0:
256,192,32940,1,0,0:0:0:0:
256,192,33044,1,0,0:0:0:0:
256,192,33147,1,8,0:0:0:0:
256,192,33199,1,0,0:0:0:0:
256,192,33354,1,0,0:0:0:0:
256,192,33406,1,0,0:0:0:0:
256,192,33561,1,8,0:0:0:0:
256,192,33612,1,0,0:0:0:0:
256,192,33768,1,0,0:0:0:0:
256,192,33819,1,0,0:0:0:0:
256,192,33975,1,8,0:0:0:0:
256,192,34026,1,0,0:0:0:0:
256,192,34181,1,8,0:0:0:0:
256,192,34233,1,8,0:0:0:0:
256,192,34388,1,0,0:0:0:0:
256,192,34440,1,0,0:0:0:0:
256,192,34595,1,8,0:0:0:0:
256,192,34647,1,8,0:0:0:0:
256,192,34802,1,8,0:0:0:0:
256,192,35009,1,0,0:0:0:0:
256,192,35112,1,8,0:0:0:0:
256,192,35216,1,8,0:0:0:0:
256,192,35319,1,0,0:0:0:0:
256,192,35423,1,8,0:0:0:0:
256,192,35630,1,0,0:0:0:0:
256,192,35733,1,8,0:0:0:0:
256,192,35837,1,0,0:0:0:0:
256,192,35940,1,0,0:0:0:0:
256,192,36044,1,8,0:0:0:0:
256,192,36147,1,8,0:0:0:0:
256,192,36250,1,0,0:0:0:0:
256,192,36354,1,0,0:0:0:0:
256,192,36457,1,8,0:0:0:0:
256,192,36664,1,0,0:0:0:0:
256,192,36768,1,8,0:0:0:0:
256,192,36975,1,0,0:0:0:0:
256,192,37078,1,8,0:0:0:0:
256,192,37285,1,0,0:0:0:0:
256,192,37388,1,0,0:0:0:0:
256,192,37492,1,0,0:0:0:0:
256,192,37699,1,8,0:0:0:0:
256,192,37906,1,0,0:0:0:0:
256,192,38009,1,0,0:0:0:0:
256,192,38112,1,8,0:0:0:0:
256,192,38319,1,0,0:0:0:0:
256,192,38423,1,8,0:0:0:0:
256,192,38630,1,0,0:0:0:0:
256,192,38733,1,8,0:0:0:0:
256,192,38940,1,0,0:0:0:0:
256,192,39044,1,8,0:0:0:0:
256,192,39147,1,0,0:0:0:0:
256,192,39250,1,0,0:0:0:0:
256,192,39354,1,8,0:0:0:0:
256,192,39423,1,8,0:0:0:0:
256,192,39492,1,8,0:0:0:0:
256,192,39561,1,8,0:0:0:0:
256,192,39768,5,0,0:0:0:0:
256,192,39975,1,8,0:0:0:0:
256,192,40078,1,0,0:0:0:0:
256,192,40285,1,8,0:0:0:0:
256,192,40388,1,0,0:0:0:0:
256,192,40595,1,0,0:0:0:0:
256,192,40699,1,0,0:0:0:0:
256,192,40802,1,0,0:0:0:0:
256,192,40906,1,0,0:0:0:0:
256,192,41009,1,8,0:0:0:0:
256,192,41216,1,8,0:0:0:0:
256,192,41423,1,0,0:0:0:0:
256,192,41630,1,8,0:0:0:0:
256,192,41733,1,0,0:0:0:0:
256,192,41940,1,8,0:0:0:0:
256,192,42044,1,0,0:0:0:0:
256,192,42250,1,0,0:0:0:0:
256,192,42354,1,8,0:0:0:0:
256,192,42457,1,0,0:0:0:0:
256,192,42561,1,0,0:0:0:0:
256,192,42664,1,8,0:0:0:0:
256,192,42871,1,8,0:0:0:0:
256,192,43078,1,0,0:0:0:0:
256,192,43285,1,8,0:0:0:0:
256,192,43388,1,0,0:0:0:0:
256,192,43595,1,8,0:0:0:0:
256,192,43699,1,0,0:0:0:0:
256,192,43906,1,0,0:0:0:0:
256,192,44009,1,0,0:0:0:0:
256,192,44112,1,8,0:0:0:0:
256,192,44216,1,0,0:0:0:0:
256,192,44319,1,8,0:0:0:0:
256,192,44526,1,8,0:0:0:0:
256,192,44630,1,8,0:0:0:0:
256,192,44733,1,0,0:0:0:0:
256,192,44940,1,8,0:0:0:0:
256,192,45044,1,0,0:0:0:0:
256,192,45250,1,8,0:0:0:0:
256,192,45354,1,0,0:0:0:0:
256,192,45561,1,8,0:0:0:0:
256,192,45664,1,0,0:0:0:0:
256,192,45768,1,0,0:0:0:0:
256,192,45871,1,0,0:0:0:0:
256,192,45975,1,8,0:0:0:0:
256,192,46181,1,0,0:0:0:0:
256,192,46285,1,0,0:0:0:0:
256,192,46388,1,8,0:0:0:0:
256,192,46440,1,0,0:0:0:0:
256,192,46595,1,0,0:0:0:0:
256,192,46647,1,0,0:0:0:0:
256,192,46802,1,8,0:0:0:0:
256,192,46854,1,8,0:0:0:0:
256,192,47009,1,0,0:0:0:0:
256,192,47061,1,0,0:0:0:0:
256,192,47216,1,8,0:0:0:0:
256,192,47268,1,0,0:0:0:0:
256,192,47423,1,0,0:0:0:0:
256,192,47475,1,0,0:0:0:0:
256,192,47630,1,8,0:0:0:0:
256,192,47681,1,8,0:0:0:0:
256,192,47837,1,8,0:0:0:0:
256,192,47888,1,8,0:0:0:0:
256,192,48044,1,0,0:0:0:0:
256,192,48250,1,8,0:0:0:0:
256,192,48354,1,0,0:0:0:0:
256,192,48457,1,8,0:0:0:0:
256,192,48561,1,8,0:0:0:0:
256,192,48664,1,0,0:0:0:0:
256,192,48871,1,0,0:0:0:0:
256,192,48975,1,8,0:0:0:0:
256,192,49078,1,0,0:0:0:0:
256,192,49181,1,0,0:0:0:0:
256,192,49285,1,8,0:0:0:0:
256,192,49388,1,8,0:0:0:0:
256,192,49492,1,0,0:0:0:0:
256,192,49595,1,8,0:0:0:0:
256,192,49699,1,0,0:0:0:0:
256,192,49906,1,8,0:0:0:0:
256,192,50009,1,0,0:0:0:0:
256,192,50216,1,8,0:0:0:0:
256,192,50319,1,0,0:0:0:0:
256,192,50526,1,0,0:0:0:0:
256,192,50630,1,8,0:0:0:0:
256,192,50733,1,0,0:0:0:0:
256,192,50940,1,8,0:0:0:0:
256,192,51147,1,0,0:0:0:0:
256,192,51250,1,0,0:0:0:0:
256,192,51975,1,0,0:0:0:0:
256,192,52044,1,0,0:0:0:0:
256,192,52112,1,0,0:0:0:0:
256,192,52181,1,0,0:0:0:0:
256,192,52595,1,8,0:0:0:0:
256,192,52664,1,8,0:0:0:0:
256,192,52733,1,8,0:0:0:0:
256,192,52802,1,8,0:0:0:0:
256,192,53009,1,4,0:0:0:0:
256,192,53319,1,4,0:0:0:0:
256,192,53630,1,4,0:0:0:0:
256,192,53837,1,0,0:0:0:0:
256,192,53940,1,0,0:0:0:0:
256,192,54044,1,8,0:0:0:0:
256,192,54147,1,8,0:0:0:0:
256,192,54250,1,0,0:0:0:0:
256,192,54457,1,8,0:0:0:0:
256,192,54561,1,8,0:0:0:0:
256,192,54664,1,4,0:0:0:0:
256,192,54975,1,4,0:0:0:0:
256,192,55285,1,4,0:0:0:0:
256,192,55492,1,8,0:0:0:0:
256,192,55595,1,0,0:0:0:0:
256,192,55699,1,8,0:0:0:0:
256,192,55802,1,8,0:0:0:0:
256,192,55906,1,0,0:0:0:0:
256,192,56112,1,8,0:0:0:0:
256,192,56216,1,8,0:0:0:0:
256,192,56319,1,4,0:0:0:0:
256,192,56630,1,4,0:0:0:0:
256,192,56940,1,4,0:0:0:0:
256,192,57147,1,0,0:0:0:0:
256,192,57250,1,8,0:0:0:0:
256,192,57354,1,8,0:0:0:0:
256,192,57457,1,8,0:0:0:0:
256,192,57561,1,0,0:0:0:0:
256,192,57768,1,8,0:0:0:0:
256,192,57871,1,8,0:0:0:0:
256,192,57975,1,4,0:0:0:0:
256,192,58285,1,4,0:0:0:0:
256,192,58595,1,4,0:0:0:0:
256,192,58802,1,0,0:0:0:0:
256,192,58906,1,0,0:0:0:0:
256,192,59009,1,8,0:0:0:0:
256,192,59112,1,8,0:0:0:0:
256,192,59216,1,0,0:0:0:0:
256,192,59423,1,0,0:0:0:0:
256,192,59526,1,8,0:0:0:0:
256,192,59630,1,4,0:0:0:0:
256,192,59940,1,4,0:0:0:0:
256,192,60250,1,4,0:0:0:0:
256,192,60457,1,0,0:0:0:0:
256,192,60664,1,0,0:0:0:0:
256,192,60768,1,0,0:0:0:0:
256,192,60871,1,8,0:0:0:0:
256,192,61078,1,8,0:0:0:0:
256,192,61181,1,8,0:0:0:0:
256,192,61285,1,4,0:0:0:0:
256,192,61595,1,4,0:0:0:0:
256,192,61906,1,4,0:0:0:0:
256,192,62112,1,0,0:0:0:0:
256,192,62216,1,8,0:0:0:0:
256,192,62319,1,8,0:0:0:0:
256,192,62423,1,0,0:0:0:0:
256,192,62526,1,0,0:0:0:0:
256,192,62733,1,8,0:0:0:0:
256,192,62837,1,8,0:0:0:0:
256,192,62940,1,4,0:0:0:0:
256,192,63250,1,4,0:0:0:0:
256,192,63561,1,4,0:0:0:0:
256,192,63768,1,8,0:0:0:0:
256,192,63871,1,8,0:0:0:0:
256,192,64078,1,0,0:0:0:0:
256,192,64181,1,0,0:0:0:0:
256,192,64388,1,8,0:0:0:0:
256,192,64595,2,0,L|0:0,1,308.000009399414
256,192,66044,1,0,0:0:0:0:
256,192,66147,1,0,0:0:0:0:
256,192,66250,1,12,0:0:0:0:
256,192,66561,1,12,0:0:0:0:
256,192,66871,1,12,0:0:0:0:
256,192,67078,1,8,0:0:0:0:
256,192,67181,1,8,0:0:0:0:
256,192,67285,1,0,0:0:0:0:
256,192,67388,1,8,0:0:0:0:
256,192,67492,1,8,0:0:0:0:
256,192,67699,1,0,0:0:0:0:
256,192,67802,1,0,0:0:0:0:
256,192,67906,1,12,0:0:0:0:
256,192,68216,1,12,0:0:0:0:
256,192,68526,1,12,0:0:0:0:
256,192,68733,1,0,0:0:0:0:
256,192,68837,1,8,0:0:0:0:
256,192,68940,1,0,0:0:0:0:
256,192,69044,1,0,0:0:0:0:
256,192,69147,1,8,0:0:0:0:
256,192,69354,1,0,0:0:0:0:
256,192,69457,1,0,0:0:0:0:
256,192,69561,1,12,0:0:0:0:
256,192,69871,1,12,0:0:0:0:
256,192,70181,1,12,0:0:0:0:
256,192,70388,1,8,0:0:0:0:
256,192,70492,1,8,0:0:0:0:
256,192,70595,1,0,0:0:0:0:
256,192,70699,1,0,0:0:0:0:
256,192,70802,1,8,0:0:0:0:
256,192,71009,1,0,0:0:0:0:
256,192,71112,1,0,0:0:0:0:
256,192,71216,1,12,0:0:0:0:
256,192,71526,1,12,0:0:0:0:
256,192,71837,1,12,0:0:0:0:
256,192,72044,1,8,0:0:0:0:
256,192,72147,1,0,0:0:0:0:
256,192,72250,1,0,0:0:0:0:
256,192,72354,1,0,0:0:0:0:
256,192,72457,1,8,0:0:0:0:
256,192,72664,1,0,0:0:0:0:
256,192,72768,1,8,0:0:0:0:
256,192,72871,1,4,0:0:0:0:
256,192,73181,1,8,0:0:0:0:
256,192,73492,1,8,0:0:0:0:
256,192,73699,1,12,0:0:0:0:
256,192,74112,1,8,0:0:0:0:
256,192,74526,1,4,0:0:0:0:
256,192,74837,5,8,0:0:0:0:
256,192,75147,1,8,0:0:0:0:
256,192,75354,1,12,0:0:0:0:
256,192,75768,1,8,0:0:0:0:
256,192,76181,1,4,0:0:0:0:
256,192,76492,1,4,0:0:0:0:
256,192,76802,1,4,0:0:0:0:
256,192,77837,1,8,0:0:0:0:
256,192,77888,1,8,0:0:0:0:
256,192,78147,1,8,0:0:0:0:
256,192,78199,1,8,0:0:0:0:
256,192,78457,1,8,0:0:0:0:
256,192,78509,1,8,0:0:0:0:
256,192,79285,1,0,0:0:0:0:
256,192,79388,1,0,0:0:0:0:
256,192,79492,1,8,0:0:0:0:
256,192,79699,1,0,0:0:0:0:
256,192,79802,1,8,0:0:0:0:
256,192,79906,1,0,0:0:0:0:
256,192,80112,1,8,0:0:0:0:
256,192,80319,1,0,0:0:0:0:
256,192,80526,1,8,0:0:0:0:
256,192,80630,1,0,0:0:0:0:
256,192,80733,1,8,0:0:0:0:
256,192,81044,1,0,0:0:0:0:
256,192,81147,1,8,0:0:0:0:
256,192,81354,1,0,0:0:0:0:
256,192,81457,1,8,0:0:0:0:
256,192,81561,1,0,0:0:0:0:
256,192,81768,1,8,0:0:0:0:
256,192,81975,1,0,0:0:0:0:
256,192,82181,1,8,0:0:0:0:
256,192,82285,1,8,0:0:0:0:
256,192,82388,1,8,0:0:0:0:
256,192,82699,1,0,0:0:0:0:
256,192,82802,1,8,0:0:0:0:
256,192,83009,1,0,0:0:0:0:
256,192,83112,1,8,0:0:0:0:
256,192,83216,1,0,0:0:0:0:
256,192,83423,1,8,0:0:0:0:
256,192,83630,1,8,0:0:0:0:
256,192,83733,1,0,0:0:0:0:
256,192,83837,1,0,0:0:0:0:
256,192,84044,1,8,0:0:0:0:
256,192,84354,1,0,0:0:0:0:
256,192,84457,1,8,0:0:0:0:
256,192,84664,1,0,0:0:0:0:
256,192,84768,1,8,0:0:0:0:
256,192,84871,1,0,0:0:0:0:
256,192,85078,1,8,0:0:0:0:
256,192,85285,1,0,0:0:0:0:
256,192,85354,1,0,0:0:0:0:
256,192,85423,1,0,0:0:0:0:
256,192,85492,1,0,0:0:0:0:
256,192,85595,1,0,0:0:0:0:
256,192,85699,1,8,0:0:0:0:
256,192,85906,1,0,0:0:0:0:
256,192,85975,1,0,0:0:0:0:
256,192,86044,1,0,0:0:0:0:
256,192,86112,1,8,0:0:0:0:
256,192,86319,1,8,0:0:0:0:
256,192,86423,1,8,0:0:0:0:
256,192,86526,1,0,0:0:0:0:
256,192,86733,1,8,0:0:0:0:
256,192,86940,1,0,0:0:0:0:
256,192,87044,1,8,0:0:0:0:
256,192,87147,1,0,0:0:0:0:
256,192,87354,1,8,0:0:0:0:
256,192,87561,1,0,0:0:0:0:
256,192,87768,1,8,0:0:0:0:
256,192,87975,1,8,0:0:0:0:
256,192,88078,1,8,0:0:0:0:
256,192,88181,1,0,0:0:0:0:
256,192,88388,1,8,0:0:0:0:
256,192,88595,1,0,0:0:0:0:
256,192,88699,1,8,0:0:0:0:
256,192,88802,1,0,0:0:0:0:
256,192,89009,1,8,0:0:0:0:
256,192,89216,1,0,0:0:0:0:
256,192,89423,1,8,0:0:0:0:
256,192,89526,1,0,0:0:0:0:
256,192,89630,1,0,0:0:0:0:
256,192,89733,1,8,0:0:0:0:
256,192,89837,1,0,0:0:0:0:
256,192,89940,1,0,0:0:0:0:
256,192,90044,1,8,0:0:0:0:
256,192,90147,1,0,0:0:0:0:
256,192,90250,1,8,0:0:0:0:
256,192,90354,1,8,0:0:0:0:
256,192,90457,1,0,0:0:0:0:
256,192,90561,1,0,0:0:0:0:
256,192,90664,1,8,0:0:0:0:
256,192,90768,1,8,0:0:0:0:
256,192,90871,1,0,0:0:0:0:
256,192,90975,1,0,0:0:0:0:
256,192,91078,1,8,0:0:0:0:
256,192,91181,1,0,0:0:0:0:
256,192,91285,1,0,0:0:0:0:
256,192,91388,1,8,0:0:0:0:
256,192,91492,1,0,0:0:0:0:
256,192,91595,1,0,0:0:0:0:
256,192,91699,1,8,0:0:0:0:
256,192,91802,1,0,0:0:0:0:
256,192,91906,1,8,0:0:0:0:
256,192,92009,1,8,0:0:0:0:
256,192,92112,1,0,0:0:0:0:
256,192,92216,1,0,0:0:0:0:
256,192,92319,1,8,0:0:0:0:
256,192,92388,1,8,0:0:0:0:
256,192,92457,1,8,0:0:0:0:
256,192,92526,1,0,0:0:0:0:
256,192,92630,1,0,0:0:0:0:
256,192,92733,1,12,0:0:0:0:
256,192,92940,1,0,0:0:0:0:
256,192,93044,1,8,0:0:0:0:
256,192,93147,1,8,0:0:0:0:
256,192,93354,1,8,0:0:0:0:
256,192,93457,1,0,0:0:0:0:
256,192,93561,1,0,0:0:0:0:
256,192,93768,1,0,0:0:0:0:
256,192,93871,1,0,0:0:0:0:
256,192,93975,1,8,0:0:0:0:
256,192,94181,1,0,0:0:0:0:
256,192,94388,1,8,0:0:0:0:
256,192,94595,1,0,0:0:0:0:
256,192,94699,1,8,0:0:0:0:
256,192,94802,1,8,0:0:0:0:
256,192,95009,1,8,0:0:0:0:
256,192,95112,1,0,0:0:0:0:
256,192,95216,1,0,0:0:0:0:
256,192,95423,1,0,0:0:0:0:
256,192,95526,1,0,0:0:0:0:
256,192,95630,1,8,0:0:0:0:
256,192,95837,1,0,0:0:0:0:
256,192,96044,1,8,0:0:0:0:
256,192,96250,1,0,0:0:0:0:
256,192,96354,1,8,0:0:0:0:
256,192,96457,1,8,0:0:0:0:
256,192,96664,1,8,0:0:0:0:
256,192,96768,1,0,0:0:0:0:
256,192,96871,1,0,0:0:0:0:
256,192,97078,1,0,0:0:0:0:
256,192,97181,1,0,0:0:0:0:
256,192,97285,1,8,0:0:0:0:
256,192,97388,1,0,0:0:0:0:
256,192,97492,1,0,0:0:0:0:
256,192,97699,1,8,0:0:0:0:
256,192,97906,1,0,0:0:0:0:
256,192,98009,1,8,0:0:0:0:
256,192,98112,1,8,0:0:0:0:
256,192,98319,1,8,0:0:0:0:
256,192,98423,1,0,0:0:0:0:
256,192,98526,1,0,0:0:0:0:
256,192,98733,1,0,0:0:0:0:
256,192,98837,1,0,0:0:0:0:
256,192,98940,1,8,0:0:0:0:
256,192,99250,1,0,0:0:0:0:
256,192,99354,1,8,0:0:0:0:
256,192,99561,1,0,0:0:0:0:
256,192,99664,1,8,0:0:0:0:
256,192,99768,1,8,0:0:0:0:
256,192,99975,1,8,0:0:0:0:
256,192,100078,1,0,0:0:0:0:
256,192,100181,1,0,0:0:0:0:
256,192,100388,1,0,0:0:0:0:
256,192,100492,1,0,0:0:0:0:
256,192,100595,1,8,0:0:0:0:
256,192,100802,1,0,0:0:0:0:
256,192,101009,1,8,0:0:0:0:
256,192,101216,1,0,0:0:0:0:
256,192,101319,1,8,0:0:0:0:
256,192,101423,1,8,0:0:0:0:
256,192,101630,1,8,0:0:0:0:
256,192,101733,1,0,0:0:0:0:
256,192,101837,1,0,0:0:0:0:
256,192,102044,1,0,0:0:0:0:
256,192,102147,1,0,0:0:0:0:
256,192,102250,1,8,0:0:0:0:
256,192,102457,1,0,0:0:0:0:
256,192,102664,1,8,0:0:0:0:
256,192,102871,1,0,0:0:0:0:
256,192,102975,1,8,0:0:0:0:
256,192,103078,1,8,0:0:0:0:
256,192,103285,1,8,0:0:0:0:
256,192,103388,1,0,0:0:0:0:
256,192,103492,1,0,0:0:0:0:
256,192,103699,1,0,0:0:0:0:
256,192,103802,1,0,0:0:0:0:
256,192,103906,1,8,0:0:0:0:
256,192,104009,1,0,0:0:0:0:
256,192,104112,1,0,0:0:0:0:
256,192,104319,1,8,0:0:0:0:
256,192,104526,1,0,0:0:0:0:
256,192,104630,1,8,0:0:0:0:
256,192,104837,1,0,0:0:0:0:
256,192,104940,1,8,0:0:0:0:
256,192,105147,1,8,0:0:0:0:
256,192,105216,1,0,0:0:0:0:
256,192,105285,1,0,0:0:0:0:
256,192,105354,1,8,0:0:0:0:
256,192,105423,1,0,0:0:0:0:
256,192,105492,1,0,0:0:0:0:
256,192,105561,1,8,0:0:0:0:
256,192,105768,1,8,0:0:0:0:
256,192,105871,5,0,0:0:0:0:
256,192,105975,1,12,0:0:0:0:
256,192,106181,1,0,0:0:0:0:
256,192,106285,1,8,0:0:0:0:
256,192,106388,1,8,0:0:0:0:
256,192,106595,1,8,0:0:0:0:
256,192,106699,1,8,0:0:0:0:
256,192,106802,1,0,0:0:0:0:
256,192,107009,1,0,0:0:0:0:
256,192,107112,1,0,0:0:0:0:
256,192,107216,1,8,0:0:0:0:
256,192,107423,1,0,0:0:0:0:
256,192,107526,1,8,0:0:0:0:
256,192,107630,1,0,0:0:0:0:
256,192,107837,1,8,0:0:0:0:
256,192,107940,1,0,0:0:0:0:
256,192,108044,1,8,0:0:0:0:
256,192,108250,1,8,0:0:0:0:
256,192,108354,1,0,0:0:0:0:
256,192,108457,1,0,0:0:0:0:
256,192,108561,1,8,0:0:0:0:
256,192,108768,1,0,0:0:0:0:
256,192,108871,1,8,0:0:0:0:
256,192,109078,1,0,0:0:0:0:
256,192,109285,1,8,0:0:0:0:
256,192,109492,1,0,0:0:0:0:
256,192,109595,1,8,0:0:0:0:
256,192,109699,1,8,0:0:0:0:
256,192,109906,1,8,0:0:0:0:
256,192,110009,1,8,0:0:0:0:
256,192,110112,1,0,0:0:0:0:
256,192,110319,1,0,0:0:0:0:
256,192,110423,1,0,0:0:0:0:
256,192,110526,1,8,0:0:0:0:
256,192,110733,1,0,0:0:0:0:
256,192,110837,1,8,0:0:0:0:
256,192,110940,1,0,0:0:0:0:
256,192,111147,1,8,0:0:0:0:
256,192,111250,1,0,0:0:0:0:
256,192,111354,1,8,0:0:0:0:
256,192,111561,1,8,0:0:0:0:
256,192,111664,1,0,0:0:0:0:
256,192,111768,1,0,0:0:0:0:
256,192,111871,1,8,0:0:0:0:
256,192,112078,1,0,0:0:0:0:
256,192,112181,1,8,0:0:0:0:
256,192,112492,1,0,0:0:0:0:
256,192,112595,1,8,0:0:0:0:
256,192,112802,1,0,0:0:0:0:
256,192,112906,1,8,0:0:0:0:
256,192,113009,1,8,0:0:0:0:
256,192,113216,1,8,0:0:0:0:
256,192,113319,1,8,0:0:0:0:
256,192,113423,1,0,0:0:0:0:
256,192,113630,1,0,0:0:0:0:
256,192,113733,1,0,0:0:0:0:
256,192,113837,1,8,0:0:0:0:
256,192,114044,1,0,0:0:0:0:
256,192,114147,1,8,0:0:0:0:
256,192,114250,1,0,0:0:0:0:
256,192,114457,1,8,0:0:0:0:
256,192,114561,1,0,0:0:0:0:
256,192,114664,1,8,0:0:0:0:
256,192,114871,1,8,0:0:0:0:
256,192,114975,1,0,0:0:0:0:
256,192,115078,1,0,0:0:0:0:
256,192,115181,1,8,0:0:0:0:
256,192,115388,1,0,0:0:0:0:
256,192,115492,1,8,0:0:0:0:
256,192,115699,1,0,0:0:0:0:
256,192,115906,1,8,0:0:0:0:
256,192,116112,1,0,0:0:0:0:
256,192,116216,1,8,0:0:0:0:
256,192,116319,1,8,0:0:0:0:
256,192,116526,1,8,0:0:0:0:
256,192,116630,1,8,0:0:0:0:
256,192,116733,1,0,0:0:0:0:
256,192,116940,1,0,0:0:0:0:
256,192,117044,1,0,0:0:0:0:
256,192,117147,1,8,0:0:0:0:
256,192,117250,1,8,0:0:0:0:
256,192,117354,1,0,0:0:0:0:
256,192,117561,1,8,0:0:0:0:
256,192,117768,1,0,0:0:0:0:
256,192,117871,1,0,0:0:0:0:
256,192,117975,1,8,0:0:0:0:
256,192,118181,1,8,0:0:0:0:
256,192,118388,1,0,0:0:0:0:
256,192,118492,1,0,0:0:0:0:
256,192,118595,1,8,0:0:0:0:
256,192,118802,1,8,0:0:0:0:
256,192,118906,1,0,0:0:0:0:
256,192,119216,1,4,0:0:0:0:
256,192,119423,1,0,0:0:0:0:
256,192,119526,1,8,0:0:0:0:
256,192,119630,1,8,0:0:0:0:
256,192,119733,1,0,0:0:0:0:
256,192,119837,1,8,0:0:0:0:
256,192,119940,1,8,0:0:0:0:
256,192,120044,1,0,0:0:0:0:
256,192,120250,1,0,0:0:0:0:
256,192,120354,1,0,0:0:0:0:
256,192,120457,1,8,0:0:0:0:
256,192,120664,1,8,0:0:0:0:
256,192,120768,1,8,0:0:0:0:
256,192,120871,1,0,0:0:0:0:
256,192,121078,1,8,0:0:0:0:
256,192,121181,1,0,0:0:0:0:
256,192,121285,1,8,0:0:0:0:
256,192,121492,1,8,0:0:0:0:
256,192,121595,1,0,0:0:0:0:
256,192,121699,1,0,0:0:0:0:
256,192,121802,1,8,0:0:0:0:
256,192,121906,1,0,0:0:0:0:
256,192,122009,1,0,0:0:0:0:
256,192,122112,1,8,0:0:0:0:
256,192,122423,1,8,0:0:0:0:
256,192,122526,1,8,0:0:0:0:
256,192,122733,1,0,0:0:0:0:
256,192,122837,1,8,0:0:0:0:
256,192,122940,1,8,0:0:0:0:
256,192,123044,1,0,0:0:0:0:
256,192,123147,1,8,0:0:0:0:
256,192,123250,1,0,0:0:0:0:
256,192,123354,1,0,0:0:0:0:
256,192,123561,1,0,0:0:0:0:
256,192,123664,1,0,0:0:0:0:
256,192,123768,1,8,0:0:0:0:
256,192,123975,1,8,0:0:0:0:
256,192,124078,1,8,0:0:0:0:
256,192,124181,1,0,0:0:0:0:
256,192,124388,1,8,0:0:0:0:
256,192,124492,1,0,0:0:0:0:
256,192,124595,1,8,0:0:0:0:
256,192,124802,1,8,0:0:0:0:
256,192,124906,1,0,0:0:0:0:
256,192,125009,1,0,0:0:0:0:
256,192,125112,1,8,0:0:0:0:
256,192,125216,1,8,0:0:0:0:
256,192,125319,1,0,0:0:0:0:
256,192,125423,1,8,0:0:0:0:
256,192,125526,1,0,0:0:0:0:
256,192,125630,1,0,0:0:0:0:
256,192,125733,1,0,0:0:0:0:
256,192,125837,1,8,0:0:0:0:
256,192,126044,1,0,0:0:0:0:
256,192,126147,1,8,0:0:0:0:
256,192,126250,1,8,0:0:0:0:
256,192,126354,1,0,0:0:0:0:
256,192,126457,1,8,0:0:0:0:
256,192,126561,1,8,0:0:0:0:
256,192,126664,1,0,0:0:0:0:
256,192,126871,1,0,0:0:0:0:
256,192,126975,1,0,0:0:0:0:
256,192,127078,1,8,0:0:0:0:
256,192,127285,1,8,0:0:0:0:
256,192,127388,1,8,0:0:0:0:
256,192,127492,1,0,0:0:0:0:
256,192,127699,1,8,0:0:0:0:
256,192,127802,1,0,0:0:0:0:
256,192,127906,1,8,0:0:0:0:
256,192,128112,1,8,0:0:0:0:
256,192,128216,1,0,0:0:0:0:
256,192,128319,1,0,0:0:0:0:
256,192,128423,1,8,0:0:0:0:
256,192,128526,1,0,0:0:0:0:
256,192,128630,1,0,0:0:0:0:
256,192,128733,1,8,0:0:0:0:
256,192,128940,1,0,0:0:0:0:
256,192,129044,1,0,0:0:0:0:
256,192,129147,1,8,0:0:0:0:
256,192,129354,1,0,0:0:0:0:
256,192,129457,1,8,0:0:0:0:
256,192,129561,1,8,0:0:0:0:
256,192,129664,1,0,0:0:0:0:
256,192,129768,1,8,0:0:0:0:
256,192,129871,1,0,0:0:0:0:
256,192,129975,1,0,0:0:0:0:
256,192,130078,1,8,0:0:0:0:
256,192,130181,1,0,0:0:0:0:
256,192,130285,1,0,0:0:0:0:
256,192,130388,1,8,0:0:0:0:
256,192,130595,1,0,0:0:0:0:
256,192,130802,1,8,0:0:0:0:
256,192,130906,1,8,0:0:0:0:
256,192,131009,1,0,0:0:0:0:
256,192,131112,1,0,0:0:0:0:
256,192,131216,1,8,0:0:0:0:
256,192,131319,1,0,0:0:0:0:
256,192,131423,1,8,0:0:0:0:
256,192,131526,1,0,0:0:0:0:
256,192,131630,1,8,0:0:0:0:
256,192,131733,1,8,0:0:0:0:
256,192,131837,1,0,0:0:0:0:
256,192,131940,1,0,0:0:0:0:
256,192,132044,1,8,0:0:0:0:
256,192,132147,1,8,0:0:0:0:
256,192,132250,1,8,0:0:0:0:
256,192,132354,1,8,0:0:0:0:
256,192,132457,1,4,0:0:0:0:
256,192,132664,1,0,0:0:0:0:
256,192,132768,1,0,0:0:0:0:
256,192,132871,1,8,0:0:0:0:
256,192,132975,1,0,0:0:0:0:
256,192,133078,1,8,0:0:0:0:
256,192,133181,1,8,0:0:0:0:
256,192,133285,1,0,0:0:0:0:
256,192,133492,1,0,0:0:0:0:
256,192,133595,1,0,0:0:0:0:
256,192,133699,1,8,0:0:0:0:
256,192,133906,1,8,0:0:0:0:
256,192,134009,1,0,0:0:0:0:
256,192,134112,1,0,0:0:0:0:
256,192,134319,1,8,0:0:0:0:
256,192,134423,1,0,0:0:0:0:
256,192,134526,1,8,0:0:0:0:
256,192,134733,1,8,0:0:0:0:
256,192,134837,1,8,0:0:0:0:
256,192,134940,1,0,0:0:0:0:
256,192,135044,1,0,0:0:0:0:
256,192,135147,1,0,0:0:0:0:
256,192,135250,1,0,0:0:0:0:
256,192,135354,1,8,0:0:0:0:
256,192,135561,1,0,0:0:0:0:
256,192,135768,1,8,0:0:0:0:
256,192,135975,1,0,0:0:0:0:
256,192,136078,1,0,0:0:0:0:
256,192,136181,1,8,0:0:0:0:
256,192,136285,1,0,0:0:0:0:
256,192,136388,1,8,0:0:0:0:
256,192,136492,1,8,0:0:0:0:
256,192,136595,1,0,0:0:0:0:
256,192,136802,1,0,0:0:0:0:
256,192,136906,1,0,0:0:0:0:
256,192,137009,1,8,0:0:0:0:
256,192,137216,1,8,0:0:0:0:
256,192,137319,1,0,0:0:0:0:
256,192,137423,1,0,0:0:0:0:
256,192,137630,1,8,0:0:0:0:
256,192,137733,1,0,0:0:0:0:
256,192,137837,1,8,0:0:0:0:
256,192,138044,1,8,0:0:0:0:
256,192,138147,1,8,0:0:0:0:
256,192,138250,1,0,0:0:0:0:
256,192,138354,1,8,0:0:0:0:
256,192,138457,1,0,0:0:0:0:
256,192,138561,1,0,0:0:0:0:
256,192,138664,1,8,0:0:0:0:
256,192,138871,1,0,0:0:0:0:
256,192,139078,1,8,0:0:0:0:
256,192,139285,1,0,0:0:0:0:
256,192,139388,1,0,0:0:0:0:
256,192,139492,1,8,0:0:0:0:
256,192,139595,1,0,0:0:0:0:
256,192,139699,1,8,0:0:0:0:
256,192,139802,1,8,0:0:0:0:
256,192,139906,1,8,0:0:0:0:
256,192,140112,1,0,0:0:0:0:
256,192,140216,1,0,0:0:0:0:
256,192,140319,1,8,0:0:0:0:
256,192,140526,1,8,0:0:0:0:
256,192,140630,1,0,0:0:0:0:
256,192,140733,1,0,0:0:0:0:
256,192,140940,1,8,0:0:0:0:
256,192,141044,1,0,0:0:0:0:
256,192,141147,1,8,0:0:0:0:
256,192,141354,1,8,0:0:0:0:
256,192,141457,1,8,0:0:0:0:
256,192,141561,1,0,0:0:0:0:
256,192,141664,1,0,0:0:0:0:
256,192,141768,1,8,0:0:0:0:
256,192,141871,1,0,0:0:0:0:
256,192,141975,1,8,0:0:0:0:
256,192,142181,1,0,0:0:0:0:
256,192,142388,1,8,0:0:0:0:
256,192,142595,1,8,0:0:0:0:
256,192,142699,1,0,0:0:0:0:
256,192,142802,1,8,0:0:0:0:
256,192,143009,1,8,0:0:0:0:
256,192,143112,1,0,0:0:0:0:
256,192,143216,1,8,0:0:0:0:
256,192,143319,1,8,0:0:0:0:
256,192,143423,1,0,0:0:0:0:
256,192,143526,1,0,0:0:0:0:
256,192,143630,1,8,0:0:0:0:
256,192,143837,1,8,0:0:0:0:
256,192,144044,1,0,0:0:0:0:
256,192,144250,1,0,0:0:0:0:
256,192,144457,1,8,0:0:0:0:
256,192,144664,1,8,0:0:0:0:
256,192,144733,1,8,0:0:0:0:
256,192,144802,1,0,0:0:0:0:
256,192,144871,1,0,0:0:0:0:
256,192,145699,1,0,0:0:0:0:
256,192,146112,1,0,0:0:0:0:
256,192,146526,1,8,0:0:0:0:
256,192,146940,1,8,0:0:0:0:
256,192,147354,1,0,0:0:0:0:
256,192,147768,1,0,0:0:0:0:
256,192,148181,1,8,0:0:0:0:
256,192,148595,1,8,0:0:0:0:
256,192,148802,1,0,0:0:0:0:
256,192,148871,1,0,0:0:0:0:
256,192,148940,1,0,0:0:0:0:
256,192,149009,1,8,0:0:0:0:
256,192,149112,1,8,0:0:0:0:
256,192,149216,1,0,0:0:0:0:
256,192,149423,1,0,0:0:0:0:
256,192,149837,1,8,0:0:0:0:
256,192,150250,1,0,0:0:0:0:
256,192,150457,1,8,0:0:0:0:
256,192,150664,1,0,0:0:0:0:
256,192,150768,1,0,0:0:0:0:
256,192,150871,1,8,0:0:0:0:
256,192,150940,1,8,0:0:0:0:
256,192,151009,1,8,0:0:0:0:
256,192,151078,1,0,0:0:0:0:
256,192,151492,1,0,0:0:0:0:
256,192,151906,1,0,0:0:0:0:
256,192,152112,1,8,0:0:0:0:
256,192,152319,1,8,0:0:0:0:
256,192,152733,1,8,0:0:0:0:
256,192,153147,1,0,0:0:0:0:
256,192,153561,1,0,0:0:0:0:
256,192,153768,1,0,0:0:0:0:
256,192,153871,1,0,0:0:0:0:
256,192,153975,1,8,0:0:0:0:
256,192,154388,1,0,0:0:0:0:
256,192,154802,1,8,0:0:0:0:
256,192,155216,1,8,0:0:0:0:
256,192,155630,1,0,0:0:0:0:
256,192,156044,1,0,0:0:0:0:
256,192,156112,1,0,0:0:0:0:
256,192,156181,1,0,0:0:0:0:
256,192,156250,1,0,0:0:0:0:
256,192,156354,1,0,0:0:0:0:
256,192,156457,1,0,0:0:0:0:
256,192,156871,1,0,0:0:0:0:
256,192,157285,1,0,0:0:0:0:
256,192,157699,1,0,0:0:0:0:
256,192,158009,1,8,0:0:0:0:
256,192,158112,1,0,0:0:0:0:
256,192,158319,1,8,0:0:0:0:
256,192,158526,1,0,0:0:0:0:
256,192,158940,1,8,0:0:0:0:
256,192,159147,1,0,0:0:0:0:
256,192,159354,1,8,0:0:0:0:
256,192,159561,1,0,0:0:0:0:
256,192,159664,1,0,0:0:0:0:
256,192,159768,1,8,0:0:0:0:
256,192,160181,1,8,0:0:0:0:
256,192,160595,1,8,0:0:0:0:
256,192,160802,1,0,0:0:0:0:
256,192,161009,1,8,0:0:0:0:
256,192,161319,1,0,0:0:0:0:
256,192,161423,1,8,0:0:0:0:
256,192,161837,1,8,0:0:0:0:
256,192,162250,1,8,0:0:0:0:
256,192,162457,1,0,0:0:0:0:
256,192,162664,1,8,0:0:0:0:
256,192,162871,1,0,0:0:0:0:
256,192,162975,1,0,0:0:0:0:
256,192,163078,1,8,0:0:0:0:
256,192,163492,1,8,0:0:0:0:
256,192,163906,1,8,0:0:0:0:
256,192,164112,1,0,0:0:0:0:
256,192,164319,1,8,0:0:0:0:
256,192,164526,1,0,0:0:0:0:
256,192,164733,1,8,0:0:0:0:
256,192,165147,1,8,0:0:0:0:
256,192,165561,1,8,0:0:0:0:
256,192,165768,1,0,0:0:0:0:
256,192,165975,1,8,0:0:0:0:
256,192,166181,1,0,0:0:0:0:
256,192,166285,1,0,0:0:0:0:
256,192,166388,1,8,0:0:0:0:
256,192,166802,1,8,0:0:0:0:
256,192,167216,1,8,0:0:0:0:
256,192,167423,1,0,0:0:0:0:
256,192,167630,1,8,0:0:0:0:
256,192,167940,1,0,0:0:0:0:
256,192,168044,1,8,0:0:0:0:
256,192,168457,1,8,0:0:0:0:
256,192,168871,1,8,0:0:0:0:
256,192,169078,1,0,0:0:0:0:
256,192,169285,1,8,0:0:0:0:
256,192,169492,1,0,0:0:0:0:
256,192,169595,1,0,0:0:0:0:
256,192,169699,1,8,0:0:0:0:
256,192,170112,1,8,0:0:0:0:
256,192,170526,1,8,0:0:0:0:
256,192,170733,1,8,0:0:0:0:
256,192,170940,1,8,0:0:0:0:
256,192,171147,1,0,0:0:0:0:
256,192,171354,1,8,0:0:0:0:
256,192,171768,1,8,0:0:0:0:
256,192,172181,1,12,0:0:0:0:
256,192,172388,1,0,0:0:0:0:
256,192,172595,1,8,0:0:0:0:
256,192,172699,1,8,0:0:0:0:
256,192,172802,1,8,0:0:0:0:
256,192,172906,1,0,0:0:0:0:
256,192,173009,1,8,0:0:0:0:
256,192,173216,1,0,0:0:0:0:
256,192,173423,1,8,0:0:0:0:
256,192,173630,1,8,0:0:0:0:
256,192,173733,1,8,0:0:0:0:
256,192,173837,1,0,0:0:0:0:
256,192,174044,1,0,0:0:0:0:
256,192,174250,1,8,0:0:0:0:
256,192,174354,1,0,0:0:0:0:
256,192,174457,1,8,0:0:0:0:
256,192,174561,1,8,0:0:0:0:
256,192,174664,1,0,0:0:0:0:
256,192,174871,1,8,0:0:0:0:
256,192,175078,1,8,0:0:0:0:
256,192,175285,1,0,0:0:0:0:
256,192,175388,1,8,0:0:0:0:
256,192,175492,1,0,0:0:0:0:
256,192,175699,1,8,0:0:0:0:
256,192,175906,1,8,0:0:0:0:
256,192,176009,1,0,0:0:0:0:
256,192,176112,1,8,0:0:0:0:
256,192,176216,1,8,0:0:0:0:
256,192,176319,1,8,0:0:0:0:
256,192,176526,1,0,0:0:0:0:
256,192,176733,1,8,0:0:0:0:
256,192,176940,1,0,0:0:0:0:
256,192,177044,1,8,0:0:0:0:
256,192,177147,1,8,0:0:0:0:
256,192,177354,1,0,0:0:0:0:
256,192,177561,1,8,0:0:0:0:
256,192,177664,1,0,0:0:0:0:
256,192,177768,1,0,0:0:0:0:
256,192,177871,1,8,0:0:0:0:
256,192,177975,1,0,0:0:0:0:
256,192,178181,1,8,0:0:0:0:
256,192,178388,1,8,0:0:0:0:
256,192,178595,1,0,0:0:0:0:
256,192,178664,1,0,0:0:0:0:
256,192,178733,1,0,0:0:0:0:
256,192,178802,1,8,0:0:0:0:
256,192,179009,1,0,0:0:0:0:
256,192,179216,1,8,0:0:0:0:
256,192,179319,1,0,0:0:0:0:
256,192,179423,1,0,0:0:0:0:
256,192,179526,1,8,0:0:0:0:
256,192,179630,1,8,0:0:0:0:
256,192,179837,1,0,0:0:0:0:
256,192,180044,1,8,0:0:0:0:
256,192,180250,1,8,0:0:0:0:
256,192,180319,1,8,0:0:0:0:
256,192,180388,1,8,0:0:0:0:
256,192,180457,1,0,0:0:0:0:
256,192,180664,1,0,0:0:0:0:
256,192,180871,1,8,0:0:0:0:
256,192,180975,1,0,0:0:0:0:
256,192,181078,1,0,0:0:0:0:
256,192,181181,1,8,0:0:0:0:
256,192,181285,1,0,0:0:0:0:
256,192,181388,1,8,0:0:0:0:
256,192,181492,1,8,0:0:0:0:
256,192,181595,1,0,0:0:0:0:
256,192,181699,1,8,0:0:0:0:
256,192,181906,1,0,0:0:0:0:
256,192,182009,1,8,0:0:0:0:
256,192,182112,1,0,0:0:0:0:
256,192,182216,1,8,0:0:0:0:
256,192,182319,1,0,0:0:0:0:
256,192,182526,1,8,0:0:0:0:
256,192,182630,1,0,0:0:0:0:
256,192,182733,1,8,0:0:0:0:
256,192,182837,1,0,0:0:0:0:
256,192,182940,1,8,0:0:0:0:
256,192,183147,1,8,0:0:0:0:
256,192,183250,1,8,0:0:0:0:
256,192,183354,1,8,0:0:0:0:
256,192,183561,1,0,0:0:0:0:
256,192,183664,1,0,0:0:0:0:
256,192,183768,1,0,0:0:0:0:
256,192,183975,1,0,0:0:0:0:
256,192,184181,1,8,0:0:0:0:
256,192,184285,1,8,0:0:0:0:
256,192,184388,1,0,0:0:0:0:
256,192,184492,1,8,0:0:0:0:
256,192,184595,1,0,0:0:0:0:
256,192,184699,1,0,0:0:0:0:
256,192,184802,1,8,0:0:0:0:
256,192,184906,1,0,0:0:0:0:
256,192,185009,1,8,0:0:0:0:
256,192,185112,1,8,0:0:0:0:
256,192,185216,1,0,0:0:0:0:
256,192,185319,1,0,0:0:0:0:
256,192,185423,1,12,0:0:0:0:
256,192,185630,1,0,0:0:0:0:
256,192,185837,1,8,0:0:0:0:
256,192,185940,1,0,0:0:0:0:
256,192,186044,1,8,0:0:0:0:
256,192,186147,1,0,0:0:0:0:
256,192,186250,1,0,0:0:0:0:
256,192,186457,1,8,0:0:0:0:
256,192,186561,1,0,0:0:0:0:
256,192,186664,1,8,0:0:0:0:
256,192,186871,1,8,0:0:0:0:
256,192,186975,1,8,0:0:0:0:
256,192,187078,1,0,0:0:0:0:
256,192,187285,1,0,0:0:0:0:
256,192,187492,1,8,0:0:0:0:
256,192,187595,1,8,0:0:0:0:
256,192,187699,1,0,0:0:0:0:
256,192,187802,1,8,0:0:0:0:
256,192,187906,1,8,0:0:0:0:
256,192,188112,1,0,0:0:0:0:
256,192,188319,1,8,0:0:0:0:
256,192,188526,1,0,0:0:0:0:
256,192,188630,1,8,0:0:0:0:
256,192,188733,1,0,0:0:0:0:
256,192,188940,1,8,0:0:0:0:
256,192,189147,1,8,0:0:0:0:
256,192,189250,1,8,0:0:0:0:
256,192,189354,1,0,0:0:0:0:
256,192,189457,1,8,0:0:0:0:
256,192,189561,1,0,0:0:0:0:
256,192,189768,1,0,0:0:0:0:
256,192,189975,1,8,0:0:0:0:
256,192,190181,1,0,0:0:0:0:
256,192,190250,1,0,0:0:0:0:
256,192,190319,1,0,0:0:0:0:
256,192,190388,1,0,0:0:0:0:
256,192,190595,1,0,0:0:0:0:
256,192,190802,1,8,0:0:0:0:
256,192,190906,1,0,0:0:0:0:
256,192,191009,1,0,0:0:0:0:
256,192,191112,1,0,0:0:0:0:
256,192,191216,1,8,0:0:0:0:
256,192,191423,1,0,0:0:0:0:
256,192,191630,1,8,0:0:0:0:
256,192,191837,1,8,0:0:0:0:
256,192,191906,1,0,0:0:0:0:
256,192,191975,1,0,0:0:0:0:
256,192,192044,1,8,0:0:0:0:
256,192,192250,1,0,0:0:0:0:
256,192,192457,1,8,0:0:0:0:
256,192,192561,1,0,0:0:0:0:
256,192,192664,1,8,0:0:0:0:
256,192,192768,1,0,0:0:0:0:
256,192,192871,1,8,0:0:0:0:
256,192,193078,1,0,0:0:0:0:
256,192,193285,1,8,0:0:0:0:
256,192,193492,1,0,0:0:0:0:
256,192,193561,1,8,0:0:0:0:
256,192,193630,1,8,0:0:0:0:
256,192,193699,1,0,0:0:0:0:
256,192,193906,1,0,0:0:0:0:
256,192,194112,1,8,0:0:0:0:
256,192,194216,1,8,0:0:0:0:
256,192,194319,1,0,0:0:0:0:
256,192,194423,1,8,0:0:0:0:
256,192,194526,1,0,0:0:0:0:
256,192,194630,1,8,0:0:0:0:
256,192,194733,1,8,0:0:0:0:
256,192,194837,1,0,0:0:0:0:
256,192,194940,1,8,0:0:0:0:
256,192,195147,1,0,0:0:0:0:
256,192,195250,1,8,0:0:0:0:
256,192,195354,1,0,0:0:0:0:
256,192,195561,1,0,0:0:0:0:
256,192,195768,1,8,0:0:0:0:
256,192,195871,1,0,0:0:0:0:
256,192,195975,1,0,0:0:0:0:
256,192,196078,1,8,0:0:0:0:
256,192,196181,1,8,0:0:0:0:
256,192,196388,1,8,0:0:0:0:
256,192,196492,1,8,0:0:0:0:
256,192,196595,1,8,0:0:0:0:
256,192,196802,1,0,0:0:0:0:
256,192,196871,1,0,0:0:0:0:
256,192,196940,1,0,0:0:0:0:
256,192,197009,1,0,0:0:0:0:
256,192,197216,2,0,L|64:96,1,210
256,192,198664,1,0,0:0:0:0:
256,192,198871,1,8,0:0:0:0:
256,192,199078,1,0,0:0:0:0:
256,192,199492,1,8,0:0:0:0:
256,192,199699,1,8,0:0:0:0:
256,192,199906,1,0,0:0:0:0:
256,192,200112,1,0,0:0:0:0:
256,192,200216,1,0,0:0:0:0:
256,192,200319,1,0,0:0:0:0:
256,192,200526,1,8,0:0:0:0:
256,192,200733,1,0,0:0:0:0:
256,192,201147,1,8,0:0:0:0:
256,192,201354,1,8,0:0:0:0:
256,192,201561,1,0,0:0:0:0:
256,192,201975,1,0,0:0:0:0:
256,192,202181,1,8,0:0:0:0:
256,192,202388,1,0,0:0:0:0:
256,192,202802,1,8,0:0:0:0:
256,192,203009,1,8,0:0:0:0:
256,192,203216,1,0,0:0:0:0:
256,192,203423,1,0,0:0:0:0:
256,192,203526,1,0,0:0:0:0:
256,192,203630,1,0,0:0:0:0:
256,192,203837,1,8,0:0:0:0:
256,192,204044,1,0,0:0:0:0:
256,192,204457,1,8,0:0:0:0:
256,192,204664,1,8,0:0:0:0:
256,192,204871,1,0,0:0:0:0:
256,192,204975,1,8,0:0:0:0:
256,192,205078,1,0,0:0:0:0:
256,192,205181,1,0,0:0:0:0:
256,192,205285,1,0,0:0:0:0:
256,192,205492,1,8,0:0:0:0:
256,192,205699,1,0,0:0:0:0:
256,192,206112,1,8,0:0:0:0:
256,192,206319,1,0,0:0:0:0:
256,192,206526,1,8,0:0:0:0:
256,192,206733,1,8,0:0:0:0:
256,192,206837,1,0,0:0:0:0:
256,192,206940,1,0,0:0:0:0:
256,192,207354,1,8,0:0:0:0:
256,192,207768,1,8,0:0:0:0:
256,192,207975,1,8,0:0:0:0:
256,192,208181,1,0,0:0:0:0:
256,192,208388,1,8,0:0:0:0:
256,192,208595,1,0,0:0:0:0:
256,192,208802,1,0,0:0:0:0:
256,192,209009,1,8,0:0:0:0:
256,192,209423,1,0,0:0:0:0:
256,192,209630,1,8,0:0:0:0:
256,192,209837,1,0,0:0:0:0:
256,192,210044,1,0,0:0:0:0:
256,192,210147,1,0,0:0:0:0:
256,192,210250,1,0,0:0:0:0:
256,192,210457,1,0,0:0:0:0:
256,192,210664,1,8,0:0:0:0:
256,192,211078,1,0,0:0:0:0:
256,192,211285,1,8,0:0:0:0:
256,192,211492,1,0,0:0:0:0:
256,192,211906,1,0,0:0:0:0:
256,192,212112,1,8,0:0:0:0:
256,192,212319,1,8,0:0:0:0:
256,192,212526,1,0,0:0:0:0:
256,192,212733,1,8,0:0:0:0:
256,192,212940,1,0,0:0:0:0:
256,192,213147,1,8,0:0:0:0:
256,192,213354,1,0,0:0:0:0:
256,192,213457,1,0,0:0:0:0:
256,192,213561,1,0,0:0:0:0:
256,192,213768,1,8,0:0:0:0:
256,192,213975,1,8,0:0:0:0:
256,192,214181,1,0,0:0:0:0:
256,192,214388,1,0,0:0:0:0:
256,192,214595,1,0,0:0:0:0:
256,192,214802,1,8,0:0:0:0:
256,192,215009,1,0,0:0:0:0:
256,192,215216,1,0,0:0:0:0:
256,192,215423,1,8,0:0:0:0:
256,192,215630,1,8,0:0:0:0:
256,192,215837,1,0,0:0:0:0:
256,192,216044,1,8,0:0:0:0:
256,192,216250,1,0,0:0:0:0:
256,192,216457,1,8,0:0:0:0:
256,192,216664,1,0,0:0:0:0:
256,192,216768,1,0,0:0:0:0:
256,192,216871,1,0,0:0:0:0:
256,192,217078,1,8,0:0:0:0:
256,192,217285,1,8,0:0:0:0:
256,192,217492,1,0,0:0:0:0:
256,192,217699,1,8,0:0:0:0:
256,192,217906,1,0,0:0:0:0:
256,192,218112,1,8,0:0:0:0:
256,192,218216,1,8,0:0:0:0:
256,192,218319,1,0,0:0:0:0:
256,192,218423,1,0,0:0:0:0:
256,192,218526,1,0,0:0:0:0:
256,192,218733,1,8,0:0:0:0:
256,192,218940,1,8,0:0:0:0:
256,192,219147,1,0,0:0:0:0:
256,192,219354,1,8,0:0:0:0:
256,192,219561,1,0,0:0:0:0:
256,192,219768,1,8,0:0:0:0:
256,192,219975,1,8,0:0:0:0:
256,192,220078,1,8,0:0:0:0:
256,192,220181,1,0,0:0:0:0:
256,192,220388,1,0,0:0:0:0:
256,192,220595,1,8,0:0:0:0:
256,192,220802,1,0,0:0:0:0:
256,192,221009,1,8,0:0:0:0:
256,192,221112,1,8,0:0:0:0:
256,192,221216,1,8,0:0:0:0:
256,192,221423,1,8,0:0:0:0:
256,192,221630,1,0,0:0:0:0:
256,192,221837,1,0,0:0:0:0:
256,192,222044,1,8,0:0:0:0:
256,192,222250,1,8,0:0:0:0:
256,192,222457,1,0,0:0:0:0:
256,192,222664,1,8,0:0:0:0:
256,192,222871,1,8,0:0:0:0:
256,192,223078,1,8,0:0:0:0:
256,192,223285,1,0,0:0:0:0:
256,192,223492,12,0,224940,0:0:0:0:
256,192,225147,5,12,0:0:0:0:
256,192,225354,1,0,0:0:0:0:
256,192,225561,1,8,0:0:0:0:
256,192,225768,1,8,0:0:0:0:
256,192,225975,1,0,0:0:0:0:
256,192,226078,1,0,0:0:0:0:
256,192,226181,1,0,0:0:0:0:
256,192,226388,1,8,0:0:0:0:
256,192,226595,1,8,0:0:0:0:
256,192,226699,1,8,0:0:0:0:
256,192,226802,1,0,0:0:0:0:
256,192,226906,1,0,0:0:0:0:
256,192,227009,1,8,0:0:0:0:
256,192,227216,1,8,0:0:0:0:
256,192,227319,1,0,0:0:0:0:
256,192,227526,1,0,0:0:0:0:
256,192,227630,1,8,0:0:0:0:
256,192,227733,1,8,0:0:0:0:
256,192,227837,1,0,0:0:0:0:
256,192,228044,1,8,0:0:0:0:
256,192,228250,1,0,0:0:0:0:
256,192,228354,1,8,0:0:0:0:
256,192,228457,1,0,0:0:0:0:
256,192,228664,1,0,0:0:0:0:
256,192,228768,1,0,0:0:0:0:
256,192,228871,1,8,0:0:0:0:
256,192,229078,1,8,0:0:0:0:
256,192,229285,1,0,0:0:0:0:
256,192,229388,1,0,0:0:0:0:
256,192,229492,1,0,0:0:0:0:
256,192,229699,1,8,0:0:0:0:
256,192,229906,1,8,0:0:0:0:
256,192,230009,1,8,0:0:0:0:
256,192,230112,1,0,0:0:0:0:
256,192,230319,1,0,0:0:0:0:
256,192,230526,1,8,0:0:0:0:
256,192,230630,1,0,0:0:0:0:
256,192,230837,1,0,0:0:0:0:
256,192,230940,1,8,0:0:0:0:
256,192,231044,1,0,0:0:0:0:
256,192,231147,1,0,0:0:0:0:
256,192,231354,1,8,0:0:0:0:
256,192,231561,1,0,0:0:0:0:
256,192,231664,1,0,0:0:0:0:
256,192,231768,1,8,0:0:0:0:
256,192,231871,1,0,0:0:0:0:
256,192,231975,1,0,0:0:0:0:
256,192,232181,1,8,0:0:0:0:
256,192,232388,1,8,0:0:0:0:
256,192,232595,1,0,0:0:0:0:
256,192,232802,1,0,0:0:0:0:
256,192,232906,1,0,0:0:0:0:
256,192,233009,1,8,0:0:0:0:
256,192,233216,1,0,0:0:0:0:
256,192,233319,1,0,0:0:0:0:
256,192,233423,1,8,0:0:0:0:
256,192,233526,1,0,0:0:0:0:
256,192,233630,1,8,0:0:0:0:
256,192,233837,1,8,0:0:0:0:
256,192,233940,1,0,0:0:0:0:
256,192,234147,1,0,0:0:0:0:
256,192,234250,1,8,0:0:0:0:
256,192,234457,1,0,0:0:0:0:
256,192,234561,1,8,0:0:0:0:
256,192,234664,1,8,0:0:0:0:
256,192,234871,1,0,0:0:0:0:
256,192,235078,1,8,0:0:0:0:
256,192,235181,5,8,0:0:0:0:
256,192,235388,1,0,0:0:0:0:
256,192,235492,1,8,0:0:0:0:
256,192,235595,1,0,0:0:0:0:
256,192,235699,1,0,0:0:0:0:
256,192,235906,1,8,0:0:0:0:
256,192,236009,1,0,0:0:0:0:
256,192,236216,1,8,0:0:0:0:
256,192,236319,1,8,0:0:0:0:
256,192,236526,1,0,0:0:0:0:
256,192,236630,1,0,0:0:0:0:
256,192,236733,1,8,0:0:0:0:
256,192,236837,1,0,0:0:0:0:
256,192,237044,1,0,0:0:0:0:
256,192,237147,1,8,0:0:0:0:
256,192,237354,1,0,0:0:0:0:
256,192,237457,1,0,0:0:0:0:
256,192,237561,1,8,0:0:0:0:
256,192,237768,1,0,0:0:0:0:
256,192,237975,1,8,0:0:0:0:
256,192,238388,1,12,0:0:0:0:
256,192,238595,1,0,0:0:0:0:
256,192,238802,1,8,0:0:0:0:
256,192,239009,1,8,0:0:0:0:
256,192,239216,1,0,0:0:0:0:
256,192,239319,1,0,0:0:0:0:
256,192,239423,1,0,0:0:0:0:
256,192,239630,1,8,0:0:0:0:
256,192,239837,1,0,0:0:0:0:
256,192,239940,1,0,0:0:0:0:
256,192,240044,1,8,0:0:0:0:
256,192,240250,1,0,0:0:0:0:
256,192,240354,1,0,0:0:0:0:
256,192,240457,1,8,0:0:0:0:
256,192,240561,1,8,0:0:0:0:
256,192,240768,1,0,0:0:0:0:
256,192,240871,1,8,0:0:0:0:
256,192,241078,1,8,0:0:0:0:
256,192,241181,1,0,0:0:0:0:
256,192,241285,1,8,0:0:0:0:
256,192,241492,1,0,0:0:0:0:
256,192,241699,1,8,0:0:0:0:
256,192,241802,1,8,0:0:0:0:
256,192,241906,1,0,0:0:0:0:
256,192,242009,1,0,0:0:0:0:
256,192,242112,1,8,0:0:0:0:
256,192,242319,1,8,0:0:0:0:
256,192,242526,1,0,0:0:0:0:
256,192,242630,1,0,0:0:0:0:
256,192,242733,1,0,0:0:0:0:
256,192,242940,1,8,0:0:0:0:
256,192,243147,1,0,0:0:0:0:
256,192,243250,1,0,0:0:0:0:
256,192,243354,1,8,0:0:0:0:
256,192,243561,1,0,0:0:0:0:
256,192,243664,1,0,0:0:0:0:
256,192,243768,1,8,0:0:0:0:
256,192,243871,1,0,0:0:0:0:
256,192,244078,1,0,0:0:0:0:
256,192,244181,1,8,0:0:0:0:
256,192,244388,1,0,0:0:0:0:
256,192,244492,1,0,0:0:0:0:
256,192,244595,1,8,0:0:0:0:
256,192,244802,1,0,0:0:0:0:
256,192,244906,1,0,0:0:0:0:
256,192,245009,1,8,0:0:0:0:
256,192,245112,1,0,0:0:0:0:
256,192,245216,1,0,0:0:0:0:
256,192,245423,1,8,0:0:0:0:
256,192,245630,1,8,0:0:0:0:
256,192,245733,1,8,0:0:0:0:
256,192,245837,1,0,0:0:0:0:
256,192,246044,1,0,0:0:0:0:
256,192,246147,1,0,0:0:0:0:
256,192,246250,1,8,0:0:0:0:
256,192,246457,1,0,0:0:0:0:
256,192,246561,1,8,0:0:0:0:
256,192,246664,1,8,0:0:0:0:
256,192,246871,1,8,0:0:0:0:
256,192,246975,1,0,0:0:0:0:
256,192,247078,1,8,0:0:0:0:
256,192,247181,1,0,0:0:0:0:
256,192,247388,1,0,0:0:0:0:
256,192,247492,1,8,0:0:0:0:
256,192,247699,1,0,0:0:0:0:
256,192,247802,1,8,0:0:0:0:
256,192,247906,1,8,0:0:0:0:
256,192,248112,1,0,0:0:0:0:
256,192,248319,1,4,0:0:0:0:
256,192,248630,1,0,0:0:0:0:
256,192,248733,1,8,0:0:0:0:
256,192,248940,1,8,0:0:0:0:
256,192,249147,1,4,0:0:0:0:
256,192,249457,1,0,0:0:0:0:
256,192,249561,1,8,0:0:0:0:
256,192,249768,1,8,0:0:0:0:
256,192,249975,1,4,0:0:0:0:
256,192,250285,1,0,0:0:0:0:
256,192,250388,1,8,0:0:0:0:
256,192,250595,1,0,0:0:0:0:
256,192,250802,12,0,251423,0:0:0:0:
256,192,251630,5,12,0:0:0:0:
256,192,252044,1,8,0:0:0:0:
256,192,252250,1,0,0:0:0:0:
256,192,252457,1,0,0:0:0:0:
256,192,252664,1,8,0:0:0:0:
256,192,252871,1,8,0:0:0:0:
256,192,253078,1,0,0:0:0:0:
256,192,253181,1,0,0:0:0:0:
256,192,253285,1,8,0:0:0:0:
256,192,253699,1,8,0:0:0:0:
256,192,253906,1,8,0:0:0:0:
256,192,254112,1,0,0:0:0:0:
256,192,254319,1,0,0:0:0:0:
256,192,254526,1,8,0:0:0:0:
256,192,254733,1,8,0:0:0:0:
256,192,254837,1,0,0:0:0:0:
256,192,254940,1,0,0:0:0:0:
256,192,255354,1,8,0:0:0:0:
256,192,255561,1,0,0:0:0:0:
256,192,255768,1,0,0:0:0:0:
256,192,255975,1,8,0:0:0:0:
256,192,256181,1,8,0:0:0:0:
256,192,256388,1,0,0:0:0:0:
256,192,256492,1,0,0:0:0:0:
256,192,256595,1,8,0:0:0:0:
256,192,257009,1,8,0:0:0:0:
256,192,257216,1,0,0:0:0:0:
256,192,257423,1,8,0:0:0:0:
256,192,257630,1,0,0:0:0:0:
256,192,257837,1,8,0:0:0:0:
256,192,258044,1,0,0:0:0:0:
256,192,258147,1,8,0:0:0:0:
256,192,258250,1,0,0:0:0:0:
256,192,258664,1,8,0:0:0:0:
256,192,258871,1,8,0:0:0:0:
256,192,259078,1,0,0:0:0:0:
256,192,259285,1,0,0:0:0:0:
256,192,259388,1,0,0:0:0:0:
256,192,259492,1,8,0:0:0:0:
256,192,259699,1,0,0:0:0:0:
256,192,259802,1,0,0:0:0:0:
256,192,259906,1,0,0:0:0:0:
256,192,260319,1,8,0:0:0:0:
256,192,260526,1,0,0:0:0:0:
256,192,260733,1,8,0:0:0:0:
256,192,260940,1,8,0:0:0:0:
256,192,261147,1,8,0:0:0:0:
256,192,261354,1,0,0:0:0:0:
256,192,261457,1,0,0:0:0:0:
256,192,261561,1,0,0:0:0:0:
256,192,261768,1,8,0:0:0:0:
256,192,261975,1,8,0:0:0:0:
256,192,262181,1,0,0:0:0:0:
256,192,262388,1,8,0:0:0:0:
256,192,262595,1,8,0:0:0:0:
256,192,262802,1,8,0:0:0:0:
256,192,263009,1,0,0:0:0:0:
256,192,263216,1,4,0:0:0:0:
256,192,264044,1,12,0:0:0:0:
256,192,264871,1,4,0:0:0:0:
256,192,265078,1,0,0:0:0:0:
256,192,265285,1,8,0:0:0:0:
256,192,265492,1,8,0:0:0:0:
256,192,265699,1,0,0:0:0:0:
256,192,265906,1,0,0:0:0:0:
256,192,266112,1,8,0:0:0:0:
256,192,266319,1,8,0:0:0:0:
256,192,266526,1,0,0:0:0:0:
256,192,266733,1,0,0:0:0:0:
256,192,266940,1,8,0:0:0:0:
256,192,267147,1,0,0:0:0:0:
256,192,267354,1,8,0:0:0:0:
256,192,267561,1,8,0:0:0:0:
256,192,267768,1,8,0:0:0:0:
256,192,267975,1,0,0:0:0:0:
256,192,268181,1,8,0:0:0:0:
256,192,268388,1,0,0:0:0:0:
256,192,268595,1,8,0:0:0:0:
256,192,268802,1,8,0:0:0:0:
256,192,269009,1,0,0:0:0:0:
256,192,269216,1,8,0:0:0:0:
256,192,269423,1,8,0:0:0:0:
256,192,269630,1,0,0:0:0:0:
256,192,269837,1,8,0:0:0:0:
256,192,270044,1,0,0:0:0:0:
256,192,270250,1,8,0:0:0:0:
256,192,270457,1,8,0:0:0:0:
256,192,270664,1,8,0:0:0:0:
256,192,270871,1,0,0:0:0:0:
256,192,271078,1,8,0:0:0:0:
256,192,271285,1,0,0:0:0:0:
256,192,271492,1,8,0:0:0:0:
256,192,271595,1,8,0:0:0:0:
256,192,271699,1,0,0:0:0:0:
256,192,271802,1,0,0:0:0:0:
256,192,271906,1,8,0:0:0:0:
256,192,272112,1,0,0:0:0:0:
256,192,272216,1,0,0:0:0:0:
256,192,272319,1,8,0:0:0:0:
256,192,272526,1,0,0:0:0:0:
256,192,272733,1,8,0:0:0:0:
256,192,272837,1,8,0:0:0:0:
256,192,272940,1,0,0:0:0:0:
256,192,273147,1,8,0:0:0:0:
256,192,273354,1,0,0:0:0:0:
256,192,273457,1,0,0:0:0:0:
256,192,273561,1,8,0:0:0:0:
256,192,273768,1,0,0:0:0:0:
256,192,273975,1,8,0:0:0:0:
256,192,274078,1,8,0:0:0:0:
256,192,274181,1,0,0:0:0:0:
256,192,274388,1,8,0:0:0:0:
256,192,274595,1,0,0:0:0:0:
256,192,274802,1,4,0:0:0:0:
256,192,275216,1,8,0:0:0:0:
256,192,275423,1,4,0:0:0:0:
256,192,275837,1,8,0:0:0:0:
256,192,276044,1,4,0:0:0:0:
256,192,276457,1,8,0:0:0:0:
256,192,276664,1,4,0:0:0:0:
256,192,277078,1,8,0:0:0:0:
256,192,277285,1,4,0:0:0:0:
256,192,277699,1,8,0:0:0:0:
256,192,277906,1,0,0:0:0:0:
256,192,278112,1,4,0:0:0:0:
256,192,278940,1,0,0:0:0:0:
256,192,279561,1,0,0:0:0:0:
256,192,280595,1,8,0:0:0:0:
256,192,281009,1,0,0:0:0:0:
256,192,281423,1,8,0:0:0:0:
256,192,282250,1,8,0:0:0:0:
256,192,282871,1,0,0:0:0:0:
256,192,283285,1,0,0:0:0:0:
256,192,283906,1,8,0:0:0:0:
256,192,284733,1,0,0:0:0:0:
256,192,284940,1,8,0:0:0:0:
256,192,285147,1,0,0:0:0:0:
256,192,285354,1,0,0:0:0:0:
256,192,285561,1,0,0:0:0:0:
256,192,285768,1,8,0:0:0:0:
256,192,286181,1,8,0:0:0:0:
256,192,286595,1,8,0:0:0:0:
256,192,286802,1,0,0:0:0:0:
256,192,287009,1,0,0:0:0:0:
256,192,287216,1,0,0:0:0:0:
256,192,287423,1,8,0:0:0:0:
256,192,287837,1,8,0:0:0:0:
256,192,288044,1,0,0:0:0:0:
256,192,288871,1,8,0:0:0:0:
256,192,289285,1,8,0:0:0:0:
256,192,289699,1,0,0:0:0:0:
256,192,290526,1,0,0:0:0:0:
256,192,291354,1,8,0:0:0:0:
256,192,291975,1,0,0:0:0:0:
256,192,292181,1,8,0:0:0:0:
256,192,292802,1,8,0:0:0:0:
256,192,293630,1,0,0:0:0:0:
256,192,293837,1,8,0:0:0:0:
256,192,294664,1,4,0:0:0:0:
256,192,295285,1,0,0:0:0:0:
256,192,295492,1,8,0:0:0:0:
256,192,296112,1,8,0:0:0:0:
256,192,296526,1,0,0:0:0:0:
256,192,296733,1,0,0:0:0:0:
256,192,297147,1,0,0:0:0:0:
256,192,297354,1,0,0:0:0:0:
256,192,297561,1,0,0:0:0:0:
256,192,297975,1,8,0:0:0:0:
256,192,298802,1,8,0:0:0:0:
256,192,299216,1,0,0:0:0:0:
256,192,299630,1,8,0:0:0:0:
256,192,300457,1,8,0:0:0:0:
256,192,300871,1,0,0:0:0:0:
256,192,301285,1,0,0:0:0:0:
256,192,304595,5,0,0:0:0:0:
256,192,304906,1,8,0:0:0:0:
256,192,305009,1,0,0:0:0:0:
256,192,305216,1,8,0:0:0:0:
256,192,305423,1,0,0:0:0:0:
256,192,305837,1,8,0:0:0:0:
256,192,306147,1,8,0:0:0:0:
256,192,306250,1,0,0:0:0:0:
256,192,306457,1,8,0:0:0:0:
256,192,306664,1,0,0:0:0:0:
256,192,306871,1,8,0:0:0:0:
256,192,307078,1,0,0:0:0:0:
256,192,307181,1,8,0:0:0:0:
256,192,307285,1,0,0:0:0:0:
256,192,307492,1,8,0:0:0:0:
256,192,307906,1,0,0:0:0:0:
256,192,308216,1,8,0:0:0:0:
256,192,308319,1,0,0:0:0:0:
256,192,308526,1,8,0:0:0:0:
256,192,308733,1,0,0:0:0:0:
256,192,309147,1,8,0:0:0:0:
256,192,309457,1,8,0:0:0:0:
256,192,309561,1,0,0:0:0:0:
256,192,309768,1,8,0:0:0:0:
256,192,309975,1,0,0:0:0:0:
256,192,310181,1,8,0:0:0:0:
256,192,310388,1,0,0:0:0:0:
256,192,310492,1,8,0:0:0:0:
256,192,310595,1,0,0:0:0:0:
256,192,311216,1,0,0:0:0:0:
256,192,311526,1,8,0:0:0:0:
256,192,311630,1,0,0:0:0:0:
256,192,311837,1,8,0:0:0:0:
256,192,312044,1,0,0:0:0:0:
256,192,312457,1,8,0:0:0:0:
256,192,312768,1,8,0:0:0:0:
256,192,312871,1,0,0:0:0:0:
256,192,313078,1,8,0:0:0:0:
256,192,313285,1,0,0:0:0:0:
256,192,313492,1,8,0:0:0:0:
256,192,313699,1,0,0:0:0:0:
256,192,313802,1,8,0:0:0:0:
256,192,313906,1,0,0:0:0:0:
256,192,314112,1,8,0:0:0:0:
256,192,314526,1,0,0:0:0:0:
256,192,314837,1,8,0:0:0:0:
256,192,314940,1,0,0:0:0:0:
256,192,315147,1,8,0:0:0:0:
256,192,315354,1,0,0:0:0:0:
256,192,315768,1,8,0:0:0:0:
256,192,316078,1,8,0:0:0:0:
256,192,316181,1,0,0:0:0:0:
256,192,316388,1,8,0:0:0:0:
256,192,316595,1,0,0:0:0:0:
256,192,316802,1,8,0:0:0:0:
256,192,317009,1,0,0:0:0:0:
256,192,317112,1,8,0:0:0:0:
256,192,317216,1,0,0:0:0:0:
256,192,317837,5,0,0:0:0:0:
256,192,318044,1,0,0:0:0:0:
256,192,318147,1,8,0:0:0:0:
256,192,318250,1,0,0:0:0:0:
256,192,318457,1,8,0:0:0:0:
256,192,318664,1,0,0:0:0:0:
256,192,318871,1,0,0:0:0:0:
256,192,319078,1,8,0:0:0:0:
256,192,319285,1,0,0:0:0:0:
256,192,319388,1,8,0:0:0:0:
256,192,319492,1,0,0:0:0:0:
256,192,319699,1,8,0:0:0:0:
256,192,319906,1,0,0:0:0:0:
256,192,320112,1,8,0:0:0:0:
256,192,320319,1,8,0:0:0:0:
256,192,320423,1,8,0:0:0:0:
256,192,320526,1,0,0:0:0:0:
256,192,320733,1,8,0:0:0:0:
256,192,320940,1,8,0:0:0:0:
256,192,321147,1,0,0:0:0:0:
256,192,321354,1,0,0:0:0:0:
256,192,321457,1,8,0:0:0:0:
256,192,321561,1,0,0:0:0:0:
256,192,321768,1,8,0:0:0:0:
256,192,321975,1,0,0:0:0:0:
256,192,322181,1,0,0:0:0:0:
256,192,322388,1,8,0:0:0:0:
256,192,322595,1,0,0:0:0:0:
256,192,322699,1,8,0:0:0:0:
256,192,322802,1,0,0:0:0:0:
256,192,323009,1,8,0:0:0:0:
256,192,323216,1,0,0:0:0:0:
256,192,323423,1,8,0:0:0:0:
256,192,323630,1,8,0:0:0:0:
256,192,323733,1,8,0:0:0:0:
256,192,323837,1,0,0:0:0:0:
256,192,324044,1,8,0:0:0:0:
256,192,324250,1,8,0:0:0:0:
256,192,324457,1,8,0:0:0:0:
256,192,324561,1,0,0:0:0:0:
256,192,324664,1,0,0:0:0:0:
256,192,324768,1,8,0:0:0:0:
256,192,324871,1,0,0:0:0:0:
256,192,324975,1,0,0:0:0:0:
256,192,325078,1,8,0:0:0:0:
256,192,325181,1,0,0:0:0:0:
256,192,325285,1,0,0:0:0:0:
256,192,325388,1,8,0:0:0:0:
256,192,325492,1,0,0:0:0:0:
256,192,325595,1,0,0:0:0:0:
256,192,325699,1,8,0:0:0:0:
256,192,325906,1,0,0:0:0:0:
256,192,326112,1,8,0:0:0:0:
256,192,326216,1,0,0:0:0:0:
256,192,326319,1,8,0:0:0:0:
256,192,326423,1,8,0:0:0:0:
256,192,326526,1,0,0:0:0:0:
256,192,326630,1,0,0:0:0:0:
256,192,326733,1,8,0:0:0:0:
256,192,326837,1,8,0:0:0:0:
256,192,326940,1,0,0:0:0:0:
256,192,327044,1,8,0:0:0:0:
256,192,327147,1,0,0:0:0:0:
256,192,327250,1,0,0:0:0:0:
256,192,327354,1,8,0:0:0:0:
256,192,327561,1,8,0:0:0:0:
256,192,327768,1,8,0:0:0:0:
256,192,327871,1,0,0:0:0:0:
256,192,327975,1,0,0:0:0:0:
256,192,328078,1,8,0:0:0:0:
256,192,328181,1,0,0:0:0:0:
256,192,328285,1,0,0:0:0:0:
256,192,328388,1,8,0:0:0:0:
256,192,328492,1,0,0:0:0:0:
256,192,328595,1,0,0:0:0:0:
256,192,328699,1,8,0:0:0:0:
256,192,328802,1,0,0:0:0:0:
256,192,328906,1,0,0:0:0:0:
256,192,329009,1,8,0:0:0:0:
256,192,329216,1,0,0:0:0:0:
256,192,329423,1,8,0:0:0:0:
256,192,329526,1,0,0:0:0:0:
256,192,329630,1,8,0:0:0:0:
256,192,329733,1,8,0:0:0:0:
256,192,329837,1,0,0:0:0:0:
256,192,329940,1,0,0:0:0:0:
256,192,330044,1,8,0:0:0:0:
256,192,330147,1,8,0:0:0:0:
256,192,330250,1,0,0:0:0:0:
256,192,330354,1,8,0:0:0:0:
256,192,330457,1,0,0:0:0:0:
256,192,330561,1,0,0:0:0:0:
256,192,330664,1,8,0:0:0:0:
256,192,330871,1,8,0:0:0:0:
256,192,331078,1,8,0:0:0:0:
256,192,331147,1,8,0:0:0:0:
256,192,331216,1,0,0:0:0:0:
256,192,331285,1,0,0:0:0:0:
256,192,331388,1,0,0:0:0:0:
256,192,331492,1,8,0:0:0:0:
256,192,331561,1,0,0:0:0:0:
256,192,331630,1,0,0:0:0:0:
256,192,331699,1,8,0:0:0:0:
256,192,331802,1,0,0:0:0:0:
256,192,331906,1,8,0:0:0:0:
256,192,331975,1,8,0:0:0:0:
256,192,332044,1,0,0:0:0:0:
256,192,332112,1,0,0:0:0:0:
256,192,332216,1,0,0:0:0:0:
256,192,332319,1,8,0:0:0:0:
256,192,332388,1,0,0:0:0:0:
256,192,332457,1,0,0:0:0:0:
256,192,332526,1,8,0:0:0:0:
256,192,332630,1,0,0:0:0:0:
256,192,332733,1,8,0:0:0:0:
256,192,332802,1,8,0:0:0:0:
256,192,332871,1,8,0:0:0:0:
256,192,332940,1,0,0:0:0:0:
256,192,333044,1,0,0:0:0:0:
256,192,333147,1,8,0:0:0:0:
256,192,333216,1,0,0:0:0:0:
256,192,333285,1,0,0:0:0:0:
256,192,333354,1,8,0:0:0:0:
256,192,333457,1,0,0:0:0:0:
256,192,333561,1,8,0:0:0:0:
256,192,333630,1,8,0:0:0:0:
256,192,333699,1,8,0:0:0:0:
256,192,333768,1,0,0:0:0:0:
256,192,333871,1,0,0:0:0:0:
256,192,333975,1,8,0:0:0:0:
256,192,334044,1,0,0:0:0:0:
256,192,334112,1,0,0:0:0:0:
256,192,334181,1,8,0:0:0:0:
256,192,334285,1,0,0:0:0:0:
256,192,334388,1,8,0:0:0:0:
256,192,334492,1,8,0:0:0:0:
256,192,334595,1,8,0:0:0:0:
256,192,334699,1,8,0:0:0:0:
256,192,334802,1,8,0:0:0:0:
256,192,334906,1,8,0:0:0:0:
256,192,335009,1,8,0:0:0:0:
256,192,335112,1,8,0:0:0:0:
256,192,335216,1,8,0:0:0:0:
256,192,335319,1,8,0:0:0:0:
256,192,335423,1,8,0:0:0:0:
256,192,335526,1,8,0:0:0:0:
256,192,335630,1,8,0:0:0:0:
256,192,335699,1,8,0:0:0:0:
256,192,335768,1,8,0:0:0:0:
256,192,335837,1,8,0:0:0:0:
256,192,335906,1,8,0:0:0:0:
256,192,335975,1,8,0:0:0:0:
256,192,336044,1,0,0:0:0:0:
256,192,337078,1,4,0:0:0:0:
256,192,337699,5,12,0:0:0:0:
256,192,337906,1,0,0:0:0:0:
256,192,338112,1,8,0:0:0:0:
256,192,338319,1,8,0:0:0:0:
256,192,338526,1,0,0:0:0:0:
256,192,338630,1,0,0:0:0:0:
256,192,338733,1,0,0:0:0:0:
256,192,338940,1,8,0:0:0:0:
256,192,339147,1,8,0:0:0:0:
256,192,339250,1,8,0:0:0:0:
256,192,339354,1,0,0:0:0:0:
256,192,339457,1,0,0:0:0:0:
256,192,339561,1,8,0:0:0:0:
256,192,339768,1,8,0:0:0:0:
256,192,339871,1,0,0:0:0:0:
256,192,340078,1,0,0:0:0:0:
256,192,340181,1,8,0:0:0:0:
256,192,340285,1,8,0:0:0:0:
256,192,340388,1,0,0:0:0:0:
256,192,340595,1,8,0:0:0:0:
256,192,340802,1,0,0:0:0:0:
256,192,340906,1,8,0:0:0:0:
256,192,341009,1,0,0:0:0:0:
256,192,341216,1,0,0:0:0:0:
256,192,341319,1,0,0:0:0:0:
256,192,341423,1,8,0:0:0:0:
256,192,341630,1,8,0:0:0:0:
256,192,341837,1,0,0:0:0:0:
256,192,341940,1,0,0:0:0:0:
256,192,342044,1,0,0:0:0:0:
256,192,342250,1,8,0:0:0:0:
256,192,342457,1,8,0:0:0:0:
256,192,342561,1,8,0:0:0:0:
256,192,342664,1,0,0:0:0:0:
256,192,342871,1,0,0:0:0:0:
256,192,343078,1,8,0:0:0:0:
256,192,343181,1,0,0:0:0:0:
256,192,343388,1,0,0:0:0:0:
256,192,343492,1,8,0:0:0:0:
256,192,343595,1,0,0:0:0:0:
256,192,343699,1,0,0:0:0:0:
256,192,343906,1,8,0:0:0:0:
256,192,344112,1,0,0:0:0:0:
256,192,344216,1,0,0:0:0:0:
256,192,344319,1,8,0:0:0:0:
256,192,344423,1,0,0:0:0:0:
256,192,344526,1,0,0:0:0:0:
256,192,344733,1,8,0:0:0:0:
256,192,344940,1,8,0:0:0:0:
256,192,345147,1,0,0:0:0:0:
256,192,345354,1,0,0:0:0:0:
256,192,345457,1,0,0:0:0:0:
256,192,345561,1,8,0:0:0:0:
256,192,345768,1,0,0:0:0:0:
256,192,345871,1,0,0:0:0:0:
256,192,345975,1,8,0:0:0:0:
256,192,346078,1,0,0:0:0:0:
256,192,346181,1,8,0:0:0:0:
256,192,346388,1,8,0:0:0:0:
256,192,346492,1,0,0:0:0:0:
256,192,346699,1,0,0:0:0:0:
256,192,346802,1,8,0:0:0:0:
256,192,347009,1,0,0:0:0:0:
256,192,347112,1,8,0:0:0:0:
256,192,347216,5,8,0:0:0:0:
256,192,347423,1,0,0:0:0:0:
256,192,347630,5,8,0:0:0:0:
256,192,347733,5,8,0:0:0:0:
256,192,347940,1,0,0:0:0:0:
256,192,348044,1,8,0:0:0:0:
256,192,348147,1,0,0:0:0:0:
256,192,348250,1,0,0:0:0:0:
256,192,348457,1,8,0:0:0:0:
256,192,348561,1,0,0:0:0:0:
256,192,348768,1,8,0:0:0:0:
256,192,348871,1,8,0:0:0:0:
256,192,349078,1,0,0:0:0:0:
256,192,349181,1,0,0:0:0:0:
256,192,349285,1,8,0:0:0:0:
256,192,349388,1,0,0:0:0:0:
256,192,349595,1,0,0:0:0:0:
256,192,349699,1,8,0:0:0:0:
256,192,349906,1,0,0:0:0:0:
256,192,350009,1,0,0:0:0:0:
256,192,350112,1,8,0:0:0:0:
256,192,350319,1,0,0:0:0:0:
256,192,350526,1,8,0:0:0:0:
256,192,350940,1,12,0:0:0:0:
256,192,351147,1,0,0:0:0:0:
256,192,351354,1,8,0:0:0:0:
256,192,351561,1,8,0:0:0:0:
256,192,351768,1,0,0:0:0:0:
256,192,351871,1,0,0:0:0:0:
256,192,351975,1,0,0:0:0:0:
256,192,352181,1,8,0:0:0:0:
256,192,352388,1,0,0:0:0:0:
256,192,352492,1,0,0:0:0:0:
256,192,352595,1,8,0:0:0:0:
256,192,352802,1,0,0:0:0:0:
256,192,352906,1,0,0:0:0:0:
256,192,353009,1,8,0:0:0:0:
256,192,353112,1,8,0:0:0:0:
256,192,353319,1,0,0:0:0:0:
256,192,353423,1,8,0:0:0:0:
256,192,353630,1,8,0:0:0:0:
256,192,353733,1,0,0:0:0:0:
256,192,353837,1,8,0:0:0:0:
256,192,354044,1,0,0:0:0:0:
256,192,354250,1,8,0:0:0:0:
256,192,354354,1,8,0:0:0:0:
256,192,354457,1,0,0:0:0:0:
256,192,354561,1,0,0:0:0:0:
256,192,354664,1,8,0:0:0:0:
256,192,354871,1,8,0:0:0:0:
256,192,355078,1,0,0:0:0:0:
256,192,355181,1,0,0:0:0:0:
256,192,355285,1,0,0:0:0:0:
256,192,355492,1,8,0:0:0:0:
256,192,355699,1,0,0:0:0:0:
256,192,355802,1,0,0:0:0:0:
256,192,355906,1,8,0:0:0:0:
256,192,356112,1,0,0:0:0:0:
256,192,356216,1,0,0:0:0:0:
256,192,356319,1,8,0:0:0:0:
256,192,356423,1,0,0:0:0:0:
256,192,356630,1,0,0:0:0:0:
256,192,356733,1,8,0:0:0:0:
256,192,356940,1,0,0:0:0:0:
256,192,357044,1,0,0:0:0:0:
256,192,357147,1,8,0:0:0:0:
256,192,357354,1,0,0:0:0:0:
256,192,357457,1,0,0:0:0:0:
256,192,357561,1,8,0:0:0:0:
256,192,357664,1,0,0:0:0:0:
256,192,357768,1,0,0:0:0:0:
256,192,357975,1,8,0:0:0:0:
256,192,358181,1,8,0:0:0:0:
256,192,358285,1,8,0:0:0:0:
256,192,358388,1,0,0:0:0:0:
256,192,358595,1,0,0:0:0:0:
256,192,358699,1,0,0:0:0:0:
256,192,358802,1,8,0:0:0:0:
256,192,359009,1,0,0:0:0:0:
256,192,359112,1,8,0:0:0:0:
256,192,359216,1,8,0:0:0:0:
256,192,359423,1,8,0:0:0:0:
256,192,359526,1,0,0:0:0:0:
256,192,359630,1,8,0:0:0:0:
256,192,359733,1,0,0:0:0:0:
256,192,359940,1,0,0:0:0:0:
256,192,360044,1,8,0:0:0:0:
256,192,360250,1,0,0:0:0:0:
256,192,360354,1,8,0:0:0:0:
256,192,360457,1,8,0:0:0:0:
256,192,360664,1,0,0:0:0:0:
256,192,360871,1,4,0:0:0:0:
256,192,361181,1,0,0:0:0:0:
256,192,361285,1,8,0:0:0:0:
256,192,361492,1,8,0:0:0:0:
256,192,361699,1,4,0:0:0:0:
256,192,362009,1,0,0:0:0:0:
256,192,362112,1,8,0:0:0:0:
256,192,362319,1,8,0:0:0:0:
256,192,362526,1,4,0:0:0:0:
256,192,362837,1,0,0:0:0:0:
256,192,362940,1,8,0:0:0:0:
256,192,363147,1,0,0:0:0:0:
256,192,363561,1,0,0:0:0:0:
256,192,363664,1,8,0:0:0:0:
256,192,363768,1,8,0:0:0:0:
256,192,363871,1,8,0:0:0:0:
256,192,363975,1,0,0:0:0:0:
256,192,364181,1,12,0:0:0:0:
256,192,364388,1,0,0:0:0:0:
256,192,364492,1,0,0:0:0:0:
256,192,364595,1,8,0:0:0:0:
256,192,364699,1,0,0:0:0:0:
256,192,364802,1,8,0:0:0:0:
256,192,364906,1,0,0:0:0:0:
256,192,365009,1,0,0:0:0:0:
256,192,365112,1,8,0:0:0:0:
256,192,365216,1,8,0:0:0:0:
256,192,365319,1,0,0:0:0:0:
256,192,365423,1,8,0:0:0:0:
256,192,365630,1,8,0:0:0:0:
256,192,365733,1,8,0:0:0:0:
256,192,365837,1,0,0:0:0:0:
256,192,366044,1,8,0:0:0:0:
256,192,366147,1,0,0:0:0:0:
256,192,366250,1,8,0:0:0:0:
256,192,366354,1,8,0:0:0:0:
256,192,366457,1,0,0:0:0:0:
256,192,366561,1,8,0:0:0:0:
256,192,366664,1,0,0:0:0:0:
256,192,366871,1,8,0:0:0:0:
256,192,366975,1,8,0:0:0:0:
256,192,367078,1,8,0:0:0:0:
256,192,367181,1,0,0:0:0:0:
256,192,367285,1,8,0:0:0:0:
256,192,367388,1,0,0:0:0:0:
256,192,367492,1,0,0:0:0:0:
256,192,367595,1,8,0:0:0:0:
256,192,367699,1,8,0:0:0:0:
256,192,367802,1,0,0:0:0:0:
256,192,367906,1,8,0:0:0:0:
256,192,368112,1,8,0:0:0:0:
256,192,368216,1,0,0:0:0:0:
256,192,368319,1,8,0:0:0:0:
256,192,368423,1,0,0:0:0:0:
256,192,368526,1,0,0:0:0:0:
256,192,368733,5,8,0:0:0:0:
256,192,368837,1,8,0:0:0:0:
256,192,368940,1,8,0:0:0:0:
256,192,369044,1,8,0:0:0:0:
256,192,369147,1,0,0:0:0:0:
256,192,369250,1,0,0:0:0:0:
256,192,369354,1,8,0:0:0:0:
256,192,369457,1,0,0:0:0:0:
256,192,369561,1,8,0:0:0:0:
256,192,369664,1,0,0:0:0:0:
256,192,369768,1,0,0:0:0:0:
256,192,369871,1,8,0:0:0:0:
256,192,369975,1,8,0:0:0:0:
256,192,370181,1,0,0:0:0:0:
256,192,370285,1,8,0:0:0:0:
256,192,370388,1,8,0:0:0:0:
256,192,370492,1,0,0:0:0:0:
256,192,370595,1,8,0:0:0:0:
256,192,370699,1,0,0:0:0:0:
256,192,370802,1,8,0:0:0:0:
256,192,371009,1,0,0:0:0:0:
256,192,371112,1,0,0:0:0:0:
256,192,371216,1,8,0:0:0:0:
256,192,371319,1,0,0:0:0:0:
256,192,371423,1,0,0:0:0:0:
256,192,371526,1,8,0:0:0:0:
256,192,371630,1,0,0:0:0:0:
256,192,371837,1,0,0:0:0:0:
256,192,372044,1,8,0:0:0:0:
256,192,372147,1,8,0:0:0:0:
256,192,372250,1,8,0:0:0:0:
256,192,372354,1,8,0:0:0:0:
256,192,372457,1,0,0:0:0:0:
256,192,372664,1,0,0:0:0:0:
256,192,372768,1,0,0:0:0:0:
256,192,372871,1,8,0:0:0:0:
256,192,372975,1,8,0:0:0:0:
256,192,373078,1,0,0:0:0:0:
256,192,373181,1,8,0:0:0:0:
256,192,373285,1,8,0:0:0:0:
256,192,373388,1,0,0:0:0:0:
256,192,373492,1,0,0:0:0:0:
256,192,373595,1,0,0:0:0:0:
256,192,373699,1,8,0:0:0:0:
256,192,373906,1,8,0:0:0:0:
256,192,374009,1,8,0:0:0:0:
256,192,374112,1,0,0:0:0:0:
256,192,374319,1,8,0:0:0:0:
256,192,374423,1,0,0:0:0:0:
256,192,374526,1,8,0:0:0:0:
256,192,374733,1,0,0:0:0:0:
256,192,374837,1,8,0:0:0:0:
256,192,374940,1,0,0:0:0:0:
256,192,375147,1,0,0:0:0:0:
256,192,375250,1,0,0:0:0:0:
256,192,375354,1,8,0:0:0:0:
256,192,375561,1,8,0:0:0:0:
256,192,375768,1,0,0:0:0:0:
256,192,375975,1,8,0:0:0:0:
256,192,376078,1,0,0:0:0:0:
256,192,376181,1,8,0:0:0:0:
256,192,376285,1,0,0:0:0:0:
256,192,376388,1,8,0:0:0:0:
256,192,376492,1,0,0:0:0:0:
256,192,376595,1,8,0:0:0:0:
256,192,376699,1,8,0:0:0:0:
256,192,376906,1,8,0:0:0:0:
256,192,377009,1,8,0:0:0:0:
256,192,377112,1,0,0:0:0:0:
256,192,377216,1,8,0:0:0:0:
256,192,377423,5,4,0:0:0:0:
256,192,377630,1,0,0:0:0:0:
256,192,377733,1,0,0:0:0:0:
256,192,377837,1,8,0:0:0:0:
256,192,377940,1,8,0:0:0:0:
256,192,378044,1,8,0:0:0:0:
256,192,378147,1,0,0:0:0:0:
256,192,378250,1,8,0:0:0:0:
256,192,378457,1,8,0:0:0:0:
256,192,378561,1,0,0:0:0:0:
256,192,378664,1,8,0:0:0:0:
256,192,378871,1,0,0:0:0:0:
256,192,378975,1,8,0:0:0:0:
256,192,379078,1,0,0:0:0:0:
256,192,379285,1,0,0:0:0:0:
256,192,379388,1,0,0:0:0:0:
256,192,379492,1,8,0:0:0:0:
256,192,379595,1,8,0:0:0:0:
256,192,379699,1,8,0:0:0:0:
256,192,379802,1,8,0:0:0:0:
256,192,379906,1,0,0:0:0:0:
256,192,380112,1,0,0:0:0:0:
256,192,380216,1,0,0:0:0:0:
256,192,380319,1,8,0:0:0:0:
256,192,380423,1,8,0:0:0:0:
256,192,380526,1,0,0:0:0:0:
256,192,380630,1,8,0:0:0:0:
256,192,380733,1,0,0:0:0:0:
256,192,380940,1,0,0:0:0:0:
256,192,381044,1,0,0:0:0:0:
256,192,381147,1,8,0:0:0:0:
256,192,381250,1,0,0:0:0:0:
256,192,381354,1,0,0:0:0:0:
256,192,381457,1,8,0:0:0:0:
256,192,381561,1,8,0:0:0:0:
256,192,381664,1,0,0:0:0:0:
256,192,381768,1,0,0:0:0:0:
256,192,381975,1,8,0:0:0:0:
256,192,382181,1,0,0:0:0:0:
256,192,382250,1,0,0:0:0:0:
256,192,382319,1,8,0:0:0:0:
256,192,382388,1,8,0:0:0:0:
256,192,382595,1,8,0:0:0:0:
256,192,382699,1,0,0:0:0:0:
256,192,382802,1,8,0:0:0:0:
256,192,382906,1,0,0:0:0:0:
256,192,383009,1,8,0:0:0:0:
256,192,383112,1,8,0:0:0:0:
256,192,383216,1,8,0:0:0:0:
256,192,383319,1,0,0:0:0:0:
256,192,383526,1,0,0:0:0:0:
256,192,383630,1,8,0:0:0:0:
256,192,383733,1,0,0:0:0:0:
256,192,383837,1,0,0:0:0:0:
256,192,383940,1,8,0:0:0:0:
256,192,384044,1,8,0:0:0:0:
256,192,384250,1,0,0:0:0:0:
256,192,384354,1,0,0:0:0:0:
256,192,384457,1,8,0:0:0:0:
256,192,384664,1,8,0:0:0:0:
256,192,384768,1,0,0:0:0:0:
256,192,384871,1,8,0:0:0:0:
256,192,384975,1,8,0:0:0:0:
256,192,385078,1,0,0:0:0:0:
256,192,385285,1,8,0:0:0:0:
256,192,385492,1,8,0:0:0:0:
256,192,385595,1,8,0:0:0:0:
256,192,385699,1,8,0:0:0:0:
256,192,385802,1,0,0:0:0:0:
256,192,385906,1,8,0:0:0:0:
256,192,386009,1,0,0:0:0:0:
256,192,386112,1,8,0:0:0:0:
256,192,386216,1,8,0:0:0:0:
256,192,386319,1,0,0:0:0:0:
256,192,386423,1,8,0:0:0:0:
256,192,386526,1,0,0:0:0:0:
256,192,386630,1,0,0:0:0:0:
256,192,386733,1,8,0:0:0:0:
256,192,386837,1,0,0:0:0:0:
256,192,386940,1,8,0:0:0:0:
256,192,387147,1,8,0:0:0:0:
256,192,387250,1,8,0:0:0:0:
256,192,387354,1,4,0:0:0:0:
256,192,387561,1,0,0:0:0:0:
256,192,387768,1,8,0:0:0:0:
256,192,387975,1,4,0:0:0:0:
256,192,388181,1,8,0:0:0:0:
256,192,388285,1,0,0:0:0:0:
256,192,388388,1,8,0:0:0:0:
256,192,388492,1,8,0:0:0:0:
256,192,388595,1,4,0:0:0:0:
256,192,388802,1,0,0:0:0:0:
256,192,389009,1,8,0:0:0:0:
256,192,389216,1,4,0:0:0:0:
256,192,389423,1,0,0:0:0:0:
256,192,389630,1,8,0:0:0:0:
256,192,389837,1,4,0:0:0:0:
256,192,390044,1,0,0:0:0:0:
256,192,390147,1,8,0:0:0:0:
256,192,390250,1,0,0:0:0:0:
256,192,390354,1,0,0:0:0:0:
256,192,390457,1,8,0:0:0:0:
256,192,390664,1,12,0:0:0:0:
256,192,391078,1,0,0:0:0:0:
256,192,391285,1,8,0:0:0:0:
256,192,391492,1,8,0:0:0:0:
256,192,391906,1,0,0:0:0:0:
256,192,392319,1,8,0:0:0:0:
256,192,392526,1,0,0:0:0:0:
256,192,392733,1,0,0:0:0:0:
256,192,393147,1,8,0:0:0:0:
256,192,393561,1,8,0:0:0:0:
256,192,393975,1,0,0:0:0:0:
256,192,394388,1,0,0:0:0:0:
256,192,394595,1,8,0:0:0:0:
256,192,394802,1,0,0:0:0:0:
256,192,395164,1,0,0:0:0:0:
256,192,395216,1,8,0:0:0:0:
256,192,395630,1,0,0:0:0:0:
256,192,395837,1,0,0:0:0:0:
256,192,396044,1,8,0:0:0:0:
256,192,396457,1,8,0:0:0:0:
256,192,396871,1,0,0:0:0:0:
256,192,397078,1,0,0:0:0:0:
256,192,397285,1,8,0:0:0:0:
256,192,397561,1,0,0:0:0:0:
256,192,397837,1,0,0:0:0:0:
256,192,398112,1,8,0:0:0:0:
256,192,398388,1,0,0:0:0:0:
256,192,398664,1,8,0:0:0:0:
256,192,398940,1,8,0:0:0:0:
256,192,399216,1,8,0:0:0:0:
256,192,399354,1,0,0:0:0:0:
256,192,399561,1,0,0:0:0:0:
256,192,399768,1,8,0:0:0:0:
256,192,400181,1,0,0:0:0:0:
256,192,400388,1,0,0:0:0:0:
256,192,400595,1,0,0:0:0:0:
256,192,401009,1,0,0:0:0:0:
256,192,401423,1,8,0:0:0:0:
256,192,401837,1,0,0:0:0:0:
256,192,402250,1,8,0:0:0:0:
256,192,402457,1,8,0:0:0:0:
256,192,402664,1,0,0:0:0:0:
256,192,403078,1,8,0:0:0:0:
256,192,403492,1,0,0:0:0:0:
256,192,403906,1,8,0:0:0:0:
256,192,404319,1,0,0:0:0:0:
256,192,404526,1,8,0:0:0:0:
256,192,404733,1,8,0:0:0:0:
256,192,405147,1,0,0:0:0:0:
256,192,405561,1,8,0:0:0:0:
256,192,405768,1,0,0:0:0:0:
256,192,405975,1,0,0:0:0:0:
256,192,406388,1,8,0:0:0:0:
256,192,406802,1,8,0:0:0:0:
256,192,407216,1,0,0:0:0:0:
256,192,407630,1,0,0:0:0:0:
256,192,407837,1,8,0:0:0:0:
256,192,408044,1,0,0:0:0:0:
256,192,408457,1,8,0:0:0:0:
256,192,408871,1,0,0:0:0:0:
256,192,409078,1,0,0:0:0:0:
256,192,409285,1,8,0:0:0:0:
256,192,409699,1,8,0:0:0:0:
256,192,410112,1,8,0:0:0:0:
256,192,410319,1,0,0:0:0:0:
256,192,410423,1,0,0:0:0:0:
256,192,410526,1,8,0:0:0:0:
256,192,410802,1,0,0:0:0:0:
256,192,411078,1,0,0:0:0:0:
256,192,411354,1,8,0:0:0:0:
256,192,411630,1,0,0:0:0:0:
256,192,411906,1,8,0:0:0:0:
256,192,412181,1,8,0:0:0:0:
256,192,412492,1,8,0:0:0:0:
256,192,412595,1,0,0:0:0:0:
256,192,412802,1,0,0:0:0:0:
256,192,412906,1,0,0:0:0:0:
256,192,413009,1,8,0:0:0:0:
256,192,413423,1,0,0:0:0:0:
256,192,413630,1,0,0:0:0:0:
256,192,413837,1,0,0:0:0:0:
256,192,414664,1,8,0:0:0:0:
256,192,415492,1,0,0:0:0:0:
256,192,416319,1,0,0:0:0:0:
256,192,417147,12,0,420457,0:0:0:0:
