osu file format v14

[General]
AudioFilename: audio.mp3
AudioLeadIn: 0
PreviewTime: 319014
Countdown: 0
SampleSet: Normal
StackLeniency: 0.7
Mode: 1
LetterboxInBreaks: 0
WidescreenStoryboard: 0

[Editor]
DistanceSpacing: 2
BeatDivisor: 4
GridSize: 32
TimelineZoom: 3.199999

[Metadata]
Title:Nutmeg
TitleUnicode:Nutmeg
Artist:Infected Mushroom
ArtistUnicode:Infected Mushroom
Creator:Hanjamon
Version:Glitched Oni
Source:
Tags:erez aizen amit duvdevani Return to the Sauce
BeatmapID:1306449
BeatmapSetID:619832

[Difficulty]
HPDrainRate:4
CircleSize:5
OverallDifficulty:5.5
ApproachRate:5
SliderMultiplier:1.4
SliderTickRate:1

[Events]
//Background and Video events
0,0,"glitchedmushroomBG.png",0,0
//Break Periods
//Storyboard Layer 0 (Background)
//Storyboard Layer 1 (Fail)
//Storyboard Layer 2 (Pass)
//Storyboard Layer 3 (Foreground)
//Storyboard Sound Samples

[TimingPoints]
50,428.571428571429,4,1,0,70,1,0
50,-125,4,1,0,70,0,0
13335,-117.647058823529,4,1,0,70,0,0
13764,-111.111111111111,4,1,0,70,0,0
40978,-105.263157894737,4,1,0,70,0,0
41192,-100,4,1,0,70,0,0
54050,-99.009900990099,4,1,0,70,0,0
54157,-98.0392156862745,4,1,0,70,0,0
54264,-97.0873786407767,4,1,0,70,0,0
54371,-96.1538461538461,4,1,0,70,0,0
54478,-95.2380952380952,4,1,0,70,0,0
54692,-93.4579439252336,4,1,0,70,0,0
54907,-90.9090909090909,4,1,0,70,0,0
61550,-86.9565217391304,4,1,0,70,0,0
61764,-83.3333333333333,4,1,0,70,0,0
66478,-84.0336134453781,4,1,0,70,0,0
66585,-84.7457627118644,4,1,0,70,0,0
66692,-85.4700854700855,4,1,0,70,0,0
66800,-86.2068965517241,4,1,0,70,0,0
66907,-86.9565217391304,4,1,0,50,0,0
67121,-88.4955752212389,4,1,0,50,0,0
67335,-90.0900900900901,4,1,0,50,0,0
67764,-93.4579439252336,4,1,0,50,0,0
68192,-71.4285714285714,4,1,0,70,0,0
68621,-100,4,1,0,70,0,0
71621,-76.9230769230769,4,1,0,70,0,0
71728,-100,4,1,0,70,0,0
78478,-76.9230769230769,4,1,0,70,0,0
78585,-100,4,1,0,70,0,0
96050,-83.3333333333333,4,1,0,75,0,1
107835,-90.9090909090909,4,1,0,75,0,1
108050,-100,4,1,0,70,0,0
109335,-89.2857142857143,4,1,0,70,0,0
109442,-87.719298245614,4,1,0,70,0,0
109550,-86.2068965517241,4,1,0,70,0,0
109657,-84.7457627118644,4,1,0,70,0,0
109764,-83.3333333333333,4,1,0,70,0,1
123478,-83.3333333333333,4,1,0,70,0,0
123585,-83.3333333333333,4,1,0,65,0,0
130764,-76.9230769230769,4,1,0,65,0,0
132264,-74.0740740740741,4,1,0,65,0,0
132478,-71.4285714285714,4,1,0,65,0,0
132800,-70.9219858156028,4,1,0,65,0,0
132907,-70.4225352112676,4,1,0,65,0,0
133014,-69.9300699300699,4,1,0,65,0,0
133121,-69.4444444444444,4,1,0,65,0,0
133228,-68.9655172413793,4,1,0,65,0,0
133335,-68.4931506849315,4,1,0,65,0,0
133442,-68.0272108843537,4,1,0,65,0,0
133550,-67.5675675675676,4,1,0,65,0,0
133657,-67.1140939597315,4,1,0,65,0,0
133764,-66.6666666666667,4,1,0,65,0,0
135692,-71.4285714285714,4,1,0,65,0,0
142335,-100,4,1,0,70,0,0
162800,-99.009900990099,4,1,0,70,0,0
162907,-98.0392156862745,4,1,0,70,0,0
162978,-97.0873786407767,4,1,0,70,0,0
163050,-96.1538461538461,4,1,0,70,0,0
163121,-95.2380952380952,4,1,0,70,0,0
163335,-90.9090909090909,4,1,0,70,0,0
166228,-90.0900900900901,4,1,0,70,0,0
166335,-89.2857142857143,4,1,0,70,0,0
166407,-88.4955752212389,4,1,0,70,0,0
166478,-87.719298245614,4,1,0,70,0,0
166550,-86.9565217391304,4,1,0,70,0,0
166764,-83.3333333333333,4,1,0,70,0,0
169657,-82.6446280991736,4,1,0,70,0,0
169764,-81.9672131147541,4,1,0,70,0,0
169835,-81.3008130081301,4,1,0,70,0,0
169907,-80.6451612903226,4,1,0,70,0,0
169978,-80,4,1,0,70,0,0
170192,-76.9230769230769,4,1,0,70,0,0
173085,-76.3358778625954,4,1,0,70,0,0
173192,-75.7575757575758,4,1,0,70,0,0
173264,-75.187969924812,4,1,0,70,0,0
173335,-74.6268656716418,4,1,0,70,0,0
173407,-74.0740740740741,4,1,0,70,0,0
173621,-71.4285714285714,4,1,0,70,0,0
175335,-100,4,1,0,70,0,0
189907,-98.0392156862745,4,1,0,70,0,0
190014,-96.1538461538461,4,1,0,70,0,0
190121,-94.3396226415094,4,1,0,70,0,0
190335,-90.9090909090909,4,1,0,75,0,1
202657,-91.743119266055,4,1,0,75,0,1
202764,-92.5925925925926,4,1,0,75,0,1
202978,-94.3396226415094,4,1,0,75,0,1
203192,-96.1538461538461,4,1,0,75,0,1
203300,-97.0873786407767,4,1,0,75,0,1
203407,-98.0392156862745,4,1,0,75,0,1
203621,-100,4,1,0,75,0,1
203942,-100,4,1,0,70,0,0
204478,-83.3333333333333,4,1,0,70,0,1
217764,-83.3333333333333,4,1,0,70,0,0
217871,-125,4,1,0,40,0,0
231478,-100,4,1,0,50,0,0
259014,-100,4,1,0,47,0,0
260728,-100,4,1,0,44,0,0
262442,-100,4,1,0,41,0,0
264157,-100,4,1,0,38,0,0
265871,-100,4,1,0,35,0,0
267585,-100,4,1,0,32,0,0
269300,-100,4,1,0,29,0,0
271014,-100,4,1,0,26,0,0
272621,-100,4,1,0,60,0,0
300050,-100,4,1,0,70,0,0
303585,-100,4,1,0,73,0,0
305300,-100,4,1,0,76,0,0
307014,-100,4,1,0,79,0,0
308728,-100,4,1,0,82,0,0
310228,-100,4,1,0,85,0,0
313550,-95.2380952380952,4,1,0,67,0,0
313764,-90.9090909090909,4,1,0,90,0,1
313978,-86.9565217391304,4,1,0,90,0,1
314621,-83.3333333333333,4,1,0,90,0,1
314835,-80,4,1,0,90,0,1
315478,-76.9230769230769,4,1,0,90,0,1
315692,-74.0740740740741,4,1,0,90,0,1
316335,-71.4285714285714,4,1,0,90,0,1
316550,-68.9655172413793,4,1,0,90,0,1
317192,-66.6666666666667,4,1,0,90,0,1
319014,-76.9230769230769,4,1,0,79,0,0
320621,-71.4285714285714,4,1,0,85,0,1
354907,-70.9219858156028,4,1,0,85,0,1
355014,-70.4225352112676,4,1,0,85,0,1
355121,-69.9300699300699,4,1,0,85,0,1
355228,-69.4444444444444,4,1,0,85,0,1
355335,-68.9655172413793,4,1,0,85,0,1
355442,-68.4931506849315,4,1,0,85,0,1
355550,-68.0272108843537,4,1,0,85,0,1
355657,-67.5675675675676,4,1,0,85,0,1
355764,-67.1140939597315,4,1,0,85,0,1
355871,-66.6666666666667,4,1,0,85,0,1
360050,-66.6666666666667,4,1,0,70,0,0
360264,-71.4285714285714,4,1,0,70,0,0
360585,-76.9230769230769,4,1,0,70,0,0
360907,-83.3333333333333,4,1,0,70,0,0
361228,-90.9090909090909,4,1,0,70,0,0
361550,-100,4,1,0,30,0,0
365192,-100,4,1,0,70,0,0
377942,-98.0392156862745,4,1,0,70,0,0
378050,-96.1538461538461,4,1,0,70,0,0
378264,-92.5925925925926,4,1,0,70,0,0
378371,-90.9090909090909,4,1,0,70,0,0
378478,-89.2857142857143,4,1,0,70,0,0
378692,-86.2068965517241,4,1,0,70,0,0
378800,-84.7457627118644,4,1,0,70,0,0
378907,-83.3333333333333,4,1,0,70,0,0
391764,-111.111111111111,4,1,0,70,0,0
392085,-100,4,1,0,70,0,0
392407,-90.9090909090909,4,1,0,70,0,0
392621,-83.3333333333333,4,1,0,70,0,0
420478,-100,4,1,0,40,0,0
438907,-83.3333333333333,4,1,0,100,0,0
439550,-71.4285714285714,4,1,0,100,0,0

[HitObjects]
480,256,50,5,8,0:0:0:0:
416,256,478,1,8,0:0:0:0:
448,192,907,1,8,0:0:0:0:
448,192,1335,1,0,0:0:0:0:
448,192,1764,1,0,0:0:0:0:
448,192,1978,1,0,0:0:0:0:
448,192,2192,1,0,0:0:0:0:
448,192,2621,1,8,0:0:0:0:
448,192,3050,1,0,0:0:0:0:
448,192,3478,1,8,0:0:0:0:
448,224,3907,1,8,0:0:0:0:
448,224,4335,1,8,0:0:0:0:
320,160,4764,1,0,0:0:0:0:
320,160,5192,1,0,0:0:0:0:
320,160,5407,1,8,0:0:0:0:
320,160,5621,1,0,0:0:0:0:
320,160,6050,1,8,0:0:0:0:
320,160,6478,1,0,0:0:0:0:
320,160,6907,1,8,0:0:0:0:
320,160,7335,1,8,0:0:0:0:
320,160,7764,1,8,0:0:0:0:
320,160,8192,1,0,0:0:0:0:
320,160,8621,1,0,0:0:0:0:
320,160,8835,1,0,0:0:0:0:
320,160,9050,1,0,0:0:0:0:
320,160,9478,1,8,0:0:0:0:
320,160,9907,1,0,0:0:0:0:
320,160,10335,1,8,0:0:0:0:
320,160,10764,1,8,0:0:0:0:
320,160,11192,1,8,0:0:0:0:
320,160,11621,1,0,0:0:0:0:
320,160,12050,1,0,0:0:0:0:
320,160,12264,1,8,0:0:0:0:
320,160,12478,1,0,0:0:0:0:
320,160,12907,1,8,0:0:0:0:
320,160,13335,1,0,0:0:0:0:
320,160,13764,1,12,0:0:0:0:
320,160,14192,1,8,0:0:0:0:
320,160,14621,1,8,0:0:0:0:
320,160,15050,1,0,0:0:0:0:
320,160,15478,1,0,0:0:0:0:
320,160,15692,1,0,0:0:0:0:
320,160,15907,1,0,0:0:0:0:
352,192,16335,1,8,0:0:0:0:
352,192,16764,1,0,0:0:0:0:
128,160,16978,1,0,0:0:0:0:
352,192,17192,1,8,0:0:0:0:
352,192,17621,1,8,0:0:0:0:
352,192,18050,1,8,0:0:0:0:
352,192,18478,1,0,0:0:0:0:
352,192,18907,1,0,0:0:0:0:
352,192,19121,1,8,0:0:0:0:
352,192,19335,1,0,0:0:0:0:
352,192,19764,1,8,0:0:0:0:
352,192,20192,1,0,0:0:0:0:
256,160,20407,1,0,0:0:0:0:
352,192,20621,1,8,0:0:0:0:
192,160,21050,1,8,0:0:0:0:
192,160,21478,1,8,0:0:0:0:
192,160,21907,1,0,0:0:0:0:
192,160,22335,1,0,0:0:0:0:
192,160,22550,1,0,0:0:0:0:
192,160,22764,1,0,0:0:0:0:
192,160,23192,1,8,0:0:0:0:
352,192,23621,1,0,0:0:0:0:
288,160,23835,1,0,0:0:0:0:
352,192,24050,1,8,0:0:0:0:
352,192,24478,1,8,0:0:0:0:
352,192,24907,1,8,0:0:0:0:
352,192,25335,1,0,0:0:0:0:
352,192,25764,1,0,0:0:0:0:
352,192,25978,1,8,0:0:0:0:
352,192,26192,1,0,0:0:0:0:
352,192,26621,1,8,0:0:0:0:
352,192,27050,1,0,0:0:0:0:
288,160,27264,1,0,0:0:0:0:
352,192,27478,1,12,0:0:0:0:
192,160,27907,1,8,0:0:0:0:
224,160,28121,1,0,0:0:0:0:
192,160,28335,1,8,0:0:0:0:
192,160,28764,1,0,0:0:0:0:
320,128,29192,1,0,0:0:0:0:
288,160,29407,1,0,0:0:0:0:
288,160,29621,1,0,0:0:0:0:
192,160,30050,1,8,0:0:0:0:
352,192,30478,1,0,0:0:0:0:
320,160,30692,1,0,0:0:0:0:
352,192,30907,1,8,0:0:0:0:
352,192,31335,1,8,0:0:0:0:
320,224,31550,1,0,0:0:0:0:
352,192,31764,1,8,0:0:0:0:
352,192,32192,1,0,0:0:0:0:
352,192,32621,1,0,0:0:0:0:
352,192,32835,1,8,0:0:0:0:
352,192,33050,1,0,0:0:0:0:
352,192,33478,1,8,0:0:0:0:
352,192,33907,1,0,0:0:0:0:
352,160,34121,1,0,0:0:0:0:
352,192,34335,1,8,0:0:0:0:
192,160,34764,1,8,0:0:0:0:
320,160,34978,1,0,0:0:0:0:
192,160,35192,1,8,0:0:0:0:
192,160,35621,1,0,0:0:0:0:
224,128,36050,1,0,0:0:0:0:
224,128,36264,1,0,0:0:0:0:
224,128,36478,1,0,0:0:0:0:
224,128,36907,1,8,0:0:0:0:
352,192,37335,1,0,0:0:0:0:
320,160,37550,1,0,0:0:0:0:
352,192,37764,1,8,0:0:0:0:
352,192,38192,1,8,0:0:0:0:
256,224,38407,1,0,0:0:0:0:
352,192,38621,1,8,0:0:0:0:
352,192,39050,1,0,0:0:0:0:
352,192,39478,1,0,0:0:0:0:
352,192,39692,1,8,0:0:0:0:
352,192,39907,1,0,0:0:0:0:
352,192,40335,1,8,0:0:0:0:
352,192,40764,1,8,0:0:0:0:
128,160,40978,1,0,0:0:0:0:
352,192,41192,1,4,0:0:0:0:
288,160,41621,1,8,0:0:0:0:
288,160,41835,1,4,0:0:0:0:
256,128,42050,1,8,0:0:0:0:
352,224,42478,1,0,0:0:0:0:
288,128,42907,1,0,0:0:0:0:
256,96,43121,1,8,0:0:0:0:
256,96,43175,1,8,0:0:0:0:
256,96,43228,1,8,0:0:0:0:
160,160,43282,1,8,0:0:0:0:
256,96,43335,1,0,0:0:0:0:
224,128,43764,1,8,0:0:0:0:
224,128,44192,1,0,0:0:0:0:
224,128,44621,1,4,0:0:0:0:
224,128,45050,1,8,0:0:0:0:
224,128,45264,1,4,0:0:0:0:
224,128,45478,1,8,0:0:0:0:
224,128,45907,1,0,0:0:0:0:
224,128,46335,1,0,0:0:0:0:
256,96,46550,1,8,0:0:0:0:
256,96,46603,1,8,0:0:0:0:
256,96,46657,1,8,0:0:0:0:
160,160,46710,1,8,0:0:0:0:
256,96,46764,1,0,0:0:0:0:
256,192,47192,1,8,0:0:0:0:
256,192,47621,1,0,0:0:0:0:
256,192,48050,1,4,0:0:0:0:
256,192,48478,1,8,0:0:0:0:
256,192,48692,1,4,0:0:0:0:
256,192,48907,1,8,0:0:0:0:
256,192,49335,1,0,0:0:0:0:
256,192,49764,1,0,0:0:0:0:
256,96,49978,1,8,0:0:0:0:
256,96,50032,1,8,0:0:0:0:
256,96,50085,1,8,0:0:0:0:
160,160,50139,1,8,0:0:0:0:
256,96,50192,1,0,0:0:0:0:
224,160,50621,1,8,0:0:0:0:
224,160,51050,1,4,0:0:0:0:
224,160,51264,1,4,0:0:0:0:
224,160,51478,1,12,0:0:0:0:
224,160,51907,1,8,0:0:0:0:
224,160,52121,1,4,0:0:0:0:
224,160,52335,1,8,0:0:0:0:
224,160,52764,1,0,0:0:0:0:
224,160,53192,1,0,0:0:0:0:
256,96,53407,1,8,0:0:0:0:
256,96,53460,1,8,0:0:0:0:
256,96,53514,1,8,0:0:0:0:
160,160,53567,1,8,0:0:0:0:
256,96,53621,1,0,0:0:0:0:
288,128,54050,1,0,0:0:0:0:
288,128,54157,1,0,0:0:0:0:
288,128,54264,1,0,0:0:0:0:
288,128,54371,1,0,0:0:0:0:
288,128,54478,1,0,0:0:0:0:
288,128,54692,1,8,0:0:0:0:
320,160,54907,5,4,0:0:0:0:
352,192,55121,1,0,0:0:0:0:
256,160,55335,1,8,0:0:0:0:
256,160,55550,1,4,0:0:0:0:
256,160,55764,1,8,0:0:0:0:
256,160,56192,1,0,0:0:0:0:
192,160,56407,1,8,0:0:0:0:
256,160,56621,1,0,0:0:0:0:
256,96,56835,1,8,0:0:0:0:
256,96,56889,1,8,0:0:0:0:
256,96,56942,1,8,0:0:0:0:
160,160,56996,1,8,0:0:0:0:
256,96,57050,1,0,0:0:0:0:
192,160,57478,1,8,0:0:0:0:
256,128,57907,1,8,0:0:0:0:
256,128,58335,1,4,0:0:0:0:
256,160,58550,1,0,0:0:0:0:
256,128,58764,1,8,0:0:0:0:
256,128,58978,1,4,0:0:0:0:
256,128,59192,1,8,0:0:0:0:
256,160,59621,1,0,0:0:0:0:
256,160,59835,1,8,0:0:0:0:
256,160,60050,1,0,0:0:0:0:
256,96,60264,1,8,0:0:0:0:
256,96,60317,1,8,0:0:0:0:
256,96,60371,1,8,0:0:0:0:
160,160,60425,1,8,0:0:0:0:
256,96,60478,1,0,0:0:0:0:
224,160,60692,1,0,0:0:0:0:
224,160,60764,1,0,0:0:0:0:
224,160,60835,1,0,0:0:0:0:
224,160,60907,1,8,0:0:0:0:
320,128,61121,1,8,0:0:0:0:
352,128,61192,1,8,0:0:0:0:
352,128,61264,1,8,0:0:0:0:
352,128,61335,1,0,0:0:0:0:
288,160,61550,1,8,0:0:0:0:
320,192,61764,1,8,0:0:0:0:
320,192,61871,1,8,0:0:0:0:
320,192,61978,1,0,0:0:0:0:
320,192,62085,1,0,0:0:0:0:
320,192,62192,1,8,0:0:0:0:
320,192,62300,1,0,0:0:0:0:
320,192,62407,1,8,0:0:0:0:
320,192,62514,1,0,0:0:0:0:
320,192,62621,1,8,0:0:0:0:
288,128,62728,1,0,0:0:0:0:
256,128,62835,1,0,0:0:0:0:
288,128,62942,1,0,0:0:0:0:
320,192,63050,1,8,0:0:0:0:
320,192,63157,1,8,0:0:0:0:
320,192,63264,1,0,0:0:0:0:
320,192,63371,1,0,0:0:0:0:
320,192,63478,1,8,0:0:0:0:
320,192,63585,1,0,0:0:0:0:
256,160,63692,1,8,0:0:0:0:
256,160,63746,1,8,0:0:0:0:
256,160,63800,1,8,0:0:0:0:
256,160,63853,1,8,0:0:0:0:
320,192,63907,1,0,0:0:0:0:
320,192,64014,1,0,0:0:0:0:
320,192,64121,1,8,0:0:0:0:
320,192,64228,1,0,0:0:0:0:
320,192,64335,1,8,0:0:0:0:
320,192,64442,1,8,0:0:0:0:
320,192,64550,1,0,0:0:0:0:
320,192,64657,1,0,0:0:0:0:
320,192,64764,1,8,0:0:0:0:
320,192,64871,1,0,0:0:0:0:
320,192,64978,1,0,0:0:0:0:
320,192,65085,1,0,0:0:0:0:
224,128,65192,1,8,0:0:0:0:
224,128,65264,1,8,0:0:0:0:
224,128,65335,1,8,0:0:0:0:
224,128,65407,1,8,0:0:0:0:
224,128,65478,1,8,0:0:0:0:
224,128,65550,1,8,0:0:0:0:
224,128,65621,1,8,0:0:0:0:
224,128,65692,1,8,0:0:0:0:
224,128,65764,1,8,0:0:0:0:
224,128,65835,1,8,0:0:0:0:
224,128,65907,1,8,0:0:0:0:
224,128,65978,1,8,0:0:0:0:
224,128,66050,1,8,0:0:0:0:
224,128,66121,1,8,0:0:0:0:
224,128,66192,1,8,0:0:0:0:
224,128,66264,1,0,0:0:0:0:
352,160,66478,5,0,0:0:0:0:
352,160,66585,1,0,0:0:0:0:
352,160,66692,1,0,0:0:0:0:
256,160,66800,1,0,0:0:0:0:
352,192,66907,5,8,0:0:0:0:
256,192,67121,1,8,0:0:0:0:
256,192,67335,1,0,0:0:0:0:
192,160,67764,1,8,0:0:0:0:
256,192,68192,1,4,0:0:0:0:
416,256,68621,1,0,0:0:0:0:
192,128,68835,1,8,0:0:0:0:
416,256,69050,1,0,0:0:0:0:
416,256,69264,1,8,0:0:0:0:
416,256,69371,1,8,0:0:0:0:
416,256,69478,1,0,0:0:0:0:
416,256,69692,1,8,0:0:0:0:
416,256,69907,1,0,0:0:0:0:
416,256,70335,1,0,0:0:0:0:
416,256,70550,1,8,0:0:0:0:
416,256,70764,1,0,0:0:0:0:
416,256,70978,1,8,0:0:0:0:
416,256,71085,1,8,0:0:0:0:
416,256,71192,1,0,0:0:0:0:
416,256,71407,1,8,0:0:0:0:
416,256,71621,1,4,0:0:0:0:
352,224,72050,1,0,0:0:0:0:
352,224,72264,1,8,0:0:0:0:
352,224,72478,1,0,0:0:0:0:
352,224,72692,1,8,0:0:0:0:
224,160,72800,1,8,0:0:0:0:
192,128,72907,1,8,0:0:0:0:
224,160,73014,1,8,0:0:0:0:
256,128,73121,1,8,0:0:0:0:
320,192,73335,1,0,0:0:0:0:
320,128,73764,1,0,0:0:0:0:
256,128,73978,1,8,0:0:0:0:
256,128,74192,1,0,0:0:0:0:
320,128,74407,1,8,0:0:0:0:
320,128,74514,1,8,0:0:0:0:
320,128,74621,1,0,0:0:0:0:
256,128,74835,1,0,0:0:0:0:
320,96,74907,1,0,0:0:0:0:
320,96,74978,1,0,0:0:0:0:
256,128,75050,1,8,0:0:0:0:
352,128,75121,1,8,0:0:0:0:
352,128,75192,1,8,0:0:0:0:
320,96,75264,1,0,0:0:0:0:
256,128,75478,1,0,0:0:0:0:
256,128,75692,1,8,0:0:0:0:
256,128,75907,1,0,0:0:0:0:
256,128,76121,1,8,0:0:0:0:
256,128,76228,1,8,0:0:0:0:
256,128,76335,1,0,0:0:0:0:
256,128,76550,1,8,0:0:0:0:
256,128,76764,1,0,0:0:0:0:
384,192,77192,1,0,0:0:0:0:
384,192,77407,1,8,0:0:0:0:
384,192,77621,1,0,0:0:0:0:
384,192,77835,1,8,0:0:0:0:
384,192,77942,1,8,0:0:0:0:
384,192,78050,1,0,0:0:0:0:
384,192,78264,1,8,0:0:0:0:
384,192,78478,1,4,0:0:0:0:
384,192,78907,1,0,0:0:0:0:
384,192,79121,1,8,0:0:0:0:
384,192,79335,1,0,0:0:0:0:
384,192,79550,1,8,0:0:0:0:
160,96,79621,1,8,0:0:0:0:
384,192,79692,1,8,0:0:0:0:
384,192,79764,1,0,0:0:0:0:
384,192,79978,1,8,0:0:0:0:
256,128,80192,1,0,0:0:0:0:
320,160,80264,1,0,0:0:0:0:
320,160,80335,1,0,0:0:0:0:
320,160,80407,1,8,0:0:0:0:
320,160,80478,1,8,0:0:0:0:
320,160,80550,1,8,0:0:0:0:
320,160,80621,1,0,0:0:0:0:
256,160,80835,1,8,0:0:0:0:
256,160,81050,1,0,0:0:0:0:
288,160,81478,5,8,0:0:0:0:
288,160,81907,1,8,0:0:0:0:
320,160,81978,1,8,0:0:0:0:
320,192,82050,1,8,0:0:0:0:
256,128,82121,1,8,0:0:0:0:
256,224,82335,5,4,0:0:0:0:
320,160,82550,1,0,0:0:0:0:
320,160,82657,1,8,0:0:0:0:
320,160,82764,1,0,0:0:0:0:
320,160,82978,1,8,0:0:0:0:
320,160,83085,1,0,0:0:0:0:
320,160,83192,1,0,0:0:0:0:
320,160,83407,1,8,0:0:0:0:
320,160,83621,1,0,0:0:0:0:
320,160,83835,1,8,0:0:0:0:
320,160,83942,1,8,0:0:0:0:
320,160,84050,1,0,0:0:0:0:
320,160,84157,1,0,0:0:0:0:
320,160,84264,1,8,0:0:0:0:
288,160,84371,1,8,0:0:0:0:
288,160,84478,1,0,0:0:0:0:
288,160,84692,1,8,0:0:0:0:
288,160,84800,1,0,0:0:0:0:
288,160,84907,1,0,0:0:0:0:
352,128,85121,1,0,0:0:0:0:
352,128,85228,1,0,0:0:0:0:
352,128,85335,1,8,0:0:0:0:
352,128,85442,1,8,0:0:0:0:
352,128,85550,1,0,0:0:0:0:
352,128,85657,1,8,0:0:0:0:
352,128,85764,1,0,0:0:0:0:
320,160,85978,1,0,0:0:0:0:
320,160,86085,1,8,0:0:0:0:
320,160,86192,1,0,0:0:0:0:
320,160,86407,1,8,0:0:0:0:
320,160,86514,1,0,0:0:0:0:
320,160,86621,1,0,0:0:0:0:
320,160,86835,1,8,0:0:0:0:
320,160,87050,1,0,0:0:0:0:
288,192,87264,1,8,0:0:0:0:
288,192,87371,1,8,0:0:0:0:
288,192,87478,1,0,0:0:0:0:
288,192,87585,1,8,0:0:0:0:
288,192,87692,1,8,0:0:0:0:
288,192,87800,1,8,0:0:0:0:
288,192,87907,1,0,0:0:0:0:
288,192,88121,1,8,0:0:0:0:
288,192,88228,1,0,0:0:0:0:
288,192,88335,1,0,0:0:0:0:
288,192,88550,1,0,0:0:0:0:
288,192,88657,1,8,0:0:0:0:
288,192,88764,1,0,0:0:0:0:
192,224,88835,1,0,0:0:0:0:
256,192,88907,1,0,0:0:0:0:
288,192,88978,1,8,0:0:0:0:
288,192,89050,1,8,0:0:0:0:
288,192,89121,1,8,0:0:0:0:
288,192,89192,1,0,0:0:0:0:
352,160,89407,1,0,0:0:0:0:
352,160,89514,1,8,0:0:0:0:
352,160,89621,1,0,0:0:0:0:
352,160,89835,1,8,0:0:0:0:
352,160,89942,1,0,0:0:0:0:
352,160,90050,1,0,0:0:0:0:
352,160,90264,1,8,0:0:0:0:
352,160,90478,1,0,0:0:0:0:
352,160,90692,1,8,0:0:0:0:
352,160,90800,1,8,0:0:0:0:
352,160,90907,1,0,0:0:0:0:
352,160,91014,1,0,0:0:0:0:
352,160,91121,1,8,0:0:0:0:
352,160,91228,1,8,0:0:0:0:
352,160,91335,1,0,0:0:0:0:
352,160,91550,1,8,0:0:0:0:
352,160,91657,1,0,0:0:0:0:
352,160,91764,1,0,0:0:0:0:
352,160,91978,1,0,0:0:0:0:
352,160,92085,1,8,0:0:0:0:
352,160,92192,1,8,0:0:0:0:
352,160,92300,1,8,0:0:0:0:
352,160,92407,1,0,0:0:0:0:
352,160,92514,1,8,0:0:0:0:
352,160,92621,1,0,0:0:0:0:
288,160,92835,1,0,0:0:0:0:
288,160,92942,1,8,0:0:0:0:
288,160,93050,1,0,0:0:0:0:
288,160,93264,1,8,0:0:0:0:
288,160,93371,1,0,0:0:0:0:
288,160,93478,1,0,0:0:0:0:
256,160,93692,1,8,0:0:0:0:
256,160,93907,1,0,0:0:0:0:
384,128,94335,1,8,0:0:0:0:
384,128,94407,1,8,0:0:0:0:
384,128,94478,1,8,0:0:0:0:
384,128,94550,1,0,0:0:0:0:
352,128,94657,1,0,0:0:0:0:
352,128,94764,1,8,0:0:0:0:
352,128,94871,1,8,0:0:0:0:
352,128,94978,1,0,0:0:0:0:
352,128,95085,1,0,0:0:0:0:
352,128,95192,1,8,0:0:0:0:
352,128,95407,1,0,0:0:0:0:
448,320,95621,1,8,0:0:0:0:
192,224,96050,1,4,0:0:0:0:
384,224,96264,1,0,0:0:0:0:
384,224,96371,1,8,0:0:0:0:
384,224,96478,1,0,0:0:0:0:
352,192,96692,1,8,0:0:0:0:
352,192,96800,1,0,0:0:0:0:
352,192,96907,1,8,0:0:0:0:
320,128,96978,1,8,0:0:0:0:
320,128,97050,1,8,0:0:0:0:
320,128,97121,1,8,0:0:0:0:
224,160,97228,1,0,0:0:0:0:
384,192,97335,1,0,0:0:0:0:
224,128,97550,1,8,0:0:0:0:
256,64,97621,1,8,0:0:0:0:
224,128,97764,1,0,0:0:0:0:
256,160,97978,1,8,0:0:0:0:
256,192,98192,1,8,0:0:0:0:
256,192,98264,1,8,0:0:0:0:
256,192,98335,1,8,0:0:0:0:
256,192,98407,1,8,0:0:0:0:
256,192,98621,1,0,0:0:0:0:
256,192,98692,1,0,0:0:0:0:
256,192,98764,1,0,0:0:0:0:
256,192,98835,1,8,0:0:0:0:
320,128,98942,1,8,0:0:0:0:
320,128,99050,1,0,0:0:0:0:
320,128,99157,1,8,0:0:0:0:
320,128,99264,1,0,0:0:0:0:
320,128,99371,1,8,0:0:0:0:
320,128,99478,1,0,0:0:0:0:
320,160,99692,1,8,0:0:0:0:
256,128,99907,1,0,0:0:0:0:
256,128,99978,1,0,0:0:0:0:
320,192,100050,1,0,0:0:0:0:
320,192,100121,1,0,0:0:0:0:
320,192,100335,1,8,0:0:0:0:
320,192,100407,1,8,0:0:0:0:
320,192,100478,1,8,0:0:0:0:
320,192,100550,1,8,0:0:0:0:
224,128,100657,1,0,0:0:0:0:
224,128,100764,1,0,0:0:0:0:
224,128,100871,1,8,0:0:0:0:
224,128,100978,1,0,0:0:0:0:
224,128,101085,1,8,0:0:0:0:
224,128,101192,1,0,0:0:0:0:
256,128,101407,1,8,0:0:0:0:
288,128,101514,1,0,0:0:0:0:
288,128,101621,1,8,0:0:0:0:
256,96,101728,1,8,0:0:0:0:
224,160,101835,1,8,0:0:0:0:
224,160,101942,1,8,0:0:0:0:
288,128,102050,1,0,0:0:0:0:
320,160,102121,1,8,0:0:0:0:
288,160,102192,1,8,0:0:0:0:
288,160,102264,1,0,0:0:0:0:
320,128,102371,1,8,0:0:0:0:
256,96,102478,1,0,0:0:0:0:
256,96,102550,1,0,0:0:0:0:
256,96,102621,1,0,0:0:0:0:
256,96,102692,1,8,0:0:0:0:
320,64,102800,1,8,0:0:0:0:
320,96,102907,1,0,0:0:0:0:
192,160,103121,1,0,0:0:0:0:
192,160,103228,1,8,0:0:0:0:
192,160,103335,1,0,0:0:0:0:
192,160,103550,1,8,0:0:0:0:
192,160,103657,1,0,0:0:0:0:
192,160,103764,1,0,0:0:0:0:
352,128,103835,1,0,0:0:0:0:
352,128,103907,1,0,0:0:0:0:
352,96,103978,1,8,0:0:0:0:
352,96,104085,1,8,0:0:0:0:
352,96,104192,1,0,0:0:0:0:
288,160,104407,1,8,0:0:0:0:
288,160,104460,1,8,0:0:0:0:
288,160,104514,1,8,0:0:0:0:
288,160,104567,1,8,0:0:0:0:
288,160,104621,1,0,0:0:0:0:
224,96,104728,1,0,0:0:0:0:
224,96,104835,1,8,0:0:0:0:
224,96,104942,1,8,0:0:0:0:
224,96,105050,1,0,0:0:0:0:
224,96,105264,1,8,0:0:0:0:
224,96,105371,1,8,0:0:0:0:
224,96,105478,1,0,0:0:0:0:
352,96,105532,1,0,0:0:0:0:
192,192,105692,1,8,0:0:0:0:
192,192,105746,1,8,0:0:0:0:
192,192,105907,1,0,0:0:0:0:
352,64,106014,1,8,0:0:0:0:
352,64,106121,1,0,0:0:0:0:
352,64,106228,1,8,0:0:0:0:
352,64,106335,1,0,0:0:0:0:
352,64,106550,1,0,0:0:0:0:
352,64,106764,1,0,0:0:0:0:
320,128,106835,1,0,0:0:0:0:
320,128,106907,1,0,0:0:0:0:
320,128,106978,1,8,0:0:0:0:
224,64,107192,1,0,0:0:0:0:
224,64,107300,1,0,0:0:0:0:
224,64,107407,1,8,0:0:0:0:
224,64,107514,1,8,0:0:0:0:
224,64,107621,1,0,0:0:0:0:
224,64,107835,1,8,0:0:0:0:
320,160,108050,1,8,0:0:0:0:
320,160,108121,1,8,0:0:0:0:
320,160,108192,1,8,0:0:0:0:
320,160,108264,1,0,0:0:0:0:
320,96,108371,1,0,0:0:0:0:
320,96,108478,1,8,0:0:0:0:
320,96,108585,1,8,0:0:0:0:
320,96,108692,1,0,0:0:0:0:
320,96,108800,1,0,0:0:0:0:
320,96,108907,1,8,0:0:0:0:
320,96,109121,1,0,0:0:0:0:
224,160,109335,1,0,0:0:0:0:
224,160,109442,1,0,0:0:0:0:
224,160,109550,1,8,0:0:0:0:
224,160,109657,1,8,0:0:0:0:
320,192,109764,1,4,0:0:0:0:
448,192,109978,1,0,0:0:0:0:
448,192,110085,1,8,0:0:0:0:
448,192,110192,1,0,0:0:0:0:
448,192,110407,1,8,0:0:0:0:
416,96,110621,1,8,0:0:0:0:
416,96,110692,1,8,0:0:0:0:
416,96,110764,1,8,0:0:0:0:
416,96,110835,1,8,0:0:0:0:
320,128,111050,1,0,0:0:0:0:
320,128,111264,1,8,0:0:0:0:
320,160,111317,1,8,0:0:0:0:
352,160,111478,1,0,0:0:0:0:
96,160,111532,1,0,0:0:0:0:
352,160,111692,1,8,0:0:0:0:
224,128,111746,1,8,0:0:0:0:
416,64,111907,1,8,0:0:0:0:
256,192,111978,1,8,0:0:0:0:
256,192,112050,1,8,0:0:0:0:
256,192,112121,1,8,0:0:0:0:
480,192,112335,1,0,0:0:0:0:
160,192,112407,1,0,0:0:0:0:
192,192,112478,1,0,0:0:0:0:
384,288,112550,1,8,0:0:0:0:
384,288,112657,1,8,0:0:0:0:
384,288,112764,1,0,0:0:0:0:
384,288,112871,1,8,0:0:0:0:
384,288,112978,1,8,0:0:0:0:
384,288,113085,1,8,0:0:0:0:
384,288,113192,1,4,0:0:0:0:
384,256,113407,1,8,0:0:0:0:
384,256,113621,1,0,0:0:0:0:
384,160,113692,1,0,0:0:0:0:
384,160,113764,1,0,0:0:0:0:
384,160,113835,1,8,0:0:0:0:
384,160,114050,1,8,0:0:0:0:
384,160,114121,1,8,0:0:0:0:
384,160,114192,1,8,0:0:0:0:
384,160,114264,1,0,0:0:0:0:
320,192,114371,1,0,0:0:0:0:
320,192,114478,1,0,0:0:0:0:
320,192,114585,1,8,0:0:0:0:
320,192,114692,1,0,0:0:0:0:
320,192,114800,1,8,0:0:0:0:
320,192,114907,1,0,0:0:0:0:
256,192,115121,1,8,0:0:0:0:
160,160,115335,1,8,0:0:0:0:
160,160,115407,1,8,0:0:0:0:
160,160,115478,1,8,0:0:0:0:
160,160,115550,1,8,0:0:0:0:
160,160,115621,1,8,0:0:0:0:
160,160,115692,1,8,0:0:0:0:
160,160,115764,1,0,0:0:0:0:
416,128,115978,1,8,0:0:0:0:
416,128,116085,1,8,0:0:0:0:
416,128,116192,1,0,0:0:0:0:
416,128,116300,1,8,0:0:0:0:
416,128,116407,1,8,0:0:0:0:
416,128,116514,1,8,0:0:0:0:
416,128,116621,1,0,0:0:0:0:
480,192,116835,1,0,0:0:0:0:
480,192,116942,1,8,0:0:0:0:
480,192,117050,1,0,0:0:0:0:
384,256,117264,1,8,0:0:0:0:
448,128,117478,1,0,0:0:0:0:
448,128,117550,1,0,0:0:0:0:
448,128,117621,1,0,0:0:0:0:
416,96,117692,1,0,0:0:0:0:
416,96,117800,1,8,0:0:0:0:
416,96,117907,1,0,0:0:0:0:
320,192,118121,1,8,0:0:0:0:
480,224,118335,1,0,0:0:0:0:
160,160,118407,1,0,0:0:0:0:
480,224,118478,1,0,0:0:0:0:
480,224,118550,1,8,0:0:0:0:
480,224,118657,1,8,0:0:0:0:
448,128,118764,1,0,0:0:0:0:
448,96,118871,1,0,0:0:0:0:
448,128,118978,1,8,0:0:0:0:
448,96,119050,1,0,0:0:0:0:
448,96,119121,1,0,0:0:0:0:
448,96,119192,1,8,0:0:0:0:
320,192,119407,1,8,0:0:0:0:
320,192,119514,1,8,0:0:0:0:
320,192,119621,1,0,0:0:0:0:
320,192,119728,1,8,0:0:0:0:
320,192,119835,1,0,0:0:0:0:
320,192,119942,1,0,0:0:0:0:
320,192,120050,1,8,0:0:0:0:
416,96,120264,1,0,0:0:0:0:
416,96,120335,1,0,0:0:0:0:
416,96,120407,1,0,0:0:0:0:
416,96,120478,1,8,0:0:0:0:
416,96,120692,1,0,0:0:0:0:
352,160,120907,1,8,0:0:0:0:
352,160,121014,1,0,0:0:0:0:
352,160,121121,1,0,0:0:0:0:
416,96,121335,1,0,0:0:0:0:
416,160,121407,1,0,0:0:0:0:
416,160,121478,1,0,0:0:0:0:
416,160,121550,1,8,0:0:0:0:
416,160,121657,1,0,0:0:0:0:
352,224,121764,5,8,0:0:0:0:
352,224,121871,1,8,0:0:0:0:
352,224,122085,1,0,0:0:0:0:
352,224,122192,1,8,0:0:0:0:
352,224,122300,1,8,0:0:0:0:
352,224,122407,1,0,0:0:0:0:
352,224,122514,1,0,0:0:0:0:
352,224,122621,1,8,0:0:0:0:
352,224,122835,1,8,0:0:0:0:
352,224,122942,1,8,0:0:0:0:
352,224,123050,1,0,0:0:0:0:
352,224,123157,1,0,0:0:0:0:
416,224,123264,1,0,0:0:0:0:
416,224,123371,1,8,0:0:0:0:
352,224,123478,1,0,0:0:0:0:
288,128,123692,1,8,0:0:0:0:
512,256,123907,1,0,0:0:0:0:
512,256,124014,1,8,0:0:0:0:
512,256,124121,1,8,0:0:0:0:
512,256,124228,1,8,0:0:0:0:
512,256,124335,1,0,0:0:0:0:
352,96,124550,1,8,0:0:0:0:
352,96,124603,1,8,0:0:0:0:
224,160,124764,1,0,0:0:0:0:
224,160,124871,1,0,0:0:0:0:
224,160,124978,1,8,0:0:0:0:
256,160,125085,1,8,0:0:0:0:
224,160,125192,1,0,0:0:0:0:
288,160,125407,1,8,0:0:0:0:
320,160,125621,1,0,0:0:0:0:
320,160,125728,1,0,0:0:0:0:
320,160,125835,1,8,0:0:0:0:
320,160,125942,1,8,0:0:0:0:
320,160,126050,1,0,0:0:0:0:
256,160,126264,1,8,0:0:0:0:
256,160,126317,1,8,0:0:0:0:
320,96,126478,1,0,0:0:0:0:
320,96,126585,1,0,0:0:0:0:
320,96,126692,1,0,0:0:0:0:
320,96,126800,1,8,0:0:0:0:
320,96,126907,1,0,0:0:0:0:
288,96,127121,1,8,0:0:0:0:
224,192,127335,1,0,0:0:0:0:
224,192,127442,1,8,0:0:0:0:
224,192,127550,1,8,0:0:0:0:
224,192,127657,1,8,0:0:0:0:
224,192,127764,1,0,0:0:0:0:
352,96,127978,1,8,0:0:0:0:
352,96,128032,1,8,0:0:0:0:
224,192,128192,1,0,0:0:0:0:
224,192,128300,1,0,0:0:0:0:
224,192,128407,1,8,0:0:0:0:
224,192,128514,1,8,0:0:0:0:
224,192,128621,1,0,0:0:0:0:
224,192,128835,1,8,0:0:0:0:
416,128,129050,1,0,0:0:0:0:
224,160,129121,1,0,0:0:0:0:
224,160,129192,1,0,0:0:0:0:
416,128,129264,1,0,0:0:0:0:
416,128,129335,1,0,0:0:0:0:
416,128,129407,1,0,0:0:0:0:
416,128,129478,1,8,0:0:0:0:
288,160,129692,1,8,0:0:0:0:
160,128,129746,1,8,0:0:0:0:
352,128,129907,1,0,0:0:0:0:
352,128,130014,1,0,0:0:0:0:
352,128,130121,1,8,0:0:0:0:
352,128,130228,1,8,0:0:0:0:
352,128,130335,1,0,0:0:0:0:
352,128,130550,1,8,0:0:0:0:
352,192,130764,1,8,0:0:0:0:
352,192,130871,1,8,0:0:0:0:
352,192,130978,1,0,0:0:0:0:
352,192,131085,1,0,0:0:0:0:
352,192,131192,1,8,0:0:0:0:
320,192,131300,1,8,0:0:0:0:
320,192,131407,1,0,0:0:0:0:
320,192,131514,1,0,0:0:0:0:
320,192,131621,1,8,0:0:0:0:
320,192,131728,1,0,0:0:0:0:
320,192,131835,1,8,0:0:0:0:
320,192,131942,1,8,0:0:0:0:
320,192,132050,1,0,0:0:0:0:
320,160,132264,1,8,0:0:0:0:
416,224,132478,1,8,0:0:0:0:
416,224,132585,1,8,0:0:0:0:
416,224,132692,1,0,0:0:0:0:
416,224,132800,1,0,0:0:0:0:
416,224,132907,1,8,0:0:0:0:
416,224,133014,1,0,0:0:0:0:
416,224,133121,1,8,0:0:0:0:
416,224,133228,1,8,0:0:0:0:
416,224,133335,1,0,0:0:0:0:
416,224,133442,1,8,0:0:0:0:
416,224,133550,1,0,0:0:0:0:
416,224,133657,1,0,0:0:0:0:
416,224,133764,1,8,0:0:0:0:
416,224,133835,1,8,0:0:0:0:
416,224,133907,1,8,0:0:0:0:
416,224,133978,1,8,0:0:0:0:
416,224,134050,1,8,0:0:0:0:
416,224,134121,1,8,0:0:0:0:
416,224,134192,1,8,0:0:0:0:
416,224,134264,1,8,0:0:0:0:
416,224,134335,1,8,0:0:0:0:
416,224,134407,1,8,0:0:0:0:
416,224,134478,1,8,0:0:0:0:
416,224,134550,1,8,0:0:0:0:
416,224,134621,1,8,0:0:0:0:
416,224,134692,1,8,0:0:0:0:
416,224,134764,1,8,0:0:0:0:
416,224,134835,1,8,0:0:0:0:
416,224,134907,1,8,0:0:0:0:
416,224,134978,1,8,0:0:0:0:
416,224,135050,1,8,0:0:0:0:
416,224,135121,1,8,0:0:0:0:
416,224,135192,1,8,0:0:0:0:
416,224,135264,1,8,0:0:0:0:
416,224,135335,1,8,0:0:0:0:
416,224,135407,1,8,0:0:0:0:
416,224,135478,1,0,0:0:0:0:
288,160,135692,1,8,0:0:0:0:
256,192,140621,12,0,142121,0:0:0:0:
256,128,142335,5,0,0:0:0:0:
416,192,142764,1,0,0:0:0:0:
416,192,143192,1,0,0:0:0:0:
448,224,143621,1,0,0:0:0:0:
480,288,143728,1,8,0:0:0:0:
288,160,143942,1,8,0:0:0:0:
288,160,144050,1,0,0:0:0:0:
288,160,144478,1,0,0:0:0:0:
320,160,144907,1,0,0:0:0:0:
320,160,145335,1,0,0:0:0:0:
320,160,145550,1,8,0:0:0:0:
320,160,145764,1,0,0:0:0:0:
320,160,146192,1,0,0:0:0:0:
320,160,146621,1,0,0:0:0:0:
320,160,147050,1,0,0:0:0:0:
320,160,147157,1,8,0:0:0:0:
320,160,147371,1,8,0:0:0:0:
320,160,147478,1,0,0:0:0:0:
320,160,147907,1,0,0:0:0:0:
320,160,148335,1,0,0:0:0:0:
320,160,148764,1,0,0:0:0:0:
320,160,148871,1,0,0:0:0:0:
320,160,148978,1,8,0:0:0:0:
320,160,149085,1,8,0:0:0:0:
320,160,149192,1,0,0:0:0:0:
448,224,149514,1,8,0:0:0:0:
320,160,149621,1,0,0:0:0:0:
320,192,149835,1,8,0:0:0:0:
320,192,149942,1,8,0:0:0:0:
320,192,150050,1,0,0:0:0:0:
160,128,150264,1,8,0:0:0:0:
352,160,150371,1,0,0:0:0:0:
288,64,150478,1,0,0:0:0:0:
288,64,150585,1,8,0:0:0:0:
288,64,150800,1,8,0:0:0:0:
288,64,150907,1,0,0:0:0:0:
256,64,151121,1,8,0:0:0:0:
288,64,151228,1,8,0:0:0:0:
288,64,151335,1,0,0:0:0:0:
288,64,151550,1,8,0:0:0:0:
288,64,151657,1,8,0:0:0:0:
288,64,151764,1,0,0:0:0:0:
192,96,151978,1,8,0:0:0:0:
288,64,152085,1,8,0:0:0:0:
288,64,152192,1,0,0:0:0:0:
256,128,152300,1,0,0:0:0:0:
288,64,152514,1,8,0:0:0:0:
288,64,152621,1,0,0:0:0:0:
480,288,152835,1,8,0:0:0:0:
288,64,152942,1,8,0:0:0:0:
288,64,153050,1,0,0:0:0:0:
448,224,153264,1,8,0:0:0:0:
448,224,153371,1,8,0:0:0:0:
448,224,153478,1,0,0:0:0:0:
256,128,153692,1,8,0:0:0:0:
448,224,153800,1,8,0:0:0:0:
448,224,153907,1,0,0:0:0:0:
448,224,154014,1,8,0:0:0:0:
448,224,154228,1,8,0:0:0:0:
448,224,154335,1,0,0:0:0:0:
352,192,154550,1,8,0:0:0:0:
352,192,154657,1,8,0:0:0:0:
352,192,154764,1,0,0:0:0:0:
352,192,154978,1,8,0:0:0:0:
352,192,155085,1,8,0:0:0:0:
352,192,155192,1,0,0:0:0:0:
256,96,155407,1,8,0:0:0:0:
160,128,155514,1,8,0:0:0:0:
288,128,155621,1,0,0:0:0:0:
288,128,155728,1,0,0:0:0:0:
288,128,155835,1,8,0:0:0:0:
288,128,155942,1,8,0:0:0:0:
384,224,156050,1,0,0:0:0:0:
384,160,156264,1,8,0:0:0:0:
384,160,156478,1,0,0:0:0:0:
384,160,156585,1,8,0:0:0:0:
384,160,156692,1,0,0:0:0:0:
384,160,156800,1,0,0:0:0:0:
384,160,156907,1,0,0:0:0:0:
384,160,157014,1,8,0:0:0:0:
384,160,157121,1,0,0:0:0:0:
384,160,157228,1,0,0:0:0:0:
384,160,157335,1,0,0:0:0:0:
384,160,157442,1,8,0:0:0:0:
384,160,157550,1,0,0:0:0:0:
384,160,157657,1,8,0:0:0:0:
384,160,157764,1,0,0:0:0:0:
384,160,157978,1,8,0:0:0:0:
384,160,158192,1,0,0:0:0:0:
384,160,158300,1,0,0:0:0:0:
384,160,158407,1,8,0:0:0:0:
384,160,158514,1,8,0:0:0:0:
384,160,158621,1,0,0:0:0:0:
384,160,158728,1,0,0:0:0:0:
384,160,158835,1,8,0:0:0:0:
384,160,158942,1,8,0:0:0:0:
384,160,159050,1,0,0:0:0:0:
384,160,159157,1,8,0:0:0:0:
384,160,159264,1,0,0:0:0:0:
384,160,159371,1,8,0:0:0:0:
384,160,159478,1,0,0:0:0:0:
384,160,159692,1,8,0:0:0:0:
384,160,159907,1,0,0:0:0:0:
384,160,160014,1,0,0:0:0:0:
384,160,160121,1,8,0:0:0:0:
384,160,160228,1,8,0:0:0:0:
384,160,160335,1,0,0:0:0:0:
384,160,160442,1,0,0:0:0:0:
384,160,160550,1,8,0:0:0:0:
384,160,160657,1,0,0:0:0:0:
384,160,160764,1,0,0:0:0:0:
384,160,160871,1,0,0:0:0:0:
384,160,160978,1,8,0:0:0:0:
384,160,161085,1,8,0:0:0:0:
384,160,161192,1,0,0:0:0:0:
384,160,161407,1,8,0:0:0:0:
384,160,161621,1,0,0:0:0:0:
384,160,161728,1,0,0:0:0:0:
384,160,161835,1,8,0:0:0:0:
384,160,161942,1,0,0:0:0:0:
384,160,162050,1,8,0:0:0:0:
384,160,162157,1,8,0:0:0:0:
384,160,162264,1,0,0:0:0:0:
384,160,162371,1,0,0:0:0:0:
384,160,162478,1,8,0:0:0:0:
384,160,162585,1,8,0:0:0:0:
384,160,162692,1,0,0:0:0:0:
384,160,162800,1,0,0:0:0:0:
384,160,162907,1,8,0:0:0:0:
224,160,162978,1,8,0:0:0:0:
224,160,163050,1,8,0:0:0:0:
224,160,163121,1,8,0:0:0:0:
384,160,163335,1,0,0:0:0:0:
384,160,163442,1,0,0:0:0:0:
384,160,163550,1,8,0:0:0:0:
384,160,163657,1,8,0:0:0:0:
384,160,163764,1,0,0:0:0:0:
384,160,163835,1,0,0:0:0:0:
192,128,163907,1,0,0:0:0:0:
224,160,163978,1,8,0:0:0:0:
384,160,164085,1,8,0:0:0:0:
384,160,164192,1,0,0:0:0:0:
384,160,164300,1,8,0:0:0:0:
384,160,164407,1,0,0:0:0:0:
384,160,164514,1,8,0:0:0:0:
384,160,164621,1,0,0:0:0:0:
384,160,164835,1,8,0:0:0:0:
384,160,165050,1,0,0:0:0:0:
384,160,165157,1,8,0:0:0:0:
384,160,165264,1,8,0:0:0:0:
384,160,165371,1,0,0:0:0:0:
384,160,165478,1,8,0:0:0:0:
384,160,165585,1,0,0:0:0:0:
384,160,165692,1,0,0:0:0:0:
384,160,165800,1,8,0:0:0:0:
384,160,165907,1,8,0:0:0:0:
384,160,166014,1,0,0:0:0:0:
384,160,166121,1,8,0:0:0:0:
384,160,166228,1,0,0:0:0:0:
384,160,166335,1,8,0:0:0:0:
224,192,166407,1,8,0:0:0:0:
224,192,166478,1,8,0:0:0:0:
224,192,166550,1,0,0:0:0:0:
384,160,166764,1,0,0:0:0:0:
384,160,166871,1,8,0:0:0:0:
384,160,166978,1,0,0:0:0:0:
384,160,167085,1,8,0:0:0:0:
384,160,167192,1,0,0:0:0:0:
224,160,167264,1,8,0:0:0:0:
384,160,167335,1,8,0:0:0:0:
384,160,167407,1,0,0:0:0:0:
384,160,167514,1,8,0:0:0:0:
384,160,167621,1,0,0:0:0:0:
384,160,167728,1,0,0:0:0:0:
384,160,167835,1,8,0:0:0:0:
384,160,167942,1,8,0:0:0:0:
384,160,168050,1,0,0:0:0:0:
384,160,168264,1,8,0:0:0:0:
384,160,168478,1,0,0:0:0:0:
384,160,168585,1,8,0:0:0:0:
384,160,168692,1,0,0:0:0:0:
384,160,168800,1,0,0:0:0:0:
384,160,168907,1,8,0:0:0:0:
384,160,169014,1,0,0:0:0:0:
384,160,169121,1,8,0:0:0:0:
384,160,169228,1,8,0:0:0:0:
384,160,169335,1,0,0:0:0:0:
384,160,169442,1,0,0:0:0:0:
384,160,169550,1,8,0:0:0:0:
384,160,169657,1,0,0:0:0:0:
384,160,169764,1,8,0:0:0:0:
160,128,169835,1,0,0:0:0:0:
160,128,169907,1,0,0:0:0:0:
384,160,169978,1,8,0:0:0:0:
384,160,170192,1,0,0:0:0:0:
384,160,170300,1,8,0:0:0:0:
384,160,170407,1,8,0:0:0:0:
384,160,170514,1,8,0:0:0:0:
384,160,170621,1,0,0:0:0:0:
256,160,170692,1,0,0:0:0:0:
384,160,170764,1,0,0:0:0:0:
384,160,170835,1,8,0:0:0:0:
384,160,170942,1,8,0:0:0:0:
384,160,171050,1,0,0:0:0:0:
384,160,171157,1,8,0:0:0:0:
384,160,171264,1,8,0:0:0:0:
384,160,171371,1,8,0:0:0:0:
384,160,171478,1,0,0:0:0:0:
384,160,171692,1,8,0:0:0:0:
384,160,171907,1,0,0:0:0:0:
384,160,172014,1,8,0:0:0:0:
384,160,172121,1,8,0:0:0:0:
384,160,172228,1,0,0:0:0:0:
384,160,172335,1,8,0:0:0:0:
384,160,172442,1,8,0:0:0:0:
384,160,172550,1,0,0:0:0:0:
384,160,172657,1,8,0:0:0:0:
384,160,172764,1,0,0:0:0:0:
384,160,172871,1,0,0:0:0:0:
384,160,172978,1,8,0:0:0:0:
384,160,173085,1,0,0:0:0:0:
384,160,173192,1,8,0:0:0:0:
160,128,173264,1,8,0:0:0:0:
224,128,173335,1,0,0:0:0:0:
384,160,173407,1,8,0:0:0:0:
384,160,173621,1,0,0:0:0:0:
384,160,173728,1,8,0:0:0:0:
384,160,173835,1,0,0:0:0:0:
384,160,173942,1,8,0:0:0:0:
384,160,174050,1,0,0:0:0:0:
224,160,174121,1,8,0:0:0:0:
384,160,174192,1,8,0:0:0:0:
384,160,174264,1,0,0:0:0:0:
384,160,174371,1,8,0:0:0:0:
384,160,174478,1,8,0:0:0:0:
384,160,174585,1,0,0:0:0:0:
384,160,174692,1,8,0:0:0:0:
384,160,174800,1,8,0:0:0:0:
384,160,174907,1,0,0:0:0:0:
384,160,175335,1,8,0:0:0:0:
384,160,175442,1,8,0:0:0:0:
384,160,175550,1,0,0:0:0:0:
384,160,175657,1,0,0:0:0:0:
384,160,175764,1,8,0:0:0:0:
224,160,175978,1,8,0:0:0:0:
224,160,176192,1,0,0:0:0:0:
320,192,176407,1,8,0:0:0:0:
320,192,176478,1,8,0:0:0:0:
320,192,176550,1,8,0:0:0:0:
320,192,176621,1,0,0:0:0:0:
352,192,176728,1,8,0:0:0:0:
352,192,176835,1,0,0:0:0:0:
352,192,177050,1,0,0:0:0:0:
448,256,177157,1,8,0:0:0:0:
448,256,177264,1,8,0:0:0:0:
448,256,177371,1,8,0:0:0:0:
448,256,177478,1,0,0:0:0:0:
480,256,177692,1,8,0:0:0:0:
480,256,177907,1,0,0:0:0:0:
480,256,178121,1,8,0:0:0:0:
480,256,178228,1,0,0:0:0:0:
384,288,178442,1,0,0:0:0:0:
480,256,178550,1,8,0:0:0:0:
480,256,178657,1,8,0:0:0:0:
480,256,178764,1,0,0:0:0:0:
352,160,178871,1,8,0:0:0:0:
352,160,178978,1,0,0:0:0:0:
352,160,179085,1,8,0:0:0:0:
352,160,179192,1,0,0:0:0:0:
224,160,179407,1,8,0:0:0:0:
256,160,179621,1,0,0:0:0:0:
256,160,179835,1,8,0:0:0:0:
256,160,179942,1,8,0:0:0:0:
256,160,180050,1,0,0:0:0:0:
256,160,180264,1,8,0:0:0:0:
256,160,180478,1,0,0:0:0:0:
256,160,180585,1,0,0:0:0:0:
256,160,180692,1,8,0:0:0:0:
256,160,180800,1,8,0:0:0:0:
256,160,180907,1,0,0:0:0:0:
256,160,181014,1,8,0:0:0:0:
256,160,181121,1,0,0:0:0:0:
256,160,181228,1,8,0:0:0:0:
256,160,181335,1,0,0:0:0:0:
256,160,181442,1,8,0:0:0:0:
256,160,181550,1,8,0:0:0:0:
256,160,181657,1,0,0:0:0:0:
256,160,181871,1,8,0:0:0:0:
256,160,181978,1,0,0:0:0:0:
320,160,182192,1,0,0:0:0:0:
320,160,182300,1,8,0:0:0:0:
320,160,182407,1,0,0:0:0:0:
320,160,182514,1,0,0:0:0:0:
320,160,182621,1,8,0:0:0:0:
320,160,182728,1,0,0:0:0:0:
288,160,182835,1,8,0:0:0:0:
288,160,182942,1,8,0:0:0:0:
288,160,183050,1,0,0:0:0:0:
224,160,183264,1,8,0:0:0:0:
224,160,183371,1,8,0:0:0:0:
256,160,183478,1,0,0:0:0:0:
256,160,183692,1,0,0:0:0:0:
256,160,183800,1,0,0:0:0:0:
256,160,183907,1,8,0:0:0:0:
256,160,184014,1,0,0:0:0:0:
256,160,184121,1,8,0:0:0:0:
256,160,184228,1,8,0:0:0:0:
256,160,184335,1,0,0:0:0:0:
256,160,184550,1,8,0:0:0:0:
192,160,184764,1,0,0:0:0:0:
192,160,184978,1,8,0:0:0:0:
192,160,185085,1,0,0:0:0:0:
192,160,185192,1,0,0:0:0:0:
192,160,185407,1,8,0:0:0:0:
192,160,185514,1,8,0:0:0:0:
192,160,185621,1,0,0:0:0:0:
192,160,185728,1,8,0:0:0:0:
192,160,185835,1,8,0:0:0:0:
192,160,185942,1,8,0:0:0:0:
192,160,186050,1,0,0:0:0:0:
192,160,186264,1,8,0:0:0:0:
192,160,186478,1,0,0:0:0:0:
352,224,186692,1,8,0:0:0:0:
352,224,186800,1,8,0:0:0:0:
480,256,186907,1,0,0:0:0:0:
352,128,187121,1,8,0:0:0:0:
352,128,187335,1,0,0:0:0:0:
352,128,187442,1,8,0:0:0:0:
352,128,187550,1,8,0:0:0:0:
352,128,187657,1,8,0:0:0:0:
352,128,187764,1,0,0:0:0:0:
352,128,187871,1,8,0:0:0:0:
352,128,187978,1,0,0:0:0:0:
352,128,188085,1,0,0:0:0:0:
352,128,188192,1,8,0:0:0:0:
352,128,188300,1,0,0:0:0:0:
352,128,188407,1,8,0:0:0:0:
320,160,188621,5,12,0:0:0:0:
416,224,188942,1,4,0:0:0:0:
352,160,189264,1,4,0:0:0:0:
352,160,189478,1,8,0:0:0:0:
352,160,189692,1,8,0:0:0:0:
352,160,189907,1,8,0:0:0:0:
352,160,190014,1,8,0:0:0:0:
352,160,190121,1,8,0:0:0:0:
352,160,190335,1,4,0:0:0:0:
352,192,190764,1,0,0:0:0:0:
448,256,190871,1,8,0:0:0:0:
448,256,190978,1,0,0:0:0:0:
448,256,191085,1,8,0:0:0:0:
448,256,191192,1,0,0:0:0:0:
480,256,191407,1,8,0:0:0:0:
480,256,191621,1,0,0:0:0:0:
480,256,191835,1,8,0:0:0:0:
480,256,191942,1,0,0:0:0:0:
384,288,192157,1,0,0:0:0:0:
480,256,192264,1,8,0:0:0:0:
480,256,192371,1,8,0:0:0:0:
480,256,192478,1,0,0:0:0:0:
352,160,192585,1,8,0:0:0:0:
352,160,192692,1,8,0:0:0:0:
352,160,192800,1,8,0:0:0:0:
352,160,192907,1,0,0:0:0:0:
224,160,193121,1,8,0:0:0:0:
256,160,193335,1,0,0:0:0:0:
256,160,193550,1,8,0:0:0:0:
256,160,193657,1,8,0:0:0:0:
256,160,193764,1,0,0:0:0:0:
256,160,193978,1,8,0:0:0:0:
256,160,194192,1,0,0:0:0:0:
256,160,194300,1,8,0:0:0:0:
256,160,194407,1,8,0:0:0:0:
256,160,194514,1,8,0:0:0:0:
256,160,194621,1,0,0:0:0:0:
256,160,194728,1,0,0:0:0:0:
256,160,194835,1,8,0:0:0:0:
256,160,194942,1,8,0:0:0:0:
256,160,195050,1,0,0:0:0:0:
256,160,195157,1,8,0:0:0:0:
256,160,195264,1,8,0:0:0:0:
256,160,195371,1,0,0:0:0:0:
256,160,195585,1,8,0:0:0:0:
256,160,195692,1,0,0:0:0:0:
320,160,195907,1,0,0:0:0:0:
320,160,196014,1,8,0:0:0:0:
320,160,196121,1,8,0:0:0:0:
320,160,196228,1,8,0:0:0:0:
320,160,196335,1,0,0:0:0:0:
320,160,196442,1,0,0:0:0:0:
288,160,196550,1,8,0:0:0:0:
288,160,196657,1,8,0:0:0:0:
288,160,196764,1,0,0:0:0:0:
224,160,196978,1,8,0:0:0:0:
224,160,197085,1,8,0:0:0:0:
256,160,197192,1,0,0:0:0:0:
256,160,197407,1,0,0:0:0:0:
256,160,197514,1,8,0:0:0:0:
256,160,197621,1,8,0:0:0:0:
256,160,197728,1,0,0:0:0:0:
256,160,197835,1,8,0:0:0:0:
256,160,197942,1,8,0:0:0:0:
256,160,198050,1,0,0:0:0:0:
256,160,198264,1,8,0:0:0:0:
192,160,198478,1,0,0:0:0:0:
192,160,198692,1,8,0:0:0:0:
192,160,198800,1,0,0:0:0:0:
192,160,199014,1,0,0:0:0:0:
192,160,199121,1,8,0:0:0:0:
192,160,199228,1,8,0:0:0:0:
192,160,199335,1,0,0:0:0:0:
192,160,199442,1,8,0:0:0:0:
192,160,199550,1,8,0:0:0:0:
192,160,199657,1,8,0:0:0:0:
192,160,199764,1,0,0:0:0:0:
192,160,199978,1,8,0:0:0:0:
192,160,200192,1,0,0:0:0:0:
352,224,200407,1,8,0:0:0:0:
352,224,200514,1,8,0:0:0:0:
480,256,200621,1,0,0:0:0:0:
352,128,200835,1,8,0:0:0:0:
352,128,201050,1,0,0:0:0:0:
352,128,201157,1,8,0:0:0:0:
352,128,201264,1,8,0:0:0:0:
352,128,201371,1,8,0:0:0:0:
352,128,201478,1,0,0:0:0:0:
352,128,201585,1,8,0:0:0:0:
352,128,201692,1,8,0:0:0:0:
352,128,201800,1,0,0:0:0:0:
352,128,201907,1,8,0:0:0:0:
352,128,202014,1,0,0:0:0:0:
352,128,202121,1,0,0:0:0:0:
320,160,202335,5,12,0:0:0:0:
256,160,202657,1,8,0:0:0:0:
256,160,202764,1,0,0:0:0:0:
256,160,202978,1,8,0:0:0:0:
256,160,203192,1,0,0:0:0:0:
256,160,203300,1,8,0:0:0:0:
256,160,203407,1,8,0:0:0:0:
256,160,203621,1,0,0:0:0:0:
288,192,203835,5,8,0:0:0:0:
288,192,204050,1,0,0:0:0:0:
320,160,204478,1,8,0:0:0:0:
320,160,204585,1,0,0:0:0:0:
320,160,204692,1,8,0:0:0:0:
320,160,204800,1,8,0:0:0:0:
320,160,204907,1,0,0:0:0:0:
320,160,205014,1,8,0:0:0:0:
320,160,205121,1,0,0:0:0:0:
320,160,205228,1,8,0:0:0:0:
320,160,205335,1,8,0:0:0:0:
320,160,205442,1,0,0:0:0:0:
320,128,205550,1,8,0:0:0:0:
320,128,205603,1,8,0:0:0:0:
320,160,205657,1,8,0:0:0:0:
320,160,205764,1,0,0:0:0:0:
416,128,205978,1,0,0:0:0:0:
416,128,206085,1,8,0:0:0:0:
416,128,206192,1,8,0:0:0:0:
416,128,206300,1,0,0:0:0:0:
416,128,206407,1,8,0:0:0:0:
416,96,206621,1,0,0:0:0:0:
416,96,206692,1,0,0:0:0:0:
416,96,206764,1,0,0:0:0:0:
416,96,206835,1,8,0:0:0:0:
416,160,207050,1,8,0:0:0:0:
416,160,207264,1,8,0:0:0:0:
416,160,207371,1,8,0:0:0:0:
480,128,207478,1,0,0:0:0:0:
480,128,207550,1,0,0:0:0:0:
480,128,207621,1,0,0:0:0:0:
480,128,207692,1,0,0:0:0:0:
480,128,207764,1,0,0:0:0:0:
480,128,207835,1,0,0:0:0:0:
480,128,207907,1,8,0:0:0:0:
192,160,208121,1,0,0:0:0:0:
320,160,208228,1,8,0:0:0:0:
352,160,208335,1,0,0:0:0:0:
416,160,208442,1,8,0:0:0:0:
256,96,208496,1,8,0:0:0:0:
448,160,208550,1,8,0:0:0:0:
448,160,208657,1,0,0:0:0:0:
416,160,208764,1,8,0:0:0:0:
448,160,208871,1,0,0:0:0:0:
352,128,209085,1,0,0:0:0:0:
448,32,209300,1,0,0:0:0:0:
448,32,209353,1,0,0:0:0:0:
448,32,209407,1,0,0:0:0:0:
448,32,209460,1,0,0:0:0:0:
448,32,209514,1,0,0:0:0:0:
448,32,209567,1,0,0:0:0:0:
352,128,209621,1,8,0:0:0:0:
224,192,209835,1,8,0:0:0:0:
224,192,210050,1,0,0:0:0:0:
224,192,210157,1,8,0:0:0:0:
224,192,210264,1,8,0:0:0:0:
224,192,210371,1,8,0:0:0:0:
224,192,210478,1,0,0:0:0:0:
224,192,210585,1,0,0:0:0:0:
224,192,210692,1,8,0:0:0:0:
224,192,210800,1,8,0:0:0:0:
256,96,210907,1,0,0:0:0:0:
320,160,211335,1,0,0:0:0:0:
320,160,211442,1,8,0:0:0:0:
320,160,211550,1,8,0:0:0:0:
320,160,211657,1,8,0:0:0:0:
320,160,211764,1,0,0:0:0:0:
320,160,211871,1,8,0:0:0:0:
320,160,211978,1,0,0:0:0:0:
320,160,212085,1,8,0:0:0:0:
160,160,212192,1,8,0:0:0:0:
224,160,212300,1,0,0:0:0:0:
192,192,212407,1,8,0:0:0:0:
192,192,212460,1,8,0:0:0:0:
160,160,212514,1,0,0:0:0:0:
160,128,212621,1,8,0:0:0:0:
384,256,212835,1,8,0:0:0:0:
384,256,212942,1,8,0:0:0:0:
384,256,213050,1,0,0:0:0:0:
384,256,213157,1,0,0:0:0:0:
160,160,213264,1,8,0:0:0:0:
384,256,213335,1,8,0:0:0:0:
384,256,213407,1,8,0:0:0:0:
384,256,213478,1,0,0:0:0:0:
256,160,213800,1,8,0:0:0:0:
224,160,213907,1,8,0:0:0:0:
224,160,214121,1,0,0:0:0:0:
224,160,214228,1,8,0:0:0:0:
416,256,214335,1,0,0:0:0:0:
416,256,214550,1,8,0:0:0:0:
416,256,214764,1,8,0:0:0:0:
416,256,214871,1,8,0:0:0:0:
416,256,214978,1,0,0:0:0:0:
416,256,215085,1,8,0:0:0:0:
416,256,215192,1,0,0:0:0:0:
416,256,215300,1,8,0:0:0:0:
416,256,215407,1,8,0:0:0:0:
416,256,215514,1,8,0:0:0:0:
416,256,215621,1,0,0:0:0:0:
416,256,215728,1,8,0:0:0:0:
416,256,215835,1,8,0:0:0:0:
416,256,215942,1,0,0:0:0:0:
416,256,216050,1,8,0:0:0:0:
320,160,216371,1,8,0:0:0:0:
320,160,216478,1,0,0:0:0:0:
320,160,216692,1,8,0:0:0:0:
320,160,216907,1,0,0:0:0:0:
320,160,217014,1,8,0:0:0:0:
288,128,217335,1,8,0:0:0:0:
288,160,217550,1,8,0:0:0:0:
288,192,217764,5,4,0:0:0:0:
320,192,221192,1,0,0:0:0:0:
352,192,224621,1,8,0:0:0:0:
352,192,228050,1,0,0:0:0:0:
256,192,229764,12,0,231050,0:0:0:0:
288,192,231478,5,0,0:0:0:0:
384,192,231692,1,8,0:0:0:0:
384,192,231800,1,8,0:0:0:0:
384,192,231907,1,0,0:0:0:0:
384,192,232014,1,0,0:0:0:0:
448,288,232121,1,8,0:0:0:0:
448,288,232335,1,8,0:0:0:0:
448,288,232550,1,0,0:0:0:0:
448,288,232657,1,0,0:0:0:0:
448,288,232764,1,8,0:0:0:0:
448,288,232978,1,8,0:0:0:0:
416,256,233085,1,8,0:0:0:0:
416,256,233192,1,0,0:0:0:0:
416,288,233407,1,8,0:0:0:0:
416,288,233514,1,8,0:0:0:0:
416,288,233621,1,0,0:0:0:0:
416,288,233728,1,8,0:0:0:0:
416,288,233835,1,8,0:0:0:0:
416,288,234050,1,8,0:0:0:0:
384,256,234264,1,0,0:0:0:0:
384,256,234371,1,8,0:0:0:0:
384,256,234478,1,8,0:0:0:0:
384,256,234692,1,8,0:0:0:0:
384,256,234800,1,8,0:0:0:0:
384,256,234907,1,0,0:0:0:0:
384,256,235121,1,8,0:0:0:0:
384,256,235228,1,8,0:0:0:0:
384,256,235335,1,0,0:0:0:0:
384,256,235442,1,0,0:0:0:0:
384,256,235550,1,8,0:0:0:0:
384,256,235764,1,8,0:0:0:0:
320,160,235978,1,0,0:0:0:0:
320,160,236085,1,0,0:0:0:0:
320,160,236192,1,8,0:0:0:0:
320,160,236407,1,8,0:0:0:0:
320,160,236514,1,8,0:0:0:0:
320,160,236621,1,0,0:0:0:0:
320,160,236835,1,8,0:0:0:0:
320,160,236942,1,8,0:0:0:0:
320,160,237050,1,0,0:0:0:0:
320,160,237157,1,8,0:0:0:0:
320,160,237264,1,8,0:0:0:0:
320,160,237478,1,8,0:0:0:0:
320,160,237692,1,0,0:0:0:0:
320,160,237800,1,8,0:0:0:0:
320,160,237907,1,8,0:0:0:0:
320,160,238121,1,8,0:0:0:0:
320,160,238228,1,8,0:0:0:0:
320,160,238335,1,0,0:0:0:0:
320,192,238550,1,0,0:0:0:0:
320,192,238657,1,0,0:0:0:0:
320,192,238978,1,0,0:0:0:0:
320,192,239085,1,8,0:0:0:0:
320,192,239407,1,8,0:0:0:0:
320,192,239514,1,8,0:0:0:0:
320,192,239835,1,8,0:0:0:0:
320,192,239942,1,0,0:0:0:0:
320,192,240264,1,0,0:0:0:0:
320,192,240371,1,0,0:0:0:0:
320,192,240692,1,0,0:0:0:0:
320,192,240800,1,8,0:0:0:0:
320,192,241121,1,8,0:0:0:0:
320,192,241228,1,8,0:0:0:0:
320,192,241550,1,8,0:0:0:0:
320,192,241657,1,0,0:0:0:0:
320,192,241978,1,0,0:0:0:0:
320,192,242085,1,0,0:0:0:0:
320,192,242407,1,0,0:0:0:0:
320,192,242514,1,8,0:0:0:0:
256,128,242728,1,0,0:0:0:0:
320,192,242835,1,8,0:0:0:0:
256,128,242942,1,0,0:0:0:0:
320,192,243157,1,0,0:0:0:0:
320,192,243264,1,8,0:0:0:0:
320,192,243371,1,8,0:0:0:0:
224,192,243692,1,8,0:0:0:0:
224,192,243800,1,8,0:0:0:0:
224,192,243907,1,0,0:0:0:0:
224,192,244014,1,0,0:0:0:0:
224,192,244121,1,8,0:0:0:0:
224,192,244228,1,0,0:0:0:0:
224,192,244335,1,8,0:0:0:0:
224,192,244442,1,8,0:0:0:0:
224,192,244550,1,0,0:0:0:0:
224,192,244657,1,0,0:0:0:0:
224,192,244764,1,8,0:0:0:0:
224,192,244871,1,0,0:0:0:0:
224,192,244978,1,8,0:0:0:0:
224,192,245192,1,0,0:0:0:0:
384,288,245407,1,8,0:0:0:0:
384,288,245514,1,0,0:0:0:0:
384,288,245621,1,0,0:0:0:0:
384,288,245728,1,0,0:0:0:0:
384,288,245835,1,8,0:0:0:0:
384,288,246050,1,8,0:0:0:0:
384,288,246264,1,0,0:0:0:0:
384,288,246371,1,0,0:0:0:0:
384,288,246478,1,8,0:0:0:0:
384,288,246692,1,8,0:0:0:0:
384,288,246800,1,0,0:0:0:0:
384,288,246907,1,0,0:0:0:0:
384,288,247121,1,8,0:0:0:0:
384,288,247228,1,0,0:0:0:0:
384,288,247335,1,0,0:0:0:0:
384,288,247442,1,8,0:0:0:0:
384,288,247550,1,8,0:0:0:0:
384,288,247764,1,8,0:0:0:0:
384,288,247978,1,0,0:0:0:0:
384,288,248085,1,0,0:0:0:0:
384,288,248192,1,8,0:0:0:0:
384,288,248407,1,8,0:0:0:0:
384,288,248514,1,8,0:0:0:0:
384,288,248621,1,0,0:0:0:0:
384,288,248835,1,8,0:0:0:0:
384,288,248942,1,0,0:0:0:0:
384,288,249050,1,0,0:0:0:0:
384,288,249157,1,0,0:0:0:0:
384,288,249264,1,8,0:0:0:0:
384,288,249478,1,8,0:0:0:0:
384,288,249692,1,0,0:0:0:0:
384,288,249800,1,0,0:0:0:0:
384,288,249907,1,8,0:0:0:0:
384,288,250121,1,8,0:0:0:0:
384,288,250228,1,0,0:0:0:0:
384,288,250335,1,0,0:0:0:0:
384,288,250550,1,8,0:0:0:0:
384,288,250657,1,0,0:0:0:0:
384,288,250764,1,0,0:0:0:0:
384,288,250871,1,8,0:0:0:0:
384,288,250978,1,8,0:0:0:0:
384,288,251192,1,8,0:0:0:0:
384,288,251407,1,0,0:0:0:0:
384,288,251514,1,0,0:0:0:0:
384,288,251621,1,8,0:0:0:0:
384,288,251835,1,8,0:0:0:0:
384,288,251942,1,8,0:0:0:0:
192,192,252050,1,0,0:0:0:0:
224,192,252264,1,0,0:0:0:0:
224,192,252371,1,0,0:0:0:0:
224,192,252692,1,0,0:0:0:0:
224,192,252800,1,8,0:0:0:0:
224,192,253121,1,8,0:0:0:0:
224,192,253228,1,8,0:0:0:0:
224,192,253550,1,8,0:0:0:0:
224,192,253657,1,0,0:0:0:0:
224,192,253978,1,0,0:0:0:0:
224,192,254085,1,0,0:0:0:0:
224,192,254407,1,0,0:0:0:0:
224,192,254514,1,8,0:0:0:0:
224,192,254835,1,8,0:0:0:0:
224,192,254942,1,8,0:0:0:0:
224,192,255264,1,8,0:0:0:0:
224,192,255371,1,0,0:0:0:0:
224,192,255692,1,0,0:0:0:0:
224,192,255800,1,0,0:0:0:0:
224,192,256121,1,0,0:0:0:0:
224,192,256228,1,8,0:0:0:0:
256,128,256442,1,0,0:0:0:0:
224,192,256550,1,8,0:0:0:0:
224,192,256657,1,0,0:0:0:0:
128,96,256871,1,0,0:0:0:0:
128,96,256978,1,8,0:0:0:0:
128,96,257085,1,8,0:0:0:0:
352,256,257407,1,8,0:0:0:0:
352,256,257514,1,0,0:0:0:0:
352,256,257621,1,0,0:0:0:0:
352,256,257728,1,0,0:0:0:0:
352,256,257835,1,8,0:0:0:0:
352,256,257942,1,0,0:0:0:0:
352,256,258050,1,8,0:0:0:0:
352,256,258157,1,8,0:0:0:0:
352,256,258264,1,0,0:0:0:0:
352,256,258371,1,0,0:0:0:0:
352,256,258478,1,8,0:0:0:0:
352,256,258585,1,0,0:0:0:0:
352,256,258692,1,8,0:0:0:0:
352,256,258907,1,0,0:0:0:0:
224,192,259121,1,8,0:0:0:0:
224,192,259228,1,8,0:0:0:0:
224,192,259335,1,0,0:0:0:0:
224,192,259442,1,0,0:0:0:0:
224,192,259550,1,8,0:0:0:0:
224,192,259657,1,0,0:0:0:0:
224,192,259764,1,8,0:0:0:0:
224,192,259871,1,8,0:0:0:0:
224,192,259978,1,0,0:0:0:0:
224,192,260085,1,0,0:0:0:0:
224,192,260192,1,8,0:0:0:0:
224,192,260300,1,0,0:0:0:0:
224,192,260407,1,8,0:0:0:0:
224,160,260621,1,0,0:0:0:0:
224,192,260835,1,8,0:0:0:0:
224,192,260942,1,8,0:0:0:0:
224,192,261050,1,0,0:0:0:0:
224,192,261157,1,8,0:0:0:0:
224,192,261264,1,8,0:0:0:0:
224,192,261371,1,0,0:0:0:0:
224,192,261478,1,0,0:0:0:0:
224,192,261585,1,8,0:0:0:0:
224,192,261692,1,0,0:0:0:0:
224,192,261800,1,8,0:0:0:0:
224,192,261907,1,8,0:0:0:0:
224,192,262014,1,0,0:0:0:0:
224,192,262121,1,8,0:0:0:0:
256,128,262335,1,0,0:0:0:0:
224,192,262550,1,8,0:0:0:0:
224,192,262657,1,0,0:0:0:0:
224,192,262764,1,0,0:0:0:0:
224,192,262871,1,0,0:0:0:0:
224,192,262978,1,8,0:0:0:0:
224,192,263085,1,0,0:0:0:0:
224,192,263192,1,8,0:0:0:0:
224,192,263300,1,8,0:0:0:0:
224,192,263407,1,0,0:0:0:0:
224,192,263514,1,0,0:0:0:0:
224,192,263621,1,8,0:0:0:0:
224,192,263728,1,0,0:0:0:0:
224,192,263835,1,8,0:0:0:0:
256,160,264050,1,0,0:0:0:0:
224,192,264264,1,8,0:0:0:0:
224,192,264371,1,0,0:0:0:0:
224,192,264478,1,0,0:0:0:0:
224,192,264585,1,8,0:0:0:0:
224,192,264692,1,8,0:0:0:0:
224,192,264800,1,0,0:0:0:0:
224,192,264907,1,8,0:0:0:0:
224,192,265014,1,8,0:0:0:0:
224,192,265121,1,0,0:0:0:0:
224,192,265228,1,0,0:0:0:0:
224,192,265335,1,8,0:0:0:0:
224,192,265442,1,0,0:0:0:0:
224,192,265550,1,8,0:0:0:0:
224,128,265764,1,0,0:0:0:0:
224,192,265978,1,8,0:0:0:0:
224,192,266085,1,8,0:0:0:0:
224,192,266192,1,0,0:0:0:0:
224,192,266300,1,0,0:0:0:0:
224,192,266407,1,8,0:0:0:0:
224,192,266514,1,0,0:0:0:0:
224,192,266621,1,8,0:0:0:0:
224,192,266728,1,8,0:0:0:0:
224,192,266835,1,0,0:0:0:0:
224,192,266942,1,0,0:0:0:0:
224,192,267050,1,8,0:0:0:0:
224,192,267157,1,0,0:0:0:0:
224,192,267264,1,8,0:0:0:0:
256,160,267478,1,0,0:0:0:0:
224,192,267692,1,8,0:0:0:0:
224,192,267800,1,8,0:0:0:0:
224,192,267907,1,0,0:0:0:0:
224,192,268014,1,8,0:0:0:0:
224,192,268121,1,8,0:0:0:0:
224,192,268228,1,0,0:0:0:0:
224,192,268335,1,0,0:0:0:0:
224,192,268442,1,8,0:0:0:0:
224,192,268550,1,0,0:0:0:0:
224,192,268657,1,8,0:0:0:0:
224,192,268764,1,8,0:0:0:0:
224,192,268871,1,0,0:0:0:0:
224,192,268978,1,8,0:0:0:0:
352,160,269192,1,0,0:0:0:0:
224,192,269407,1,8,0:0:0:0:
224,192,269514,1,0,0:0:0:0:
224,192,269621,1,0,0:0:0:0:
224,192,269728,1,0,0:0:0:0:
224,192,269835,1,8,0:0:0:0:
224,192,269942,1,0,0:0:0:0:
224,192,270050,1,8,0:0:0:0:
224,192,270157,1,8,0:0:0:0:
224,192,270264,1,0,0:0:0:0:
224,192,270371,1,0,0:0:0:0:
224,192,270478,1,8,0:0:0:0:
224,192,270585,1,0,0:0:0:0:
224,192,270692,1,8,0:0:0:0:
288,160,270907,1,0,0:0:0:0:
224,192,271121,1,8,0:0:0:0:
224,192,271228,1,0,0:0:0:0:
224,192,271335,1,0,0:0:0:0:
224,192,271442,1,8,0:0:0:0:
224,192,271550,1,8,0:0:0:0:
224,192,271657,1,0,0:0:0:0:
224,192,271764,1,8,0:0:0:0:
224,192,271871,1,8,0:0:0:0:
224,192,271978,1,0,0:0:0:0:
224,192,272085,1,0,0:0:0:0:
224,192,272192,1,8,0:0:0:0:
224,192,272300,1,0,0:0:0:0:
224,192,272407,1,8,0:0:0:0:
224,160,272621,1,4,0:0:0:0:
128,128,273264,1,4,0:0:0:0:
160,160,276050,1,4,0:0:0:0:
160,160,276692,1,4,0:0:0:0:
224,128,279478,1,4,0:0:0:0:
224,128,280121,1,4,0:0:0:0:
224,128,282907,1,4,0:0:0:0:
224,128,283550,1,4,0:0:0:0:
256,128,286121,1,4,0:0:0:0:
256,128,286335,1,12,0:0:0:0:
256,128,286978,1,12,0:0:0:0:
256,160,287621,1,8,0:0:0:0:
384,192,288050,1,0,0:0:0:0:
416,256,288478,1,0,0:0:0:0:
416,256,288585,1,0,0:0:0:0:
416,256,288692,1,0,0:0:0:0:
416,256,288800,1,0,0:0:0:0:
416,256,288907,1,8,0:0:0:0:
256,160,289335,1,0,0:0:0:0:
256,192,289764,1,4,0:0:0:0:
256,192,290407,1,12,0:0:0:0:
256,160,291050,1,0,0:0:0:0:
256,160,291478,2,0,L|320:160,12,35
224,160,293192,1,12,0:0:0:0:
224,160,293835,1,12,0:0:0:0:
256,160,294478,1,8,0:0:0:0:
256,160,294907,1,0,0:0:0:0:
256,160,295335,1,0,0:0:0:0:
256,160,295764,1,0,0:0:0:0:
256,160,296192,1,4,0:0:0:0:
256,160,296407,1,4,0:0:0:0:
256,160,296621,1,12,0:0:0:0:
320,128,297264,1,12,0:0:0:0:
256,192,297907,12,0,299621,0:0:0:0:
224,160,299835,5,8,0:0:0:0:
320,192,300050,1,4,0:0:0:0:
288,128,300478,1,8,0:0:0:0:
384,192,300692,1,4,0:0:0:0:
288,128,300907,1,8,0:0:0:0:
288,160,301335,1,8,0:0:0:0:
288,160,301764,1,8,0:0:0:0:
288,160,301978,1,8,0:0:0:0:
288,160,302192,1,8,0:0:0:0:
256,128,302621,1,8,0:0:0:0:
256,128,303050,1,8,0:0:0:0:
256,128,303478,1,4,0:0:0:0:
256,128,303692,1,8,0:0:0:0:
256,128,303800,1,8,0:0:0:0:
256,128,303907,1,0,0:0:0:0:
256,128,304014,1,0,0:0:0:0:
256,128,304121,1,8,0:0:0:0:
256,128,304228,1,0,0:0:0:0:
256,128,304335,1,8,0:0:0:0:
256,128,304442,1,8,0:0:0:0:
256,128,304550,1,0,0:0:0:0:
256,128,304657,1,0,0:0:0:0:
256,128,304764,1,8,0:0:0:0:
256,128,304978,1,8,0:0:0:0:
256,128,305192,1,0,0:0:0:0:
256,128,305407,1,8,0:0:0:0:
256,128,305514,1,8,0:0:0:0:
256,128,305621,1,0,0:0:0:0:
256,128,305728,1,8,0:0:0:0:
256,128,305835,1,8,0:0:0:0:
256,128,305942,1,0,0:0:0:0:
256,128,306050,1,0,0:0:0:0:
256,128,306157,1,8,0:0:0:0:
256,128,306264,1,0,0:0:0:0:
256,128,306371,1,8,0:0:0:0:
256,128,306478,1,8,0:0:0:0:
256,128,306692,1,8,0:0:0:0:
256,128,306907,1,0,0:0:0:0:
256,128,307121,1,8,0:0:0:0:
256,128,307228,1,0,0:0:0:0:
256,128,307335,1,0,0:0:0:0:
256,128,307442,1,0,0:0:0:0:
256,128,307550,1,8,0:0:0:0:
256,128,307657,1,0,0:0:0:0:
256,128,307764,1,8,0:0:0:0:
256,128,307871,1,8,0:0:0:0:
256,128,307978,1,0,0:0:0:0:
256,128,308085,1,0,0:0:0:0:
256,128,308192,1,8,0:0:0:0:
256,128,308407,1,8,0:0:0:0:
256,128,308621,1,0,0:0:0:0:
256,128,308835,1,8,0:0:0:0:
256,128,308942,1,0,0:0:0:0:
256,128,309050,1,0,0:0:0:0:
256,128,309157,5,8,0:0:0:0:
256,128,309264,1,8,0:0:0:0:
256,128,309371,1,0,0:0:0:0:
256,128,309478,1,8,0:0:0:0:
256,128,309585,1,8,0:0:0:0:
256,128,309692,1,0,0:0:0:0:
256,128,309800,1,0,0:0:0:0:
256,128,309907,1,8,0:0:0:0:
256,128,310121,1,8,0:0:0:0:
256,192,310335,5,8,0:0:0:0:
256,192,310407,1,8,0:0:0:0:
256,192,310478,1,8,0:0:0:0:
256,192,310550,1,8,0:0:0:0:
256,192,310621,1,8,0:0:0:0:
256,192,310692,1,8,0:0:0:0:
256,192,310764,1,8,0:0:0:0:
256,192,310835,1,8,0:0:0:0:
256,192,310907,1,8,0:0:0:0:
256,192,310978,1,8,0:0:0:0:
256,192,311050,1,8,0:0:0:0:
256,192,311121,1,8,0:0:0:0:
160,32,311192,1,8,0:0:0:0:
160,32,311264,1,8,0:0:0:0:
160,32,311335,1,8,0:0:0:0:
128,32,311407,1,0,0:0:0:0:
320,64,311514,1,0,0:0:0:0:
352,192,311621,1,8,0:0:0:0:
160,128,311835,1,0,0:0:0:0:
256,192,312050,5,8,0:0:0:0:
256,192,312121,1,8,0:0:0:0:
256,192,312192,1,8,0:0:0:0:
256,192,312264,1,8,0:0:0:0:
256,192,312335,1,8,0:0:0:0:
256,192,312407,1,8,0:0:0:0:
256,192,312478,1,8,0:0:0:0:
256,192,312550,1,8,0:0:0:0:
256,192,312621,1,8,0:0:0:0:
256,192,312692,1,8,0:0:0:0:
256,192,312764,1,8,0:0:0:0:
256,192,312835,1,8,0:0:0:0:
160,32,312907,1,8,0:0:0:0:
160,32,312978,1,8,0:0:0:0:
160,32,313050,1,8,0:0:0:0:
128,32,313121,1,0,0:0:0:0:
320,64,313228,1,0,0:0:0:0:
352,192,313335,1,8,0:0:0:0:
160,160,313550,1,0,0:0:0:0:
320,224,313764,5,4,0:0:0:0:
288,224,313978,1,8,0:0:0:0:
288,224,314085,1,8,0:0:0:0:
288,224,314192,1,8,0:0:0:0:
288,224,314300,1,8,0:0:0:0:
288,224,314407,1,8,0:0:0:0:
288,224,314621,1,4,0:0:0:0:
288,224,314835,1,8,0:0:0:0:
288,224,314942,1,8,0:0:0:0:
288,224,315050,1,0,0:0:0:0:
288,224,315157,1,8,0:0:0:0:
288,224,315264,1,8,0:0:0:0:
288,224,315478,1,4,0:0:0:0:
288,224,315692,1,8,0:0:0:0:
288,224,315800,1,8,0:0:0:0:
288,224,315907,1,8,0:0:0:0:
288,224,316014,1,8,0:0:0:0:
288,224,316121,1,8,0:0:0:0:
288,224,316335,1,4,0:0:0:0:
288,224,316550,1,8,0:0:0:0:
288,224,316657,1,8,0:0:0:0:
288,224,316764,1,0,0:0:0:0:
288,224,316871,1,8,0:0:0:0:
288,224,316978,1,8,0:0:0:0:
352,160,317192,5,8,0:0:0:0:
352,160,317264,1,8,0:0:0:0:
416,256,317335,1,8,0:0:0:0:
416,256,317407,1,8,0:0:0:0:
416,256,317478,1,8,0:0:0:0:
416,256,317550,1,8,0:0:0:0:
416,256,317621,1,8,0:0:0:0:
416,256,317692,1,8,0:0:0:0:
416,256,317764,1,8,0:0:0:0:
416,256,317835,1,8,0:0:0:0:
416,256,317907,1,8,0:0:0:0:
416,256,317978,1,8,0:0:0:0:
416,256,318050,1,8,0:0:0:0:
416,256,318121,1,8,0:0:0:0:
416,256,318192,1,8,0:0:0:0:
416,256,318264,1,8,0:0:0:0:
416,256,318335,1,8,0:0:0:0:
416,256,318407,1,8,0:0:0:0:
416,256,318478,1,8,0:0:0:0:
416,256,318550,1,8,0:0:0:0:
416,256,318621,1,8,0:0:0:0:
416,256,318692,1,8,0:0:0:0:
416,256,318764,1,8,0:0:0:0:
416,256,318835,1,8,0:0:0:0:
416,256,318907,1,0,0:0:0:0:
256,96,319121,1,8,0:0:0:0:
256,96,319228,1,8,0:0:0:0:
256,96,319335,1,0,0:0:0:0:
256,96,319442,1,0,0:0:0:0:
256,96,319550,1,8,0:0:0:0:
256,96,319657,1,0,0:0:0:0:
256,96,319764,1,8,0:0:0:0:
256,96,319871,1,8,0:0:0:0:
256,96,319978,1,0,0:0:0:0:
256,96,320085,1,0,0:0:0:0:
256,96,320192,1,8,0:0:0:0:
256,96,320300,1,0,0:0:0:0:
256,96,320407,1,8,0:0:0:0:
256,96,320621,1,4,0:0:0:0:
288,160,320835,1,8,0:0:0:0:
288,160,320942,1,8,0:0:0:0:
288,160,321050,1,0,0:0:0:0:
288,160,321157,1,0,0:0:0:0:
288,160,321264,1,8,0:0:0:0:
288,160,321371,1,0,0:0:0:0:
288,160,321478,1,8,0:0:0:0:
288,160,321585,1,8,0:0:0:0:
288,160,321692,1,0,0:0:0:0:
160,160,321764,1,0,0:0:0:0:
288,160,321835,1,0,0:0:0:0:
288,160,321907,1,8,0:0:0:0:
288,160,322014,1,0,0:0:0:0:
288,160,322121,1,8,0:0:0:0:
288,160,322228,1,8,0:0:0:0:
320,160,322335,1,0,0:0:0:0:
256,160,322550,1,8,0:0:0:0:
256,160,322657,1,0,0:0:0:0:
256,160,322764,1,0,0:0:0:0:
256,160,322871,1,0,0:0:0:0:
256,160,322978,1,8,0:0:0:0:
256,160,323085,1,0,0:0:0:0:
256,160,323192,1,8,0:0:0:0:
192,96,323264,1,8,0:0:0:0:
256,160,323335,1,8,0:0:0:0:
256,160,323407,1,0,0:0:0:0:
256,160,323478,1,0,0:0:0:0:
224,192,323550,1,0,0:0:0:0:
256,160,323621,1,8,0:0:0:0:
256,160,323728,1,0,0:0:0:0:
256,160,323835,1,8,0:0:0:0:
256,160,323942,1,8,0:0:0:0:
256,160,324050,1,0,0:0:0:0:
256,160,324264,1,8,0:0:0:0:
160,128,324335,1,8,0:0:0:0:
256,160,324407,1,8,0:0:0:0:
256,160,324478,1,0,0:0:0:0:
256,160,324585,1,0,0:0:0:0:
256,160,324692,1,8,0:0:0:0:
256,160,324800,1,8,0:0:0:0:
256,160,324907,1,0,0:0:0:0:
256,160,325014,1,8,0:0:0:0:
256,160,325121,1,0,0:0:0:0:
256,160,325228,1,0,0:0:0:0:
256,160,325335,1,8,0:0:0:0:
256,160,325442,1,0,0:0:0:0:
256,160,325550,1,8,0:0:0:0:
256,160,325657,1,8,0:0:0:0:
256,160,325764,1,0,0:0:0:0:
256,160,325978,1,8,0:0:0:0:
160,160,326050,1,8,0:0:0:0:
256,160,326121,1,8,0:0:0:0:
256,160,326192,1,0,0:0:0:0:
256,160,326300,1,0,0:0:0:0:
256,160,326407,1,8,0:0:0:0:
256,160,326514,1,0,0:0:0:0:
352,192,326567,1,0,0:0:0:0:
256,160,326621,1,0,0:0:0:0:
256,160,326728,1,8,0:0:0:0:
256,160,326835,1,0,0:0:0:0:
256,160,326942,1,8,0:0:0:0:
256,160,327050,1,8,0:0:0:0:
256,160,327157,1,0,0:0:0:0:
256,160,327264,1,8,0:0:0:0:
256,160,327371,1,8,0:0:0:0:
256,160,327478,1,0,0:0:0:0:
256,160,327692,1,0,0:0:0:0:
256,160,327800,1,0,0:0:0:0:
256,160,328014,1,8,0:0:0:0:
256,160,328121,1,0,0:0:0:0:
256,160,328228,1,8,0:0:0:0:
256,160,328442,1,0,0:0:0:0:
288,160,328550,1,8,0:0:0:0:
288,160,328657,1,8,0:0:0:0:
288,160,328871,1,0,0:0:0:0:
288,160,328978,1,8,0:0:0:0:
224,160,329032,1,8,0:0:0:0:
288,160,329085,1,8,0:0:0:0:
288,160,329192,1,0,0:0:0:0:
288,160,329407,1,0,0:0:0:0:
288,160,329514,1,0,0:0:0:0:
288,160,329728,1,8,0:0:0:0:
288,160,329835,1,0,0:0:0:0:
288,160,329942,1,8,0:0:0:0:
288,160,330157,1,0,0:0:0:0:
288,160,330264,1,8,0:0:0:0:
288,160,330371,1,8,0:0:0:0:
288,160,330585,1,0,0:0:0:0:
288,160,330692,1,8,0:0:0:0:
288,160,330800,1,8,0:0:0:0:
288,160,330907,1,0,0:0:0:0:
288,160,331121,1,0,0:0:0:0:
288,160,331228,1,0,0:0:0:0:
288,160,331442,1,8,0:0:0:0:
288,160,331550,1,0,0:0:0:0:
288,160,331657,1,8,0:0:0:0:
288,160,331871,1,0,0:0:0:0:
288,160,331978,1,8,0:0:0:0:
288,160,332085,1,8,0:0:0:0:
288,160,332300,1,0,0:0:0:0:
288,160,332407,1,0,0:0:0:0:
288,160,332514,1,8,0:0:0:0:
288,160,332621,1,0,0:0:0:0:
288,160,332835,1,8,0:0:0:0:
288,160,332942,1,8,0:0:0:0:
288,160,333050,1,0,0:0:0:0:
288,160,333157,1,0,0:0:0:0:
288,160,333264,1,8,0:0:0:0:
288,160,333371,1,0,0:0:0:0:
288,160,333478,1,8,0:0:0:0:
288,160,333585,1,8,0:0:0:0:
288,160,333692,1,0,0:0:0:0:
288,160,333800,1,0,0:0:0:0:
288,160,333907,1,8,0:0:0:0:
288,160,334014,1,0,0:0:0:0:
288,160,334121,1,8,0:0:0:0:
288,160,334335,1,4,0:0:0:0:
384,192,334550,1,8,0:0:0:0:
384,192,334657,1,8,0:0:0:0:
384,192,334764,1,0,0:0:0:0:
384,192,334871,1,0,0:0:0:0:
384,192,334978,1,8,0:0:0:0:
384,192,335085,1,0,0:0:0:0:
384,192,335192,1,8,0:0:0:0:
160,160,335264,1,8,0:0:0:0:
384,192,335335,1,8,0:0:0:0:
384,192,335407,1,0,0:0:0:0:
384,192,335514,1,0,0:0:0:0:
384,192,335621,1,8,0:0:0:0:
224,160,335728,1,8,0:0:0:0:
384,192,335835,1,0,0:0:0:0:
384,192,335942,1,8,0:0:0:0:
160,128,335996,1,8,0:0:0:0:
384,192,336050,1,0,0:0:0:0:
384,192,336264,1,8,0:0:0:0:
384,192,336371,1,0,0:0:0:0:
384,192,336478,1,0,0:0:0:0:
384,192,336585,1,0,0:0:0:0:
384,192,336692,1,8,0:0:0:0:
384,192,336800,1,0,0:0:0:0:
384,192,336907,1,8,0:0:0:0:
224,160,336978,1,8,0:0:0:0:
384,192,337050,1,8,0:0:0:0:
384,192,337121,1,0,0:0:0:0:
384,192,337192,1,0,0:0:0:0:
160,64,337264,1,0,0:0:0:0:
384,192,337335,1,8,0:0:0:0:
384,192,337442,1,0,0:0:0:0:
384,192,337550,1,8,0:0:0:0:
384,192,337657,1,8,0:0:0:0:
384,192,337764,1,0,0:0:0:0:
384,192,337978,1,8,0:0:0:0:
224,160,338050,1,8,0:0:0:0:
384,192,338121,1,8,0:0:0:0:
384,192,338192,1,0,0:0:0:0:
384,192,338300,1,0,0:0:0:0:
384,192,338407,1,8,0:0:0:0:
384,192,338514,1,0,0:0:0:0:
384,192,338621,1,8,0:0:0:0:
384,192,338728,1,8,0:0:0:0:
384,192,338835,1,0,0:0:0:0:
384,192,338942,1,0,0:0:0:0:
384,192,339050,1,8,0:0:0:0:
384,192,339157,1,0,0:0:0:0:
384,192,339264,1,8,0:0:0:0:
320,192,339317,1,0,0:0:0:0:
160,64,339371,1,8,0:0:0:0:
384,192,339478,1,0,0:0:0:0:
384,192,339692,1,8,0:0:0:0:
192,192,339764,1,8,0:0:0:0:
384,192,339835,1,8,0:0:0:0:
384,192,339907,1,0,0:0:0:0:
384,192,340014,1,0,0:0:0:0:
384,192,340121,1,8,0:0:0:0:
384,192,340228,1,0,0:0:0:0:
224,128,340282,1,0,0:0:0:0:
384,192,340335,1,0,0:0:0:0:
384,192,340442,1,8,0:0:0:0:
384,192,340550,1,0,0:0:0:0:
384,192,340657,1,8,0:0:0:0:
384,192,340764,1,8,0:0:0:0:
384,192,340871,1,0,0:0:0:0:
384,192,340978,1,8,0:0:0:0:
384,192,341085,1,8,0:0:0:0:
384,192,341192,1,0,0:0:0:0:
256,160,341407,1,0,0:0:0:0:
256,160,341514,1,0,0:0:0:0:
256,160,341728,1,8,0:0:0:0:
256,160,341835,1,0,0:0:0:0:
256,160,341942,1,8,0:0:0:0:
256,160,342157,1,0,0:0:0:0:
288,160,342264,1,8,0:0:0:0:
288,160,342371,1,8,0:0:0:0:
288,160,342585,1,0,0:0:0:0:
288,160,342692,1,8,0:0:0:0:
224,160,342746,1,8,0:0:0:0:
288,160,342800,1,8,0:0:0:0:
288,160,342907,1,0,0:0:0:0:
288,160,343121,1,0,0:0:0:0:
288,160,343228,1,0,0:0:0:0:
288,160,343442,1,8,0:0:0:0:
288,160,343550,1,0,0:0:0:0:
288,160,343657,1,8,0:0:0:0:
288,160,343871,1,0,0:0:0:0:
288,160,343978,1,8,0:0:0:0:
288,160,344085,1,8,0:0:0:0:
288,160,344300,1,0,0:0:0:0:
288,160,344407,1,8,0:0:0:0:
288,160,344514,1,8,0:0:0:0:
288,160,344621,1,0,0:0:0:0:
288,160,344835,1,0,0:0:0:0:
288,160,344942,1,0,0:0:0:0:
288,160,345157,1,8,0:0:0:0:
288,160,345264,1,0,0:0:0:0:
288,160,345371,1,8,0:0:0:0:
288,160,345585,1,0,0:0:0:0:
288,160,345692,1,8,0:0:0:0:
288,160,345800,1,8,0:0:0:0:
288,160,346014,1,0,0:0:0:0:
288,160,346121,1,0,0:0:0:0:
288,160,346228,1,8,0:0:0:0:
288,160,346335,1,0,0:0:0:0:
288,160,346550,1,8,0:0:0:0:
288,160,346657,1,8,0:0:0:0:
288,160,346764,1,0,0:0:0:0:
288,160,346871,1,0,0:0:0:0:
288,160,346978,1,8,0:0:0:0:
288,160,347085,1,0,0:0:0:0:
288,160,347192,1,8,0:0:0:0:
288,160,347300,1,8,0:0:0:0:
288,160,347407,1,0,0:0:0:0:
288,160,347514,1,0,0:0:0:0:
288,160,347621,1,8,0:0:0:0:
288,160,347728,1,0,0:0:0:0:
288,160,347835,1,8,0:0:0:0:
288,160,348050,1,4,0:0:0:0:
256,192,348264,1,8,0:0:0:0:
256,192,348371,1,8,0:0:0:0:
256,192,348478,1,0,0:0:0:0:
256,192,348585,1,0,0:0:0:0:
256,192,348692,1,8,0:0:0:0:
256,192,348907,1,4,0:0:0:0:
256,192,349121,1,8,0:0:0:0:
256,192,349228,1,0,0:0:0:0:
256,192,349335,1,0,0:0:0:0:
256,192,349442,1,0,0:0:0:0:
256,192,349550,1,8,0:0:0:0:
256,192,349764,1,4,0:0:0:0:
256,192,349978,1,8,0:0:0:0:
256,192,350085,1,8,0:0:0:0:
256,192,350192,1,0,0:0:0:0:
256,192,350300,1,0,0:0:0:0:
256,192,350407,1,8,0:0:0:0:
256,192,350621,1,4,0:0:0:0:
256,192,350835,1,8,0:0:0:0:
256,192,350942,1,0,0:0:0:0:
256,192,351050,1,0,0:0:0:0:
256,192,351157,1,0,0:0:0:0:
256,192,351264,1,8,0:0:0:0:
256,192,351478,1,4,0:0:0:0:
384,256,351692,1,8,0:0:0:0:
384,256,351907,1,8,0:0:0:0:
384,256,352014,1,8,0:0:0:0:
384,256,352121,1,8,0:0:0:0:
192,96,352228,1,8,0:0:0:0:
256,160,352335,1,4,0:0:0:0:
256,128,352550,1,8,0:0:0:0:
256,128,352764,1,8,0:0:0:0:
256,128,352871,1,8,0:0:0:0:
256,128,352978,1,8,0:0:0:0:
256,128,353085,1,8,0:0:0:0:
256,128,353192,1,0,0:0:0:0:
256,96,353300,1,0,0:0:0:0:
256,128,353407,1,8,0:0:0:0:
256,160,353514,1,0,0:0:0:0:
256,160,353621,1,8,0:0:0:0:
256,160,353728,1,8,0:0:0:0:
256,128,353835,1,0,0:0:0:0:
256,160,353942,1,0,0:0:0:0:
256,160,354050,1,8,0:0:0:0:
288,128,354157,1,0,0:0:0:0:
288,128,354264,1,8,0:0:0:0:
288,128,354371,1,8,0:0:0:0:
288,128,354478,1,0,0:0:0:0:
288,128,354585,1,0,0:0:0:0:
288,128,354692,1,8,0:0:0:0:
320,256,354907,1,0,0:0:0:0:
448,320,355014,1,0,0:0:0:0:
320,256,355121,1,8,0:0:0:0:
320,256,355228,1,8,0:0:0:0:
320,256,355335,1,0,0:0:0:0:
448,320,355442,1,0,0:0:0:0:
448,320,355550,1,8,0:0:0:0:
448,320,355657,1,8,0:0:0:0:
448,320,355764,1,0,0:0:0:0:
448,320,355871,1,0,0:0:0:0:
448,320,355978,1,8,0:0:0:0:
448,320,356085,1,8,0:0:0:0:
448,320,356192,1,0,0:0:0:0:
448,320,356300,1,0,0:0:0:0:
448,320,356407,1,8,0:0:0:0:
448,320,356514,1,8,0:0:0:0:
448,320,356621,1,0,0:0:0:0:
256,192,356692,1,0,0:0:0:0:
256,160,356764,1,0,0:0:0:0:
448,320,356835,1,8,0:0:0:0:
448,320,356942,1,8,0:0:0:0:
448,320,357050,1,0,0:0:0:0:
448,320,357157,5,0,0:0:0:0:
448,320,357264,1,8,0:0:0:0:
448,320,357371,1,8,0:0:0:0:
448,320,357478,1,0,0:0:0:0:
160,160,357550,1,0,0:0:0:0:
448,320,357621,1,0,0:0:0:0:
448,320,357692,1,8,0:0:0:0:
448,320,357800,1,8,0:0:0:0:
448,320,357907,1,0,0:0:0:0:
448,320,358014,1,0,0:0:0:0:
448,320,358121,1,8,0:0:0:0:
448,320,358228,1,8,0:0:0:0:
192,64,358335,5,0,0:0:0:0:
256,96,358407,1,0,0:0:0:0:
256,96,358478,1,0,0:0:0:0:
256,96,358550,1,8,0:0:0:0:
288,96,358657,1,8,0:0:0:0:
256,64,358764,1,0,0:0:0:0:
256,64,358835,1,0,0:0:0:0:
256,64,358907,1,0,0:0:0:0:
256,64,358978,1,8,0:0:0:0:
288,96,359085,1,8,0:0:0:0:
256,64,359192,1,0,0:0:0:0:
256,64,359264,1,0,0:0:0:0:
256,64,359335,1,0,0:0:0:0:
256,64,359407,1,8,0:0:0:0:
288,96,359514,1,8,0:0:0:0:
352,160,359621,1,0,0:0:0:0:
352,160,359692,1,8,0:0:0:0:
352,160,359764,1,8,0:0:0:0:
352,160,359835,1,0,0:0:0:0:
288,96,359942,1,8,0:0:0:0:
288,64,360050,1,0,0:0:0:0:
224,160,360264,1,12,0:0:0:0:
224,160,360585,1,12,0:0:0:0:
224,160,360907,1,12,0:0:0:0:
224,160,361228,1,12,0:0:0:0:
256,192,361550,12,0,364764,0:0:0:0:
352,256,365192,5,4,0:0:0:0:
288,160,365407,1,8,0:0:0:0:
288,160,365621,1,0,0:0:0:0:
288,160,365728,1,8,0:0:0:0:
288,128,365942,1,0,0:0:0:0:
320,160,366050,1,8,0:0:0:0:
288,128,366264,1,0,0:0:0:0:
320,160,366371,1,8,0:0:0:0:
320,160,366692,1,8,0:0:0:0:
320,160,366800,1,8,0:0:0:0:
320,192,366907,1,0,0:0:0:0:
288,160,367121,1,8,0:0:0:0:
288,160,367335,1,0,0:0:0:0:
288,160,367442,1,8,0:0:0:0:
288,160,367657,1,0,0:0:0:0:
288,160,367764,1,8,0:0:0:0:
352,224,367871,1,0,0:0:0:0:
352,224,367978,1,0,0:0:0:0:
352,224,368085,1,8,0:0:0:0:
352,224,368300,1,8,0:0:0:0:
352,224,368407,1,0,0:0:0:0:
160,160,368514,1,8,0:0:0:0:
352,224,368621,1,0,0:0:0:0:
352,224,368835,1,8,0:0:0:0:
352,224,369050,1,0,0:0:0:0:
352,224,369157,1,8,0:0:0:0:
352,224,369371,1,0,0:0:0:0:
352,224,369478,1,0,0:0:0:0:
352,224,369692,1,0,0:0:0:0:
352,224,369800,1,8,0:0:0:0:
288,160,370121,1,8,0:0:0:0:
320,224,370228,1,8,0:0:0:0:
320,224,370335,1,0,0:0:0:0:
320,224,370550,1,0,0:0:0:0:
224,128,370657,1,8,0:0:0:0:
384,288,370871,1,0,0:0:0:0:
288,192,371085,1,0,0:0:0:0:
288,192,371192,1,8,0:0:0:0:
256,192,371300,1,0,0:0:0:0:
256,192,371514,1,8,0:0:0:0:
256,192,371621,1,8,0:0:0:0:
256,192,371728,1,0,0:0:0:0:
256,192,371835,1,8,0:0:0:0:
256,192,371942,1,8,0:0:0:0:
320,192,372050,1,0,0:0:0:0:
320,224,372264,1,0,0:0:0:0:
320,224,372478,1,0,0:0:0:0:
320,224,372585,1,8,0:0:0:0:
320,224,372800,1,0,0:0:0:0:
320,224,372907,1,8,0:0:0:0:
256,160,373121,1,0,0:0:0:0:
256,160,373228,1,8,0:0:0:0:
384,224,373550,1,8,0:0:0:0:
384,224,373657,1,8,0:0:0:0:
384,224,373764,1,0,0:0:0:0:
384,224,373978,1,8,0:0:0:0:
384,224,374192,1,0,0:0:0:0:
384,224,374300,1,8,0:0:0:0:
384,224,374514,1,8,0:0:0:0:
384,224,374621,1,8,0:0:0:0:
384,224,374835,1,0,0:0:0:0:
384,224,374942,1,8,0:0:0:0:
384,224,375264,1,8,0:0:0:0:
384,224,375371,1,8,0:0:0:0:
384,224,375478,1,0,0:0:0:0:
352,160,375692,1,8,0:0:0:0:
352,160,375907,1,0,0:0:0:0:
352,160,376014,1,8,0:0:0:0:
352,160,376228,1,0,0:0:0:0:
352,160,376335,1,0,0:0:0:0:
352,160,376550,1,0,0:0:0:0:
352,160,376657,1,8,0:0:0:0:
352,160,376978,1,0,0:0:0:0:
352,160,377085,1,8,0:0:0:0:
352,160,377192,1,0,0:0:0:0:
352,192,377300,1,8,0:0:0:0:
352,192,377407,1,8,0:0:0:0:
352,192,377514,5,0,0:0:0:0:
352,192,377621,1,8,0:0:0:0:
352,192,377728,1,0,0:0:0:0:
352,192,377942,1,0,0:0:0:0:
352,192,378050,1,8,0:0:0:0:
384,192,378264,1,0,0:0:0:0:
352,192,378371,1,8,0:0:0:0:
352,192,378478,1,8,0:0:0:0:
352,192,378692,5,8,0:0:0:0:
352,192,378800,1,8,0:0:0:0:
352,224,378907,5,0,0:0:0:0:
160,160,379014,1,8,0:0:0:0:
256,160,379121,1,0,0:0:0:0:
256,160,379175,1,0,0:0:0:0:
256,160,379228,1,0,0:0:0:0:
256,160,379282,1,0,0:0:0:0:
256,160,379335,1,8,0:0:0:0:
256,160,379550,1,0,0:0:0:0:
256,160,379764,1,0,0:0:0:0:
256,160,379871,1,0,0:0:0:0:
256,160,379978,1,8,0:0:0:0:
256,160,380085,1,8,0:0:0:0:
320,256,380407,1,8,0:0:0:0:
320,256,380514,1,8,0:0:0:0:
320,256,380621,1,0,0:0:0:0:
320,256,380835,1,0,0:0:0:0:
320,256,381050,1,8,0:0:0:0:
320,256,381157,1,0,0:0:0:0:
320,256,381371,1,0,0:0:0:0:
320,256,381478,1,8,0:0:0:0:
352,256,381692,1,8,0:0:0:0:
352,256,381800,1,0,0:0:0:0:
288,96,382121,5,8,0:0:0:0:
352,224,382335,5,0,0:0:0:0:
160,160,382442,1,8,0:0:0:0:
256,160,382550,1,0,0:0:0:0:
256,160,382603,1,0,0:0:0:0:
256,160,382657,1,0,0:0:0:0:
256,160,382710,1,0,0:0:0:0:
256,160,382764,1,8,0:0:0:0:
256,160,382978,1,0,0:0:0:0:
256,160,383192,1,0,0:0:0:0:
256,160,383300,1,0,0:0:0:0:
256,160,383407,1,8,0:0:0:0:
256,160,383514,1,8,0:0:0:0:
320,256,383835,1,8,0:0:0:0:
320,256,383942,1,8,0:0:0:0:
320,256,384050,1,0,0:0:0:0:
320,256,384264,1,0,0:0:0:0:
320,256,384478,1,8,0:0:0:0:
320,256,384585,1,0,0:0:0:0:
320,256,384800,1,0,0:0:0:0:
320,256,384907,1,0,0:0:0:0:
352,256,385121,1,0,0:0:0:0:
352,256,385228,1,8,0:0:0:0:
192,160,385550,1,8,0:0:0:0:
352,224,385764,5,0,0:0:0:0:
160,160,385871,1,8,0:0:0:0:
256,160,385978,1,0,0:0:0:0:
256,160,386032,1,0,0:0:0:0:
256,160,386085,1,0,0:0:0:0:
256,160,386139,1,0,0:0:0:0:
256,160,386192,1,8,0:0:0:0:
256,160,386407,1,0,0:0:0:0:
256,160,386621,1,0,0:0:0:0:
256,160,386728,1,0,0:0:0:0:
256,160,386835,1,8,0:0:0:0:
256,160,386942,1,8,0:0:0:0:
320,256,387264,1,8,0:0:0:0:
320,256,387371,1,8,0:0:0:0:
320,256,387478,1,0,0:0:0:0:
320,256,387692,1,0,0:0:0:0:
320,256,387907,1,8,0:0:0:0:
320,256,388014,1,0,0:0:0:0:
320,256,388228,1,0,0:0:0:0:
320,256,388335,1,8,0:0:0:0:
352,256,388550,1,8,0:0:0:0:
352,256,388657,1,0,0:0:0:0:
256,64,388978,1,8,0:0:0:0:
352,224,389192,5,0,0:0:0:0:
160,160,389300,1,8,0:0:0:0:
256,160,389407,1,0,0:0:0:0:
256,160,389460,1,0,0:0:0:0:
256,160,389514,1,0,0:0:0:0:
256,160,389567,1,0,0:0:0:0:
256,160,389621,1,8,0:0:0:0:
256,160,389835,1,0,0:0:0:0:
256,160,390050,1,0,0:0:0:0:
256,160,390157,1,0,0:0:0:0:
256,160,390264,1,8,0:0:0:0:
256,160,390371,1,8,0:0:0:0:
320,256,390692,1,8,0:0:0:0:
320,256,390800,1,8,0:0:0:0:
320,256,390907,1,0,0:0:0:0:
288,192,391764,1,8,0:0:0:0:
480,352,392085,1,8,0:0:0:0:
224,192,392407,1,8,0:0:0:0:
256,192,392621,5,4,0:0:0:0:
352,256,392835,1,8,0:0:0:0:
352,256,392942,1,8,0:0:0:0:
352,256,393050,1,0,0:0:0:0:
352,256,393157,1,0,0:0:0:0:
352,256,393264,1,8,0:0:0:0:
352,256,393371,1,0,0:0:0:0:
352,256,393478,1,8,0:0:0:0:
352,256,393585,1,8,0:0:0:0:
352,256,393692,1,0,0:0:0:0:
352,256,393800,1,8,0:0:0:0:
160,160,394121,1,8,0:0:0:0:
160,160,394228,1,8,0:0:0:0:
192,160,394335,1,0,0:0:0:0:
384,256,394550,1,8,0:0:0:0:
384,256,394657,1,8,0:0:0:0:
384,256,394764,1,0,0:0:0:0:
384,256,394871,1,0,0:0:0:0:
384,256,394978,1,8,0:0:0:0:
384,256,395085,1,8,0:0:0:0:
384,256,395192,1,0,0:0:0:0:
384,256,395514,1,8,0:0:0:0:
256,160,395835,1,8,0:0:0:0:
448,224,396050,1,0,0:0:0:0:
448,224,396264,1,8,0:0:0:0:
448,224,396371,1,0,0:0:0:0:
448,224,396478,1,0,0:0:0:0:
448,224,396585,1,0,0:0:0:0:
448,224,396692,1,8,0:0:0:0:
448,224,396800,1,0,0:0:0:0:
448,224,396907,1,8,0:0:0:0:
448,224,397014,1,8,0:0:0:0:
448,224,397121,1,0,0:0:0:0:
448,224,397228,1,8,0:0:0:0:
448,224,397550,1,8,0:0:0:0:
448,224,397657,1,8,0:0:0:0:
448,224,397764,1,0,0:0:0:0:
384,160,397978,1,8,0:0:0:0:
288,160,398085,1,0,0:0:0:0:
384,160,398192,1,0,0:0:0:0:
384,160,398300,1,0,0:0:0:0:
384,160,398407,1,8,0:0:0:0:
384,160,398514,1,8,0:0:0:0:
384,160,398621,1,0,0:0:0:0:
384,160,398942,1,8,0:0:0:0:
352,192,399264,1,8,0:0:0:0:
256,192,399478,1,0,0:0:0:0:
256,192,399692,1,0,0:0:0:0:
256,192,399800,1,0,0:0:0:0:
256,192,400014,1,0,0:0:0:0:
256,192,400121,1,8,0:0:0:0:
256,192,400228,1,8,0:0:0:0:
256,192,400335,1,0,0:0:0:0:
256,192,400442,1,0,0:0:0:0:
256,192,400550,1,8,0:0:0:0:
256,192,400657,1,8,0:0:0:0:
256,192,400978,1,8,0:0:0:0:
256,192,401085,1,8,0:0:0:0:
256,192,401192,1,0,0:0:0:0:
224,160,401407,1,0,0:0:0:0:
224,160,401514,1,0,0:0:0:0:
224,160,401728,1,0,0:0:0:0:
224,160,401835,1,8,0:0:0:0:
224,160,401942,1,8,0:0:0:0:
320,160,402157,1,0,0:0:0:0:
320,160,402264,1,8,0:0:0:0:
416,288,402478,1,0,0:0:0:0:
288,128,402692,1,8,0:0:0:0:
288,128,402800,1,8,0:0:0:0:
288,128,402907,1,0,0:0:0:0:
224,96,403121,1,0,0:0:0:0:
224,96,403228,1,0,0:0:0:0:
224,96,403442,1,0,0:0:0:0:
224,96,403550,1,8,0:0:0:0:
224,96,403657,1,8,0:0:0:0:
224,96,403764,1,0,0:0:0:0:
224,96,403871,1,0,0:0:0:0:
224,96,403978,1,8,0:0:0:0:
224,96,404085,1,8,0:0:0:0:
224,160,404407,1,8,0:0:0:0:
224,160,404514,1,8,0:0:0:0:
256,160,404621,1,0,0:0:0:0:
256,160,404835,1,8,0:0:0:0:
256,160,404942,1,0,0:0:0:0:
256,160,405050,1,8,0:0:0:0:
256,160,405157,5,8,0:0:0:0:
256,160,405264,1,0,0:0:0:0:
256,160,405371,1,8,0:0:0:0:
256,160,405478,1,0,0:0:0:0:
256,160,405692,1,0,0:0:0:0:
256,160,405800,1,0,0:0:0:0:
256,160,405907,1,8,0:0:0:0:
288,192,406121,1,0,0:0:0:0:
288,192,406335,5,4,0:0:0:0:
352,256,406550,1,8,0:0:0:0:
352,256,406657,1,8,0:0:0:0:
352,256,406764,1,0,0:0:0:0:
352,256,406871,1,0,0:0:0:0:
352,256,406978,1,8,0:0:0:0:
352,256,407085,1,0,0:0:0:0:
352,256,407192,1,8,0:0:0:0:
352,256,407300,1,8,0:0:0:0:
352,256,407407,1,0,0:0:0:0:
352,256,407514,1,8,0:0:0:0:
320,160,407728,1,0,0:0:0:0:
160,160,407835,1,8,0:0:0:0:
160,160,407942,1,8,0:0:0:0:
192,160,408050,1,0,0:0:0:0:
384,256,408264,1,8,0:0:0:0:
384,256,408371,1,8,0:0:0:0:
384,256,408478,1,0,0:0:0:0:
384,256,408585,1,0,0:0:0:0:
384,256,408692,1,8,0:0:0:0:
384,256,408800,1,8,0:0:0:0:
384,256,408907,1,0,0:0:0:0:
224,192,409121,1,0,0:0:0:0:
384,256,409228,1,8,0:0:0:0:
224,96,409442,1,8,0:0:0:0:
256,160,409550,1,8,0:0:0:0:
448,224,409764,1,0,0:0:0:0:
448,224,409978,1,8,0:0:0:0:
448,224,410085,1,0,0:0:0:0:
448,224,410192,1,0,0:0:0:0:
448,224,410300,1,0,0:0:0:0:
448,224,410407,1,8,0:0:0:0:
448,224,410514,1,0,0:0:0:0:
448,224,410621,1,8,0:0:0:0:
448,224,410728,1,8,0:0:0:0:
448,224,410835,1,0,0:0:0:0:
448,224,410942,1,8,0:0:0:0:
192,160,411157,1,0,0:0:0:0:
448,224,411264,1,8,0:0:0:0:
448,224,411371,1,8,0:0:0:0:
448,224,411478,1,0,0:0:0:0:
384,160,411692,1,8,0:0:0:0:
288,160,411800,1,0,0:0:0:0:
384,160,411907,1,0,0:0:0:0:
384,160,412014,1,0,0:0:0:0:
384,160,412121,1,8,0:0:0:0:
384,160,412228,1,8,0:0:0:0:
384,160,412335,1,0,0:0:0:0:
224,160,412550,1,0,0:0:0:0:
384,160,412657,1,8,0:0:0:0:
224,128,412871,1,8,0:0:0:0:
352,192,412978,1,8,0:0:0:0:
256,192,413192,1,0,0:0:0:0:
256,192,413407,1,0,0:0:0:0:
256,192,413514,1,0,0:0:0:0:
256,192,413728,1,0,0:0:0:0:
256,192,413835,1,8,0:0:0:0:
256,192,413942,1,8,0:0:0:0:
256,192,414050,1,0,0:0:0:0:
256,192,414157,1,0,0:0:0:0:
256,192,414264,1,8,0:0:0:0:
256,192,414371,1,8,0:0:0:0:
256,160,414585,1,0,0:0:0:0:
256,192,414692,1,8,0:0:0:0:
256,192,414800,1,8,0:0:0:0:
256,192,414907,1,0,0:0:0:0:
224,160,415121,1,0,0:0:0:0:
224,160,415228,1,0,0:0:0:0:
224,160,415442,1,0,0:0:0:0:
224,160,415550,1,8,0:0:0:0:
224,160,415657,1,8,0:0:0:0:
320,160,415871,1,0,0:0:0:0:
320,160,415978,1,8,0:0:0:0:
416,288,416192,1,0,0:0:0:0:
288,128,416407,1,8,0:0:0:0:
288,128,416514,1,8,0:0:0:0:
288,128,416621,1,0,0:0:0:0:
224,96,416835,1,0,0:0:0:0:
224,96,416942,1,0,0:0:0:0:
224,96,417157,1,0,0:0:0:0:
224,96,417264,1,8,0:0:0:0:
224,96,417371,1,8,0:0:0:0:
224,96,417478,1,0,0:0:0:0:
224,96,417585,1,0,0:0:0:0:
224,96,417692,1,8,0:0:0:0:
224,96,417800,1,8,0:0:0:0:
256,128,418014,1,0,0:0:0:0:
224,160,418121,1,8,0:0:0:0:
224,160,418228,1,8,0:0:0:0:
256,160,418335,1,0,0:0:0:0:
256,160,418550,1,8,0:0:0:0:
256,160,418657,1,0,0:0:0:0:
256,160,418764,1,8,0:0:0:0:
256,160,418871,5,8,0:0:0:0:
256,160,418978,1,0,0:0:0:0:
256,160,419085,1,8,0:0:0:0:
256,160,419192,1,0,0:0:0:0:
256,160,419407,1,0,0:0:0:0:
256,160,419514,1,0,0:0:0:0:
256,160,419621,1,8,0:0:0:0:
192,160,419835,1,0,0:0:0:0:
320,256,420050,5,4,0:0:0:0:
320,96,421764,1,0,0:0:0:0:
320,128,423478,1,0,0:0:0:0:
320,128,425192,1,0,0:0:0:0:
320,128,426907,1,0,0:0:0:0:
320,128,427335,1,0,0:0:0:0:
320,128,427764,1,8,0:0:0:0:
320,128,428192,1,8,0:0:0:0:
320,128,428621,1,0,0:0:0:0:
320,128,429050,1,0,0:0:0:0:
320,128,429478,1,8,0:0:0:0:
320,128,429907,1,8,0:0:0:0:
320,128,430335,1,0,0:0:0:0:
352,128,430764,1,0,0:0:0:0:
352,128,431192,1,8,0:0:0:0:
352,128,431621,1,8,0:0:0:0:
352,128,432050,1,0,0:0:0:0:
352,128,433764,1,0,0:0:0:0:
352,128,435478,1,0,0:0:0:0:
352,128,437192,5,0,0:0:0:0:
160,160,438907,5,4,0:0:0:0:
448,256,439550,1,4,0:0:0:0:
