osu file format v14

[General]
AudioFilename: audio.ogg
AudioLeadIn: 0
PreviewTime: 224686
Countdown: 0
SampleSet: Soft
StackLeniency: 0.7
Mode: 0
LetterboxInBreaks: 0
EpilepsyWarning: 1
WidescreenStoryboard: 1

[Editor]
DistanceSpacing: 1.8
BeatDivisor: 4
GridSize: 8
TimelineZoom: 1

[Metadata]
Title:Now is Gold (feat. Kelsy Karter)
TitleUnicode:Now is Gold (feat. Kelsy Karter)
Artist:Infected Mushroom
ArtistUnicode:Infected Mushroom
Creator:Nemis
Version:Golden
Source:
Tags:friends on mushrooms kelsey electronic instrumental english
BeatmapID:4547760
BeatmapSetID:2157319

[Difficulty]
HPDrainRate:6
CircleSize:4
OverallDifficulty:8
ApproachRate:9
SliderMultiplier:1.6
SliderTickRate:1

[Events]
//Background and Video events
0,0,"nowisgold.png",0,0
//Break Periods
//Storyboard Layer 0 (Background)
//Storyboard Layer 1 (Fail)
//Storyboard Layer 2 (Pass)
//Storyboard Layer 3 (Foreground)
//Storyboard Layer 4 (Overlay)
//Storyboard Sound Samples

[TimingPoints]
5472,428.571428571429,4,2,1,30,1,0
18114,-133.333333333333,4,2,1,30,0,0
23043,-133.333333333333,4,2,1,15,0,0
23472,-133.333333333333,4,2,1,30,0,0
23686,-133.333333333333,4,2,1,15,0,0
23900,-133.333333333333,4,2,1,30,0,0
25400,-133.333333333333,4,2,1,15,0,0
25614,-133.333333333333,4,2,1,30,0,0
28400,-133.333333333333,4,2,1,15,0,0
29043,-133.333333333333,4,2,1,30,0,0
31829,-133.333333333333,4,2,1,35,0,0
32900,-133.333333333333,4,2,1,40,0,0
46614,-66.6666666666667,4,2,1,70,0,0
47043,-100,4,2,1,40,0,0
47900,-66.6666666666667,4,2,1,70,0,0
48329,-100,4,2,1,40,0,0
50043,-66.6666666666667,4,2,1,70,0,0
50472,-100,4,2,1,40,0,0
53472,-66.6666666666667,4,2,1,70,0,0
53900,-100,4,2,1,40,0,0
54757,-66.6666666666667,4,2,1,70,0,0
55186,-100,4,2,1,40,0,0
55614,-66.6666666666667,4,2,1,70,0,0
56043,-100,4,2,1,40,0,0
60329,-66.6666666666667,4,2,1,70,0,0
60543,-100,4,2,1,50,0,0
62043,-66.6666666666667,4,2,1,70,0,0
62257,-100,4,2,1,50,0,0
63757,-66.6666666666667,4,2,1,70,0,0
63972,-100,4,2,1,50,0,0
65472,-66.6666666666667,4,2,1,70,0,0
65686,-100,4,2,1,50,0,0
67186,-66.6666666666667,4,2,1,70,0,0
67614,-100,4,2,1,60,0,0
68043,-66.6666666666667,4,2,1,70,0,0
68472,-100,4,2,1,60,0,0
68900,-66.6666666666667,4,2,1,70,0,0
69329,-100,4,2,1,60,0,0
69757,-66.6666666666667,4,2,1,70,0,0
70186,-100,4,2,1,60,0,0
70614,-66.6666666666667,4,2,1,70,0,0
74043,-66.6666666666667,4,2,1,80,0,0
77472,-50,4,1,1,80,0,0
79186,-50,4,1,1,90,0,0
80900,-33.3333333333333,4,2,1,50,0,0
82614,-33.3333333333333,4,2,1,20,0,0
83900,-33.3333333333333,4,2,1,5,0,0
84329,-100,4,2,1,60,0,0
85043,-100,4,2,1,20,0,0
85186,-100,4,2,1,60,0,0
86757,-100,4,2,1,20,0,0
86900,-100,4,2,1,60,0,0
88472,-100,4,2,1,20,0,0
88614,-100,4,2,1,60,0,0
90186,-100,4,2,1,20,0,0
90329,-100,4,2,1,60,0,0
91900,-100,4,2,1,20,0,0
92043,-100,4,2,1,60,0,0
93614,-100,4,2,1,20,0,0
93757,-100,4,2,1,60,0,0
95329,-100,4,2,1,20,0,0
95472,-100,4,2,1,60,0,0
97043,-100,4,2,1,20,0,0
97186,-100,4,2,1,60,0,0
98043,-66.6666666666667,4,2,1,70,0,0
98329,-100,4,2,1,70,0,0
98757,-100,4,2,1,20,0,0
98900,-100,4,2,1,70,0,0
99757,-66.6666666666667,4,2,1,70,0,0
100043,-100,4,2,1,70,0,0
100472,-100,4,2,1,20,0,0
100614,-100,4,2,1,70,0,0
101472,-66.6666666666667,4,2,1,70,0,0
101900,-100,4,2,1,70,0,0
102186,-100,4,2,1,20,0,0
102329,-66.6666666666667,4,2,1,70,0,0
102757,-100,4,2,1,70,0,0
103186,-66.6666666666667,4,2,1,70,0,0
103614,-100,4,2,1,70,0,0
103900,-100,4,2,1,20,0,0
104043,-100,4,2,1,70,0,0
104900,-66.6666666666667,4,2,1,70,0,0
105329,-100,4,2,1,70,0,0
105614,-100,4,2,1,20,0,0
105757,-100,4,2,1,70,0,0
106614,-66.6666666666667,4,2,1,70,0,0
107043,-100,4,2,1,70,0,0
107329,-100,4,2,1,20,0,0
107472,-100,4,2,1,70,0,0
108329,-66.6666666666667,4,2,1,70,0,0
108757,-100,4,2,1,70,0,0
109043,-100,4,2,1,20,0,0
109186,-66.6666666666667,4,2,1,70,0,0
109614,-100,4,2,1,70,0,0
110043,-66.6666666666667,4,2,1,70,0,0
110472,-100,4,2,1,70,0,0
110757,-100,4,2,1,20,0,0
110900,-100,4,2,1,70,0,0
111757,-66.6666666666667,4,2,1,70,0,0
112186,-100,4,2,1,70,0,0
112472,-100,4,2,1,20,0,0
112614,-100,4,2,1,70,0,0
113472,-66.6666666666667,4,2,1,70,0,0
113900,-100,4,2,1,70,0,0
114186,-100,4,2,1,20,0,0
114329,-100,4,2,1,70,0,0
115186,-66.6666666666667,4,2,1,70,0,0
115614,-100,4,2,1,70,0,0
115900,-100,4,2,1,20,0,0
116043,-66.6666666666667,4,2,1,70,0,0
116472,-100,4,2,1,70,0,0
116900,-66.6666666666667,4,2,1,70,0,0
117329,-100,4,2,1,70,0,0
117614,-100,4,2,1,20,0,0
117757,-100,4,2,1,70,0,0
118614,-66.6666666666667,4,2,1,70,0,0
119043,-100,4,2,1,70,0,0
119329,-100,4,2,1,20,0,0
119472,-100,4,2,1,70,0,0
120329,-66.6666666666667,4,2,1,70,0,0
120757,-100,4,2,1,70,0,0
121043,-100,4,2,1,20,0,0
121186,-100,4,2,1,70,0,0
122043,-66.6666666666667,4,2,1,70,0,0
122472,-100,4,2,1,70,0,0
122757,-100,4,2,1,20,0,0
122900,-66.6666666666667,4,2,1,70,0,0
123329,-100,4,2,1,70,0,0
123757,-66.6666666666667,4,2,1,70,0,0
124186,-100,4,2,1,70,0,0
125472,-100,4,2,1,60,0,0
125900,-100,4,2,1,50,0,0
126329,-100,4,2,1,40,0,0
126757,-100,4,2,1,30,0,0
127186,-100,4,2,1,60,0,0
127614,-100,4,2,1,50,0,0
128043,-100,4,2,1,40,0,0
128472,-100,4,2,1,30,0,0
128900,-100,4,2,1,60,0,0
129329,-100,4,2,1,50,0,0
129757,-100,4,2,1,40,0,0
130186,-100,4,2,1,30,0,0
130614,-100,4,2,1,60,0,0
131043,-100,4,2,1,50,0,0
131472,-100,4,2,1,40,0,0
131900,-100,4,2,1,30,0,0
132329,-100,4,2,1,60,0,0
132757,-100,4,2,1,50,0,0
133186,-100,4,2,1,40,0,0
133614,-100,4,2,1,30,0,0
134043,-100,4,2,1,60,0,0
134472,-100,4,2,1,50,0,0
134900,-100,4,2,1,40,0,0
135329,-100,4,2,1,30,0,0
135757,-100,4,2,1,60,0,0
136186,-100,4,2,1,50,0,0
136614,-100,4,2,1,40,0,0
137043,-100,4,2,1,30,0,0
137472,-100,4,2,1,60,0,0
137900,-100,4,2,1,50,0,0
138329,-100,4,2,1,40,0,0
138757,-100,4,2,1,30,0,0
139186,-100,4,2,1,60,0,0
139614,-100,4,2,1,50,0,0
140043,-100,4,2,1,40,0,0
140472,-100,4,2,1,30,0,0
140900,-100,4,2,1,60,0,0
141329,-100,4,2,1,50,0,0
141757,-100,4,2,1,40,0,0
142186,-100,4,2,1,30,0,0
142614,-100,4,2,1,60,0,0
143043,-100,4,2,1,50,0,0
143472,-100,4,2,1,40,0,0
143900,-100,4,2,1,30,0,0
144329,-100,4,2,1,60,0,0
144757,-100,4,2,1,50,0,0
145186,-100,4,2,1,40,0,0
145614,-100,4,2,1,20,0,0
146043,-133.333333333333,4,2,1,30,0,0
158150,-100,4,2,1,5,0,0
159757,-100,4,2,1,50,0,0
160614,-100,4,2,1,30,0,0
161472,-100,4,2,1,50,0,0
162329,-100,4,2,1,30,0,0
163186,-100,4,2,1,50,0,0
164043,-100,4,2,1,30,0,0
164900,-100,4,2,1,50,0,0
165757,-100,4,2,1,30,0,0
166614,-100,4,2,1,50,0,0
167472,-100,4,2,1,30,0,0
168329,-100,4,2,1,50,0,0
169186,-100,4,2,1,30,0,0
170043,-100,4,2,1,50,0,0
170900,-100,4,2,1,30,0,0
173472,-100,4,2,1,60,0,0
187186,-100,4,2,1,50,0,0
188043,-100,4,2,1,40,0,0
188900,-100,4,2,1,50,0,0
189757,-100,4,2,1,40,0,0
190614,-100,4,2,1,50,0,0
191472,-100,4,2,1,40,0,0
192329,-100,4,2,1,50,0,0
193186,-100,4,2,1,40,0,0
194043,-100,4,2,1,50,0,0
194900,-100,4,2,1,40,0,0
195757,-100,4,2,1,50,0,0
196614,-100,4,2,1,40,0,0
197472,-100,4,2,1,50,0,0
198329,-100,4,2,1,40,0,0
199186,-100,4,2,1,50,0,0
200043,-100,4,2,1,30,0,0
200900,-100,4,2,1,50,0,0
204329,-100,4,2,1,60,0,0
206043,-100,4,2,1,65,0,0
207757,-100,4,1,1,70,0,0
214614,-100,4,1,1,80,0,0
216329,-66.6666666666667,4,1,1,80,0,0
218043,-50,4,1,1,80,0,0
219757,-40,4,1,1,80,0,0
224686,-100,4,3,1,60,0,0
225757,-200,4,2,1,70,0,0
226614,-66.6666666666667,4,2,1,90,0,1
226686,-66.6666666666667,4,2,1,70,0,1
228329,-66.6666666666667,4,2,1,90,0,1
228400,-66.6666666666667,4,2,1,70,0,1
229972,-66.6666666666667,4,2,1,20,0,1
230043,-66.6666666666667,4,2,1,90,0,1
230114,-66.6666666666667,4,2,1,70,0,1
231757,-66.6666666666667,4,2,1,90,0,1
231829,-66.6666666666667,4,2,1,70,0,1
233400,-66.6666666666667,4,2,1,20,0,1
233472,-66.6666666666667,4,2,1,90,0,1
233543,-66.6666666666667,4,2,1,70,0,1
235186,-66.6666666666667,4,2,1,90,0,1
235257,-66.6666666666667,4,2,1,70,0,1
236900,-66.6666666666667,4,2,1,90,0,1
236972,-66.6666666666667,4,2,1,70,0,1
238614,-66.6666666666667,4,2,1,90,0,1
238686,-66.6666666666667,4,2,1,70,0,1
240329,-66.6666666666667,4,2,1,90,0,1
240400,-66.6666666666667,4,2,1,70,0,1
242043,-66.6666666666667,4,2,1,90,0,1
242114,-66.6666666666667,4,2,1,70,0,1
243686,-66.6666666666667,4,2,1,20,0,1
243757,-66.6666666666667,4,2,1,90,0,1
243829,-66.6666666666667,4,2,1,70,0,1
245472,-66.6666666666667,4,2,1,90,0,1
245543,-66.6666666666667,4,2,1,70,0,1
247114,-66.6666666666667,4,2,1,20,0,1
247186,-66.6666666666667,4,2,1,90,0,1
247257,-66.6666666666667,4,2,1,70,0,1
248900,-66.6666666666667,4,2,1,90,0,1
248972,-66.6666666666667,4,2,1,70,0,1
250614,-66.6666666666667,4,2,1,90,0,1
250686,-66.6666666666667,4,2,1,70,0,1
252329,-66.6666666666667,4,2,1,70,0,0
254043,-50,4,2,1,80,0,1
281472,-74.0740740740741,4,2,1,60,0,0
281900,-74.0740740740741,4,2,1,10,0,0
283186,-74.0740740740741,4,2,1,60,0,0
283614,-74.0740740740741,4,2,1,10,0,0
284900,-74.0740740740741,4,2,1,50,0,0
286614,-74.0740740740741,4,2,1,60,0,0
288329,-100,4,2,1,60,0,0
302043,-333.333333333333,4,2,1,60,0,0
315757,-66.6666666666667,4,2,1,70,0,0
316186,-100,4,2,1,70,0,0
317472,-66.6666666666667,4,2,1,70,0,0
317900,-100,4,2,1,70,0,0
319186,-66.6666666666667,4,2,1,70,0,0
319614,-100,4,2,1,70,0,0
320043,-66.6666666666667,4,2,1,70,0,0
320472,-100,4,2,1,70,0,0
320900,-66.6666666666667,4,2,1,70,0,0
321329,-100,4,2,1,70,0,0
322043,-66.6666666666667,4,2,1,70,0,0
322186,-100,4,2,1,70,0,0
322614,-66.6666666666667,4,2,1,70,0,0
323043,-100,4,2,1,70,0,0
324329,-66.6666666666667,4,2,1,70,0,0
324757,-100,4,2,1,70,0,0
326043,-66.6666666666667,4,2,1,70,0,0
326472,-100,4,2,1,70,0,0
326900,-66.6666666666667,4,2,1,70,0,0
327329,-100,4,2,1,70,0,0
327757,-66.6666666666667,4,2,1,70,0,0
328186,-100,4,2,1,70,0,0
329472,-66.6666666666667,4,2,1,70,0,0
329900,-100,4,2,1,70,0,0
331186,-66.6666666666667,4,2,1,70,0,0
331614,-100,4,2,1,70,0,0
332900,-66.6666666666667,4,2,1,70,0,0
333329,-100,4,2,1,70,0,0
333757,-66.6666666666667,4,2,1,70,0,0
334186,-100,4,2,1,70,0,0
334614,-66.6666666666667,4,2,1,70,0,0
335043,-100,4,2,1,70,0,0
336329,-66.6666666666667,4,2,1,70,0,0
336757,-100,4,2,1,70,0,0
338043,-66.6666666666667,4,2,1,70,0,0
338472,-100,4,2,1,70,0,0
339757,-66.6666666666667,4,2,1,70,0,0
340186,-100,4,2,1,70,0,0
340614,-66.6666666666667,4,2,1,70,0,0
341043,-100,4,2,1,70,0,0
341472,-100,4,2,1,65,0,0
341900,-100,4,2,1,60,0,0
342329,-100,4,2,1,55,0,0
342757,-100,4,2,1,50,0,0
343186,-333.333333333333,4,2,1,60,0,0
353900,-333.333333333333,4,2,1,10,0,0
354329,-333.333333333333,4,2,1,60,0,0
354757,-333.333333333333,4,2,1,10,0,0
355186,-333.333333333333,4,2,1,30,0,0

[Colours]
Combo1 : 249,238,100
Combo2 : 253,116,96
Combo3 : 250,186,99
Combo4 : 248,22,22

[HitObjects]
312,134,18114,5,0,0:0:0:0:
383,69,18329,2,0,P|398:111|384:200,1,120.000004577637,2|0,0:0|0:0,0:0:0:0:
390,184,18972,1,2,0:0:0:0:
307,276,19186,6,0,P|343:305|431:314,2,120.000004577637,0|0|2,0:0|0:0|0:0,0:0:0:0:
115,287,20472,2,0,L|131:222,1,60.0000022888184,2|0,0:0|0:0,0:0:0:0:
68,154,20900,2,0,P|60:105|89:32,1,120.000004577637
177,19,21543,1,0,0:0:0:0:
259,67,21757,2,0,P|316:62|384:52,1,120.000004577637,2|0,0:0|0:0,0:0:0:0:
378,53,22400,1,2,0:0:0:0:
474,165,22614,6,0,P|417:170|349:180,1,120.000004577637
275,233,23257,2,0,L|260:155,1,60.0000022888184,2|0,0:0|0:0,0:0:0:0:
354,265,23686,2,0,L|340:323,1,60.0000022888184,2|0,0:0|0:0,0:0:0:0:
340,323,24114,1,0,0:0:0:0:
200,343,24329,6,0,P|143:338|75:328,1,120.000004577637
31,246,24972,1,0,0:0:0:0:
110,192,25186,2,0,P|124:239|123:266,1,60.0000022888184,2|0,0:0|0:0,0:0:0:0:
199,168,25614,2,0,P|182:133|148:100,1,60.0000022888184,0|2,0:0|0:0,0:0:0:0:
325,193,26043,6,0,P|371:199|447:168,1,120.000004577637
283,30,26900,2,0,P|223:25|168:48,1,120.000004577637,2|0,0:0|0:0,0:0:0:0:
93,108,27543,1,2,0:0:0:0:
134,194,27757,6,0,P|126:256|91:317,1,120.000004577637
45,226,28400,2,0,P|18:216|-18:211,1,60.0000022888184,2|0,0:0|0:0,0:0:0:0:
99,306,28829,2,0,P|126:316|162:321,1,60.0000022888184,2|0,0:0|0:0,0:0:0:0:
246,286,29257,1,0,0:0:0:0:
391,333,29472,5,2,0:0:0:0:
336,65,31829,5,0,0:0:0:0:
251,109,32043,2,0,P|199:94|139:64,1,120.000004577637,2|0,0:0|0:0,0:0:0:0:
140,64,32686,1,2,0:0:0:0:
41,161,32900,6,0,P|33:222|56:278,1,120.000004577637
121,344,33543,1,0,0:0:0:0:
209,306,33757,2,0,P|271:316|346:343,1,120.000004577637,2|0,0:0|0:0,0:0:0:0:
325,333,34400,1,2,0:0:0:0:
456,256,34614,6,0,P|468:211|441:129,1,120.000004577637
366,93,35257,1,0,0:0:0:0:
269,90,35472,2,0,P|288:143|358:184,1,120.000004577637,2|0,0:0|0:0,0:0:0:0:
338,179,36114,1,2,0:0:0:0:
157,115,36329,6,0,P|87:120|40:149,2,120.000004577637,0|0|2,0:0|0:0|0:0,0:0:0:0:
132,305,37614,2,0,L|154:234,1,60.0000022888184,0|2,0:0|0:0,0:0:0:0:
251,172,38043,5,0,0:0:0:0:
310,247,38257,1,0,0:0:0:0:
405,255,38472,2,0,L|418:318,1,60.0000022888184
496,260,38900,2,0,P|504:198|508:126,1,120.000004577637,2|0,0:0|0:0,0:0:0:0:
389,49,39543,6,0,P|315:41|218:104,1,180.000006866455,2|2,0:0|0:0,0:0:0:0:
75,210,40614,2,0,P|103:168|117:77,1,120.000004577637
192,162,41257,1,2,0:0:0:0:
240,287,41472,6,0,P|286:319|355:320,1,120.000004577637
408,247,42114,2,0,L|393:182,1,60.0000022888184,0|2,0:0|0:0,0:0:0:0:
488,208,42543,2,0,L|501:266,1,60.0000022888184
419,43,43186,5,0,0:0:0:0:
419,43,44043,1,0,0:0:0:0:
285,90,44472,1,2,0:0:0:0:
88,305,45543,5,0,0:0:0:0:
160,242,45757,2,0,P|114:218|40:215,1,120.000004577637,2|0,0:0|0:0,0:0:0:0:
46,213,46400,1,2,0:0:0:0:
158,347,46614,6,0,B|196:331|212:307|212:307|184:280|160:241|160:241|167:204|198:162,1,240.000009155274,4|0,0:0|0:0,0:0:0:0:
271,69,47257,1,2,0:0:0:0:
168,16,47472,2,0,P|114:31|69:39,1,80
271,69,47900,6,0,B|336:44|401:33|401:33|434:74|450:135,1,240.000009155274,4|0,0:0|0:0,0:0:0:0:
368,256,48543,1,0,0:0:0:0:
282,147,48757,2,0,P|336:162|381:170,1,80
459,308,49186,2,0,P|399:328|303:365,1,160,2|0,0:0|0:0,0:0:0:0:
223,266,49829,1,8,1:0:0:0:
282,147,50043,6,0,B|215:124|169:103|169:103|141:139|138:226,1,240.000009155274,4|0,0:0|0:0,0:0:0:0:
46,331,50686,2,0,P|53:262|54:229,1,80,2|0,0:0|0:0,0:0:0:0:
152,315,51114,1,0,0:0:0:0:
10,158,51329,5,4,0:0:0:0:
256,192,51543,12,0,53043,0:0:0:0:
394,68,53472,6,0,B|420:117|437:168|437:168|392:176|281:217,1,240.000009155274,4|0,0:0|0:0,0:0:0:0:
221,297,54114,1,2,0:0:0:0:
133,199,54329,2,0,P|187:208|223:213,1,80
119,14,54757,6,0,B|127:79|136:109|136:109|76:126|58:139|58:139|43:170|36:200,1,240.000009155274,4|0,0:0|0:0,0:0:0:0:
96,338,55400,1,2,0:0:0:0:
133,199,55614,6,0,B|176:213|211:218|211:218|225:246|237:309|237:309|259:322|322:334,1,240.000009155274,4|0,0:0|0:0,0:0:0:0:
403,239,56257,1,0,0:0:0:0:
375,99,56472,5,4,0:0:0:0:
256,192,56686,12,4,58186,0:0:0:0:
131,122,58400,6,0,L|118:145,3,26.6666666666667,0|0|0|0,1:0|1:0|1:0|1:0,1:0:0:0:
219,83,58829,1,0,0:0:0:0:
300,133,59043,5,2,0:0:0:0:
211,169,59257,1,0,0:0:0:0:
304,44,59472,5,0,0:0:0:0:
393,80,59686,1,0,0:0:0:0:
512,202,59900,5,0,0:0:0:0:
423,166,60114,1,0,0:0:0:0:
288,288,60329,6,0,P|217:296|123:323,1,120.000004577637,4|0,1:2|0:0,0:0:0:0:
99,373,60757,6,0,P|138:300|120:214,1,160
47,172,61400,1,2,0:0:0:0:
45,76,61614,2,0,P|99:90|128:125,1,80
290,144,62043,6,0,P|355:149|416:105,1,120.000004577637,4|0,1:2|0:0,0:0:0:0:
447,38,62472,6,0,P|437:113|499:195,1,160
401,237,63114,1,2,0:0:0:0:
383,331,63329,2,0,P|433:328|481:290,1,80
272,267,63757,6,0,P|193:253|117:220,1,120.000004577637,4|0,1:2|0:0,0:0:0:0:
62,216,64186,6,0,P|88:277|104:383,1,160
159,231,64829,2,0,P|139:176|130:128,1,80,2|0,0:0|0:0,0:0:0:0:
153,61,65257,1,0,0:0:0:0:
381,47,65472,6,0,P|381:115|303:183,1,120.000004577637,4|0,1:2|0:0,0:0:0:0:
267,198,65900,6,0,P|351:197|434:261,1,160
408,331,66543,1,2,0:0:0:0:
313,346,66757,1,0,0:0:0:0:
236,287,66972,1,0,0:0:0:0:
36,149,67186,6,0,L|15:285,1,120.000004577637,4|0,1:2|0:0,0:0:0:0:
167,202,67614,2,0,L|183:106,1,80,2|0,0:0|0:0,0:0:0:0:
180,123,67936,1,0,0:0:0:0:
232,52,68043,2,0,P|158:40|109:74,1,120.000004577637,4|0,1:2|0:0,0:0:0:0:
340,195,68472,2,0,L|354:132,1,40
436,63,68686,2,0,L|427:102,1,40,2|0,0:0|0:0,0:0:0:0:
348,79,68900,6,0,L|207:46,1,120.000004577637,4|0,1:2|1:0,0:0:0:0:
193,264,69329,2,0,L|287:242,1,80,2|0,0:0|0:0,0:0:0:0:
295,256,69650,1,0,0:0:0:0:
324,269,69757,2,0,P|310:335|244:366,1,120.000004577637,4|0,1:2|0:0,0:0:0:0:
191,360,70079,1,0,0:0:0:0:
129,312,70186,2,0,L|109:257,1,40
42,231,70400,1,2,0:0:0:0:
54,156,70507,1,0,0:0:0:0:
66,81,70614,6,0,P|145:72|200:43,1,120.000004577637,4|0,1:2|0:0,0:0:0:0:
422,121,71043,2,0,P|369:74|266:89,1,180.000006866455,6|0,1:2|0:0,0:0:0:0:
198,137,71472,2,0,P|186:205|170:262,1,120.000004577637,4|0,1:2|0:0,0:0:0:0:
161,337,71793,1,0,0:0:0:0:
161,337,71900,2,0,L|228:322,1,60.0000022888184,4|0,1:2|0:0,0:0:0:0:
172,254,72114,2,0,L|113:267,1,60.0000022888184,2|0,0:0|0:0,0:0:0:0:
285,234,72329,6,0,L|415:268,1,120.000004577637,4|0,1:2|1:0,0:0:0:0:
470,216,72650,1,0,0:0:0:0:
478,132,72757,2,0,P|396:140|286:150,1,180.000006866455,6|0,1:2|0:0,0:0:0:0:
244,84,73186,2,0,P|175:73|105:37,1,120.000004577637,4|0,1:2|0:0,0:0:0:0:
59,99,73507,1,0,0:0:0:0:
118,157,73614,2,0,P|131:197|121:243,1,60.0000022888184,4|0,1:2|0:0,0:0:0:0:
61,264,73829,2,0,P|48:224|58:178,1,60.0000022888184,2|0,0:0|0:0,0:0:0:0:
173,284,74043,5,4,1:2:0:0:
211,255,74150,1,0,0:0:0:0:
258,251,74257,1,0,0:0:0:0:
300,272,74364,1,0,0:0:0:0:
320,315,74472,1,4,1:2:0:0:
359,341,74579,1,0,0:0:0:0:
406,342,74686,2,0,P|422:338|436:322,2,30.0000011444092
508,355,74900,5,4,1:2:0:0:
512,307,75007,1,0,0:0:0:0:
485,266,75114,1,0,0:0:0:0:
438,252,75222,1,0,0:0:0:0:
400,222,75329,1,4,1:2:0:0:
391,174,75436,1,0,0:0:0:0:
417,134,75543,1,0,0:0:0:0:
408,86,75650,1,0,0:0:0:0:
369,56,75757,5,4,1:2:0:0:
340,94,75864,1,0,0:0:0:0:
295,113,75972,1,0,0:0:0:0:
247,104,76079,1,0,0:0:0:0:
209,74,76186,1,4,1:2:0:0:
161,72,76293,1,0,0:0:0:0:
121,98,76400,2,0,P|103:117|95:143,2,30.0000011444092
54,186,76614,5,4,1:2:0:0:
99,203,76722,1,0,0:0:0:0:
144,188,76829,1,0,0:0:0:0:
190,198,76936,1,0,0:0:0:0:
220,235,77043,1,4,1:2:0:0:
222,282,77150,1,0,0:0:0:0:
194,321,77257,1,0,0:0:0:0:
146,313,77364,1,0,0:0:0:0:
100,330,77472,6,0,L|9:309,3,80,4|0|0|0,0:2|0:0|0:0|0:0,0:0:0:0:
84,244,77900,2,0,L|-7:223,3,80,4|0|0|0,0:2|0:0|0:0|0:0,0:0:0:0:
159,184,78329,6,0,L|250:163,3,80,4|0|0|0,0:2|0:0|0:0|0:0,0:0:0:0:
175,98,78757,2,0,L|266:77,3,80,4|0|0|0,0:2|0:0|0:0|0:0,0:0:0:0:
339,121,79186,6,0,L|351:32,4,53.3333333333333,4|0|0|0|0,0:2|0:0|0:0|0:0|0:0,0:0:0:0:
408,194,79614,2,0,L|400:246,4,53.3333333333333,4|0|0|0|0,0:2|0:0|0:0|0:0|0:0,0:0:0:0:
321,139,80043,6,0,L|333:50,4,53.3333333333333,4|0|0|0|0,0:2|0:0|0:0|0:0|0:0,0:0:0:0:
390,212,80472,2,0,L|382:264,4,53.3333333333333,4|0|0|0|0,0:2|0:0|0:0|0:0|0:0,0:0:0:0:
202,272,80900,5,0,0:0:0:0:
256,192,81114,12,0,82614,0:0:0:0:
256,192,82722,12,0,83900,0:0:0:0:
62,167,84329,6,0,P|95:162|135:134,1,53.3333333333333,4|0,1:0|0:0,0:0:0:0:
164,72,84614,1,0,0:0:0:0:
259,78,84757,2,0,P|306:118|317:167,1,106.666666666667,8|0,1:0|0:0,0:0:0:0:
245,287,85186,6,0,P|248:261|259:237,1,53.3333333333333,0|0,1:0|0:0,0:0:0:0:
317,159,85472,1,0,0:0:0:0:
464,156,85614,6,0,P|439:166|413:169,1,53.3333333333333,8|0,1:0|0:0,0:0:0:0:
317,159,85900,1,0,0:0:0:0:
362,243,86043,5,0,1:0:0:0:
455,267,86186,1,0,0:0:0:0:
387,335,86329,1,0,0:0:0:0:
294,308,86472,2,0,P|214:323|179:371,1,106.666666666667,8|0,1:0|0:0,0:0:0:0:
112,292,86900,6,0,L|122:230,1,53.3333333333333,0|0,1:0|0:0,0:0:0:0:
138,144,87186,1,0,0:0:0:0:
34,32,87329,6,0,L|44:94,1,53.3333333333333,8|0,1:0|0:0,0:0:0:0:
60,180,87615,1,0,0:0:0:0:
138,144,87757,5,0,1:0:0:0:
184,59,87900,1,0,0:0:0:0:
269,105,88043,1,0,0:0:0:0:
223,190,88186,2,0,P|221:253|262:303,1,106.666666666667,8|0,1:0|0:0,0:0:0:0:
312,222,88614,5,0,1:0:0:0:
382,287,88757,2,0,L|359:343,1,53.3333333333333
466,269,89043,5,8,1:0:0:0:
396,204,89186,2,0,L|419:148,1,53.3333333333333
326,140,89472,5,0,1:0:0:0:
256,74,89614,1,0,0:0:0:0:
186,139,89757,1,0,0:0:0:0:
116,204,89900,2,0,L|75:103,1,106.666666666667,8|0,1:0|0:0,0:0:0:0:
42,256,90329,2,0,L|33:300,3,26.6666666666667,0|0|0|0,1:0|0:0|0:0|0:0,0:0:0:0:
42,256,90614,1,0,0:0:0:0:
123,306,90757,5,8,1:0:0:0:
216,281,90900,1,0,0:0:0:0:
292,339,91043,1,0,0:0:0:0:
477,287,91186,5,0,1:0:0:0:
384,312,91329,1,0,0:0:0:0:
308,254,91472,1,0,0:0:0:0:
308,158,91614,2,0,P|334:106|409:83,1,106.666666666667,8|0,1:0|0:0,0:0:0:0:
463,123,92043,6,0,L|492:186,1,53.3333333333333,0|0,1:0|0:0,0:0:0:0:
389,166,92329,1,0,0:0:0:0:
353,76,92472,6,0,L|323:13,1,53.3333333333333,8|0,1:0|0:0,0:0:0:0:
273,105,92758,1,0,0:0:0:0:
195,49,92900,6,0,P|162:41|122:50,1,53.3333333333333,4|0,1:2|0:0,0:0:0:0:
59,88,93186,1,0,0:0:0:0:
27,185,93329,2,0,P|53:145|58:82,1,106.666666666667,8|0,1:0|0:0,0:0:0:0:
127,154,93757,5,0,1:0:0:0:
104,247,93900,2,0,L|84:334,1,53.3333333333333
187,221,94186,5,8,1:0:0:0:
210,314,94329,2,0,L|230:401,1,53.3333333333333
268,256,94614,5,0,1:0:0:0:
358,224,94757,1,0,0:0:0:0:
449,252,94900,1,0,0:0:0:0:
385,321,95043,2,0,P|356:270|366:204,1,106.666666666667,8|0,1:0|0:0,0:0:0:0:
432,162,95472,6,0,P|447:124|443:77,1,53.3333333333333,0|0,1:0|0:0,0:0:0:0:
399,28,95757,1,0,0:0:0:0:
222,72,95900,6,0,P|247:103|290:124,1,53.3333333333333,8|0,1:0|0:0,0:0:0:0:
354,110,96185,1,0,0:0:0:0:
302,28,96329,5,0,1:0:0:0:
257,111,96472,1,0,0:0:0:0:
213,196,96614,1,0,0:0:0:0:
128,149,96757,2,0,P|82:129|12:147,1,106.666666666667,8|0,1:0|0:0,0:0:0:0:
35,316,97186,6,0,P|67:274|73:221,1,106.666666666667,0|0,1:0|0:0,0:0:0:0:
156,231,97614,2,0,P|178:247|193:269,1,53.3333333333333,8|0,1:0|0:0,0:0:0:0:
134,345,97900,1,0,0:0:0:0:
168,148,98043,6,0,P|198:127|256:132,1,80.0000030517579,4|0,1:2|0:0,0:0:0:0:
323,174,98329,1,0,0:0:0:0:
410,133,98472,2,0,P|439:93|442:32,1,106.666666666667,8|0,1:0|0:0,0:0:0:0:
393,213,98900,6,0,L|407:280,1,53.3333333333333,0|0,1:0|0:0,0:0:0:0:
372,356,99186,1,0,0:0:0:0:
277,338,99329,6,0,L|263:271,1,53.3333333333333,8|0,1:0|0:0,0:0:0:0:
296,194,99615,1,0,0:0:0:0:
146,70,99757,6,0,P|130:106|132:146,1,80.0000030517579,4|0,1:2|0:0,0:0:0:0:
202,212,100043,1,0,0:0:0:0:
151,293,100186,2,0,P|110:325|38:324,1,106.666666666667,8|0,1:0|0:0,0:0:0:0:
76,235,100614,5,0,1:0:0:0:
45,143,100757,1,0,0:0:0:0:
45,143,100900,1,0,0:0:0:0:
138,166,101043,5,8,1:0:0:0:
169,74,101186,1,0,0:0:0:0:
169,74,101329,1,0,0:0:0:0:
203,237,101472,6,0,P|243:265|297:262,1,80.0000030517579,4|0,1:2|0:0,0:0:0:0:
352,220,101757,1,0,0:0:0:0:
434,269,101900,2,0,P|434:321|404:364,1,106.666666666667,8|0,1:0|0:0,0:0:0:0:
435,179,102329,6,0,P|448:128|485:95,1,80.0000030517579,4|0,1:2|0:0,0:0:0:0:
395,46,102614,1,0,0:0:0:0:
327,113,102757,2,0,L|341:178,1,53.3333333333333,8|0,1:0|0:0,0:0:0:0:
259,317,103043,5,0,0:0:0:0:
259,317,103114,1,0,0:0:0:0:
259,317,103186,2,0,L|269:219,1,80.0000030517579,4|0,1:2|0:0,0:0:0:0:
205,159,103472,1,0,0:0:0:0:
113,185,103614,2,0,P|59:185|1:113,1,106.666666666667,8|0,1:0|0:0,0:0:0:0:
92,94,104043,2,0,L|101:67,3,26.6666666666667,0|0|0|0,1:0|0:0|0:0|0:0,0:0:0:0:
92,94,104329,1,4,0:0:0:0:
176,46,104472,5,8,1:0:0:0:
256,97,104614,1,0,0:0:0:0:
338,47,104757,1,0,0:0:0:0:
467,125,104900,6,0,P|504:166|503:224,1,80.0000030517579,4|0,1:2|0:0,0:0:0:0:
484,282,105186,1,0,0:0:0:0:
419,353,105329,2,0,P|390:308|390:256,1,106.666666666667,8|0,1:0|0:0,0:0:0:0:
306,209,105757,5,0,1:0:0:0:
213,235,105900,1,0,0:0:0:0:
282,301,106043,1,0,0:0:0:0:
306,209,106186,2,0,L|321:147,1,53.3333333333333,8|0,1:0|0:0,0:0:0:0:
395,98,106472,1,0,0:0:0:0:
234,28,106614,6,0,P|194:43|155:116,1,80.0000030517579,4|0,1:2|0:0,0:0:0:0:
147,154,106900,1,0,0:0:0:0:
54,127,107043,2,0,L|41:9,1,106.666666666667,8|0,1:0|0:0,0:0:0:0:
86,206,107472,6,0,L|72:262,1,53.3333333333333,0|0,1:0|0:0,0:0:0:0:
1,321,107757,1,0,0:0:0:0:
168,236,107900,6,0,L|177:288,1,53.3333333333333,8|0,1:0|0:0,0:0:0:0:
137,375,108185,1,0,0:0:0:0:
256,224,108329,6,0,P|289:266|353:288,1,80.0000030517579,4|0,1:2|0:0,0:0:0:0:
413,267,108614,1,0,0:0:0:0:
441,175,108757,2,0,P|387:170|338:217,1,106.666666666667,8|0,1:0|0:0,0:0:0:0:
192,128,109186,6,0,P|196:88|236:36,1,80.0000030517579,4|0,1:2|0:0,0:0:0:0:
287,118,109472,1,0,0:0:0:0:
247,204,109614,2,0,L|160:227,1,53.3333333333333,8|0,1:0|0:0,0:0:0:0:
30,157,109900,5,0,0:0:0:0:
30,157,109972,1,0,0:0:0:0:
30,157,110043,2,0,L|108:176,1,80.0000030517579,4|0,1:2|0:0,0:0:0:0:
95,270,110329,1,0,0:0:0:0:
169,331,110472,2,0,P|231:339|281:303,1,106.666666666667,8|0,1:0|0:0,0:0:0:0:
328,243,110900,6,0,L|344:298,1,53.3333333333333,0|0,1:0|0:0,0:0:0:0:
419,352,111186,1,4,0:0:0:0:
412,256,111329,6,0,L|428:201,1,53.3333333333333,8|0,1:0|0:0,0:0:0:0:
503,147,111615,1,0,0:0:0:0:
354,41,111757,6,0,P|299:39|243:95,1,80.0000030517579,4|0,1:2|0:0,0:0:0:0:
215,117,112043,1,0,0:0:0:0:
37,118,112186,2,0,P|79:150|175:137,1,106.666666666667,8|0,1:0|0:0,0:0:0:0:
190,230,112614,2,0,L|106:249,1,53.3333333333333,0|0,1:0|0:0,0:0:0:0:
116,336,112900,2,0,L|168:324,1,53.3333333333333,0|8,0:0|1:0,0:0:0:0:
256,285,113186,2,0,L|308:296,1,53.3333333333333
447,221,113472,6,0,P|399:221|364:246,1,80.0000030517579,4|0,1:2|0:0,0:0:0:0:
429,308,113757,1,0,0:0:0:0:
447,221,113900,2,0,P|434:163|366:109,1,106.666666666667,8|0,1:0|0:0,0:0:0:0:
315,89,114329,5,0,1:0:0:0:
220,108,114472,1,0,0:0:0:0:
283,179,114614,1,0,0:0:0:0:
315,89,114757,1,8,1:0:0:0:
220,108,114900,2,0,L|141:122,1,53.3333333333333
58,213,115186,6,0,P|61:271|117:331,1,80.0000030517579,4|0,1:2|0:0,0:0:0:0:
157,338,115472,1,0,0:0:0:0:
239,290,115614,2,0,P|202:254|143:244,1,106.666666666667,8|0,1:0|0:0,0:0:0:0:
322,334,116043,6,0,P|364:333|407:302,1,80.0000030517579,4|0,1:2|0:0,0:0:0:0:
436,227,116329,1,0,0:0:0:0:
358,169,116472,2,0,L|344:102,1,53.3333333333333,8|0,1:0|0:0,0:0:0:0:
442,130,116757,1,0,0:0:0:0:
275,197,116900,6,0,P|231:181|191:129,1,80.0000030517579,4|0,1:2|0:0,0:0:0:0:
166,70,117186,1,0,0:0:0:0:
75,102,117329,2,0,P|30:161|37:231,1,106.666666666667,8|0,1:0|0:0,0:0:0:0:
66,278,117757,5,0,1:0:0:0:
158,250,117900,2,0,L|167:300,3,26.6666666666667,0|0|4|0,0:0|0:0|0:0|0:0,0:0:0:0:
158,250,118186,1,0,0:0:0:0:
249,281,118329,1,0,0:0:0:0:
311,354,118472,1,0,0:0:0:0:
457,239,118614,6,0,P|474:187|451:117,1,80.0000030517579,4|0,1:2|0:0,0:0:0:0:
385,183,118900,1,0,0:0:0:0:
295,197,119043,2,0,P|313:237|389:274,1,106.666666666667,8|0,1:0|0:0,0:0:0:0:
385,183,119472,6,0,L|401:105,1,53.3333333333333,0|0,1:0|0:0,0:0:0:0:
354,43,119757,1,0,0:0:0:0:
259,58,119900,2,0,L|243:136,1,53.3333333333333,8|0,1:0|0:0,0:0:0:0:
160,150,120186,1,0,0:0:0:0:
21,81,120329,6,0,P|90:76|140:124,1,80.0000030517579,4|0,1:2|0:0,0:0:0:0:
160,150,120614,1,0,0:0:0:0:
168,245,120757,2,0,P|144:299|79:331,1,106.666666666667,8|0,1:0|0:0,0:0:0:0:
72,234,121186,5,0,1:0:0:0:
168,245,121329,1,0,0:0:0:0:
227,320,121472,5,0,0:0:0:0:
323,309,121615,1,8,1:0:0:0:
361,231,121757,5,0,0:0:0:0:
265,242,121900,1,0,0:0:0:0:
433,301,122043,6,0,P|455:258|449:199,1,80.0000030517579,4|0,1:2|0:0,0:0:0:0:
396,153,122329,1,0,0:0:0:0:
302,131,122472,2,0,P|332:80|384:59,1,106.666666666667,8|0,1:0|0:0,0:0:0:0:
210,131,122900,6,0,P|180:80|134:60,1,80.0000030517579,4|0,1:2|0:0,0:0:0:0:
116,153,123186,1,0,0:0:0:0:
55,226,123329,2,0,P|58:265|77:299,1,53.3333333333333,8|0,1:0|0:0,0:0:0:0:
135,342,123614,1,0,0:0:0:0:
312,270,123757,6,0,P|282:243|245:228,1,80.0000030517579,4|0,1:2|0:0,0:0:0:0:
151,248,124042,1,0,0:0:0:0:
245,228,124186,6,0,P|270:182|262:94,1,106.666666666667,8|0,1:0|0:0,0:0:0:0:
224,45,124614,1,0,1:0:0:0:
320,45,124757,2,0,P|363:92|371:150,1,106.666666666667,0|8,0:0|1:0,0:0:0:0:
468,138,125186,2,0,L|453:203,1,53.3333333333333
386,347,125472,5,4,1:0:0:0:
307,292,125614,1,2,0:0:0:0:
222,278,125757,1,2,0:0:0:0:
149,296,125900,1,0,1:0:0:0:
101,339,126043,1,2,0:0:0:0:
47,341,126186,1,2,0:0:0:0:
13,314,126329,6,0,P|1:286|1:250,1,53.3333333333333,0|2,1:0|0:0,0:0:0:0:
20,173,126614,1,2,0:0:0:0:
152,119,126757,6,0,P|133:143|102:161,1,53.3333333333333,0|2,1:0|0:0,0:0:0:0:
20,173,127043,1,2,0:0:0:0:
64,68,127186,5,0,1:0:0:0:
151,27,127329,1,2,0:0:0:0:
227,65,127472,1,2,0:0:0:0:
248,136,127614,1,0,1:0:0:0:
293,180,127757,1,2,0:0:0:0:
346,182,127900,1,2,0:0:0:0:
379,155,128043,6,0,P|389:125|382:74,1,53.3333333333333,0|2,1:0|0:0,0:0:0:0:
339,20,128329,1,2,0:0:0:0:
379,155,128472,6,0,P|399:178|447:198,1,53.3333333333333,0|2,1:0|0:0,0:0:0:0:
511,168,128757,1,2,0:0:0:0:
379,155,128900,5,0,1:0:0:0:
290,192,129043,1,2,0:0:0:0:
245,264,129186,1,2,0:0:0:0:
255,337,129329,1,0,1:0:0:0:
215,286,129472,1,2,0:0:0:0:
162,277,129614,1,2,0:0:0:0:
124,297,129757,6,0,P|95:306|50:300,1,53.3333333333333,0|2,1:0|0:0,0:0:0:0:
8,231,130043,1,2,0:0:0:0:
123,165,130186,6,0,P|145:185|162:226,1,53.3333333333333,0|2,1:0|0:0,0:0:0:0:
124,297,130472,1,2,0:0:0:0:
8,231,130614,5,0,1:0:0:0:
36,138,130757,1,2,0:0:0:0:
102,83,130900,1,2,0:0:0:0:
176,86,131043,1,0,1:0:0:0:
229,120,131186,1,2,0:0:0:0:
282,126,131329,1,2,0:0:0:0:
320,108,131472,6,0,P|337:82|343:42,1,53.3333333333333,0|2,1:0|0:0,0:0:0:0:
256,18,131757,1,2,0:0:0:0:
320,108,131900,6,0,P|333:135|365:161,1,53.3333333333333,0|2,1:0|0:0,0:0:0:0:
432,104,132185,1,2,0:0:0:0:
320,108,132329,5,0,1:0:0:0:
239,160,132472,1,2,0:0:0:0:
227,244,132614,1,2,0:0:0:0:
269,305,132757,1,0,1:0:0:0:
330,322,132900,1,2,0:0:0:0:
380,306,133043,1,2,0:0:0:0:
403,269,133186,5,0,1:0:0:0:
354,184,133329,2,0,P|332:199|318:222,1,53.3333333333333,2|2,0:0|0:0,0:0:0:0:
403,269,133614,5,0,1:0:0:0:
498,269,133757,2,0,P|496:242|485:219,1,53.3333333333333,2|2,0:0|0:0,0:0:0:0:
403,269,134043,5,0,1:0:0:0:
319,316,134186,1,2,0:0:0:0:
236,292,134329,1,2,0:0:0:0:
183,239,134472,1,0,1:0:0:0:
122,218,134614,1,2,0:0:0:0:
70,230,134757,1,2,0:0:0:0:
36,261,134900,5,0,1:0:0:0:
122,218,135043,2,0,P|145:192|155:149,1,53.3333333333333,2|2,0:0|0:0,0:0:0:0:
135,31,135329,5,0,1:0:0:0:
129,127,135472,2,0,P|140:159|172:190,1,53.3333333333333,2|2,0:0|0:0,0:0:0:0:
283,232,135757,5,0,1:0:0:0:
378,225,135900,1,2,0:0:0:0:
436,163,136043,1,2,0:0:0:0:
422,90,136186,1,0,1:0:0:0:
374,133,136329,1,2,0:0:0:0:
365,185,136472,1,2,0:0:0:0:
378,225,136614,5,0,1:0:0:0:
471,246,136757,2,0,P|497:231|514:211,1,53.3333333333333,2|2,0:0|0:0,0:0:0:0:
378,225,137043,5,0,1:0:0:0:
313,295,137186,2,0,P|312:325|321:349,1,53.3333333333333,2|2,0:0|0:0,0:0:0:0:
378,225,137472,5,0,1:0:0:0:
353,132,137614,1,2,0:0:0:0:
284,80,137757,1,2,0:0:0:0:
210,92,137900,1,0,1:0:0:0:
165,138,138043,1,2,0:0:0:0:
112,149,138186,1,2,0:0:0:0:
71,134,138329,5,0,1:0:0:0:
111,221,138472,2,0,P|146:248|189:253,1,53.3333333333333,2|2,0:0|0:0,0:0:0:0:
297,237,138757,5,0,1:0:0:0:
201,228,138900,2,0,P|160:244|134:279,1,53.3333333333333,2|2,0:0|0:0,0:0:0:0:
114,358,139186,5,4,1:0:0:0:
210,360,139329,1,2,0:0:0:0:
279,310,139472,1,2,0:0:0:0:
293,237,139614,1,0,1:0:0:0:
319,178,139757,1,2,0:0:0:0:
368,159,139900,1,2,0:0:0:0:
404,172,140043,5,0,1:0:0:0:
479,231,140186,2,0,P|496:271|488:318,1,53.3333333333333,2|2,0:0|0:0,0:0:0:0:
404,172,140472,5,0,1:0:0:0:
418,77,140615,2,0,P|444:42|488:25,1,53.3333333333333,2|2,0:0|0:0,0:0:0:0:
404,172,140900,5,0,1:0:0:0:
313,183,141043,1,2,0:0:0:0:
242,134,141186,1,2,0:0:0:0:
223,61,141329,1,0,1:0:0:0:
186,21,141472,1,2,0:0:0:0:
134,11,141614,1,2,0:0:0:0:
93,26,141757,5,0,1:0:0:0:
49,111,141900,2,0,P|56:156|91:192,1,53.3333333333333,2|2,0:0|0:0,0:0:0:0:
161,259,142186,5,0,1:0:0:0:
109,178,142329,2,0,P|66:161|17:173,1,53.3333333333333,2|2,0:0|0:0,0:0:0:0:
143,350,142614,5,0,1:0:0:0:
232,313,142757,1,2,0:0:0:0:
277,241,142900,1,2,0:0:0:0:
267,168,143043,1,0,1:0:0:0:
307,219,143186,1,2,0:0:0:0:
360,228,143328,1,2,0:0:0:0:
397,207,143472,5,0,1:0:0:0:
442,123,143614,2,0,P|439:84|418:44,1,53.3333333333333,2|2,0:0|0:0,0:0:0:0:
343,22,143900,5,0,1:0:0:0:
393,102,144042,2,0,P|427:119|473:120,1,53.3333333333333,2|2,0:0|0:0,0:0:0:0:
247,46,144329,5,0,1:0:0:0:
151,34,144472,1,2,0:0:0:0:
96,98,144614,1,2,0:0:0:0:
118,169,144757,1,0,1:0:0:0:
113,232,144900,1,2,0:0:0:0:
69,263,145043,1,2,0:0:0:0:
26,256,145186,6,0,B|-11:317|16:369|91:383|122:324,1,160
155,298,146043,6,0,P|207:281|290:290,1,120.000004577637
353,334,146686,1,0,0:0:0:0:
432,281,146900,2,0,L|449:217,1,60.0000022888184,2|0,0:0|0:0,0:0:0:0:
335,164,147329,2,0,L|351:222,1,60.0000022888184,2|0,0:0|0:0,0:0:0:0:
431,44,147757,6,0,P|382:63|293:83,1,120.000004577637
252,151,148400,1,0,0:0:0:0:
166,107,148614,2,0,P|109:85|51:71,1,120.000004577637,2|0,0:0|0:0,0:0:0:0:
51,71,149257,1,2,0:0:0:0:
54,217,149472,6,0,P|49:271|82:329,1,120.000004577637
204,271,150114,2,0,P|176:260|147:258,1,60.0000022888184,2|0,0:0|0:0,0:0:0:0:
166,352,150543,2,0,P|193:363|223:365,1,60.0000022888184,2|0,0:0|0:0,0:0:0:0:
301,310,150972,1,0,0:0:0:0:
475,243,151186,6,0,P|430:257|386:322,1,120.000004577637
481,336,151829,1,0,0:0:0:0:
475,243,152043,2,0,L|470:166,1,60.0000022888184,2|0,0:0|0:0,0:0:0:0:
375,172,152472,2,0,L|378:112,1,60.0000022888184,0|2,0:0|0:0,0:0:0:0:
218,50,152900,6,0,P|227:113|273:163,1,120.000004577637
326,227,153543,1,0,0:0:0:0:
269,304,153757,2,0,P|221:334|138:338,1,120.000004577637,2|0,0:0|0:0,0:0:0:0:
159,341,154400,1,2,0:0:0:0:
62,175,154614,6,0,P|118:173|181:217,1,120.000004577637
97,266,155257,1,2,0:0:0:0:
171,204,155472,2,0,P|186:168|183:126,1,60.0000022888184,0|2,0:0|0:0,0:0:0:0:
113,85,155900,2,0,P|100:111|96:141,1,60.0000022888184
249,238,156329,6,0,P|273:183|271:124,1,120.000004577637,2|0,0:0|0:0,0:0:0:0:
271,124,156972,1,0,0:0:0:0:
330,48,157186,5,2,0:0:0:0:
509,115,157614,5,2,0:0:0:0:
353,238,158043,5,2,0:0:0:0:
256,192,158150,12,0,159329,0:0:0:0:
338,117,159757,5,4,1:0:0:0:
385,52,159900,2,0,P|404:39|452:37,1,53.3333333333333
434,114,160186,5,2,0:0:0:0:
387,179,160329,2,0,P|368:192|320:194,1,53.3333333333333
269,156,160614,5,2,0:0:0:0:
253,77,160757,2,0,L|240:14,1,53.3333333333333
189,126,161043,5,2,0:0:0:0:
205,205,161186,2,0,L|218:268,1,53.3333333333333
104,130,161472,6,0,L|114:77,2,53.3333333333333,2|0|0,0:0|0:0|0:0,0:0:0:0:
45,184,161900,1,2,0:0:0:0:
94,247,162043,1,0,0:0:0:0:
123,321,162186,1,0,0:0:0:0:
195,287,162329,2,0,P|240:283|318:321,1,106.666666666667,2|0,0:0|0:0,0:0:0:0:
355,357,162757,2,0,P|372:330|371:283,1,53.3333333333333
338,237,163043,1,0,0:0:0:0:
508,108,163186,5,0,1:0:0:0:
436,70,163330,2,0,P|410:75|388:90,1,53.3333333333333
337,152,163614,5,2,0:0:0:0:
265,190,163758,2,0,P|239:184|217:169,1,53.3333333333333
143,74,164043,5,2,0:0:0:0:
211,117,164187,2,0,P|219:142|217:168,1,53.3333333333333
178,238,164472,5,2,0:0:0:0:
101,260,164614,1,0,0:0:0:0:
41,206,164757,1,0,0:0:0:0:
161,314,164900,6,0,L|110:338,2,53.3333333333333,2|0|0,0:0|0:0|0:0,0:0:0:0:
178,238,165329,5,2,0:0:0:0:
247,199,165472,1,0,0:0:0:0:
262,120,165614,1,0,0:0:0:0:
206,62,165757,2,0,P|158:41|90:51,1,106.666666666667,2|0,0:0|0:0,0:0:0:0:
262,120,166186,2,0,P|279:93|278:46,1,53.3333333333333
184,140,166472,1,0,0:0:0:0:
394,236,166614,5,0,1:0:0:0:
449,178,166757,2,0,L|435:123,1,53.3333333333333
398,258,167043,5,2,0:0:0:0:
324,288,167186,2,0,L|313:342,1,53.3333333333333
242,303,167472,5,2,0:0:0:0:
168,273,167615,2,0,L|157:218,1,53.3333333333333
82,196,167900,2,0,P|47:240|47:312,1,106.666666666667
158,220,168329,5,0,1:0:0:0:
220,170,168472,1,0,0:0:0:0:
235,91,168614,1,0,0:0:0:0:
307,131,168757,5,2,0:0:0:0:
386,116,168899,1,0,0:0:0:0:
436,54,169042,1,0,0:0:0:0:
463,129,169186,5,2,0:0:0:0:
413,190,169329,1,0,0:0:0:0:
414,271,169471,1,0,0:0:0:0:
465,332,169614,2,0,P|487:300|484:228,1,106.666666666667
341,306,170043,5,0,1:0:0:0:
272,263,170186,2,0,L|209:284,1,53.3333333333333
101,253,170472,5,2,0:0:0:0:
170,296,170615,2,0,L|233:275,1,53.3333333333333
148,183,170900,6,0,L|97:166,2,53.3333333333333,2|0|0,0:0|0:0|0:0,0:0:0:0:
172,106,171329,6,0,B|192:44|265:31|265:31|232:54|233:82|233:82|288:48|356:71|356:71|323:78|298:98|298:98|357:100|399:135,1,480,4|0,0:0|0:0,0:0:0:0:
110,144,173472,6,0,L|101:82,1,53.3333333333333,4|0,1:0|0:0,0:0:0:0:
152,22,173757,1,0,0:0:0:0:
197,125,173900,6,0,L|186:186,1,53.3333333333333,2|0,0:0|0:0,0:0:0:0:
238,246,174185,1,0,0:0:0:0:
325,314,174329,5,8,0:0:0:0:
407,292,174472,1,0,0:0:0:0:
346,232,174614,1,0,0:0:0:0:
238,246,174757,5,0,0:0:0:0:
156,224,174900,1,0,0:0:0:0:
217,164,175042,1,0,0:0:0:0:
179,306,175186,6,0,P|156:309|112:293,1,53.3333333333333,0|0,1:0|0:0,0:0:0:0:
72,235,175472,1,0,0:0:0:0:
7,68,175614,6,0,P|30:68|71:91,1,53.3333333333333,2|0,1:2|0:0,0:0:0:0:
101,154,175900,1,0,1:0:0:0:
217,164,176043,6,0,P|267:193|378:188,1,160,8|0,0:0|0:0,0:0:0:0:
366,192,176900,6,0,L|341:256,1,53.3333333333333,4|0,1:0|0:0,0:0:0:0:
313,320,177186,1,0,0:0:0:0:
449,209,177329,6,0,L|455:277,1,53.3333333333333,2|0,0:0|0:0,0:0:0:0:
459,347,177615,1,0,0:0:0:0:
481,195,177757,6,0,L|506:52,1,106.666666666667,8|0,0:0|0:0,0:0:0:0:
352,66,178186,5,0,1:0:0:0:
268,135,178329,1,0,1:0:0:0:
370,177,178472,1,0,1:0:0:0:
266,55,178614,6,0,L|207:75,1,53.3333333333333,0|0,1:0|0:0,0:0:0:0:
166,143,178900,1,0,0:0:0:0:
9,106,179043,6,0,L|68:126,1,53.3333333333333,2|0,1:2|0:0,0:0:0:0:
99,199,179329,1,0,1:0:0:0:
275,97,179472,6,0,L|111:50,1,160,8|0,0:0|0:0,0:0:0:0:
211,270,180329,5,4,1:0:0:0:
291,297,180472,1,0,0:0:0:0:
355,351,180614,1,0,0:0:0:0:
377,268,180757,1,2,0:0:0:0:
436,206,180900,1,0,0:0:0:0:
444,120,181043,1,0,0:0:0:0:
389,54,181186,6,0,P|327:50|264:104,1,106.666666666667,8|0,0:0|0:0,0:0:0:0:
188,54,181614,2,0,P|235:76|288:70,1,106.666666666667
177,137,182043,5,0,1:0:0:0:
94,115,182186,1,0,0:0:0:0:
72,197,182329,1,0,0:0:0:0:
154,220,182472,2,0,L|283:256,1,106.666666666667,2|0,1:2|1:0,0:0:0:0:
370,172,182900,6,0,P|344:178|323:194,1,53.3333333333333,8|0,0:0|0:0,0:0:0:0:
380,257,183186,1,0,0:0:0:0:
451,133,183329,2,0,P|411:98|294:113,1,160,0|0,0:0|1:0,0:0:0:0:
215,149,183900,5,0,0:0:0:0:
131,129,184043,1,0,0:0:0:0:
84,57,184186,1,2,0:0:0:0:
119,134,184329,1,0,0:0:0:0:
123,219,184472,1,0,0:0:0:0:
94,298,184614,2,0,P|50:353|12:368,1,106.666666666667,8|0,0:0|0:0,0:0:0:0:
180,286,185043,5,0,1:0:0:0:
280,249,185186,1,0,1:0:0:0:
384,272,185329,1,0,1:0:0:0:
460,346,185472,1,0,1:0:0:0:
424,63,187186,5,2,1:2:0:0:
385,100,187329,1,0,0:0:0:0:
333,112,187472,1,0,0:0:0:0:
283,91,187614,1,2,0:0:0:0:
251,48,187757,1,0,0:0:0:0:
198,37,187900,1,0,0:0:0:0:
148,57,188043,6,0,P|124:86|116:146,1,53.3333333333333,2|0,0:0|0:0,0:0:0:0:
203,124,188329,1,0,0:0:0:0:
35,99,188472,6,0,P|38:136|75:184,1,53.3333333333333,2|0,0:0|0:0,0:0:0:0:
119,101,188757,1,0,0:0:0:0:
38,230,188900,5,2,0:0:0:0:
89,242,189043,1,0,0:0:0:0:
123,282,189186,1,0,0:0:0:0:
133,334,189329,1,2,0:0:0:0:
169,294,189472,1,0,0:0:0:0:
220,282,189614,1,0,0:0:0:0:
270,299,189757,6,0,P|295:321|305:353,1,53.3333333333333,2|0,0:0|0:0,0:0:0:0:
219,367,190043,1,0,0:0:0:0:
380,304,190186,6,0,P|388:339|382:367,1,53.3333333333333,2|0,0:0|0:0,0:0:0:0:
302,338,190472,1,0,0:0:0:0:
478,233,190614,5,2,1:2:0:0:
429,210,190757,1,0,0:0:0:0:
419,157,190900,1,0,0:0:0:0:
455,117,191043,1,2,0:0:0:0:
467,65,191186,1,0,0:0:0:0:
434,22,191329,1,0,0:0:0:0:
380,23,191472,6,0,P|348:37|330:56,1,53.3333333333333,2|0,0:0|0:0,0:0:0:0:
306,125,191757,1,0,0:0:0:0:
264,11,191900,6,0,P|251:43|251:69,1,53.3333333333333,2|0,0:0|0:0,0:0:0:0:
306,125,192185,1,0,0:0:0:0:
168,65,192329,5,2,0:0:0:0:
115,55,192472,1,0,0:0:0:0:
73,87,192614,1,0,0:0:0:0:
72,140,192757,1,2,0:0:0:0:
110,176,192900,1,0,0:0:0:0:
116,229,193043,1,0,0:0:0:0:
94,277,193186,6,0,P|66:302|19:307,1,53.3333333333333,2|0,0:0|0:0,0:0:0:0:
30,217,193472,1,0,0:0:0:0:
181,293,193614,6,0,P|171:329|134:359,1,53.3333333333333,2|0,0:0|0:0,0:0:0:0:
94,277,193900,1,0,0:0:0:0:
289,233,194043,5,2,1:2:0:0:
340,245,194186,1,0,0:0:0:0:
385,273,194329,1,0,0:0:0:0:
418,314,194472,1,2,0:0:0:0:
413,261,194614,1,0,0:0:0:0:
434,212,194757,1,0,0:0:0:0:
475,178,194900,6,0,P|489:161|496:121,1,53.3333333333333,2|0,0:0|0:0,0:0:0:0:
475,51,195186,1,0,0:0:0:0:
415,121,195329,6,0,P|409:95|393:74,1,53.3333333333333,2|0,0:0|0:0,0:0:0:0:
319,29,195614,1,0,0:0:0:0:
328,133,195757,5,2,0:0:0:0:
283,163,195900,1,0,0:0:0:0:
229,161,196043,1,0,0:0:0:0:
195,120,196186,1,2,0:0:0:0:
146,98,196329,1,0,0:0:0:0:
94,112,196472,1,0,0:0:0:0:
59,153,196614,6,0,P|46:180|51:229,1,53.3333333333333,2|0,0:0|0:0,0:0:0:0:
44,203,196900,1,0,0:0:0:0:
110,251,197043,6,0,P|123:224|118:175,1,53.3333333333333,2|0,0:0|0:0,0:0:0:0:
124,202,197329,1,0,0:0:0:0:
29,314,197472,5,2,1:2:0:0:
72,344,197614,1,0,0:0:0:0:
125,348,197757,1,0,0:0:0:0:
171,321,197900,1,2,0:0:0:0:
198,275,198043,1,0,0:0:0:0:
248,257,198186,1,0,0:0:0:0:
299,271,198329,6,0,P|325:292|340:322,1,53.3333333333333,2|0,0:0|0:0,0:0:0:0:
256,341,198614,1,0,0:0:0:0:
415,289,198757,6,0,P|418:322|407:354,1,53.3333333333333,2|0,0:0|0:0,0:0:0:0:
335,308,199042,1,0,0:0:0:0:
335,200,199186,5,2,0:0:0:0:
364,155,199329,1,0,0:0:0:0:
413,133,199472,1,0,0:0:0:0:
465,141,199614,1,2,0:0:0:0:
416,163,199757,1,0,0:0:0:0:
364,155,199900,1,0,0:0:0:0:
327,116,200043,6,0,P|308:85|306:38,1,53.3333333333333,2|0,0:0|0:0,0:0:0:0:
346,1,200329,1,0,0:0:0:0:
232,105,200472,6,0,P|201:124|154:126,1,53.3333333333333,2|0,0:0|0:0,0:0:0:0:
117,86,200758,1,0,0:0:0:0:
32,219,200900,6,0,P|68:201|148:206,1,106.666666666667,4|0,1:0|0:0,0:0:0:0:
133,200,201472,1,0,0:0:0:0:
256,315,201757,2,0,P|220:333|140:328,1,106.666666666667,4|0,1:0|0:0,0:0:0:0:
154,333,202329,1,0,0:0:0:0:
303,163,202614,6,0,L|322:26,2,106.666666666667,4|0|0,1:0|0:0|0:0,0:0:0:0:
444,248,203472,2,0,L|429:353,2,106.666666666667,4|0|0,1:0|0:0|0:0,0:0:0:0:
274,346,204329,6,0,P|236:312|159:307,1,106.666666666667,4|0,1:0|0:0,0:0:0:0:
93,338,204757,2,0,P|87:290|127:219,1,106.666666666667,0|0,1:0|0:0,0:0:0:0:
202,214,205186,2,0,P|223:165|217:113,1,106.666666666667,4|0,1:0|0:0,0:0:0:0:
135,63,205614,2,0,L|69:75,2,53.3333333333333,0|0|0,1:0|0:0|0:0,0:0:0:0:
217,113,206043,6,0,L|363:142,1,106.666666666667,4|0,1:0|0:0,0:0:0:0:
403,82,206472,5,0,1:0:0:0:
421,175,206614,1,0,0:0:0:0:
439,269,206757,1,0,0:0:0:0:
372,337,206900,5,4,1:0:0:0:
354,243,207043,1,0,0:0:0:0:
336,150,207185,1,0,0:0:0:0:
266,217,207329,6,0,L|282:294,2,53.3333333333333,0|0|0,1:0|0:0|0:0,0:0:0:0:
92,96,207757,5,4,0:0:0:0:
123,186,207900,1,0,0:0:0:0:
185,112,208043,1,0,0:0:0:0:
92,96,208186,5,0,0:0:0:0:
130,182,208329,1,0,0:0:0:0:
186,103,208472,1,0,0:0:0:0:
92,96,208614,5,0,0:0:0:0:
138,179,208757,1,0,0:0:0:0:
186,95,208900,1,0,0:0:0:0:
92,96,209043,5,0,0:0:0:0:
145,174,209186,1,0,0:0:0:0:
186,87,209329,1,0,0:0:0:0:
51,180,209472,5,4,0:0:0:0:
71,273,209614,2,0,L|90:364,1,53.3333333333333
244,370,209900,5,0,0:0:0:0:
224,277,210042,2,0,L|205:186,1,53.3333333333333
275,63,210329,5,0,0:0:0:0:
295,156,210471,2,0,L|314:247,1,53.3333333333333
468,253,210757,5,0,0:0:0:0:
448,160,210899,2,0,L|429:69,1,53.3333333333333
248,238,211186,5,4,0:0:0:0:
340,265,211329,1,0,0:0:0:0:
317,171,211472,1,0,0:0:0:0:
252,238,211614,5,0,0:0:0:0:
346,257,211757,1,0,0:0:0:0:
314,165,211900,1,0,0:0:0:0:
256,238,212043,5,0,0:0:0:0:
351,249,212186,1,0,0:0:0:0:
312,160,212329,1,0,0:0:0:0:
260,238,212471,5,0,0:0:0:0:
356,240,212614,1,0,0:0:0:0:
309,155,212757,1,0,0:0:0:0:
167,178,212900,6,0,L|89:188,1,53.3333333333333,4|0,0:0|0:0,0:0:0:0:
18,199,213186,1,0,0:0:0:0:
121,91,213329,6,0,L|199:81,1,53.3333333333333
270,70,213615,1,0,0:0:0:0:
494,185,213757,6,0,L|441:191,1,53.3333333333333
345,206,214043,1,0,0:0:0:0:
242,314,214186,6,0,L|320:304,1,53.3333333333333
391,293,214472,1,0,0:0:0:0:
209,237,214614,6,0,L|182:228,10,26.6666666666667,4|0|0|0|0|0|0|0|0|0|0,0:0|0:0|0:0|0:0|0:0|0:0|0:0|0:0|0:0|0:0|0:0,0:0:0:0:
303,237,215472,6,0,L|328:228,10,26.6666666666667,4|0|0|0|0|0|0|0|0|0|0,0:0|0:0|0:0|0:0|0:0|0:0|0:0|0:0|0:0|0:0|0:0,0:0:0:0:
186,148,216329,6,0,L|146:135,10,40.000001525879,4|0|0|0|0|0|0|0|0|0|0,0:0|0:0|0:0|0:0|0:0|0:0|0:0|0:0|0:0|0:0|0:0,0:0:0:0:
326,148,217186,6,0,L|366:135,10,40.000001525879,4|0|0|0|0|0|0|0|0|0|0,0:0|0:0|0:0|0:0|0:0|0:0|0:0|0:0|0:0|0:0|0:0,0:0:0:0:
439,297,218043,6,0,L|416:237,4,53.3333333333333,4|0|0|0|0,0:0|0:0|0:0|0:0|0:0,0:0:0:0:
329,345,218472,2,0,L|352:286,4,53.3333333333333,4|0|0|0|0,0:0|0:0|0:0|0:0|0:0,0:0:0:0:
264,248,218900,2,0,L|244:297,4,53.3333333333333,4|0|0|0|0,0:0|0:0|0:0|0:0|0:0,0:0:0:0:
156,295,219329,2,0,L|175:347,4,53.3333333333333,4|0|0|0|0,0:0|0:0|0:0|0:0|0:0,0:0:0:0:
114,177,219757,6,0,L|28:158,4,66.6666666666667,4|0|0|0|0,0:0|0:0|0:0|0:0|0:0,0:0:0:0:
214,105,220186,2,0,L|280:121,4,66.6666666666667,4|0|0|0|0,0:0|0:0|0:0|0:0|0:0,0:0:0:0:
237,261,220614,6,0,L|253:348,4,66.6666666666667,4|0|0|0|0,0:0|0:0|0:0|0:0|0:0,0:0:0:0:
372,137,221043,2,0,L|359:71,4,66.6666666666667,4|0|0|0|0,0:0|0:0|0:0|0:0|0:0,0:0:0:0:
405,324,221472,5,4,0:0:0:0:
256,192,221543,12,4,222329,0:0:0:0:
256,192,222400,12,4,223186,0:0:0:0:
256,192,223257,12,4,224043,0:0:0:0:
155,46,224686,6,0,L|171:2,3,26.6666666666667,0|0|0|0,0:0|0:0|0:0|0:0,0:0:0:0:
241,88,225043,1,0,0:0:0:0:
335,71,225186,1,0,0:0:0:0:
411,12,225329,1,0,0:0:0:0:
351,87,225472,1,0,0:0:0:0:
347,182,225614,1,0,0:0:0:0:
398,264,225757,6,0,L|232:220,1,160,8|4,0:0|1:2,0:0:0:0:
46,180,226757,5,0,0:0:0:0:
46,180,227043,2,0,P|37:140|52:75,1,80.0000030517579,8|0,1:0|0:0,0:0:0:0:
113,37,227329,1,0,0:0:0:0:
212,148,227472,2,0,L|134:127,2,80.0000030517579,0|0|0,1:0|0:0|0:0,0:0:0:0:
241,64,227900,1,8,1:0:0:0:
284,264,228043,2,0,L|309:163,1,80.0000030517579
331,94,228329,6,0,P|398:138|487:138,1,160.000006103516,4|0,1:2|0:0,0:0:0:0:
475,140,228757,2,0,P|479:184|512:240,1,80.0000030517579,8|0,1:0|0:0,0:0:0:0:
422,289,229043,1,0,0:0:0:0:
261,224,229186,2,0,L|371:248,1,80.0000030517579,0|0,1:0|0:0,0:0:0:0:
236,139,229472,1,0,0:0:0:0:
211,346,229614,1,8,1:0:0:0:
180,262,229757,2,0,L|26:228,1,120.000004577637,0|0,0:0|1:2,0:0:0:0:
23,227,230043,2,0,L|7:180,4,40.000001525879,4|0|0|0|0,0:0|0:0|0:0|0:0|0:0,0:0:0:0:
173,54,230472,5,8,1:0:0:0:
242,119,230614,2,0,L|224:216,1,80.0000030517579
299,265,230900,1,0,1:0:0:0:
406,169,231043,2,0,P|353:170|303:203,1,80.0000030517579
474,238,231329,1,8,1:0:0:0:
394,337,231472,2,0,L|385:257,1,80.0000030517579
499,146,231757,2,0,L|509:107,4,40.000001525879,4|0|0|0|0,1:2|0:0|0:0|0:0|0:0,0:0:0:0:
342,31,232186,5,8,1:0:0:0:
270,95,232329,2,0,P|223:109|153:103,1,80.0000030517579
103,74,232614,1,0,1:0:0:0:
204,203,232757,1,0,0:0:0:0:
105,250,232900,2,0,L|119:159,1,80.0000030517579,0|8,0:0|1:0,0:0:0:0:
191,304,233186,2,0,P|113:291|51:335,1,120.000004577637,0|0,0:0|1:2,0:0:0:0:
49,335,233472,2,0,L|1:317,4,40.000001525879,4|0|0|0|0,0:0|0:0|0:0|0:0|0:0,0:0:0:0:
191,304,233900,5,8,1:0:0:0:
278,342,234043,1,0,0:0:0:0:
254,166,234186,2,0,L|264:245,1,80.0000030517579,0|0,0:0|1:0,0:0:0:0:
351,288,234472,1,0,0:0:0:0:
419,221,234614,2,0,L|327:197,1,80.0000030517579,0|8,0:0|1:0,0:0:0:0:
242,76,234900,2,0,L|319:96,1,80.0000030517579
119,47,235186,6,0,P|67:101|74:190,1,160.000006103516,4|0,1:2|0:0,0:0:0:0:
132,254,235614,1,8,1:0:0:0:
85,337,235757,2,0,L|40:258,1,80.0000030517579
224,236,236043,2,0,P|220:279|194:325,1,80.0000030517579,0|0,1:0|0:0,0:0:0:0:
153,169,236329,1,0,0:0:0:0:
324,135,236472,2,0,L|228:154,1,80.0000030517579,8|0,1:0|0:0,0:0:0:0:
273,58,236757,1,0,0:0:0:0:
411,122,236900,2,0,L|451:140,4,40.000001525879,4|0|0|0|0,1:2|0:0|0:0|0:0|0:0,0:0:0:0:
338,254,237329,6,0,P|341:303|370:359,1,80.0000030517579,8|0,1:0|0:0,0:0:0:0:
428,273,237614,1,0,0:0:0:0:
316,160,237757,2,0,L|393:183,1,80.0000030517579,0|0,1:0|0:0,0:0:0:0:
250,226,238043,1,0,0:0:0:0:
224,66,238186,2,0,L|147:43,1,80.0000030517579,8|0,1:0|0:0,0:0:0:0:
64,94,238472,1,0,0:0:0:0:
64,94,238614,5,4,3:2:0:0:
101,282,238900,1,0,3:0:0:0:
240,149,239186,1,0,3:0:0:0:
292,333,239472,5,4,3:0:0:0:
396,294,239614,1,4,3:0:0:0:
309,223,239757,1,0,3:0:0:0:
292,333,239900,5,4,3:0:0:0:
390,214,240043,1,4,3:0:0:0:
231,186,240186,1,0,3:0:0:0:
136,308,240329,2,0,L|101:346,4,40.000001525879,4|0|0|0|0,1:2|0:0|0:0|0:0|0:0,0:0:0:0:
60,166,240757,5,8,1:0:0:0:
153,144,240900,2,0,P|156:185|129:232,1,80.0000030517579
7,66,241186,2,0,L|92:83,1,80.0000030517579,0|0,1:0|0:0,0:0:0:0:
178,54,241472,1,0,0:0:0:0:
218,235,241614,2,0,L|139:219,1,80.0000030517579,8|0,1:0|0:0,0:0:0:0:
250,146,241900,1,0,0:0:0:0:
298,289,242043,2,0,L|313:327,4,40.000001525879,4|0|0|0|0,1:2|0:0|0:0|0:0|0:0,0:0:0:0:
438,215,242472,5,8,1:0:0:0:
470,125,242614,2,0,P|464:87|433:45,1,80.0000030517579
348,27,242900,1,0,1:0:0:0:
314,193,243043,2,0,L|333:94,1,80.0000030517579
408,169,243329,1,8,1:0:0:0:
342,285,243472,2,0,L|187:253,1,120.000004577637,0|0,0:0|1:2,0:0:0:0:
185,253,243757,2,0,L|141:272,4,40.000001525879,4|0|0|0|0,0:0|0:0|0:0|0:0|0:0,0:0:0:0:
60,97,244186,5,8,1:0:0:0:
43,191,244329,2,0,P|81:192|134:162,1,80.0000030517579
137,39,244614,1,0,1:0:0:0:
60,97,244757,2,0,L|45:18,1,80.0000030517579
194,117,245043,1,8,1:0:0:0:
267,180,245186,2,0,L|248:286,1,80.0000030517579
283,87,245472,2,0,L|289:44,4,40.000001525879,4|0|0|0|0,1:2|0:0|0:0|0:0|0:0,0:0:0:0:
422,272,245900,6,0,P|424:323|397:373,1,80.0000030517579,8|0,1:0|0:0,0:0:0:0:
347,211,246186,1,0,0:0:0:0:
511,195,246329,2,0,L|433:175,1,80.0000030517579,0|0,1:0|0:0,0:0:0:0:
250,281,246614,2,0,L|327:300,1,80.0000030517579,0|8,0:0|1:0,0:0:0:0:
185,341,246900,2,0,P|148:287|57:271,1,120.000004577637,0|0,0:0|1:2,0:0:0:0:
59,271,247186,2,0,L|77:223,4,40.000001525879,4|0|0|0|0,0:0|0:0|0:0|0:0|0:0,0:0:0:0:
114,78,247614,5,8,1:0:0:0:
174,152,247757,2,0,P|217:181|279:181,1,80.0000030517579
332,147,248043,1,0,1:0:0:0:
278,24,248186,2,0,P|249:67|249:129,1,80.0000030517579
371,67,248472,2,0,L|450:54,1,80.0000030517579,8|0,1:0|0:0,0:0:0:0:
332,147,248757,1,0,0:0:0:0:
473,162,248900,2,0,L|525:170,4,40.000001525879,4|0|0|0|0,1:2|0:0|0:0|0:0|0:0,0:0:0:0:
154,287,249329,5,8,1:0:0:0:
86,154,249472,2,0,L|70:249,1,80.0000030517579
162,197,249758,1,0,1:0:0:0:
21,93,249901,2,0,P|57:72|114:76,1,80.0000030517579
253,102,250186,2,0,L|158:118,1,80.0000030517579,8|0,1:0|0:0,0:0:0:0:
346,87,250472,1,0,0:0:0:0:
440,73,250614,2,0,L|486:67,4,40.000001525879,4|0|0|0|0,1:2|0:0|0:0|0:0|0:0,0:0:0:0:
326,204,251043,6,0,P|328:257|361:301,1,80.0000030517579,8|0,1:0|0:0,0:0:0:0:
411,345,251329,1,0,0:0:0:0:
497,244,251472,2,0,L|403:228,1,80.0000030517579,0|0,1:0|0:0,0:0:0:0:
389,138,251757,1,0,0:0:0:0:
212,114,251900,2,0,L|290:127,1,80.0000030517579,8|0,1:0|0:0,0:0:0:0:
134,176,252186,1,0,0:0:0:0:
125,83,252329,5,0,1:0:0:0:
219,209,252472,1,0,1:0:0:0:
95,299,252614,1,0,1:0:0:0:
1,173,252757,1,4,1:0:0:0:
145,140,254043,6,0,B|183:260|228:324|36:355|72:264|58:194,1,320,4|8,1:0|1:0,0:0:0:0:
125,50,254614,2,0,B|196:25|223:94|223:94,1,106.666666666667
339,248,254900,2,0,B|285:273|230:238|224:141|319:137,1,213.333333333333,0|0,1:0|0:0,0:0:0:0:
433,241,255329,2,0,B|443:318|374:336|374:336,1,106.666666666667,8|0,1:0|0:0,0:0:0:0:
281,325,255614,1,0,0:0:0:0:
401,148,255757,6,0,B|454:181|515:174|515:174,1,106.666666666667,0|0,1:0|0:0,0:0:0:0:
337,218,256043,1,0,0:0:0:0:
309,42,256186,2,0,B|241:-26|133:31|152:124,1,213.333333333333,8|0,1:0|0:0,0:0:0:0:
0,233,256614,6,0,B|13:302|94:289|89:231|89:231|88:180|69:94,1,213.333333333333,0|0,1:0|1:0,0:0:0:0:
243,111,257043,1,8,2:1:0:0:
203,274,257186,2,0,B|189:345|134:363|134:363,1,106.666666666667,0|0,1:0|0:0,0:0:0:0:
161,198,257472,6,0,B|215:166|337:192|271:278|288:332|374:355|452:329|465:262,1,320,0|8,1:0|1:0,0:0:0:0:
485,211,258043,2,0,B|416:179|371:242|371:242,1,106.666666666667
161,106,258329,1,0,1:0:0:0:
250,48,258472,2,0,B|319:16|364:79|364:79,1,106.666666666667
219,301,258757,2,0,B|215:259|204:193|204:193,1,106.666666666667,8|0,1:0|0:0,0:0:0:0:
293,135,259043,1,0,0:0:0:0:
123,283,259186,6,0,B|54:315|9:252|9:252,1,106.666666666667,0|0,1:0|0:0,0:0:0:0:
27,94,259472,1,0,0:0:0:0:
122,48,259614,2,0,B|191:16|236:79|236:79,1,106.666666666667,8|0,1:0|0:0,0:0:0:0:
316,324,259900,1,0,0:0:0:0:
411,275,260043,5,0,1:0:0:0:
430,149,260186,1,0,1:0:0:0:
449,30,260329,1,0,1:0:0:0:
271,109,260472,5,8,1:0:0:0:
252,228,260615,1,0,1:0:0:0:
233,354,260757,1,0,1:0:0:0:
24,258,260900,6,0,B|-24:218|2:162|55:151|90:187|90:187|127:225|188:196|191:146|145:96,1,320,0|8,1:0|1:0,0:0:0:0:
203,267,261472,2,0,B|159:316|83:284|83:284|94:282,1,106.666666666667
95,61,261757,6,0,B|158:-2|269:43|259:148,1,213.333333333333,0|0,1:0|1:0,0:0:0:0:
366,262,262186,1,8,2:1:0:0:
440,338,262329,2,0,B|494:297|471:224,1,106.666666666667,0|0,1:0|0:0,0:0:0:0:
345,74,262614,6,0,B|344:93|344:93|341:111|341:111|345:127|345:127|346:147|346:147|360:159|360:159|373:174|373:174|392:176|392:176|411:180|411:180|426:172|426:172|443:170|443:170|454:154|454:154|462:149,1,213.333333333333,0|0,1:0|0:0,0:0:0:0:
283,228,263043,6,0,P|251:168|258:21,1,213.333333333333,8|0,1:0|0:0,0:0:0:0:
194,268,263472,2,0,B|150:317|74:285|74:285|85:283,1,106.666666666667,0|0,1:0|0:0,0:0:0:0:
9,231,263757,1,0,0:0:0:0:
114,1,263900,2,0,B|168:42|145:115,1,106.666666666667,8|0,1:0|0:0,0:0:0:0:
130,200,264186,1,0,0:0:0:0:
219,369,264329,6,0,B|165:326|177:236|241:201|313:229,1,213.333333333333,0|0,1:0|0:0,0:0:0:0:
474,285,264757,2,0,B|441:344|386:337|387:337,1,106.666666666667,8|0,1:0|0:0,0:0:0:0:
283,309,265043,1,0,0:0:0:0:
202,154,265186,2,0,B|218:85|220:29|220:29,1,106.666666666667,0|0,1:0|0:0,0:0:0:0:
315,1,265472,1,0,0:0:0:0:
490,179,265614,2,0,B|474:248|472:304|472:304,1,106.666666666667,8|0,1:0|0:0,0:0:0:0:
381,340,265900,1,0,0:0:0:0:
135,238,266043,6,0,B|116:212|116:212|116:190|116:190|105:164|105:164|121:142|121:142|130:123|130:123|153:123|153:123|181:119|181:119|196:146|196:146|213:164|213:164|218:191|218:191|232:213|232:213|237:235|237:235|249:257,1,320,0|8,1:0|1:0,0:0:0:0:
147,325,266614,2,0,B|76:341|55:271|55:271,1,106.666666666667
333,136,266900,2,0,B|326:222|307:289|310:359,2,213.333333333333,0|0|0,1:0|1:0|1:0,0:0:0:0:
402,338,267614,1,0,0:0:0:0:
422,136,267757,6,0,B|420:49|357:17|287:17|225:60|234:136|243:191,1,320,4|8,1:0|1:0,0:0:0:0:
51,112,268329,2,0,B|122:143|166:64|166:64,1,106.666666666667
21,303,268614,1,0,1:0:0:0:
94,243,268757,2,0,B|50:179|-28:222|-28:222,1,106.666666666667
175,202,269043,1,8,1:0:0:0:
302,331,269186,2,0,B|345:394|424:351|424:351,1,106.666666666667
409,84,269472,5,0,1:0:0:0:
342,166,269614,2,0,P|354:221|364:278,1,106.666666666667
155,132,269900,2,0,B|152:52|256:12|314:77,1,213.333333333333,8|0,1:0|0:0,0:0:0:0:
108,213,270329,2,0,B|39:189|61:106|61:106,1,106.666666666667,0|0,1:0|0:0,0:0:0:0:
244,136,270614,1,0,1:0:0:0:
177,283,270757,2,0,B|133:346|54:303|54:303,1,106.666666666667,8|0,2:1|1:0,0:0:0:0:
108,213,271043,1,0,0:0:0:0:
327,292,271186,6,0,B|408:316|518:384|537:303|534:239|475:224|475:224|446:215|403:207,1,320,0|8,1:0|1:0,0:0:0:0:
255,227,271757,2,0,B|200:267|243:343|243:343,1,106.666666666667
349,207,272043,1,0,1:0:0:0:
360,100,272186,2,0,P|322:114|250:135,1,106.666666666667
66,15,272472,1,8,1:0:0:0:
55,122,272615,2,0,P|93:108|165:87,1,106.666666666667
195,354,272900,5,0,1:0:0:0:
109,289,273043,2,0,B|77:220|140:175|140:175,1,106.666666666667
267,38,273329,1,8,1:0:0:0:
353,103,273472,2,0,B|385:172|322:217|322:217,1,106.666666666667
174,362,273757,5,0,1:0:0:0:
279,346,273900,1,0,1:0:0:0:
384,330,274043,1,0,1:0:0:0:
480,169,274186,5,8,1:0:0:0:
375,185,274329,1,0,1:0:0:0:
270,201,274472,1,0,1:0:0:0:
17,86,274614,6,0,B|4:30|51:-31|182:19|142:99|68:123|123:174|176:185|202:148,1,320,0|8,1:0|1:0,0:0:0:0:
0,261,275186,2,0,B|-21:193|39:171|39:171,1,106.666666666667
208,244,275472,2,0,B|324:232|306:79|219:74,1,213.333333333333,0|0,1:0|1:0,0:0:0:0:
95,251,275900,2,0,B|116:319|55:340|55:340,1,106.666666666667,8|0,2:1|1:0,0:0:0:0:
0,261,276186,1,0,0:0:0:0:
195,155,276329,6,0,B|217:155|224:163|224:163|246:165|246:165|265:172|265:172|283:172|283:172|294:177|294:177|306:176|306:176|317:183|317:183|342:183|342:183|357:192|357:191|377:190|377:190|385:197|385:197|397:199,1,213.333333333333,0|0,1:0|0:0,0:0:0:0:
271,80,276757,2,0,L|56:29,1,213.333333333333,8|0,1:0|0:0,0:0:0:0:
280,169,277186,2,0,B|347:179|362:109|362:109,1,106.666666666667,0|0,1:0|0:0,0:0:0:0:
379,8,277472,1,0,0:0:0:0:
499,181,277614,2,0,B|432:171|417:241|417:241,1,106.666666666667,8|0,1:0|0:0,0:0:0:0:
404,341,277900,1,0,0:0:0:0:
280,169,278043,6,0,B|269:235|246:304|197:305|137:300|123:266,1,213.333333333333,0|0,1:0|0:0,0:0:0:0:
1,161,278472,2,0,B|45:97|123:140|123:140,1,106.666666666667,8|0,1:0|0:0,0:0:0:0:
177,194,278757,1,0,0:0:0:0:
58,328,278900,2,0,P|65:278|74:206,1,106.666666666667,0|0,1:0|0:0,0:0:0:0:
207,65,279186,2,0,P|200:115|191:187,1,106.666666666667,0|8,0:0|1:0,0:0:0:0:
243,265,279472,1,0,0:0:0:0:
347,282,279614,1,0,0:0:0:0:
490,157,279757,6,0,B|475:144|475:144|469:148|469:148|455:128|455:128|440:135|440:135|428:120|428:120|413:127|413:127|401:123|401:123|396:140|396:140|380:139|380:139|382:150|382:150|359:157|359:157|366:168|366:168|358:176|358:176|358:195,1,213.333333333333,0|0,1:0|0:0,0:0:0:0:
228,44,280186,6,0,B|297:15|340:78|340:78,1,106.666666666667,8|0,1:0|0:0,0:0:0:0:
255,143,280472,1,0,0:0:0:0:
105,201,280614,2,0,B|36:172|-7:235|-7:235,1,106.666666666667,0|0,1:0|0:0,0:0:0:0:
78,300,280900,1,0,1:0:0:0:
213,246,281043,5,8,2:1:0:0:
317,268,281186,1,0,1:0:0:0:
421,290,281329,1,0,0:0:0:0:
490,157,281472,6,0,B|475:144|475:144|469:148|469:148|455:128|455:128|440:135|440:135|428:120|428:120|413:127|413:127|401:123|401:123|396:140|396:140|380:139|380:139|382:150|382:150|359:157|359:157|366:168|366:168|358:176|358:176|356:194,1,216.000000823975,2|0,0:0|0:0,0:0:0:0:
490,157,283186,6,0,B|475:144|475:144|469:148|469:148|455:128|455:128|440:135|440:135|428:120|428:120|413:127|413:127|401:123|401:123|396:140|396:140|380:139|380:139|382:150|382:150|359:157|359:157|366:168|366:168|358:176|358:176|356:194,1,216.000000823975,2|0,0:0|0:0,0:0:0:0:
188,64,284900,5,8,0:0:0:0:
128,260,285329,1,8,0:0:0:0:
324,320,285757,1,8,0:0:0:0:
384,124,286186,1,8,0:0:0:0:
202,168,286614,5,8,0:0:0:0:
262,249,286757,1,8,0:0:0:0:
303,157,286900,1,8,0:0:0:0:
193,176,287043,5,8,0:0:0:0:
273,253,287186,1,8,0:0:0:0:
300,145,287329,1,8,0:0:0:0:
186,187,287472,5,8,0:0:0:0:
286,254,287615,1,8,0:0:0:0:
295,134,287758,1,8,0:0:0:0:
180,199,287900,5,8,0:0:0:0:
300,253,288043,1,8,0:0:0:0:
286,122,288186,1,8,0:0:0:0:
73,68,288329,6,0,P|49:121|62:192,1,106.666666666667,4|0,1:0|0:0,0:0:0:0:
103,249,288757,1,8,1:0:0:0:
145,335,288900,1,0,0:0:0:0:
235,303,289043,1,0,0:0:0:0:
328,324,289186,6,0,L|389:343,1,53.3333333333333,0|0,1:0|0:0,0:0:0:0:
472,313,289472,1,0,0:0:0:0:
339,205,289614,2,0,L|278:186,1,53.3333333333333,8|0,1:0|0:0,0:0:0:0:
195,216,289900,1,0,0:0:0:0:
131,79,290043,6,0,L|272:48,1,106.666666666667,0|0,1:0|0:0,0:0:0:0:
323,94,290472,2,0,P|337:66|336:28,1,53.3333333333333,8|0,1:0|0:0,0:0:0:0:
432,66,290757,1,0,0:0:0:0:
352,188,290900,6,0,P|351:251|392:305,1,106.666666666667,0|0,1:0|0:0,0:0:0:0:
446,349,291329,1,8,1:0:0:0:
371,287,291472,1,0,0:0:0:0:
275,291,291614,1,0,0:0:0:0:
138,352,291757,6,0,P|77:358|12:314,1,106.666666666667,0|0,1:0|0:0,0:0:0:0:
101,267,292186,1,8,1:0:0:0:
120,172,292329,1,0,0:0:0:0:
63,93,292472,1,0,0:0:0:0:
143,41,292614,6,0,L|157:105,1,53.3333333333333,0|0,1:0|0:0,0:0:0:0:
235,146,292900,1,0,0:0:0:0:
234,292,293043,2,0,L|248:228,1,53.3333333333333,8|0,1:0|0:0,0:0:0:0:
326,187,293329,1,0,0:0:0:0:
412,49,293472,6,0,L|441:185,1,106.666666666667,0|0,1:0|0:0,0:0:0:0:
479,238,293900,2,0,P|468:280|440:302,1,53.3333333333333,8|0,1:0|0:0,0:0:0:0:
375,330,294186,1,0,0:0:0:0:
251,206,294329,2,0,P|198:175|140:179,1,106.666666666667,0|0,1:0|0:0,0:0:0:0:
181,266,294757,2,0,P|178:318|149:362,1,106.666666666667,8|0,1:0|0:0,0:0:0:0:
61,195,295186,6,0,P|63:142|92:98,1,106.666666666667,0|0,1:0|0:0,0:0:0:0:
160,30,295614,1,8,1:0:0:0:
235,89,295757,1,0,0:0:0:0:
329,107,295900,1,0,0:0:0:0:
420,78,296043,6,0,P|438:55|442:17,1,53.3333333333333,0|0,1:0|0:0,0:0:0:0:
347,20,296329,1,0,0:0:0:0:
351,191,296472,2,0,P|356:219|381:248,1,53.3333333333333,8|0,1:0|0:0,0:0:0:0:
442,175,296758,1,0,0:0:0:0:
281,265,296900,6,0,P|323:315|404:329,1,106.666666666667,0|0,1:0|0:0,0:0:0:0:
272,371,297329,1,8,1:0:0:0:
202,304,297472,1,0,0:0:0:0:
106,296,297614,1,0,0:0:0:0:
200,177,297757,6,0,P|224:118|213:57,1,106.666666666667,0|0,1:0|0:0,0:0:0:0:
130,113,298186,2,0,L|8:98,1,106.666666666667,8|0,1:0|0:0,0:0:0:0:
200,177,298614,6,0,L|305:163,1,106.666666666667,0|0,1:0|0:0,0:0:0:0:
345,75,299043,2,0,L|401:88,1,53.3333333333333,8|0,1:0|0:0,0:0:0:0:
462,158,299329,1,0,0:0:0:0:
380,208,299472,6,0,P|390:263|405:286,1,53.3333333333333,0|0,1:0|0:0,0:0:0:0:
453,331,299757,1,0,0:0:0:0:
301,232,299900,2,0,P|246:218|219:223,1,53.3333333333333,8|0,1:0|0:0,0:0:0:0:
155,245,300185,1,0,0:0:0:0:
27,364,300329,6,0,P|59:315|53:239,1,106.666666666667,0|0,1:0|0:0,0:0:0:0:
91,176,300757,2,0,L|75:111,1,53.3333333333333,8|0,1:0|0:0,0:0:0:0:
117,35,301043,1,0,0:0:0:0:
262,108,301186,6,0,P|323:103|373:53,1,106.666666666667,0|0,1:0|0:0,0:0:0:0:
337,175,301614,6,0,P|302:124|233:106,1,106.666666666667,8|0,1:0|0:0,0:0:0:0:
358,76,302043,5,4,1:2:0:0:
358,76,303757,5,4,1:2:0:0:
358,76,305472,6,0,B|393:81|393:81|402:78|402:78|400:86|400:86|409:84|409:84|444:89,2,95.9999970703126,4|2|4,1:2|0:0|1:2,0:0:0:0:
256,192,308329,5,4,0:0:0:0:
154,308,308900,5,4,1:2:0:0:
154,308,310614,5,4,1:2:0:0:
154,308,312329,6,0,B|118:302|118:302|109:305|109:305|111:297|111:297|102:299|102:299|67:294,2,95.9999970703126,4|4|4,1:2|1:2|1:2,0:0:0:0:
387,231,315757,6,0,P|436:228|483:260,1,80.0000030517579,4|0,1:2|0:0,0:0:0:0:
416,325,316043,1,0,0:0:0:0:
321,305,316186,2,0,P|290:255|309:179,1,106.666666666667,8|0,1:0|0:0,0:0:0:0:
359,140,316614,5,0,1:0:0:0:
360,43,316757,1,0,0:0:0:0:
268,14,316900,1,0,0:0:0:0:
220,97,317043,5,8,1:0:0:0:
127,123,317186,1,0,1:0:0:0:
54,59,317329,1,0,0:0:0:0:
145,201,317472,6,0,P|139:250|105:290,1,80.0000030517579,4|0,1:2|0:0,0:0:0:0:
54,210,317757,1,0,0:0:0:0:
90,359,317900,2,0,P|147:361|200:317,1,106.666666666667,8|0,1:0|0:0,0:0:0:0:
232,249,318329,6,0,L|305:262,1,53.3333333333333,0|0,1:0|0:0,0:0:0:0:
360,316,318614,1,0,0:0:0:0:
471,257,318757,6,0,L|398:244,1,53.3333333333333,8|0,1:0|0:0,0:0:0:0:
343,190,319042,1,0,0:0:0:0:
437,39,319186,6,0,P|474:77|479:138,1,80.0000030517579,4|0,1:2|0:0,0:0:0:0:
390,115,319472,1,0,0:0:0:0:
317,53,319614,2,0,P|264:27|194:32,1,106.666666666667,8|0,1:0|0:0,0:0:0:0:
72,110,320043,6,0,P|119:107|165:73,1,80.0000030517579,4|0,1:2|0:0,0:0:0:0:
87,13,320329,1,0,0:0:0:0:
72,110,320472,2,0,L|55:207,1,53.3333333333333,8|0,1:0|0:0,0:0:0:0:
48,257,320757,1,0,0:0:0:0:
151,357,320900,6,0,L|135:251,1,80.0000030517579,4|0,1:2|0:0,0:0:0:0:
221,225,321186,1,0,0:0:0:0:
293,288,321329,1,8,1:0:0:0:
386,266,321472,2,0,L|376:311,2,26.6666666666667
479,243,321757,2,0,L|469:300,1,53.3333333333333,0|0,1:0|0:0,0:0:0:0:
403,179,322043,6,0,L|422:66,1,80.0000030517579,4|8,0:0|1:0,0:0:0:0:
431,4,322329,1,0,0:0:0:0:
343,43,322472,1,0,0:0:0:0:
210,150,322614,6,0,P|161:144|110:105,1,80.0000030517579,4|0,1:2|0:0,0:0:0:0:
58,58,322900,1,0,0:0:0:0:
2,136,323043,2,0,P|1:194|49:260,1,106.666666666667,8|0,1:0|0:0,0:0:0:0:
67,322,323472,6,0,P|94:304|111:272,1,53.3333333333333,0|0,1:0|0:0,0:0:0:0:
104,190,323757,1,0,0:0:0:0:
199,301,323900,6,0,P|228:315|264:314,1,53.3333333333333,8|0,1:0|0:0,0:0:0:0:
331,268,324185,1,0,0:0:0:0:
267,140,324329,6,0,P|245:188|255:245,1,80.0000030517579,4|0,1:2|0:0,0:0:0:0:
331,268,324614,1,0,0:0:0:0:
386,189,324757,2,0,L|371:43,1,106.666666666667,8|0,1:0|0:0,0:0:0:0:
466,238,325186,6,0,L|456:308,1,53.3333333333333,0|0,1:0|0:0,0:0:0:0:
377,344,325472,1,0,0:0:0:0:
221,330,325614,6,0,L|231:260,1,53.3333333333333,8|0,1:0|0:0,0:0:0:0:
310,224,325900,1,0,0:0:0:0:
272,74,326043,6,0,P|214:48|165:59,1,80.0000030517579,4|0,1:2|0:0,0:0:0:0:
106,89,326329,1,0,0:0:0:0:
82,189,326472,2,0,P|104:141|105:88,1,106.666666666667,8|0,1:0|0:0,0:0:0:0:
0,235,326900,6,0,P|29:266|76:283,1,80.0000030517579,4|0,1:2|0:0,0:0:0:0:
163,255,327186,1,0,0:0:0:0:
291,205,327329,2,0,P|266:196|240:198,1,53.3333333333333,8|0,1:0|0:0,0:0:0:0:
163,255,327614,1,0,0:0:0:0:
249,369,327757,6,0,L|261:246,1,80.0000030517579,4|0,1:2|0:0,0:0:0:0:
291,205,328043,1,0,0:0:0:0:
276,99,328186,2,0,L|290:204,1,106.666666666667,8|0,1:0|0:0,0:0:0:0:
384,226,328614,1,0,1:0:0:0:
474,322,328757,2,0,L|460:249,1,53.3333333333333
390,196,329043,2,0,L|400:143,1,53.3333333333333,8|0,1:0|0:0,0:0:0:0:
422,49,329329,1,0,0:0:0:0:
264,22,329472,6,0,P|227:70|225:134,1,80.0000030517579,4|0,1:2|0:0,0:0:0:0:
248,183,329757,1,0,0:0:0:0:
177,248,329900,2,0,P|118:256|58:213,1,106.666666666667,8|0,1:0|0:0,0:0:0:0:
14,162,330329,6,0,L|1:98,1,53.3333333333333,0|0,1:0|0:0,0:0:0:0:
49,25,330614,1,0,0:0:0:0:
159,104,330757,6,0,L|143:167,1,53.3333333333333,8|0,1:0|0:0,0:0:0:0:
177,248,331042,1,0,0:0:0:0:
291,347,331186,6,0,L|270:243,1,80.0000030517579,4|0,1:2|0:0,0:0:0:0:
344,199,331472,1,0,0:0:0:0:
436,224,331614,2,0,L|453:108,1,106.666666666667,8|0,1:0|0:0,0:0:0:0:
388,45,332043,5,0,1:0:0:0:
294,68,332186,1,0,0:0:0:0:
204,33,332329,1,0,0:0:0:0:
124,86,332472,5,8,1:0:0:0:
213,118,332614,1,0,0:0:0:0:
241,209,332757,1,0,0:0:0:0:
156,362,332900,6,0,P|120:320|122:250,1,80.0000030517579,4|0,1:2|0:0,0:0:0:0:
154,209,333186,1,0,0:0:0:0:
212,286,333329,2,0,L|362:307,1,106.666666666667,8|0,1:0|0:0,0:0:0:0:
446,262,333757,6,0,P|482:220|480:150,1,80.0000030517579,4|0,1:2|0:0,0:0:0:0:
447,109,334043,1,0,0:0:0:0:
390,186,334186,2,0,L|296:200,1,53.3333333333333,8|0,1:0|0:0,0:0:0:0:
242,211,334472,1,0,0:0:0:0:
102,119,334614,6,0,L|209:140,1,80.0000030517579,4|0,1:2|0:0,0:0:0:0:
247,63,334900,1,0,0:0:0:0:
102,119,335043,2,0,L|91:188,1,53.3333333333333,8|0,1:0|0:0,0:0:0:0:
44,255,335329,1,0,0:0:0:0:
105,328,335472,2,0,P|155:360|229:341,1,106.666666666667,0|4,1:0|0:0,0:0:0:0:
273,294,335900,1,8,1:0:0:0:
369,296,336043,1,0,0:0:0:0:
449,349,336186,1,0,0:0:0:0:
425,204,336329,6,0,L|407:100,1,80.0000030517579,4|0,1:2|0:0,0:0:0:0:
449,36,336614,1,0,0:0:0:0:
323,137,336757,2,0,P|265:145|206:117,1,106.666666666667,8|0,1:0|0:0,0:0:0:0:
258,3,337186,6,0,P|269:26|274:53,1,53.3333333333333,0|0,1:0|0:0,0:0:0:0:
220,128,337472,1,0,0:0:0:0:
51,76,337614,6,0,P|65:54|85:36,1,53.3333333333333,8|0,1:0|0:0,0:0:0:0:
178,46,337900,1,0,0:0:0:0:
222,222,338043,6,0,P|195:220|146:185,1,80.0000030517579,4|0,1:2|0:0,0:0:0:0:
71,246,338329,1,0,0:0:0:0:
101,337,338472,2,0,P|170:338|216:298,1,106.666666666667,8|0,1:0|0:0,0:0:0:0:
289,284,338900,6,0,L|350:301,1,53.3333333333333,0|0,1:0|0:0,0:0:0:0:
434,321,339186,1,0,0:0:0:0:
364,187,339329,6,0,L|303:204,1,53.3333333333333,8|0,1:0|0:0,0:0:0:0:
219,224,339615,1,0,0:0:0:0:
440,234,339757,6,0,P|451:206|427:126,1,80.0000030517579,4|0,1:2|0:0,0:0:0:0:
383,86,340043,1,0,0:0:0:0:
276,97,340186,2,0,L|408:83,1,106.666666666667,8|0,1:0|0:0,0:0:0:0:
276,97,340614,6,0,P|287:125|263:205,1,80.0000030517579,4|0,1:2|0:0,0:0:0:0:
219,245,340900,1,0,0:0:0:0:
71,230,341043,2,0,L|164:239,1,53.3333333333333,8|0,1:0|0:0,0:0:0:0:
219,245,341329,1,0,0:0:0:0:
73,121,341472,5,4,1:2:0:0:
71,230,341614,1,0,0:0:0:0:
130,314,341757,1,0,0:0:0:0:
227,332,341900,1,8,1:0:0:0:
305,285,342043,1,0,0:0:0:0:
334,209,342186,1,0,0:0:0:0:
309,137,342329,1,0,1:0:0:0:
251,121,342472,1,0,0:0:0:0:
209,142,342614,1,0,0:0:0:0:
197,177,342757,1,8,1:0:0:0:
216,212,342900,1,0,0:0:0:0:
246,214,343043,1,0,0:0:0:0:
256,192,343186,5,4,1:2:0:0:
128,96,344900,5,4,1:2:0:0:
128,96,346614,6,0,B|110:140|110:140|115:151|115:151|100:145|100:145|105:155|105:155|99:170,2,95.9999970703126,4|2|4,1:2|0:0|1:2,0:0:0:0:
256,192,349472,5,4,0:0:0:0:
384,288,350043,5,4,1:2:0:0:
384,288,351757,5,4,1:2:0:0:
384,288,353472,6,0,L|401:242,1,47.9999985351563,4|0,1:2|0:0,0:0:0:0:
400,242,354329,6,0,L|384:288,1,47.9999985351563,4|0,1:2|0:0,0:0:0:0:
384,288,355186,5,2,0:0:0:0:
