osu file format v14

[General]
AudioFilename: audio.mp3
AudioLeadIn: 0
PreviewTime: 97282
Countdown: 0
SampleSet: Soft
StackLeniency: 0.3
Mode: 0
LetterboxInBreaks: 0
WidescreenStoryboard: 0

[Editor]
Bookmarks: 13913,27826,41739,55652,69565,83478,97391,111304,125217,139130,146304,146521,146956,147391,147826,148260,148695,149130,149565,150000,150434,150869,151304,151739,152174,152608,153043,166956,180869,194782,208695,222608,236521,243478,243913,244347,244782,245217,245652,246087,246521,246956,247391,247826,248260,248695,249130,249565,250000,250434,250869,264347,278260,292174,306087,320000,333913,347826,361739,375652,389565
DistanceSpacing: 1.2
BeatDivisor: 16
GridSize: 8
TimelineZoom: 3.999999

[Metadata]
Title:No Line in MIDI
TitleUnicode:No Line in MIDI
Artist:Infected Mushroom
ArtistUnicode:Infected Mushroom
Creator:PandaHero
Version:Collab Expert
Source:
Tags:more than just a name monstercat mclp016 psy psychedelic trance psytrance edm electronic instrumental amit duvdevani erez aizen myahkey
BeatmapID:2837238
BeatmapSetID:1372376

[Difficulty]
HPDrainRate:6
CircleSize:5
OverallDifficulty:8
ApproachRate:9
SliderMultiplier:1.4
SliderTickRate:1

[Events]
//Background and Video events
0,0,"Mugon.full.512988.jpg",0,0
//Break Periods
2,146521,152443
2,243677,250269
//Storyboard Layer 0 (Background)
//Storyboard Layer 1 (Fail)
//Storyboard Layer 2 (Pass)
//Storyboard Layer 3 (Foreground)
//Storyboard Layer 4 (Overlay)
//Storyboard Sound Samples

[TimingPoints]
-1739,434.782608695652,4,2,0,25,1,0
0,-142.857142857143,4,2,0,25,0,0
7717,-142.857142857143,4,2,0,30,0,0
13913,-142.857142857143,4,2,0,35,0,0
16521,-111.111111111111,4,2,1,40,0,0
19021,-100,4,2,1,45,0,0
20869,-100,4,2,1,35,0,0
21739,-100,4,2,1,40,0,0
22608,-100,4,2,1,45,0,0
23478,-100,4,2,1,50,0,0
24782,-100,4,2,1,55,0,0
25217,-100,4,2,1,60,0,0
25652,-100,4,2,1,55,0,0
26304,-83.3333333333333,4,2,1,55,0,0
42934,-125,4,2,1,50,0,0
43695,-83.3333333333333,4,2,1,50,0,0
48260,-83.3333333333333,4,2,1,35,0,0
49130,-83.3333333333333,4,2,1,55,0,0
49782,-71.4285714285714,4,2,1,55,0,0
54782,-142.857142857143,4,2,1,55,0,0
55434,-83.3333333333333,4,2,1,55,0,0
69565,-76.9230769230769,4,2,1,55,0,0
83478,-142.857142857143,4,2,1,30,0,0
100652,-142.857142857143,4,2,1,35,0,0
103913,-142.857142857143,4,2,1,45,0,0
104347,-100,4,2,1,40,0,0
118260,-100,4,2,1,50,0,0
131739,-100,4,2,1,55,0,0
132608,-76.9230769230769,4,2,1,60,0,1
132663,-76.9230769230769,4,2,1,60,0,0
139565,-76.9230769230769,4,2,1,60,0,1
139619,-76.9230769230769,4,2,1,60,0,0
153043,-76.9230769230769,4,2,1,30,0,0
153913,-76.9230769230769,4,2,1,35,0,0
154782,-76.9230769230769,4,2,1,40,0,0
155652,-76.9230769230769,4,2,1,45,0,0
155869,-76.9230769230769,4,2,1,5,0,0
156087,-76.9230769230769,4,2,1,25,0,0
156521,-76.9230769230769,4,2,1,35,0,0
158913,-76.9230769230769,4,2,1,5,0,0
159130,-76.9230769230769,4,2,1,30,0,0
160000,-166.666666666667,4,2,1,35,0,0
160434,-83.3333333333333,4,2,1,35,0,0
160869,-166.666666666667,4,2,1,35,0,0
161304,-83.3333333333333,4,2,1,35,0,0
161739,-142.857142857143,4,2,1,40,0,0
162174,-71.4285714285714,4,2,1,40,0,0
162608,-142.857142857143,4,2,1,40,0,0
163043,-71.4285714285714,4,2,1,40,0,0
163478,-71.4285714285714,4,2,1,45,0,0
165217,-71.4285714285714,4,2,1,50,0,0
165434,-100,4,2,1,50,0,0
166087,-100,4,2,1,55,0,0
166521,-100,4,1,1,45,0,0
167826,-100,4,1,1,50,0,0
168695,-100,4,1,1,55,0,0
170434,-100,4,1,1,60,0,0
172174,-76.9230769230769,4,1,1,65,0,0
173913,-200,4,2,1,55,0,0
186956,-200,4,2,1,40,0,0
187391,-400,4,2,1,40,0,0
187826,-66.6666666666667,4,2,1,50,0,0
200869,-66.6666666666667,4,2,1,40,0,0
201304,-142.857142857143,4,2,1,35,0,0
201739,-142.857142857143,4,2,1,20,0,0
205217,-142.857142857143,4,2,1,10,0,0
207174,-142.857142857143,4,2,1,20,0,0
208695,-142.857142857143,4,2,1,30,0,0
212174,-142.857142857143,4,2,1,40,0,0
214130,-142.857142857143,4,2,1,50,0,0
215000,-83.3333333333333,4,2,1,60,0,0
216087,-166.666666666667,4,2,1,60,0,0
216521,-83.3333333333333,4,2,1,60,0,0
216956,-166.666666666667,4,2,1,60,0,0
217391,-83.3333333333333,4,2,1,60,0,0
219565,-100,4,2,1,60,0,0
220000,-125,4,2,1,60,0,0
220434,-166.666666666667,4,2,1,60,0,0
220869,-83.3333333333333,4,2,1,60,0,0
223043,-166.666666666667,4,2,1,60,0,0
223478,-83.3333333333333,4,2,1,60,0,0
223913,-166.666666666667,4,2,1,60,0,0
224347,-83.3333333333333,4,2,1,60,0,0
226521,-125,4,2,1,60,0,0
226956,-166.666666666667,4,2,1,60,0,0
227391,-83.3333333333333,4,2,1,60,0,0
228043,-83.3333333333333,4,2,1,50,0,0
229565,-83.3333333333333,4,2,1,60,0,1
229619,-83.3333333333333,4,2,1,60,0,0
241956,-83.3333333333333,4,2,1,45,0,0
250869,-83.3333333333333,4,2,1,25,0,0
252608,-83.3333333333333,4,2,1,30,0,0
254347,-83.3333333333333,4,2,1,35,0,0
256087,-83.3333333333333,4,2,1,40,0,0
257391,-142.857142857143,4,2,1,45,0,0
260869,-142.857142857143,4,2,1,50,0,0
264347,-142.857142857143,4,2,1,55,0,0
267826,-142.857142857143,4,2,1,60,0,0
271304,-71.4285714285714,4,2,1,70,0,1
284347,-142.857142857143,4,2,1,50,0,0
285217,-71.4285714285714,4,2,1,70,0,1
288260,-142.857142857143,4,2,1,50,0,0
288695,-71.4285714285714,4,2,1,70,0,1
298369,-71.4285714285714,4,2,1,50,0,0
299130,-83.3333333333333,4,2,1,55,0,0
313043,-83.3333333333333,4,2,1,60,0,0
320000,-83.3333333333333,4,2,1,50,0,0
321739,-100,4,2,1,55,0,0
323478,-100,4,2,1,50,0,0
326521,-200,4,2,1,50,0,0
326956,-76.9230769230769,4,2,1,70,0,1
327010,-76.9230769230769,4,2,1,70,0,0
340869,-142.857142857143,4,2,1,50,0,0
347826,-142.857142857143,4,2,1,55,0,0
348695,-117.647058823529,4,2,1,55,0,0
351304,-117.647058823529,4,2,1,60,0,0
352174,-100,4,2,1,60,0,0
353043,-76.9230769230769,4,2,1,65,0,0
354782,-66.6666666666667,4,2,1,70,0,1
368587,-66.6666666666667,4,2,1,70,0,0
368695,-66.6666666666667,4,2,1,70,0,1
382608,-133.333333333333,4,2,1,50,0,0
406956,-133.333333333333,4,2,1,45,0,0
410326,-133.333333333333,4,2,1,30,0,0
412174,-133.333333333333,4,2,1,20,0,0
415652,-133.333333333333,4,2,1,10,0,0

[Colours]
Combo1 : 157,45,48
Combo2 : 38,164,88
Combo3 : 149,154,48
Combo4 : 52,125,150

[HitObjects]
8,84,0,5,0,3:0:0:0:
8,84,326,1,0,0:0:0:0:
4,64,434,1,0,3:0:0:0:
99,159,760,1,0,0:0:0:0:
96,178,869,1,0,0:0:0:0:
92,197,978,1,0,0:0:0:0:
88,216,1087,1,0,0:0:0:0:
84,235,1195,1,0,0:0:0:0:
80,254,1304,2,0,L|125:245,1,24.4999992523194,0|0,3:0|0:0,0:0:0:0:
209,268,1630,5,0,0:0:0:0:
203,286,1739,1,0,0:0:0:0:
198,305,1848,1,0,0:0:0:0:
192,324,1957,1,0,0:0:0:0:
187,342,2065,1,0,0:0:0:0:
182,361,2174,2,0,L|146:340,1,24.4999992523194,0|0,3:0|0:0,0:0:0:0:
290,219,2500,5,0,0:0:0:0:
308,221,2609,1,0,0:0:0:0:
328,225,2718,1,0,0:0:0:0:
347,228,2827,1,0,0:0:0:0:
366,231,2935,1,0,0:0:0:0:
385,235,3044,2,0,L|381:193,1,24.4999992523194,0|0,3:0|0:0,0:0:0:0:
464,164,3369,5,0,3:0:0:0:
464,164,3478,1,0,1:0:0:0:
474,244,3695,1,0,0:0:0:0:
474,244,3804,2,0,L|468:266,2,12.2499996261597,0|0|0,3:0|3:0|3:0,0:0:0:0:
373,42,4239,5,0,0:0:0:0:
353,45,4347,1,0,0:0:0:0:
333,49,4456,1,0,0:0:0:0:
313,51,4565,1,0,0:0:0:0:
293,54,4674,1,0,0:0:0:0:
273,57,4782,2,0,L|268:13,1,24.4999992523194,0|0,3:0|0:0,0:0:0:0:
149,168,5108,5,0,0:0:0:0:
169,171,5216,1,0,0:0:0:0:
189,175,5325,1,0,0:0:0:0:
209,177,5434,1,0,0:0:0:0:
229,180,5543,1,0,0:0:0:0:
249,183,5651,2,0,L|254:139,1,24.4999992523194,0|0,3:0|0:0,0:0:0:0:
366,297,5978,5,0,0:0:0:0:
346,300,6086,1,0,0:0:0:0:
326,304,6195,1,0,0:0:0:0:
306,306,6304,1,0,0:0:0:0:
286,309,6413,1,0,0:0:0:0:
266,312,6521,2,0,L|261:268,1,24.4999992523194,0|0,3:0|0:0,0:0:0:0:
169,302,6739,5,0,3:0:0:0:
191,339,6847,1,0,3:0:0:0:
160,370,6956,1,0,1:0:0:0:
66,268,7174,1,0,0:0:0:0:
66,268,7282,2,0,L|60:288,2,12.2499996261597,0|0|0,3:0|3:0|1:0,0:0:0:0:
197,139,7717,5,0,0:0:0:0:
191,115,7826,1,0,0:0:0:0:
178,93,7934,1,0,0:0:0:0:
160,76,8043,1,0,0:0:0:0:
138,63,8152,1,0,0:0:0:0:
114,58,8260,2,0,L|77:52,1,24.4999992523194,0|0,3:0|0:0,0:0:0:0:
248,212,8587,5,0,0:0:0:0:
266,194,8696,1,0,0:0:0:0:
279,173,8804,1,0,0:0:0:0:
287,149,8913,1,0,0:0:0:0:
293,125,9022,1,0,0:0:0:0:
288,101,9130,2,0,L|278:64,1,24.4999992523194,0|0,3:0|0:0,0:0:0:0:
212,311,9456,5,0,0:0:0:0:
235,320,9565,1,0,0:0:0:0:
258,324,9673,1,0,0:0:0:0:
282,324,9782,1,0,0:0:0:0:
306,319,9891,1,0,0:0:0:0:
327,307,9999,2,0,L|356:283,1,24.4999992523194,0|0,3:0|0:0,0:0:0:0:
103,250,10326,5,0,3:0:0:0:
103,250,10434,1,0,1:0:0:0:
56,323,10652,1,0,0:0:0:0:
56,323,10760,2,0,L|63:344,2,12.2499996261597,0|0|0,3:0|3:0|1:0,0:0:0:0:
14,198,11087,1,0,0:0:0:0:
139,26,11304,2,0,L|145:86,1,48.9999985046387,0|0,1:0|3:0,0:0:0:0:
240,165,11739,2,0,L|234:105,1,48.9999985046387,0|0,1:0|3:0,0:0:0:0:
251,98,12065,5,0,3:0:0:0:
251,98,12174,2,0,L|319:104,1,48.9999985046387,0|0,1:0|3:0,0:0:0:0:
379,210,12608,2,0,L|316:217,1,48.9999985046387,0|0,1:0|3:0,0:0:0:0:
265,216,12934,1,0,3:0:0:0:
233,234,13043,1,0,1:0:0:0:
217,267,13152,1,0,3:0:0:0:
219,303,13260,1,2,3:0:0:0:
231,342,13369,1,0,3:0:0:0:
209,370,13478,5,0,1:0:0:0:
198,353,13587,1,0,3:0:0:0:
186,337,13695,1,2,3:0:0:0:
189,332,13804,1,0,3:0:0:0:
189,332,13913,5,0,1:0:0:0:
189,332,14022,1,0,0:0:0:0:
189,332,14130,1,2,3:0:0:0:
189,332,14239,1,0,0:0:0:0:
189,332,14347,1,0,1:0:0:0:
189,332,14782,5,0,1:0:0:0:
232,327,14891,1,0,0:0:0:0:
275,322,15000,1,2,0:3:0:0:
318,316,15108,1,0,0:0:0:0:
305,265,15217,5,0,1:0:0:0:
291,215,15326,1,0,0:0:0:0:
277,165,15434,1,2,0:3:0:0:
263,115,15543,2,0,L|258:94,1,12.2499996261597,2|0,0:0|0:0,0:0:0:0:
200,158,15652,5,0,1:0:0:0:
194,189,15760,1,0,0:0:0:0:
187,220,15869,1,2,0:3:0:0:
180,251,15978,1,0,0:0:0:0:
173,282,16087,1,0,1:0:0:0:
173,282,16521,5,0,1:0:0:0:
121,283,16630,1,0,0:0:0:0:
71,270,16738,1,2,1:3:0:0:
28,240,16847,1,0,1:0:0:0:
73,202,16956,5,0,1:0:0:0:
90,145,17065,1,0,0:0:0:0:
78,87,17174,1,2,1:3:0:0:
38,44,17282,2,0,L|9:45,1,15.7499995193482,2|0,1:2|0:0,0:0:0:0:
154,40,17391,5,0,1:0:0:0:
185,44,17500,1,0,1:0:0:0:
212,59,17608,1,2,1:3:0:0:
231,84,17717,2,0,L|206:121,1,31.4999990386963,0|0,1:0|0:0,0:0:0:0:
213,110,18260,5,0,1:0:0:0:
262,144,18369,1,0,1:0:0:0:
321,140,18478,1,2,1:3:0:0:
365,99,18587,1,0,1:0:0:0:
356,167,18695,5,0,1:0:0:0:
347,235,18804,1,0,1:0:0:0:
336,303,18913,1,2,1:3:0:0:
322,370,19021,2,0,L|291:367,1,17.5,2|0,1:2|0:0,0:0:0:0:
129,330,19130,5,0,1:0:0:0:
174,325,19239,1,0,1:0:0:0:
218,319,19347,1,2,1:3:0:0:
263,312,19456,1,0,1:0:0:0:
263,312,20000,5,0,1:0:0:0:
333,327,20108,1,0,1:0:0:0:
394,287,20217,1,2,1:3:0:0:
404,214,20326,1,0,1:0:0:0:
366,152,20434,1,0,1:0:0:0:
295,134,20543,1,0,1:0:0:0:
249,75,20652,2,0,L|298:63,1,35,2|2,1:3|0:0,0:0:0:0:
24,191,20869,5,0,1:0:0:0:
51,185,20978,1,0,1:0:0:0:
78,179,21086,1,2,1:3:0:0:
105,173,21195,1,0,1:0:0:0:
132,167,21304,1,0,1:0:0:0:
159,161,21413,1,0,1:0:0:0:
186,155,21521,2,0,L|226:145,1,35,2|0,1:3|0:0,0:0:0:0:
460,212,21739,5,0,1:0:0:0:
437,206,21848,1,2,1:2:0:0:
414,201,21956,1,2,1:2:0:0:
391,196,22065,1,0,1:0:0:0:
368,191,22174,1,0,1:0:0:0:
345,186,22283,1,0,1:0:0:0:
322,181,22391,2,0,L|283:171,1,35,2|0,1:3|0:0,0:0:0:0:
78,251,22608,5,0,1:0:0:0:
97,245,22717,1,2,1:2:0:0:
117,241,22825,1,2,1:2:0:0:
136,237,22934,1,0,1:0:0:0:
156,233,23043,1,0,1:0:0:0:
175,228,23152,1,0,1:0:0:0:
195,224,23260,2,0,L|233:214,1,35,2|0,1:3|0:0,0:0:0:0:
430,279,23478,5,0,1:0:0:0:
413,273,23587,1,2,1:2:0:0:
396,270,23695,1,2,1:2:0:0:
380,267,23804,1,0,1:0:0:0:
363,263,23913,1,0,1:0:0:0:
347,259,24022,1,0,1:0:0:0:
330,256,24130,2,0,L|291:246,1,35,2|0,1:3|0:0,0:0:0:0:
91,211,24347,5,2,1:2:0:0:
104,163,24456,1,2,1:2:0:0:
143,140,24565,1,2,1:2:0:0:
184,136,24674,1,0,1:0:0:0:
217,155,24782,5,0,1:0:0:0:
235,184,24891,1,0,1:0:0:0:
260,202,25000,1,2,1:2:0:0:
287,205,25108,1,2,1:2:0:0:
310,197,25217,5,0,1:0:0:0:
322,180,25326,1,0,1:0:0:0:
324,162,25434,1,2,1:3:0:0:
316,149,25543,1,2,1:3:0:0:
317,152,25652,5,0,1:0:0:0:
317,152,25760,1,0,1:0:0:0:
316,152,25869,1,2,1:3:0:0:
316,152,25978,1,0,1:0:0:0:
317,154,26087,1,0,1:0:0:0:
289,349,26304,6,0,L|293:318,2,20.9999993591309,0|0|0,3:0|3:0|3:0,3:0:0:0:
242,115,26521,1,2,1:2:0:0:
298,42,26739,6,0,L|267:40,2,20.9999993591309,0|0|0,3:0|3:0|3:0,3:0:0:0:
392,191,26956,5,0,1:0:0:0:
352,245,27065,1,8,1:3:0:0:
287,264,27174,1,0,1:3:0:0:
220,255,27282,1,8,1:3:0:0:
158,189,27391,5,8,1:2:0:0:
158,189,27826,5,4,1:3:0:0:
199,187,27934,1,2,3:2:0:0:
236,167,28043,1,2,3:2:0:0:
243,125,28152,1,0,0:0:0:0:
223,88,28260,2,0,L|165:91,1,41.9999987182618,2|0,1:3|0:0,0:0:0:0:
110,90,28478,1,0,1:0:0:0:
110,90,28587,2,0,L|129:8,2,83.9999974365235,0|2|0,1:0|1:3|1:0,0:0:0:0:
91,159,29130,1,2,1:3:0:0:
23,255,29347,5,0,1:0:0:0:
23,255,29456,2,0,B|58:234|58:234|126:240,1,83.9999974365235,0|0,1:0|0:0,0:0:0:0:
159,195,29782,1,0,1:0:0:0:
159,195,29891,2,0,B|192:218|192:218|214:282,1,83.9999974365235,2|0,1:3|0:0,0:0:0:0:
278,270,30217,1,0,1:0:0:0:
278,270,30326,2,0,B|262:337,1,41.9999987182618,0|0,1:0|0:0,0:0:0:0:
194,376,30543,2,0,L|205:324,1,41.9999987182618,2|0,1:3|0:0,0:0:0:0:
328,369,30760,1,0,1:0:0:0:
328,369,30869,1,2,1:3:0:0:
262,188,31087,5,0,1:0:0:0:
262,188,31195,1,0,1:0:0:0:
398,118,31413,1,0,1:0:0:0:
384,148,31521,1,2,3:2:0:0:
378,181,31630,1,2,3:2:0:0:
395,209,31739,2,0,L|440:186,1,41.9999987182618,2|0,1:3|0:0,0:0:0:0:
487,243,31956,1,0,1:0:0:0:
487,243,32065,2,0,L|450:336,2,83.9999974365235,0|2|0,1:0|1:3|1:0,0:0:0:0:
503,177,32608,1,2,1:3:0:0:
349,38,32826,5,0,1:0:0:0:
349,38,32934,2,0,L|374:91,1,41.9999987182618,0|0,1:0|0:0,0:0:0:0:
258,134,33260,1,0,1:0:0:0:
258,134,33369,2,0,L|316:152,1,41.9999987182618,2|0,1:3|0:0,0:0:0:0:
235,249,33695,1,0,1:0:0:0:
235,249,33804,2,0,L|301:241,1,41.9999987182618,0|0,1:0|0:0,0:0:0:0:
180,181,34021,5,0,1:0:0:0:
138,190,34130,1,8,1:0:0:0:
104,215,34239,1,8,1:0:0:0:
91,254,34347,1,0,1:0:0:0:
61,284,34456,1,0,1:0:0:0:
25,286,34565,2,0,L|7:229,1,41.9999987182618,8|8,1:0|1:0,0:0:0:0:
137,306,34782,5,4,1:3:0:0:
124,340,34891,1,2,3:2:0:0:
146,366,35000,1,2,3:2:0:0:
179,369,35108,1,0,3:0:0:0:
198,341,35217,2,0,L|153:355,1,41.9999987182618,2|0,1:3|0:0,0:0:0:0:
278,193,35434,5,0,1:0:0:0:
278,193,35543,2,0,L|270:263,1,41.9999987182618,2|0,1:3|0:0,0:0:0:0:
345,312,35760,2,0,L|336:263,1,41.9999987182618,0|0,1:0|0:0,0:0:0:0:
400,233,35978,1,2,1:3:0:0:
224,32,36304,5,0,1:0:0:0:
224,32,36413,2,0,L|216:102,1,41.9999987182618,0|0,1:0|0:0,0:0:0:0:
199,47,36739,1,0,1:0:0:0:
199,47,36848,2,0,L|191:117,1,41.9999987182618,2|0,1:3|0:0,0:0:0:0:
169,61,37174,1,0,1:0:0:0:
169,61,37283,2,0,L|161:131,1,41.9999987182618,0|0,1:0|0:0,0:0:0:0:
250,157,37500,5,0,1:0:0:0:
290,127,37609,1,8,1:0:0:0:
340,132,37718,1,8,1:0:0:0:
374,174,37826,1,0,1:0:0:0:
411,207,37934,1,0,1:0:0:0:
461,208,38043,1,8,1:0:0:0:
495,171,38152,1,8,1:0:0:0:
482,122,38260,5,4,1:0:0:0:
461,136,38369,1,2,3:2:0:0:
441,151,38478,1,2,3:2:0:0:
419,165,38587,1,0,3:0:0:0:
399,180,38695,2,0,L|388:129,1,41.9999987182618,2|0,1:3|0:0,0:0:0:0:
266,268,38913,5,0,1:0:0:0:
266,268,39021,2,0,L|315:274,1,41.9999987182618,2|0,1:3|0:0,0:0:0:0:
367,340,39239,2,0,L|306:337,1,41.9999987182618,0|0,1:0|0:0,0:0:0:0:
255,353,39456,1,0,1:0:0:0:
183,83,39782,5,0,1:0:0:0:
183,83,39891,2,0,L|125:96,1,41.9999987182618,0|0,1:0|0:0,0:0:0:0:
294,29,40217,1,0,1:0:0:0:
294,29,40326,2,0,L|236:16,1,41.9999987182618,2|0,1:3|0:0,0:0:0:0:
183,83,40652,1,0,1:0:0:0:
183,83,40761,2,0,L|125:96,1,41.9999987182618,0|4,1:0|0:3,0:0:0:0:
72,66,40978,5,0,1:0:0:0:
20,109,41087,1,8,1:0:0:0:
37,173,41195,1,8,1:0:0:0:
103,183,41304,1,0,1:0:0:0:
125,208,41413,1,0,1:0:0:0:
140,237,41521,1,8,1:0:0:0:
138,270,41630,1,8,1:0:0:0:
110,331,41739,5,4,1:0:0:0:
154,353,41847,1,2,1:2:0:0:
202,338,41956,1,2,1:2:0:0:
226,293,42065,1,0,1:0:0:0:
215,243,42174,1,8,1:2:0:0:
236,86,42391,5,0,1:0:0:0:
236,86,42500,2,0,L|228:156,1,41.9999987182618,2|0,1:3|0:0,0:0:0:0:
215,243,42717,2,0,L|206:194,1,41.9999987182618,0|0,1:0|0:0,0:0:0:0:
26,165,42934,2,0,P|69:160|112:158,1,84,8|0,1:2|1:0,0:0:0:0:
108,173,43369,1,0,1:0:0:0:
106,185,43478,1,0,1:0:0:0:
21,19,43695,5,0,1:0:0:0:
26,69,43804,1,2,1:3:0:0:
31,119,43913,1,8,0:0:0:0:
192,42,44130,1,0,1:0:0:0:
202,54,44239,2,0,P|162:63|118:62,1,83.9999974365235,2|0,1:3|1:0,0:0:0:0:
179,160,44565,5,8,1:0:0:0:
239,188,44674,1,8,1:0:0:0:
303,172,44782,1,0,1:0:0:0:
333,111,44891,1,0,1:0:0:0:
360,49,45000,1,8,1:0:0:0:
423,28,45108,1,8,1:0:0:0:
486,50,45217,5,4,1:3:0:0:
480,100,45326,1,2,1:2:0:0:
474,149,45434,1,2,1:2:0:0:
467,199,45543,1,0,1:0:0:0:
460,249,45652,1,8,1:2:0:0:
266,198,45869,5,0,1:0:0:0:
266,198,45978,1,2,1:3:0:0:
266,198,46087,1,4,1:3:0:0:
266,198,46195,2,0,P|222:196|175:187,1,83.9999974365235,2|0,1:3|1:0,0:0:0:0:
362,200,46521,1,8,1:2:0:0:
362,200,46739,5,0,1:0:0:0:
366,220,46847,1,0,1:0:0:0:
369,240,46956,1,4,1:3:0:0:
473,357,47174,5,0,1:0:0:0:
478,307,47283,1,2,1:3:0:0:
483,257,47392,1,8,1:2:0:0:
431,123,47608,6,0,L|436:148,3,20.9999993591309,2|0|0|0,3:0|3:0|3:0|3:0,3:0:0:0:
428,111,47826,2,0,L|371:100,1,41.9999987182618,4|2,1:3|1:3,0:0:0:0:
254,28,48152,1,0,1:0:0:0:
254,28,48260,2,0,L|276:25,8,20.9999993591309,8|0|0|0|0|0|0|0|0,1:2|3:0|3:0|3:0|3:0|3:0|3:0|3:0|3:0,3:0:0:0:
264,26,49130,1,8,1:2:0:0:
290,282,49347,5,0,1:0:0:0:
297,253,49456,1,2,1:3:0:0:
303,225,49565,2,0,L|295:182,1,41.9999987182618,4|0,1:3|0:0,0:0:0:0:
379,323,49782,5,8,1:0:0:0:
333,373,49891,1,8,1:0:0:0:
265,369,50000,1,8,1:2:0:0:
212,327,50108,1,0,1:0:0:0:
200,260,50217,2,0,P|202:234|211:199,2,48.9999985046387,8|0|4,1:0|0:0|0:3,0:0:0:0:
212,327,50652,5,8,1:0:0:0:
163,337,50761,1,8,1:0:0:0:
116,319,50870,1,8,1:2:0:0:
106,271,50978,1,0,1:0:0:0:
131,207,51087,1,8,1:0:0:0:
112,141,51195,1,8,1:0:0:0:
49,111,51304,2,0,L|-6:124,1,48.9999985046387,4|0,1:3|0:0,0:0:0:0:
106,271,51521,5,2,1:2:0:0:
169,279,51630,1,2,1:2:0:0:
232,287,51739,1,8,1:2:0:0:
294,295,51847,1,0,1:0:0:0:
357,303,51956,2,0,L|401:280,1,48.9999985046387,2|0,1:3|0:0,0:0:0:0:
504,186,52174,5,0,1:0:0:0:
454,180,52283,1,2,1:2:0:0:
405,174,52391,1,2,1:2:0:0:
355,167,52500,1,0,1:0:0:0:
305,160,52609,1,8,1:2:0:0:
285,14,52826,5,0,1:0:0:0:
285,14,52934,1,2,1:3:0:0:
285,14,53043,2,0,L|291:67,1,48.9999985046387,4|0,1:3|1:0,0:0:0:0:
206,49,53260,5,8,1:0:0:0:
222,115,53369,1,8,1:0:0:0:
282,147,53478,1,8,1:2:0:0:
347,127,53587,1,0,1:0:0:0:
376,65,53695,1,8,1:0:0:0:
388,56,53804,1,8,1:0:0:0:
402,54,53913,1,4,1:3:0:0:
269,228,54130,5,8,1:0:0:0:
257,284,54239,1,8,1:0:0:0:
203,305,54347,1,0,1:2:0:0:
149,281,54456,1,0,1:0:0:0:
135,222,54565,1,8,1:0:0:0:
129,209,54674,1,8,1:0:0:0:
119,201,54782,2,0,L|93:189,1,24.4999992523194,4|0,1:3|0:0,0:0:0:0:
18,100,55000,5,2,1:3:0:0:
51,96,55108,1,2,1:3:0:0:
85,92,55217,1,8,1:2:0:0:
119,88,55326,1,0,1:0:0:0:
157,84,55434,2,0,L|150:131,1,41.9999987182618,2|0,1:3|0:0,0:0:0:0:
237,170,55652,5,4,1:0:0:0:
272,191,55760,1,0,3:0:0:0:
314,192,55869,1,2,3:2:0:0:
353,178,55978,1,0,3:0:0:0:
378,144,56087,2,0,L|359:99,1,41.9999987182618,8|0,1:2|0:0,0:0:0:0:
450,166,56304,1,2,1:2:0:0:
450,166,56413,2,0,L|427:261,1,83.9999974365235,8|8,1:2|1:2,0:0:0:0:
370,299,56739,5,8,1:0:0:0:
332,282,56847,1,8,1:0:0:0:
461,354,57065,1,0,1:2:0:0:
478,315,57174,1,8,1:0:0:0:
490,275,57282,1,0,1:0:0:0:
499,233,57391,1,4,1:3:0:0:
330,35,57608,5,2,1:3:0:0:
327,77,57717,1,0,1:0:0:0:
342,116,57826,2,0,L|399:91,2,41.9999987182618,8|2|0,1:2|1:3|1:0,0:0:0:0:
271,150,58152,2,0,L|243:80,1,41.9999987182618,8|0,1:2|0:0,0:0:0:0:
181,82,58369,1,8,1:2:0:0:
181,82,58478,1,8,1:0:0:0:
141,125,58587,1,8,1:0:0:0:
83,135,58695,1,4,1:3:0:0:
28,113,58804,1,0,1:0:0:0:
7,57,58913,1,8,1:0:0:0:
24,39,59021,1,8,1:0:0:0:
44,24,59130,6,0,L|24:105,1,83.9999974365235,4|2,1:3|0:0,0:0:0:0:
18,132,59456,1,0,1:0:0:0:
18,132,59565,2,0,L|116:112,1,83.9999974365235,8|0,1:2|1:0,0:0:0:0:
117,133,59891,2,0,L|83:198,1,41.9999987182618,8|0,1:2|0:0,0:0:0:0:
137,236,60108,1,8,1:2:0:0:
137,236,60217,2,0,L|172:185,1,41.9999987182618,8|8,1:0|1:0,0:0:0:0:
223,186,60434,5,4,1:3:0:0:
253,215,60543,1,8,1:0:0:0:
269,253,60652,1,8,1:0:0:0:
261,294,60760,1,0,1:0:0:0:
231,323,60869,1,4,1:3:0:0:
237,328,61087,5,0,1:0:0:0:
237,328,61195,2,0,L|298:342,1,41.9999987182618,8|0,1:2|0:0,0:0:0:0:
159,276,61413,1,8,1:2:0:0:
117,271,61521,1,2,1:2:0:0:
76,283,61630,1,0,1:0:0:0:
51,316,61739,2,0,L|63:383,1,41.9999987182618,4|0,1:3|1:0,0:0:0:0:
128,368,61956,1,2,1:2:0:0:
128,368,62065,2,0,L|115:302,1,41.9999987182618,8|0,1:2|0:0,0:0:0:0:
83,219,62282,1,8,1:2:0:0:
83,219,62391,2,0,L|93:271,1,41.9999987182618,2|0,1:3|0:0,0:0:0:0:
145,166,62608,6,2,B|184:151|206:98|145:46,1,125.999996154785,4|0,1:0|0:0,0:0:0:0:
143,23,63043,2,0,L|206:47,1,41.9999987182618,8|0,1:2|0:0,0:0:0:0:
242,82,63260,1,0,1:0:0:0:
242,82,63369,2,0,L|310:71,1,41.9999987182618,8|0,1:2|0:0,0:0:0:0:
354,62,63587,1,8,1:2:0:0:
354,62,63695,1,8,1:0:0:0:
379,95,63804,1,8,1:0:0:0:
388,136,63913,1,4,1:3:0:0:
370,173,64021,1,0,1:0:0:0:
357,213,64130,1,8,1:0:0:0:
373,251,64239,1,8,1:0:0:0:
396,285,64347,6,0,P|448:288|491:262,1,83.9999974365235,4|2,1:3|0:0,0:0:0:0:
498,209,64674,1,0,1:0:0:0:
498,209,64782,2,0,L|448:162,1,41.9999987182618,8|0,1:2|0:0,0:0:0:0:
400,158,65000,2,0,L|351:180,1,41.9999987182618,2|0,1:3|1:0,0:0:0:0:
306,227,65217,1,4,1:3:0:0:
306,227,65326,1,0,1:0:0:0:
306,227,65434,2,0,L|307:281,1,41.9999987182618,8|8,1:0|1:0,0:0:0:0:
258,323,65652,5,4,0:3:0:0:
196,333,65760,1,0,1:0:0:0:
144,296,65869,1,8,1:0:0:0:
127,235,65978,1,8,1:0:0:0:
162,179,66087,5,4,1:3:0:0:
162,179,66195,1,0,0:0:0:0:
162,179,66304,2,0,L|173:230,1,41.9999987182618,2|0,0:0|0:0,0:0:0:0:
89,179,66521,2,0,L|67:72,1,83.9999974365235,8|0,1:2|1:0,0:0:0:0:
86,30,66847,1,8,1:2:0:0:
174,113,67065,1,8,1:2:0:0:
174,113,67174,1,8,1:0:0:0:
212,96,67282,1,8,1:0:0:0:
227,56,67391,1,4,1:3:0:0:
218,19,67500,1,8,1:0:0:0:
179,3,67608,2,0,L|192:51,1,41.9999987182618,8|0,1:0|0:0,0:0:0:0:
276,146,67826,5,4,1:3:0:0:
281,151,68043,1,2,1:3:0:0:
281,151,68152,1,0,1:0:0:0:
243,168,68260,1,8,1:2:0:0:
228,208,68369,1,0,1:0:0:0:
237,245,68478,1,2,1:3:0:0:
275,261,68586,2,0,L|262:213,1,41.9999987182618,0|4,1:0|1:3,0:0:0:0:
342,215,68804,5,8,1:0:0:0:
400,222,68913,1,8,1:0:0:0:
448,255,69021,1,0,1:0:0:0:
465,311,69130,5,10,1:2:0:0:
423,319,69239,1,0,1:0:0:0:
381,326,69347,1,8,1:0:0:0:
339,333,69456,1,8,1:0:0:0:
299,341,69565,2,0,L|193:357,1,90.9999958343508
144,332,69891,1,0,3:0:0:0:
85,296,70000,2,0,L|93:248,1,45.4999979171754,8|0,1:0|0:0,0:0:0:0:
34,213,70217,5,2,1:2:0:0:
34,213,70326,1,0,1:0:0:0:
34,213,70434,2,0,L|26:261,1,45.4999979171754,4|0,1:3|0:0,0:0:0:0:
158,228,70652,5,2,1:2:0:0:
216,203,70760,1,0,1:0:0:0:
236,142,70869,1,8,1:0:0:0:
213,82,70978,1,0,1:0:0:0:
157,44,71087,2,0,L|148:100,1,45.4999979171754,2|0,1:2|0:0,0:0:0:0:
317,27,71304,1,4,1:3:0:0:
317,27,71521,5,2,1:2:0:0:
323,72,71630,1,0,1:0:0:0:
329,117,71739,1,8,1:0:0:0:
335,161,71847,1,0,1:0:0:0:
340,207,71956,2,0,L|386:194,1,45.4999979171754,2|0,1:2|1:0,0:0:0:0:
452,275,72174,5,4,1:3:0:0:
452,275,72282,1,0,0:0:0:0:
452,275,72391,1,8,1:0:0:0:
486,216,72500,1,8,1:0:0:0:
477,148,72608,1,8,1:0:0:0:
426,102,72717,1,8,1:0:0:0:
358,92,72826,2,0,L|367:147,1,45.4999979171754,8|0,1:0|0:0,0:0:0:0:
254,257,73043,5,4,1:3:0:0:
260,211,73152,1,0,3:0:0:0:
264,165,73260,1,2,3:2:0:0:
268,119,73369,1,0,3:0:0:0:
272,73,73478,2,0,L|217:84,1,45.4999979171754,8|0,1:0|1:0,0:0:0:0:
69,14,73695,1,2,1:2:0:0:
69,14,73804,2,0,L|120:24,2,45.4999979171754,8|4|0,1:2|0:3|0:0,0:0:0:0:
105,108,74130,5,10,1:2:0:0:
45,130,74239,1,8,1:0:0:0:
29,191,74347,1,8,1:0:0:0:
69,240,74456,1,8,1:0:0:0:
131,230,74565,2,0,L|122:280,2,45.4999979171754,8|0|4,1:0|0:0|0:3,0:0:0:0:
372,337,75000,6,0,L|364:282,1,45.4999979171754,2|0,1:2|1:0,0:0:0:0:
245,316,75217,1,8,1:0:0:0:
249,279,75326,1,0,0:0:0:0:
252,243,75434,1,2,1:2:0:0:
254,206,75543,2,0,P|256:162|241:114,1,90.9999958343508,8|0,1:2|0:0,0:0:0:0:
392,22,75869,2,0,P|378:65|380:110,1,90.9999958343508,10|8,1:2|1:0,0:0:0:0:
399,130,76195,1,0,1:0:0:0:
425,137,76304,1,2,1:2:0:0:
452,132,76413,1,0,1:0:0:0:
472,114,76521,6,0,L|466:88,6,22.7499989585877,4|0|0|0|0|0|2,1:3|3:0|3:0|3:0|3:0|3:0|3:2,3:0:0:0:
501,287,76956,1,8,1:0:0:0:
481,284,77065,1,0,1:0:0:0:
462,281,77174,1,2,1:2:0:0:
444,278,77282,2,0,L|452:226,2,45.4999979171754,8|0|0,1:2|0:0|0:0,0:0:0:0:
326,303,77608,5,10,1:2:0:0:
262,312,77717,1,8,1:0:0:0:
199,322,77826,1,8,1:0:0:0:
136,332,77934,1,8,1:0:0:0:
73,341,78043,2,0,L|80:287,2,45.4999979171754,8|0|4,1:0|0:0|1:3,0:0:0:0:
51,135,78478,6,0,L|55:164,3,22.7499989585877,2|0|0|0,3:2|3:0|3:0|3:0,3:0:0:0:
78,185,78695,1,8,1:0:0:0:
122,193,78804,1,0,1:0:0:0:
166,202,78913,1,2,1:3:0:0:
210,208,79021,2,0,B|223:253|223:253|212:303,1,90.9999958343508,8|0,1:2|0:0,0:0:0:0:
307,366,79347,2,0,B|297:324|297:324|311:273,1,90.9999958343508,10|8,1:2|0:0,0:0:0:0:
327,212,79674,5,0,1:0:0:0:
342,145,79782,1,0,1:0:0:0:
357,78,79891,1,0,1:0:0:0:
371,12,80000,5,4,1:3:0:0:
317,19,80109,1,0,3:0:0:0:
265,27,80218,1,2,3:2:0:0:
213,36,80326,1,0,3:0:0:0:
161,45,80434,5,8,1:0:0:0:
169,66,80543,1,0,1:0:0:0:
177,87,80652,1,2,1:2:0:0:
185,107,80760,1,0,1:0:0:0:
193,127,80869,2,0,L|146:148,1,45.4999979171754,4|0,1:3|0:0,0:0:0:0:
290,225,81087,5,8,1:0:0:0:
290,288,81195,1,8,1:0:0:0:
338,329,81304,1,8,1:0:0:0:
401,326,81413,1,8,1:0:0:0:
447,281,81521,2,0,L|437:245,4,22.7499989585877,2|0|0|0|0,3:2|3:0|3:0|3:0|1:0,3:0:0:0:
191,361,81956,5,2,1:2:0:0:
197,315,82065,1,0,1:0:0:0:
203,269,82174,1,8,1:0:0:0:
208,224,82282,1,0,1:0:0:0:
214,178,82391,6,0,B|187:146|187:146|86:157,1,136.499993751526,4|0,1:2|1:0,0:0:0:0:
290,288,82826,2,0,P|299:336|299:336,1,45.4999979171754,4|0,1:2|0:0,0:0:0:0:
512,159,83043,1,8,1:0:0:0:
467,169,83152,1,8,1:0:0:0:
422,178,83260,1,8,1:0:0:0:
377,187,83369,1,8,1:0:0:0:
333,199,83478,1,4,1:2:0:0:
20,128,83913,5,0,0:0:0:0:
161,164,84239,1,0,3:0:0:0:
129,31,84565,1,0,0:0:0:0:
93,111,84782,2,0,L|110:106,6,12.2499996261597,0|0|0|0|0|0|0,3:0|0:0|0:0|0:0|0:0|0:0|0:0,0:0:0:0:
28,153,85217,6,0,L|48:255,1,97.9999970092774,0|0,1:0|0:0,0:0:0:0:
133,329,85978,1,0,3:0:0:0:
241,275,86304,1,0,0:0:0:0:
285,351,86521,2,0,L|264:355,6,12.2499996261597,0|0|0|0|0|0|0,3:0|0:0|0:0|0:0|0:0|0:0|0:0,0:0:0:0:
347,307,86956,5,0,1:0:0:0:
347,307,87391,1,0,0:0:0:0:
488,363,87717,1,0,3:0:0:0:
485,228,88043,1,0,0:0:0:0:
436,296,88260,2,0,L|426:315,6,12.2499996261597,0|0|0|0|0|0|0,3:0|0:0|0:0|0:0|0:0|0:0|0:0,0:0:0:0:
402,229,88695,6,0,L|413:128,1,97.9999970092774,0|0,1:0|0:0,0:0:0:0:
275,18,89456,2,0,L|281:91,1,73.4999977569581,0|0,3:0|0:0,0:0:0:0:
203,131,90000,2,0,L|198:113,6,12.2499996261597,0|0|0|0|0|0|0,3:0|0:0|0:0|0:0|0:0|0:0|0:0,0:0:0:0:
228,198,90434,5,0,1:0:0:0:
228,198,90869,1,0,0:0:0:0:
343,259,91195,1,0,3:0:0:0:
224,296,91521,1,0,0:0:0:0:
305,352,91739,2,0,L|304:337,6,12.2499996261597,0|0|0|0|0|0|0,3:0|0:0|0:0|0:0|0:0|0:0|0:0,0:0:0:0:
238,378,92174,6,0,L|132:369,1,97.9999970092774,0|0,1:0|0:0,0:0:0:0:
9,355,92934,1,0,3:0:0:0:
96,269,93260,1,0,0:0:0:0:
78,333,93478,2,0,L|81:349,6,12.2499996261597,0|0|0|0|0|0|0,3:0|0:0|0:0|0:0|0:0|0:0|0:0,0:0:0:0:
25,277,93913,6,0,P|27:232|39:204,1,73.4999977569581,4|0,1:2|0:0,0:0:0:0:
51,187,94347,2,0,L|86:189,1,24.4999992523194,0|0,3:0|0:0,0:0:0:0:
182,152,94674,2,0,L|148:144,1,24.4999992523194,0|0,1:0|0:0,0:0:0:0:
84,64,95000,2,0,L|116:74,1,24.4999992523194,0|0,3:0|0:0,0:0:0:0:
186,34,95217,2,0,L|181:14,6,12.2499996261597,0|0|0|0|0|0|0,3:0|0:0|0:0|0:0|0:0|0:0|0:0,0:0:0:0:
249,66,95652,6,0,B|285:77|285:77|327:62,1,73.4999977569581,0|0,1:0|0:0,0:0:0:0:
338,50,96087,2,0,B|334:82|334:82|345:128,2,73.4999977569581,0|0|0,0:0|3:0|0:0,0:0:0:0:
476,166,96956,2,0,L|472:184,1,12.2499996261597,0|0,3:0|0:0,0:0:0:0:
485,173,97065,2,0,L|481:191,1,12.2499996261597,0|0,3:0|0:0,0:0:0:0:
456,205,97174,2,0,L|460:223,1,12.2499996261597,0|0,3:0|0:0,0:0:0:0:
447,212,97283,2,0,L|451:230,1,12.2499996261597,0|0,3:0|0:0,0:0:0:0:
430,250,97391,5,4,1:2:0:0:
256,192,97500,12,0,99130,0:0:0:0:
18,315,99347,6,0,L|10:278,2,24.4999992523194
87,286,99782,2,0,L|82:244,1,24.4999992523194
83,244,100000,1,0,0:0:0:0:
156,255,100217,5,0,0:0:0:0:
155,241,100326,1,0,0:0:0:0:
155,228,100435,1,0,1:0:0:0:
233,237,100652,5,0,0:0:0:0:
234,220,100761,1,0,0:0:0:0:
236,203,100870,1,0,3:0:0:0:
417,275,101087,5,0,0:0:0:0:
413,295,101196,1,0,0:0:0:0:
410,316,101305,1,0,1:0:0:0:
328,238,101521,5,0,0:0:0:0:
329,260,101630,1,0,0:0:0:0:
330,283,101739,1,0,3:0:0:0:
236,203,101956,5,0,0:0:0:0:
241,228,102065,1,0,0:0:0:0:
247,255,102174,1,0,1:0:0:0:
142,159,102391,5,0,0:0:0:0:
153,187,102500,1,0,0:0:0:0:
165,218,102609,1,0,1:0:0:0:
165,218,102826,6,0,L|162:248,2,16.3333328348796,0|0|0,3:0|3:0|3:0,3:0:0:0:
187,108,103043,1,10,1:2:0:0:
187,108,103260,6,0,L|190:138,2,16.3333328348796,0|0|0,3:0|3:0|3:0,3:0:0:0:
98,83,103478,1,8,0:3:0:0:
138,30,103587,1,8,0:3:0:0:
203,22,103695,1,8,0:3:0:0:
262,50,103804,1,8,0:3:0:0:
283,112,103913,2,2,P|280:147|271:192,1,73.4999977569581,8|0,1:2|0:0,0:0:0:0:
291,207,104347,5,4,0:3:0:0:
291,207,104456,1,0,3:0:0:0:
470,186,104674,1,0,3:0:0:0:
470,186,104782,1,4,0:3:0:0:
401,299,105000,1,0,3:0:0:0:
397,284,105108,1,0,3:0:0:0:
393,269,105217,1,4,0:3:0:0:
390,254,105326,1,0,3:0:0:0:
390,254,105652,2,0,L|380:242,12,8.75,4|0|0|0|0|0|0|0|0|0|0|0|0,0:3|0:0|0:0|0:0|0:0|0:0|0:0|0:0|0:0|0:0|0:0|0:0|0:0,0:0:0:0:
250,303,106087,6,0,P|198:299|143:285,1,105,4|0,0:3|0:0,0:0:0:0:
31,237,106521,2,0,P|67:235|102:223,1,70,4|0,0:3|3:0,0:0:0:0:
101,208,106847,1,0,3:0:0:0:
103,192,106956,2,0,L|107:156,1,35,4|0,0:3|3:0,0:0:0:0:
106,157,107391,1,4,0:3:0:0:
227,215,107608,2,0,L|225:201,4,8.75
70,230,107826,5,4,0:3:0:0:
70,230,107934,1,0,3:0:0:0:
235,303,108152,1,0,3:0:0:0:
235,303,108260,1,4,0:3:0:0:
113,372,108478,1,0,3:0:0:0:
117,357,108586,1,0,3:0:0:0:
121,342,108695,1,4,0:3:0:0:
124,327,108804,1,0,3:0:0:0:
124,327,109130,2,0,L|127:339,12,8.75,4|0|0|0|0|0|0|0|0|0|0|0|0,0:3|0:0|0:0|0:0|0:0|0:0|0:0|0:0|0:0|0:0|0:0|0:0|0:0,0:0:0:0:
302,286,109565,6,0,P|268:297|228:303,1,70,4|0,0:3|0:0,0:0:0:0:
380,314,109891,1,0,3:0:0:0:
380,314,110000,1,4,0:3:0:0:
380,314,110217,1,0,3:0:0:0:
377,298,110326,1,0,3:0:0:0:
374,282,110434,1,4,0:3:0:0:
372,266,110543,1,0,3:0:0:0:
414,107,110869,5,4,0:3:0:0:
390,86,110978,1,0,3:0:0:0:
348,77,111087,1,2,3:0:0:0:
303,95,111195,1,0,3:0:0:0:
275,143,111304,6,0,L|299:188,1,35,4|0,0:3|3:0,0:0:0:0:
224,51,111630,1,0,3:0:0:0:
224,51,111739,1,4,0:3:0:0:
89,149,111956,1,0,3:0:0:0:
102,151,112065,1,0,3:0:0:0:
115,153,112174,1,4,0:3:0:0:
128,154,112282,1,0,3:0:0:0:
128,154,112608,2,0,L|131:142,12,8.75,4|0|0|0|0|0|0|0|0|0|0|0|0,0:3|0:0|0:0|0:0|0:0|0:0|0:0|0:0|0:0|0:0|0:0|0:0|0:0,0:0:0:0:
146,226,113043,6,0,P|132:288|132:315,1,70,4|0,0:3|0:0,0:0:0:0:
72,341,113369,1,0,3:0:0:0:
72,341,113478,2,0,L|56:286,1,35,4|0,0:3|0:0,0:0:0:0:
31,191,113695,1,0,3:0:0:0:
33,204,113804,1,0,3:0:0:0:
36,217,113913,1,4,0:3:0:0:
38,230,114021,1,0,3:0:0:0:
38,230,114347,1,4,0:3:0:0:
58,106,114565,2,0,L|61:115,4,8.75
31,37,114782,5,4,0:3:0:0:
31,37,114891,1,0,3:0:0:0:
133,102,115108,1,0,3:0:0:0:
133,102,115217,1,4,0:3:0:0:
286,40,115434,1,0,3:0:0:0:
272,37,115543,1,0,3:0:0:0:
258,35,115652,1,4,0:3:0:0:
244,32,115760,1,0,3:0:0:0:
244,32,116087,2,0,L|247:44,12,8.75,4|0|0|0|0|0|0|0|0|0|0|0|0,0:3|0:0|0:0|0:0|0:0|0:0|0:0|0:0|0:0|0:0|0:0|0:0|0:0,0:0:0:0:
279,109,116521,6,0,P|331:109|409:111,1,105,4|0,0:3|3:0,0:0:0:0:
383,110,116956,1,4,0:3:0:0:
485,200,117174,1,0,3:0:0:0:
461,205,117282,1,0,3:0:0:0:
436,208,117391,1,4,0:3:0:0:
436,208,117826,5,2,0:0:0:0:
392,226,117934,1,0,3:0:0:0:
371,267,118043,2,0,L|387:276,4,11.6666666666667,0|0|0|0|0,3:0|3:0|3:0|3:0|3:0,3:0:0:0:
416,302,118260,5,4,1:2:0:0:
402,349,118369,1,0,3:0:0:0:
360,375,118478,1,0,3:0:0:0:
311,369,118587,1,0,1:0:0:0:
264,354,118695,2,0,L|262:293,1,35,10|0,1:2|0:0,0:0:0:0:
330,352,118913,5,0,1:0:0:0:
354,349,119021,1,0,1:0:0:0:
376,338,119130,1,4,1:3:0:0:
389,317,119239,1,0,1:0:0:0:
397,294,119347,1,0,3:0:0:0:
240,176,119565,2,0,L|237:192,12,8.75,10|0|0|0|0|0|0|0|0|0|0|0|0,1:2|0:0|0:0|0:0|0:0|0:0|0:0|0:0|0:0|0:0|0:0|0:0|0:0,0:0:0:0:
270,114,120000,6,0,B|268:72|268:72|205:33,1,105,4|0,1:3|0:0,0:0:0:0:
191,32,120434,2,0,L|110:51,1,70,10|0,1:2|1:0,0:0:0:0:
31,85,120869,1,4,1:3:0:0:
31,85,120978,1,0,3:0:0:0:
31,85,121304,2,0,L|34:99,12,8.75,10|0|0|0|0|0|0|0|0|0|0|0|0,1:2|0:0|0:0|0:0|0:0|0:0|0:0|0:0|0:0|0:0|0:0|0:0|0:0,0:0:0:0:
106,131,121739,6,0,P|97:183|91:242,1,105,4|0,1:2|0:0,0:0:0:0:
84,258,122174,2,0,L|41:253,1,35,10|0,1:2|0:0,0:0:0:0:
125,318,122391,1,0,1:0:0:0:
149,320,122500,1,0,1:0:0:0:
173,317,122608,1,4,1:3:0:0:
194,305,122717,1,0,3:0:0:0:
194,305,123043,2,0,L|193:295,12,8.75,10|0|0|0|0|0|0|0|0|0|0|0|0,1:2|0:0|0:0|0:0|0:0|0:0|0:0|0:0|0:0|0:0|0:0|0:0|0:0,0:0:0:0:
243,355,123478,6,0,B|285:330|285:330|354:352,1,105,4|0,1:3|0:0,0:0:0:0:
360,336,123913,2,0,L|352:297,1,35,10|0,1:2|0:0,0:0:0:0:
434,335,124130,2,0,L|426:373,1,35,0|0,1:0|0:0,0:0:0:0:
457,261,124347,1,4,1:3:0:0:
457,261,124456,1,0,3:0:0:0:
457,261,124782,5,10,1:2:0:0:
423,225,124891,1,2,1:2:0:0:
373,221,125000,1,0,1:0:0:0:
325,234,125108,1,0,1:0:0:0:
290,228,125217,1,4,1:2:0:0:
267,200,125326,1,0,1:0:0:0:
275,166,125434,2,0,P|282:146|297:127,1,35,2|0,1:2|0:0,0:0:0:0:
359,100,125652,5,10,1:2:0:0:
349,73,125760,1,0,1:0:0:0:
330,51,125869,1,0,1:0:0:0:
306,36,125978,1,0,1:0:0:0:
279,26,126087,2,0,L|283:74,2,35,4|0|0,1:3|3:0|3:0,0:0:0:0:
289,134,126521,2,0,L|290:147,12,8.75,10|0|0|0|0|0|0|0|0|0|0|0|0,1:2|0:0|0:0|0:0|0:0|0:0|0:0|0:0|0:0|0:0|0:0|0:0|0:0,0:0:0:0:
367,153,126956,6,0,B|366:176|366:176|435:221,1,105,4|0,1:3|0:0,0:0:0:0:
411,224,127391,2,0,L|338:240,1,70,10|0,1:2|1:0,0:0:0:0:
237,260,127826,2,0,L|272:271,1,35,4|0,1:3|0:0,0:0:0:0:
236,259,128260,2,0,L|238:273,12,8.75,10|0|0|0|0|0|0|0|0|0|0|0|0,1:2|0:0|0:0|0:0|0:0|0:0|0:0|0:0|0:0|0:0|0:0|0:0|0:0,0:0:0:0:
154,324,128695,6,0,L|161:250,1,70,4|0,1:2|0:0,0:0:0:0:
162,226,129021,1,0,1:0:0:0:
165,198,129130,2,0,L|127:206,1,35,10|0,1:2|0:0,0:0:0:0:
227,90,129347,1,0,1:0:0:0:
226,107,129456,1,0,1:0:0:0:
225,124,129565,1,4,1:3:0:0:
224,141,129674,1,0,3:0:0:0:
224,141,130000,2,0,L|239:144,12,8.75,10|0|0|0|0|0|0|0|0|0|0|0|0,1:2|0:0|0:0|0:0|0:0|0:0|0:0|0:0|0:0|0:0|0:0|0:0|0:0,0:0:0:0:
403,172,130434,5,4,1:3:0:0:
324,50,130652,2,0,L|327:86,2,23.3333333333333,0|0|0,1:0|3:0|3:0,3:0:0:0:
425,39,130869,1,10,1:2:0:0:
487,219,131087,6,0,L|487:202,4,11.6666666666667,2|0|0|0|0,1:2|3:0|3:0|3:0|3:0,3:0:0:0:
437,271,131304,5,4,1:3:0:0:
371,259,131413,1,8,1:0:0:0:
351,195,131521,1,8,1:0:0:0:
390,140,131630,1,0,1:0:0:0:
454,124,131739,5,8,1:0:0:0:
473,75,131847,1,8,1:0:0:0:
436,37,131956,1,8,1:0:0:0:
384,46,132065,1,10,1:0:0:0:
384,46,132282,2,0,L|392:89,1,35,8|10,1:0|1:0,0:0:0:0:
280,232,132608,6,0,L|287:171,1,45.4999979171754,8|0,1:0|0:0,0:0:0:0:
208,168,132826,1,2,1:3:0:0:
232,129,132934,1,0,1:0:0:0:
273,110,133043,1,4,1:3:0:0:
318,116,133152,1,0,1:0:0:0:
354,142,133260,2,0,L|362:193,1,45.4999979171754,2|0,1:3|0:0,0:0:0:0:
319,340,133478,5,10,1:0:0:0:
276,355,133587,1,0,1:0:0:0:
241,325,133695,1,2,1:3:0:0:
250,280,133804,1,0,1:0:0:0:
293,265,133913,2,2,L|339:270,1,45.4999979171754,4|0,1:2|0:0,0:1:0:0:
452,283,134130,5,2,1:3:0:0:
452,283,134239,1,0,1:0:0:0:
452,283,134347,2,0,L|446:223,1,45.4999979171754,8|0,1:0|0:0,0:0:0:0:
435,134,134565,5,2,1:3:0:0:
396,109,134674,1,0,1:0:0:0:
350,112,134782,1,4,1:3:0:0:
317,155,134891,1,0,1:0:0:0:
264,171,135000,1,2,1:3:0:0:
225,132,135108,1,0,1:0:0:0:
231,77,135217,1,10,1:0:0:0:
281,56,135326,1,2,1:0:0:0:
327,83,135434,2,0,L|314:65,4,15.1666659723918,2|0|0|0|0,1:3|3:0|3:0|3:0|3:0,3:0:0:0:
466,24,135760,1,0,1:0:0:0:
466,24,135869,2,0,P|459:71|458:122,1,90.9999958343508,2|8,1:0|1:0,0:0:0:0:
280,158,136304,5,0,1:0:0:0:
283,171,136413,2,0,L|341:176,1,45.4999979171754,0|0,1:0|0:0,0:0:0:0:
468,206,136630,1,0,1:0:0:0:
465,219,136739,2,0,L|407:224,1,45.4999979171754,2|0,1:3|0:0,0:0:0:0:
224,241,136956,1,10,1:0:0:0:
169,274,137065,1,0,1:0:0:0:
181,336,137174,1,2,1:3:0:0:
243,344,137282,1,0,1:0:0:0:
274,288,137391,1,2,1:0:0:0:
107,247,137608,5,2,1:3:0:0:
101,249,137717,1,0,1:0:0:0:
94,250,137826,2,0,L|89:308,1,45.4999979171754,8|0,1:0|0:0,0:0:0:0:
26,200,138043,5,2,1:3:0:0:
43,173,138152,1,0,1:0:0:0:
72,162,138260,1,4,1:3:0:0:
117,168,138369,1,0,1:0:0:0:
157,147,138478,1,2,1:3:0:0:
155,101,138587,1,0,1:0:0:0:
117,76,138695,1,10,1:0:0:0:
117,21,138804,1,8,1:0:0:0:
170,7,138913,1,8,1:0:0:0:
197,53,139021,1,10,1:0:0:0:
197,53,139239,2,0,L|191:111,1,45.4999979171754,2|2,1:3|1:0,0:0:0:0:
277,249,139565,6,0,L|283:191,1,45.4999979171754,8|0,1:0|0:0,0:0:0:0:
330,142,139782,1,2,1:3:0:0:
330,142,139891,2,0,L|415:154,1,45.4999979171754,0|0,1:0|0:0,0:0:0:0:
459,202,140108,1,0,1:0:0:0:
459,202,140217,2,0,L|374:214,1,45.4999979171754,2|0,1:3|0:0,0:0:0:0:
357,259,140434,1,10,1:0:0:0:
339,290,140543,1,0,1:0:0:0:
341,326,140652,1,2,1:3:0:0:
358,357,140760,1,0,1:0:0:0:
389,375,140869,6,2,P|457:360|467:287,1,136.499993751526,4|0,1:2|0:0,0:1:0:0:
478,265,141304,2,0,L|409:286,1,45.4999979171754,8|0,1:0|0:0,0:0:0:0:
367,257,141521,1,2,1:3:0:0:
332,245,141630,1,0,1:0:0:0:
295,248,141739,1,4,1:3:0:0:
263,265,141847,1,0,1:0:0:0:
244,296,141956,2,0,L|250:357,1,45.4999979171754,2|0,1:3|0:0,0:0:0:0:
188,240,142174,5,10,1:0:0:0:
139,214,142282,1,0,1:0:0:0:
134,159,142391,1,2,1:3:0:0:
169,117,142500,1,2,1:0:0:0:
219,137,142608,6,0,L|159:149,2,45.4999979171754,4|0|2,1:3|0:0|1:0,0:0:0:0:
141,40,143043,2,0,P|65:69|46:105,1,90.9999958343508,8|2,1:0|0:3,0:0:0:0:
37,101,143369,1,0,1:0:0:0:
37,101,143478,2,0,L|48:171,1,45.4999979171754,4|0,1:3|0:0,0:0:0:0:
105,180,143695,2,0,L|94:250,1,45.4999979171754,2|0,1:3|0:0,0:0:0:0:
69,291,143913,5,10,1:0:0:0:
104,301,144021,1,0,1:0:0:0:
141,295,144130,1,2,1:3:0:0:
175,284,144239,1,0,1:0:0:0:
188,250,144347,1,2,1:0:0:0:
275,117,144565,1,2,1:3:0:0:
289,150,144674,1,0,1:0:0:0:
311,178,144782,2,0,P|331:190|372:200,1,45.4999979171754,8|0,1:0|0:0,0:0:0:0:
453,239,145000,5,2,1:3:0:0:
467,257,145108,1,0,1:0:0:0:
474,278,145217,2,0,P|467:308|449:338,1,45.4999979171754,4|0,1:3|0:0,0:0:0:0:
385,359,145434,2,0,P|392:329|410:299,1,45.4999979171754,2|0,1:3|0:0,0:0:0:0:
346,269,145652,5,10,1:0:0:0:
292,260,145760,1,0,1:0:0:0:
239,276,145869,1,0,1:0:0:0:
211,323,145978,1,2,1:0:0:0:
167,356,146087,1,4,1:3:0:0:
112,361,146195,1,0,1:0:0:0:
63,336,146304,1,10,1:0:0:0:
256,192,153043,12,0,155869,0:0:0:0:
115,259,156087,5,0,3:0:0:0:
119,236,156195,1,0,3:0:0:0:
121,213,156304,2,0,L|161:220,2,30.3333319447836,2|0|0,0:0|0:0|0:0,0:0:0:0:
264,228,156521,1,4,1:2:0:0:
256,192,156739,12,0,158913,0:0:0:0:
170,201,159130,6,0,L|161:148,1,45.4999979171754
92,99,159347,2,0,L|82:153,1,45.4999979171754,2|0,0:0|0:0,0:0:0:0:
465,31,160000,6,0,L|473:85,1,41.9999987182618,0|0,1:0|0:0,0:0:0:0:
401,208,160434,2,0,L|416:114,1,83.9999974365235,8|0,0:0|0:0,0:0:0:0:
438,45,160869,6,0,L|446:99,1,41.9999987182618,0|0,1:0|0:0,0:0:0:0:
374,222,161304,2,0,L|389:128,1,83.9999974365235,8|0,0:0|0:0,0:0:0:0:
294,158,161739,6,0,L|242:166,1,48.9999985046387,0|0,1:0|3:0,0:0:0:0:
106,88,162174,2,0,L|210:106,1,97.9999970092774,8|0,0:0|3:0,0:0:0:0:
287,187,162608,6,0,L|235:195,1,48.9999985046387,0|0,1:0|3:0,0:0:0:0:
99,117,163043,2,0,L|203:135,1,97.9999970092774,8|0,0:0|3:0,0:0:0:0:
81,241,163478,5,0,1:0:0:0:
85,216,163587,1,0,3:0:0:0:
89,192,163695,1,0,3:0:0:0:
159,253,163913,5,8,0:0:0:0:
162,291,164021,1,0,3:0:0:0:
165,330,164130,1,0,3:0:0:0:
62,262,164347,5,0,1:0:0:0:
66,237,164456,1,0,3:0:0:0:
70,213,164564,1,0,3:0:0:0:
140,274,164782,5,8,0:0:0:0:
143,312,164890,1,0,3:0:0:0:
146,351,164999,1,0,3:0:0:0:
38,291,165217,5,0,1:0:0:0:
242,287,165434,2,0,L|238:323,2,23.3333333333333,0|0|0,3:0|3:0|3:0,3:0:0:0:
251,196,165652,1,8,1:2:0:0:
251,196,165869,6,0,L|228:199,2,17.5,0|0|0,3:0|3:0|3:0,3:0:0:0:
297,212,166087,1,0,1:0:0:0:
344,201,166195,1,0,1:0:0:0:
375,163,166304,1,0,1:0:0:0:
377,114,166413,1,0,1:0:0:0:
343,78,166521,5,0,1:0:0:0:
347,100,166630,1,0,1:0:0:0:
350,121,166739,1,0,1:0:0:0:
353,142,166847,1,0,1:0:0:0:
356,164,166956,6,0,L|403:157,3,35,4|0|0|0,0:2|0:0|0:0|0:0,0:0:0:0:
312,226,167391,2,0,L|265:219,3,35,8|0|2|0,0:2|0:0|0:3|0:0,0:0:0:0:
247,104,167826,6,0,L|294:97,3,35
203,166,168261,2,0,L|156:159,3,35,8|0|2|0,0:2|0:0|0:3|0:0,0:0:0:0:
33,217,168695,5,4,0:2:0:0:
63,223,168804,1,0,0:0:0:0:
94,229,168913,1,0,0:0:0:0:
124,235,169021,1,0,0:0:0:0:
155,241,169130,2,0,L|139:298,3,35,8|0|2|0,0:2|0:0|0:3|0:0,0:0:0:0:
160,351,169565,5,0,0:0:0:0:
190,345,169674,1,0,0:0:0:0:
221,339,169783,1,0,0:0:0:0:
251,333,169891,1,0,0:0:0:0:
282,327,170000,2,0,L|266:270,3,35,8|0|2|0,0:2|0:0|0:3|0:0,0:0:0:0:
349,368,170434,5,4,0:2:0:0:
379,360,170543,1,0,0:0:0:0:
406,344,170652,1,2,0:2:0:0:
426,320,170760,1,0,0:0:0:0:
440,292,170869,1,8,0:2:0:0:
450,262,170978,1,0,0:0:0:0:
451,230,171087,1,2,0:2:0:0:
444,199,171195,1,0,0:0:0:0:
422,158,171304,5,0,0:0:0:0:
390,152,171413,1,0,0:0:0:0:
358,149,171521,1,2,0:2:0:0:
326,144,171630,1,0,0:0:0:0:
291,173,171739,5,8,0:2:0:0:
259,179,171848,1,0,0:0:0:0:
227,182,171956,1,2,0:2:0:0:
195,187,172065,1,0,0:0:0:0:
162,211,172174,6,2,L|80:204,1,45.4999979171754,0|8,0:0|0:3,0:0:0:0:
69,157,172391,2,2,L|-13:150,1,45.4999979171754,2|8,0:0|0:3,0:0:0:0:
145,91,172608,6,2,L|227:84,1,45.4999979171754,8|8,0:2|0:3,0:0:0:0:
238,37,172825,2,2,L|320:30,1,45.4999979171754,2|8,0:0|0:3,0:0:0:0:
175,231,173043,6,2,L|93:224,1,45.4999979171754,0|8,0:0|0:3,0:0:0:0:
82,177,173260,2,2,L|0:170,1,45.4999979171754,2|8,0:0|0:3,0:0:0:0:
267,287,173478,5,8,0:2:0:0:
267,287,173913,6,0,L|250:335,1,46.6666666666667,4|0,1:3|0:0,0:0:0:0:
285,264,174347,2,0,L|270:219,1,46.6666666666667,2|0,1:0|0:0,0:0:0:0:
306,279,174782,2,0,L|361:273,1,46.6666666666667,8|2,1:3|0:0,0:0:0:0:
418,306,175217,1,4,1:3:0:0:
418,306,175652,5,4,0:3:0:0:
452,247,175797,1,2,0:0:0:0:
404,198,175942,1,2,0:0:0:0:
428,306,176087,5,4,1:3:0:0:
450,241,176232,1,2,0:0:0:0:
394,202,176377,1,2,0:0:0:0:
309,189,176521,5,8,1:3:0:0:
259,143,176666,1,2,0:0:0:0:
292,84,176811,1,2,0:0:0:0:
358,96,176956,2,2,L|348:149,1,46.6666666666667,2|0,1:0|0:0,0:1:0:0:
277,99,177391,6,0,L|271:44,1,46.6666666666667,4|0,1:3|0:0,0:0:0:0:
276,119,177826,2,0,L|221:108,1,46.6666666666667,2|0,1:0|0:0,0:0:0:0:
155,110,178260,2,0,L|164:163,1,46.6666666666667,8|2,1:3|0:0,0:0:0:0:
77,189,178695,2,0,L|78:171,5,11.6666666666667,4|0|0|0|0|0,1:3|0:0|0:0|0:0|0:0|0:0,0:0:0:0:
41,251,179130,5,4,1:3:0:0:
86,301,179275,1,2,0:0:0:0:
52,359,179420,1,2,0:0:0:0:
36,241,179565,5,4,1:3:0:0:
99,225,179710,1,2,0:0:0:0:
112,161,179855,1,2,0:0:0:0:
151,276,180000,5,8,1:3:0:0:
211,300,180145,1,2,0:0:0:0:
266,265,180289,1,2,0:0:0:0:
264,199,180434,2,0,L|248:195,5,11.6666666666667,2|0|0|0|0|0,1:0|0:0|0:0|0:0|0:0|0:0,0:0:0:0:
235,125,180869,6,0,L|187:132,1,46.6666666666667,4|0,1:3|0:0,0:0:0:0:
251,100,181304,2,0,L|220:61,1,46.6666666666667,2|0,1:0|0:0,0:0:0:0:
259,185,181739,2,0,L|241:230,1,46.6666666666667,8|2,1:3|0:0,0:0:0:0:
321,239,182174,1,4,1:3:0:0:
321,239,182608,5,4,1:3:0:0:
365,286,182753,1,2,0:0:0:0:
425,261,182898,1,2,0:0:0:0:
324,225,183043,5,4,1:3:0:0:
280,178,183188,1,2,0:0:0:0:
220,203,183333,1,2,0:0:0:0:
270,297,183478,5,8,1:3:0:0:
266,231,183623,1,2,0:0:0:0:
261,165,183768,1,2,0:0:0:0:
256,99,183913,2,2,L|252:44,1,46.6666666666667,2|0,1:0|0:0,0:1:0:0:
373,26,184347,6,0,L|370:45,4,11.6666666666667,4|0|0|0|0,1:3|0:0|0:0|0:0|0:0,0:0:0:0:
444,111,184782,2,0,L|437:58,1,46.6666666666667,2|0,1:0|0:0,0:0:0:0:
431,127,185217,2,0,L|384:133,1,46.6666666666667,8|2,1:3|0:0,0:0:0:0:
276,143,185652,1,4,1:3:0:0:
276,143,186087,5,4,1:3:0:0:
263,185,186232,1,2,0:0:0:0:
286,222,186376,1,2,0:0:0:0:
381,198,186521,5,4,1:3:0:0:
423,250,186666,1,2,0:0:0:0:
381,303,186811,1,2,0:0:0:0:
285,295,186956,5,0,3:0:0:0:
262,289,187101,1,2,0:0:0:0:
239,293,187246,1,2,0:0:0:0:
223,310,187391,2,2,L|226:334,1,23.3333333333333,2|0,1:0|0:0,0:1:0:0:
72,357,187826,6,0,L|81:275,1,70.0000026702882,4|2,1:2|0:0,0:0:0:0:
15,187,188116,1,2,0:0:0:0:
18,199,188260,2,2,L|98:192,1,70.0000026702882,8|2,1:0|0:0,0:1:0:0:
220,269,188550,1,2,0:0:0:0:
217,257,188695,2,2,L|145:251,1,70.0000026702882,4|0,1:3|0:0,0:1:0:0:
156,38,188985,2,0,L|160:85,1,35.0000013351441,2|0,1:0|0:0,0:0:0:0:
171,42,189130,2,2,L|178:184,1,140.000005340576,8|2,1:0|0:0,0:1:0:0:
185,315,189565,5,4,1:3:0:0:
244,256,189710,1,2,0:0:0:0:
324,281,189855,1,2,0:0:0:0:
176,299,190000,5,8,1:2:0:0:
117,358,190145,1,2,0:0:0:0:
37,333,190290,1,2,0:0:0:0:
32,168,190434,5,8,1:3:0:0:
36,251,190579,1,2,0:0:0:0:
119,240,190724,1,2,0:0:0:0:
113,156,190869,1,8,1:2:0:0:
393,267,191304,5,4,1:3:0:0:
408,98,191594,1,2,0:0:0:0:
408,98,191739,2,2,L|399:193,2,70.0000026702882,8|0|0,1:0|0:0|0:0,0:1:0:0:
306,180,192174,2,0,L|336:176,4,17.500000667572,4|0|0|0|0,1:3|0:0|0:0|0:0|0:0,0:0:0:0:
176,118,192463,2,0,L|210:120,1,35.0000013351441,2|0,1:0|0:0,0:0:0:0:
182,98,192608,2,2,L|321:104,1,140.000005340576,8|2,1:0|0:0,0:1:0:0:
505,127,193043,5,4,1:3:0:0:
463,32,193188,1,2,0:0:0:0:
388,107,193333,1,2,0:0:0:0:
507,108,193478,5,8,1:2:0:0:
435,34,193623,1,2,0:0:0:0:
390,129,193768,1,2,0:0:0:0:
509,90,193913,5,8,1:3:0:0:
502,173,194058,1,2,0:0:0:0:
498,256,194203,1,2,0:0:0:0:
493,339,194347,2,2,L|343:305,1,140.000005340576,8|0,1:2|0:0,0:1:0:0:
233,249,194782,6,0,L|271:244,6,26.2500010013581,4|0|0|0|0|0|0,1:2|0:0|0:0|0:0|0:0|0:0|0:0,0:0:0:0:
140,303,195217,2,2,L|160:189,1,70.0000026702882,8|0,1:0|0:0,0:1:0:0:
17,221,195507,1,2,0:0:0:0:
9,233,195652,2,2,L|15:302,1,70.0000026702882,4|0,1:3|0:0,0:1:0:0:
97,174,195942,2,0,L|85:213,1,35.0000013351441,2|0,1:0|0:0,0:0:0:0:
88,163,196087,2,2,L|108:20,1,140.000005340576,8|2,1:0|0:0,0:1:0:0:
232,111,196521,5,4,1:3:0:0:
325,157,196666,1,2,0:0:0:0:
247,210,196811,1,2,0:0:0:0:
241,105,196956,5,8,1:2:0:0:
324,167,197101,1,2,0:0:0:0:
237,205,197246,1,2,0:0:0:0:
252,101,197391,5,8,1:3:0:0:
163,44,197536,1,2,0:0:0:0:
294,14,197681,1,2,0:0:0:0:
239,60,197826,2,2,L|212:206,1,140.000005340576,8|0,1:2|0:0,0:0:0:0:
321,290,198260,6,0,L|314:243,5,35.0000013351441,4|0|0|0|0|0,1:3|0:0|0:0|0:0|0:0|0:0,0:0:0:0:
359,358,198695,2,2,L|448:349,1,70.0000026702882,8|0,1:0|0:0,0:1:0:0:
483,252,198985,1,2,0:0:0:0:
475,263,199130,2,2,L|397:249,1,70.0000026702882,4|0,1:3|0:0,0:1:0:0:
295,153,199420,2,0,L|248:158,1,35.0000013351441,2|0,1:0|0:0,0:0:0:0:
304,135,199565,2,2,L|450:124,1,140.000005340576,8|2,1:0|0:0,0:1:0:0:
202,37,200000,5,4,1:3:0:0:
154,138,200145,1,2,0:0:0:0:
67,68,200289,1,2,0:0:0:0:
131,68,200434,5,8,1:2:0:0:
93,126,200579,1,2,0:0:0:0:
31,91,200724,1,2,0:0:0:0:
64,85,200869,5,0,1:0:0:0:
53,119,201014,1,2,0:0:0:0:
29,110,201159,1,2,0:0:0:0:
31,91,201304,1,0,3:0:0:0:
256,192,201739,12,0,205217,0:0:0:0:
271,213,205652,5,2,0:0:0:0:
258,227,206087,1,0,3:0:0:0:
255,208,206521,1,0,1:0:0:0:
168,84,207174,5,0,1:0:0:0:
168,84,207282,2,0,L|187:136,1,48.9999985046387,0|2,1:0|0:0,0:0:0:0:
116,135,207608,1,0,1:0:0:0:
116,135,207717,2,0,L|128:174,1,24.4999992523194,0|0,1:0|0:0,0:0:0:0:
79,220,207934,2,0,L|65:188,1,24.4999992523194,0|0,1:0|0:0,0:0:0:0:
142,258,208152,2,0,L|206:241,1,48.9999985046387,2|2,1:2|0:0,0:0:0:0:
35,330,208587,1,0,1:0:0:0:
35,330,208695,1,0,1:0:0:0:
177,348,209130,5,2,0:0:0:0:
10,253,209565,1,0,1:0:0:0:
234,254,210000,1,2,0:0:0:0:
234,254,210652,5,0,1:0:0:0:
240,230,210760,1,0,0:0:0:0:
246,206,210869,1,0,3:0:0:0:
252,182,210978,1,0,3:0:0:0:
233,165,211087,5,2,0:0:0:0:
229,135,211195,1,0,0:0:0:0:
226,105,211304,1,0,1:0:0:0:
223,75,211413,1,0,0:0:0:0:
246,57,211521,5,0,3:0:0:0:
269,62,211630,1,0,3:0:0:0:
292,68,211739,2,0,L|330:78,1,24.4999992523194,2|0,1:2|0:0,0:0:0:0:
425,95,211956,2,0,L|391:100,1,24.4999992523194,2|0,1:2|0:0,0:0:0:0:
353,261,212174,6,0,L|331:148,1,97.9999970092774,0|2,1:0|0:0,0:0:0:0:
464,90,213043,2,0,L|445:186,1,97.9999970092774,0|2,1:0|0:0,0:0:0:0:
448,190,214130,5,0,1:0:0:0:
448,190,214238,2,0,L|467:242,1,48.9999985046387,0|0,1:0|3:0,0:0:0:0:
429,310,214565,1,0,1:0:0:0:
392,315,214674,1,0,1:0:0:0:
356,321,214782,1,0,3:0:0:0:
319,327,214891,1,0,3:0:0:0:
282,333,215000,5,0,1:0:0:0:
287,282,215108,2,0,L|295:233,1,41.9999987182618,0|0,1:0|0:0,0:0:0:0:
383,213,215326,1,0,1:0:0:0:
355,171,215434,1,0,1:0:0:0:
309,149,215543,1,0,1:0:0:0:
258,155,215652,6,2,P|199:176|124:166,1,125.999996154785,4|0,1:0|0:0,0:1:0:0:
203,45,216087,2,0,L|191:110,1,62.9999980773926,8|0,1:0|0:0,0:0:0:0:
149,307,216521,6,2,P|101:266|72:196,1,125.999996154785,4|0,0:3|0:0,0:1:0:0:
247,239,216956,2,0,L|256:295,1,41.9999987182618,8|0,1:0|3:0,0:0:0:0:
256,295,217282,1,0,3:0:0:0:
258,309,217391,1,4,0:3:0:0:
258,309,217608,5,2,1:0:0:0:
289,296,217717,1,0,1:0:0:0:
322,294,217826,1,8,1:0:0:0:
354,303,217934,1,2,1:2:0:0:
381,322,218043,5,2,1:2:0:0:
375,301,218152,1,0,1:0:0:0:
379,280,218260,1,2,1:0:0:0:
389,261,218369,1,0,1:0:0:0:
406,248,218478,5,8,1:0:0:0:
371,210,218587,1,8,1:0:0:0:
364,160,218695,1,2,1:0:0:0:
390,116,218804,1,0,1:0:0:0:
434,91,218913,1,10,1:0:0:0:
482,102,219021,1,8,1:0:0:0:
507,145,219130,6,0,P|455:165|380:163,1,125.999996154785,4|0,1:3|0:0,0:0:0:0:
424,251,219565,2,0,P|368:242|305:205,1,105,8|0,1:0|0:0,0:0:0:0:
309,299,220000,6,0,P|265:263|237:229,1,84,4|0,1:3|0:0,0:0:0:0:
190,293,220434,2,2,P|173:269|169:241,1,41.9999987182618,8|0,1:0|3:0,0:1:0:0:
168,242,220760,1,0,3:0:0:0:
170,227,220869,1,4,0:3:0:0:
170,227,221087,5,2,1:0:0:0:
183,196,221195,1,0,1:0:0:0:
184,162,221304,1,8,1:0:0:0:
166,132,221413,1,2,1:0:0:0:
138,113,221521,5,0,1:0:0:0:
138,134,221630,1,2,1:0:0:0:
137,155,221739,1,4,1:3:0:0:
136,177,221847,2,0,L|91:171,1,41.9999987182618,2|0,1:0|0:0,0:0:0:0:
58,240,222065,1,2,1:0:0:0:
58,240,222174,2,0,L|8:249,2,41.9999987182618,8|2|0,1:0|3:1|3:0,0:0:0:0:
114,286,222500,5,8,1:0:0:0:
114,286,222608,2,2,P|153:304|239:306,1,125.999996154785,4|0,1:2|0:0,0:1:0:0:
276,245,223043,2,0,L|261:169,1,62.9999980773926,8|0,1:0|0:0,0:0:0:0:
383,278,223478,6,2,P|324:308|343:384,1,125.999996154785,4|0,1:3|0:0,0:1:0:0:
392,374,223913,2,0,L|454:362,1,62.9999980773926,8|0,1:0|0:0,0:0:0:0:
489,302,224347,5,4,0:3:0:0:
489,302,224565,2,0,L|479:244,1,41.9999987182618,2|0,1:2|0:0,0:0:0:0:
436,208,224782,1,8,1:0:0:0:
415,212,224891,1,0,1:0:0:0:
394,214,225000,2,0,L|325:208,1,41.9999987182618,2|0,1:2|0:0,0:0:0:0:
308,139,225217,2,0,L|377:145,1,41.9999987182618,4|0,1:3|0:0,0:0:0:0:
415,116,225434,1,8,1:0:0:0:
425,75,225543,1,8,1:0:0:0:
410,35,225652,1,0,1:0:0:0:
373,14,225760,1,0,1:0:0:0:
331,17,225869,1,8,1:0:0:0:
324,37,225978,1,8,1:0:0:0:
319,57,226087,6,0,P|270:70|192:34,1,125.999996154785,4|0,1:3|0:0,0:0:0:0:
127,87,226521,2,2,P|170:109|195:160,1,83.9999974365235,8|0,1:0|0:0,0:1:0:0:
261,177,226956,6,0,P|225:202|216:221,1,62.9999980773926,4|0,1:3|0:0,0:0:0:0:
143,310,227391,2,2,B|178:328|195:304|121:222,1,125.999996154785,8|0,1:0|0:0,0:1:0:0:
50,208,227826,5,4,0:3:0:0:
50,208,228043,1,2,0:0:0:0:
33,221,228152,1,0,3:0:0:0:
21,137,228369,1,0,3:0:0:0:
37,124,228478,1,2,0:0:0:0:
54,111,228587,1,0,3:0:0:0:
69,97,228695,2,0,L|55:44,2,41.9999987182618,0|0|0,1:0|1:0|3:0,0:0:0:0:
118,148,229021,2,2,P|173:130|205:85,1,83.9999974365235,0|0,1:0|3:0,0:0:0:0:
310,23,229456,5,0,3:0:0:0:
310,23,229565,2,0,P|325:69|419:98,1,125.999996154785,4|0,1:0|0:0,0:0:0:0:
411,99,230000,5,8,1:2:0:0:
430,91,230108,1,0,0:0:0:0:
446,77,230217,1,2,0:2:0:0:
463,64,230326,1,0,0:0:0:0:
502,50,230434,5,4,1:3:0:0:
476,83,230543,1,0,0:0:0:0:
458,121,230652,1,2,0:2:0:0:
451,162,230760,1,0,0:0:0:0:
473,197,230869,5,8,1:2:0:0:
452,199,230978,1,0,0:0:0:0:
431,202,231087,1,2,0:2:0:0:
411,210,231195,1,0,0:0:0:0:
373,229,231304,6,0,L|391:288,1,41.9999987182618,4|0,1:3|0:0,0:0:0:0:
438,311,231521,2,0,L|420:370,1,41.9999987182618,2|0,0:0|0:0,0:0:0:0:
362,376,231739,1,8,1:2:0:0:
321,365,231847,1,0,1:0:0:0:
279,356,231956,1,2,1:2:0:0:
238,344,232065,1,0,1:0:0:0:
196,336,232174,2,0,P|212:321|241:302,1,41.9999987182618,4|0,1:3|0:0,0:0:0:0:
128,360,232391,1,8,1:0:0:0:
129,317,232500,1,8,1:0:0:0:
113,278,232608,2,0,L|79:211,1,41.9999987182618,4|0,1:3|0:0,0:0:0:0:
20,259,232826,2,0,L|57:325,1,41.9999987182618,8|8,1:0|1:0,0:0:0:0:
57,172,233043,6,0,P|49:128|18:80,1,83.9999974365235,4|2,1:2|0:0,0:0:0:0:
137,186,233369,1,0,1:0:0:0:
137,186,233478,2,0,L|137:126,1,41.9999987182618,8|0,1:2|0:0,0:0:0:0:
135,69,233695,1,2,1:2:0:0:
135,69,233804,1,0,1:0:0:0:
135,69,233913,2,2,B|170:87|170:87|185:89|241:70,1,83.9999974365235,4|0,1:3|0:0,0:1:0:0:
265,38,234239,1,0,1:0:0:0:
265,38,234347,2,2,L|231:175,1,125.999996154785,8|0,1:2|0:0,0:1:0:0:
287,204,234782,6,0,L|311:162,1,41.9999987182618,4|0,1:3|0:0,0:0:0:0:
375,148,235000,1,2,1:2:0:0:
375,148,235108,2,0,L|434:157,1,41.9999987182618,8|0,1:2|0:0,0:0:0:0:
489,220,235326,2,0,L|430:211,1,41.9999987182618,8|0,1:2|0:0,0:0:0:0:
380,242,235543,1,0,1:0:0:0:
380,242,235652,1,4,1:3:0:0:
357,276,235760,1,2,1:0:0:0:
357,318,235869,1,0,1:0:0:0:
377,354,235978,1,2,1:0:0:0:
413,375,236087,5,4,1:2:0:0:
422,351,236195,1,2,1:0:0:0:
430,327,236304,1,8,1:0:0:0:
438,303,236413,1,8,1:0:0:0:
471,277,236521,5,4,1:0:0:0:
468,256,236630,1,0,0:0:0:0:
465,235,236739,1,2,1:2:0:0:
461,214,236847,1,0,1:0:0:0:
458,193,236956,2,2,P|395:212|331:204,1,125.999996154785,8|0,1:2|0:0,0:1:0:0:
360,318,237391,2,0,P|330:281|343:328,1,125.999996154785,4|0,1:3|0:0,0:0:0:0:
264,201,237826,2,2,P|262:244|232:282,1,83.9999974365235,8|0,1:2|0:0,0:1:0:0:
218,281,238152,1,0,1:0:0:0:
197,285,238260,2,0,L|207:339,1,41.9999987182618,4|0,0:3|0:0,0:0:0:0:
82,203,238478,5,2,1:2:0:0:
123,211,238587,1,0,0:0:0:0:
163,201,238695,1,8,1:2:0:0:
188,167,238804,1,0,1:0:0:0:
185,124,238913,5,0,1:0:0:0:
157,104,239021,1,0,1:0:0:0:
150,71,239130,1,2,1:0:0:0:
162,39,239239,1,0,1:0:0:0:
190,22,239347,5,8,1:0:0:0:
236,23,239456,1,8,1:0:0:0:
263,60,239565,1,2,1:0:0:0:
247,103,239674,1,0,1:0:0:0:
203,116,239782,1,10,1:0:0:0:
158,101,239891,1,8,1:0:0:0:
126,67,240000,6,0,L|133:119,1,41.9999987182618,4|0,1:2|0:0,0:0:0:0:
50,100,240217,2,0,L|58:150,1,41.9999987182618,2|0,1:2|0:0,0:0:0:0:
129,272,240434,2,2,B|114:255|114:255|121:184,2,83.9999974365235,8|2|4,1:2|0:0|0:3,0:1:0:0:
0,337,241087,1,2,1:2:0:0:
0,337,241195,1,0,1:0:0:0:
0,337,241304,2,2,P|41:351|90:341,1,83.9999974365235,8|2,1:2|0:0,0:1:0:0:
219,283,241739,1,4,0:3:0:0:
57,229,241956,5,2,0:0:0:0:
57,229,242065,1,2,0:0:0:0:
57,229,242174,1,8,0:0:0:0:
72,234,242282,1,0,0:0:0:0:
92,231,242391,1,0,0:0:0:0:
109,211,242500,1,2,0:0:0:0:
100,182,242608,1,0,0:0:0:0:
109,153,242717,1,2,0:0:0:0:
145,143,242826,1,0,0:0:0:0:
179,166,242934,1,2,0:0:0:0:
173,207,243043,2,0,L|185:299,2,83.9999974365235,10|2|0,0:0|0:0|0:0,0:0:0:0:
129,201,250869,5,8,0:0:0:0:
129,201,251739,1,8,0:0:0:0:
358,244,252608,5,8,0:0:0:0:
358,244,253478,1,8,0:0:0:0:
129,183,254347,5,8,0:0:0:0:
129,183,255217,1,8,0:0:0:0:
358,140,256087,5,8,0:0:0:0:
358,140,256957,1,8,0:0:0:0:
301,100,257391,6,0,P|326:43|358:14,1,97.9999970092774,0|8,1:0|0:0,0:0:0:0:
415,15,258043,1,0,3:0:0:0:
415,15,258478,1,0,3:0:0:0:
465,62,258695,2,0,L|448:122,1,48.9999985046387,8|0,0:0|0:0,0:0:0:0:
438,184,259130,6,0,P|391:160|350:153,2,73.4999977569581,0|8|8,1:0|0:0|0:0,0:0:0:0:
465,246,260000,2,0,L|446:293,1,48.9999985046387,0|0,3:0|0:0,0:0:0:0:
392,329,260434,2,0,L|344:314,1,48.9999985046387,8|0,0:0|0:0,0:0:0:0:
283,280,260869,6,0,P|257:294|174:320,1,97.9999970092774,0|8,1:0|0:0,0:0:0:0:
81,281,261521,1,0,3:0:0:0:
81,281,261956,1,0,3:0:0:0:
60,216,262174,2,0,L|67:153,1,48.9999985046387,8|0,0:0|0:0,0:0:0:0:
165,93,262608,6,0,P|160:153|157:187,1,73.4999977569581,0|8,1:0|0:3,0:0:0:0:
163,180,263043,2,0,L|214:162,1,48.9999985046387,8|8,0:0|0:3,0:0:0:0:
273,189,263478,2,0,L|327:171,1,48.9999985046387,0|0,3:0|0:0,0:0:0:0:
344,109,263913,2,0,L|286:104,1,48.9999985046387,8|0,0:0|3:0,0:0:0:0:
222,48,264347,6,0,L|229:105,1,48.9999985046387,0|0,1:0|0:0,0:0:0:0:
208,94,264674,1,2,0:0:0:0:
188,91,264782,1,8,0:0:0:0:
168,89,264891,2,0,L|164:114,1,24.4999992523194,0|0,3:0|0:0,0:0:0:0:
98,98,265108,2,0,L|94:123,3,24.4999992523194,0|0|0|0,3:0|0:0|0:0|0:0,0:0:0:0:
77,242,265543,1,2,0:0:0:0:
77,242,265652,2,0,L|67:176,2,48.9999985046387,8|0|0,0:0|3:0|1:0,0:0:0:0:
161,297,266304,5,0,0:0:0:0:
161,297,266413,1,2,0:0:0:0:
161,297,266521,1,8,0:0:0:0:
161,297,266630,2,0,L|165:267,1,24.4999992523194,0|0,3:0|0:0,0:0:0:0:
229,289,266847,2,0,L|233:259,3,24.4999992523194,0|0|0|0,3:0|0:0|0:0|0:0,0:0:0:0:
257,112,267282,1,2,0:0:0:0:
257,112,267391,2,0,L|264:160,2,48.9999985046387,8|0|0,0:0|0:0|1:0,0:0:0:0:
377,24,268043,5,0,0:0:0:0:
377,24,268152,2,0,L|370:77,1,48.9999985046387,2|0,0:0|0:0,0:0:0:0:
282,121,268587,2,0,L|325:152,1,48.9999985046387,0|0,3:0|0:0,0:0:0:0:
329,231,269021,2,0,L|410:191,1,73.4999977569581,0|2,3:0|0:0,0:0:0:0:
395,199,269782,5,0,3:0:0:0:
395,199,269891,2,0,L|338:189,1,48.9999985046387,2|0,0:0|0:0,0:0:0:0:
280,122,270326,2,0,L|270:182,2,48.9999985046387,0|0|0,3:0|0:0|3:0,0:0:0:0:
23,172,271304,5,4,1:0:0:0:
77,129,271413,1,2,3:2:0:0:
143,145,271521,1,2,3:2:0:0:
165,210,271630,1,0,3:0:0:0:
121,262,271739,5,8,1:0:0:0:
129,223,271847,1,0,1:0:0:0:
136,184,271956,1,0,1:0:0:0:
143,145,272065,1,0,1:0:0:0:
190,94,272174,5,4,1:3:0:0:
257,74,272282,2,0,L|307:82,1,48.9999985046387,8|0,1:2|0:0,0:0:0:0:
322,166,272500,5,0,1:0:0:0:
332,203,272608,1,8,1:2:0:0:
342,240,272717,1,0,1:0:0:0:
351,267,272826,1,2,1:2:0:0:
342,294,272934,1,0,1:0:0:0:
314,305,273043,5,4,1:3:0:0:
285,296,273152,1,0,3:0:0:0:
281,267,273260,1,2,3:2:0:0:
294,240,273369,1,2,3:2:0:0:
321,230,273478,1,8,1:0:0:0:
349,222,273587,1,0,1:0:0:0:
399,176,273695,5,2,1:2:0:0:
390,107,273804,1,0,1:0:0:0:
331,70,273913,2,0,L|318:127,1,48.9999985046387,4|0,1:3|0:0,0:0:0:0:
499,27,274130,5,2,1:2:0:0:
496,95,274239,1,0,1:0:0:0:
493,163,274347,2,0,L|488:226,1,48.9999985046387,8|0,1:0|0:0,0:0:0:0:
390,107,274565,2,0,L|395:170,1,48.9999985046387,0|0,1:0|0:0,0:0:0:0:
419,332,274782,5,4,1:3:0:0:
365,374,274891,1,0,3:0:0:0:
299,354,275000,1,2,3:2:0:0:
292,286,275108,1,2,3:2:0:0:
344,241,275217,5,8,1:0:0:0:
377,249,275326,1,0,1:0:0:0:
409,259,275434,1,0,1:0:0:0:
441,270,275543,1,0,1:0:0:0:
497,230,275652,5,4,1:3:0:0:
503,162,275760,2,0,L|507:112,1,48.9999985046387,8|0,1:2|0:0,0:0:0:0:
400,134,275978,5,0,1:0:0:0:
366,141,276087,1,8,1:2:0:0:
333,149,276195,1,0,1:0:0:0:
299,158,276304,2,0,L|324:212,1,48.9999985046387,2|0,1:2|0:0,0:0:0:0:
199,174,276521,5,4,1:3:0:0:
206,144,276630,1,0,3:0:0:0:
212,115,276739,2,0,L|224:53,1,48.9999985046387,2|0,1:2|0:0,0:0:0:0:
342,47,276956,1,8,1:0:0:0:
342,47,277065,1,0,1:0:0:0:
380,103,277174,5,0,1:0:0:0:
333,152,277282,1,0,1:0:0:0:
271,121,277391,1,4,1:3:0:0:
206,144,277500,1,0,1:2:0:0:
211,211,277608,5,2,1:2:0:0:
244,216,277717,1,2,1:2:0:0:
277,221,277826,2,0,L|379:236,1,97.9999970092774,8|2,0:0|0:0,0:0:0:0:
188,322,278260,5,4,1:2:0:0:
124,349,278369,1,0,3:0:0:0:
65,313,278478,1,2,3:2:0:0:
65,244,278587,1,2,3:2:0:0:
122,207,278695,5,8,1:0:0:0:
155,212,278804,1,0,1:0:0:0:
188,219,278913,1,0,1:0:0:0:
220,228,279021,1,0,1:0:0:0:
286,244,279130,5,4,1:3:0:0:
270,176,279239,2,0,P|248:114|241:68,1,97.9999970092774,8|0,1:2|1:0,0:0:0:0:
182,29,279565,2,0,L|161:97,1,48.9999985046387,8|0,1:2|0:0,0:0:0:0:
104,102,279782,2,0,L|94:77,2,24.4999992523194,2|0|0,1:2|3:0|3:0,3:0:0:0:
60,174,280000,5,4,1:3:0:0:
92,184,280108,1,0,3:0:0:0:
123,197,280217,1,2,3:2:0:0:
151,216,280326,1,2,3:2:0:0:
169,244,280434,2,0,L|148:308,1,48.9999985046387,8|0,1:0|0:0,0:0:0:0:
201,353,280652,2,0,L|223:299,1,48.9999985046387,2|0,1:2|0:0,0:0:0:0:
260,250,280869,5,4,1:3:0:0:
329,241,280978,1,0,1:0:0:0:
388,275,281087,1,2,1:2:0:0:
423,333,281195,1,2,1:2:0:0:
491,324,281304,2,0,P|502:293|500:260,1,48.9999985046387,8|0,1:0|0:0,0:0:0:0:
450,211,281521,2,0,L|451:248,2,24.4999992523194,2|0|0,1:2|3:0|3:0,0:0:0:0:
437,137,281739,5,4,1:3:0:0:
379,172,281847,1,0,3:0:0:0:
313,151,281956,1,2,3:2:0:0:
279,91,282065,1,2,3:2:0:0:
307,28,282174,5,8,1:0:0:0:
340,33,282282,1,0,1:0:0:0:
373,40,282391,1,0,1:0:0:0:
406,48,282500,1,0,1:0:0:0:
454,95,282608,5,4,1:3:0:0:
416,152,282717,2,0,P|365:172|304:166,1,97.9999970092774,8|0,1:2|0:0,0:0:0:0:
254,172,283043,1,8,1:2:0:0:
225,190,283152,1,0,1:0:0:0:
211,220,283260,1,2,1:2:0:0:
211,254,283369,1,0,1:0:0:0:
222,286,283478,6,0,L|248:336,2,48.9999985046387,4|0|2,1:3|3:0|3:2,0:0:0:0:
145,280,283804,1,2,3:2:0:0:
145,280,283913,2,0,L|75:304,1,48.9999985046387,8|0,1:0|0:0,0:0:0:0:
40,246,284130,2,0,L|99:224,1,48.9999985046387,2|0,1:2|0:0,0:0:0:0:
127,173,284347,6,0,L|112:118,2,48.9999985046387,0|0|8,1:0|3:0|0:0,0:0:0:0:
44,34,285000,1,0,1:0:0:0:
44,34,285108,1,0,1:0:0:0:
44,34,285217,5,4,1:0:0:0:
112,25,285326,1,0,3:0:0:0:
168,63,285434,1,2,3:2:0:0:
157,131,285543,1,2,3:2:0:0:
118,187,285652,1,8,1:0:0:0:
135,252,285760,1,0,1:0:0:0:
194,286,285869,1,0,1:0:0:0:
258,261,285978,1,0,1:0:0:0:
266,192,286087,5,4,1:3:0:0:
206,158,286195,2,0,B|170:153|170:153|120:196,1,97.9999970092774,8|0,1:2|0:0,0:0:0:0:
66,237,286521,2,0,L|74:290,1,48.9999985046387,8|0,1:2|0:0,0:0:0:0:
139,347,286739,2,0,L|150:285,1,48.9999985046387,2|0,0:2|0:0,0:0:0:0:
205,254,286956,5,4,1:3:0:0:
273,251,287065,1,0,3:0:0:0:
327,293,287174,1,2,3:0:0:0:
377,338,287282,1,2,3:0:0:0:
442,318,287391,2,0,P|446:284|443:242,1,48.9999985046387,8|0,1:0|0:0,0:0:0:0:
432,170,287608,5,2,1:2:0:0:
369,199,287717,1,0,1:0:0:0:
316,154,287826,2,0,P|325:101|335:81,1,48.9999985046387,4|0,1:3|0:0,0:0:0:0:
289,46,288043,5,2,1:2:0:0:
226,17,288152,1,2,1:2:0:0:
173,62,288261,6,2,P|182:115|191:146,1,73.4999977569581,4|0,1:2|0:0,0:0:0:0:
153,193,288695,5,4,1:3:0:0:
89,220,288804,1,2,3:2:0:0:
28,187,288913,2,0,L|41:127,1,48.9999985046387,2|0,3:2|0:0,0:0:0:0:
14,268,289130,5,8,1:0:0:0:
80,248,289239,1,0,1:0:0:0:
129,295,289347,2,0,L|116:355,1,48.9999985046387,0|0,1:0|0:0,0:0:0:0:
182,369,289565,5,4,1:3:0:0:
237,327,289674,2,0,B|294:311|281:356|351:338,1,97.9999970092774,8|0,1:2|0:0,0:0:0:0:
383,297,290000,2,0,P|381:266|371:236,1,48.9999985046387,8|0,1:2|0:0,0:0:0:0:
316,215,290217,2,0,P|318:184|328:154,1,48.9999985046387,2|0,1:2|0:0,0:0:0:0:
338,99,290434,5,4,1:3:0:0:
390,143,290543,1,0,3:0:0:0:
458,135,290652,1,2,3:2:0:0:
482,71,290760,1,2,3:2:0:0:
440,16,290869,5,8,1:0:0:0:
455,46,290978,1,0,1:0:0:0:
441,77,291087,1,0,1:0:0:0:
408,88,291195,1,0,1:0:0:0:
343,63,291304,5,4,1:3:0:0:
277,83,291413,1,0,1:0:0:0:
237,138,291521,1,2,1:2:0:0:
244,206,291630,1,0,1:0:0:0:
295,251,291739,6,0,P|298:282|300:321,1,48.9999985046387,4|0,1:2|0:0,0:0:0:0:
211,362,291956,2,0,P|208:331|206:292,1,48.9999985046387,2|0,1:2|0:0,0:0:0:0:
370,330,292174,5,4,1:3:0:0:
438,334,292282,1,0,3:0:0:0:
482,281,292391,1,2,3:2:0:0:
448,221,292500,1,2,3:2:0:0:
379,223,292608,5,8,1:0:0:0:
388,255,292717,1,0,1:0:0:0:
376,287,292826,1,0,1:0:0:0:
344,299,292934,1,0,1:0:0:0:
310,293,293043,2,0,L|324:349,1,48.9999985046387,4|0,1:3|0:0,0:0:0:0:
264,223,293260,5,2,1:2:0:0:
244,227,293369,1,2,1:2:0:0:
224,231,293478,1,8,1:0:0:0:
205,236,293587,1,0,1:0:0:0:
184,242,293695,2,0,L|192:275,2,24.4999992523194,2|0|0,0:2|3:0|3:0,0:0:0:0:
205,337,293913,5,4,1:3:0:0:
137,343,294021,2,0,B|87:342|52:290,1,97.9999970092774,8|0,1:2|3:0,0:0:0:0:
108,167,294347,2,0,L|99:233,1,48.9999985046387,8|0,1:2|0:0,0:0:0:0:
29,148,294565,5,0,1:0:0:0:
77,92,294674,1,0,1:0:0:0:
149,94,294782,1,4,1:3:0:0:
184,158,294891,1,2,1:2:0:0:
229,216,295000,1,2,1:2:0:0:
301,204,295108,1,0,1:0:0:0:
346,145,295217,2,0,P|338:120|335:87,1,48.9999985046387,8|0,1:0|0:0,0:0:0:0:
417,157,295434,2,0,P|416:180|409:210,1,48.9999985046387,2|0,1:2|0:0,0:0:0:0:
316,126,295652,6,0,P|307:100|305:68,1,48.9999985046387,4|0,1:3|0:0,0:0:0:0:
438,188,295869,2,0,P|437:212|430:241,1,48.9999985046387,2|0,1:2|0:0,0:0:0:0:
348,337,296087,1,8,1:0:0:0:
351,303,296195,1,0,1:0:0:0:
354,268,296304,2,0,L|307:286,1,48.9999985046387,0|0,1:0|0:0,0:0:0:0:
244,260,296521,5,4,1:3:0:0:
271,197,296630,2,0,P|293:158|279:104,1,97.9999970092774,8|0,1:2|0:0,0:0:0:0:
258,98,296956,2,0,L|210:111,1,48.9999985046387,8|0,1:2|0:0,0:0:0:0:
146,167,297174,2,0,L|194:180,1,48.9999985046387,2|0,1:2|0:0,0:0:0:0:
72,151,297391,5,4,1:3:0:0:
72,151,297500,2,0,B|58:193|58:193|101:290,1,146.999995513916,8|8,1:2|1:2,0:0:0:0:
121,289,297934,1,2,1:2:0:0:
177,249,298043,1,2,1:2:0:0:
244,262,298152,1,0,1:0:0:0:
287,314,298260,1,4,1:3:0:0:
354,328,298369,6,0,P|406:329|444:282,1,97.9999970092774,4|0,1:3|0:0,0:0:0:0:
244,262,298695,6,0,P|196:259|159:290,1,97.9999970092774,8|0,0:0|0:0,0:0:0:0:
344,212,299130,5,4,1:2:0:0:
344,212,299347,1,2,1:2:0:0:
338,178,299456,1,0,1:0:0:0:
332,144,299565,1,8,1:2:0:0:
326,110,299674,2,0,L|281:121,1,41.9999987182618,0|2,1:0|0:0,0:0:0:0:
400,55,299891,1,0,1:0:0:0:
400,55,300000,2,0,L|394:102,1,41.9999987182618,0|0,1:0|0:0,0:0:0:0:
473,227,300326,5,0,1:0:0:0:
473,227,300434,2,0,L|462:173,1,41.9999987182618,8|0,1:2|0:0,0:0:0:0:
260,202,300652,2,2,L|352:213,1,83.9999974365235,4|0,1:2|1:0,0:0:0:0:
397,316,301087,5,2,1:2:0:0:
364,321,301195,1,0,1:0:0:0:
331,327,301304,1,8,1:2:0:0:
297,332,301413,2,0,L|314:380,1,41.9999987182618,0|2,1:0|0:0,0:0:0:0:
235,282,301630,1,0,1:0:0:0:
235,282,301847,2,0,L|237:256,1,20.9999993591309,0|0,1:0|0:0,0:0:0:0:
172,180,302065,5,0,1:0:0:0:
172,180,302174,2,0,L|176:235,1,41.9999987182618,8|0,1:2|0:0,0:0:0:0:
130,355,302391,2,2,B|107:318|107:318|127:273,1,83.9999974365235,4|0,1:2|1:0,0:0:0:0:
20,185,302826,5,2,1:2:0:0:
48,202,302934,1,0,1:0:0:0:
80,191,303043,1,8,1:2:0:0:
97,161,303152,2,0,L|89:118,1,41.9999987182618,0|2,1:0|0:0,0:0:0:0:
56,281,303369,6,0,L|53:306,1,20.9999993591309,0|0,1:0|0:0,0:0:0:0:
172,180,303587,2,0,L|178:205,1,20.9999993591309,0|0,1:0|0:0,0:0:0:0:
8,86,303804,1,0,1:0:0:0:
8,86,303913,2,0,L|20:142,2,41.9999987182618,8|0|2,1:2|0:0|1:2,0:0:0:0:
45,248,304347,5,0,1:0:0:0:
45,248,304565,1,2,1:2:0:0:
61,251,304674,1,2,1:2:0:0:
77,254,304782,1,8,1:2:0:0:
93,258,304891,1,0,1:0:0:0:
109,262,305000,1,2,1:2:0:0:
124,266,305108,6,0,L|119:290,1,20.9999993591309,0|0,1:0|0:0,0:0:0:0:
217,344,305326,2,0,L|212:323,1,20.9999993591309,0|0,1:0|0:0,0:0:0:0:
213,136,305543,1,0,1:0:0:0:
213,136,305652,2,0,P|202:178|200:226,2,83.9999974365235,12|2|0,1:2|1:2|1:0,0:0:0:0:
239,31,306304,5,2,1:2:0:0:
272,18,306413,1,0,1:0:0:0:
304,25,306521,2,0,L|360:34,1,41.9999987182618,8|0,1:2|0:0,0:0:0:0:
410,89,306739,2,0,L|368:95,1,41.9999987182618,2|0,1:2|0:0,0:0:0:0:
314,137,306956,2,0,P|312:183|337:228,1,83.9999974365235,0|2,1:0|0:0,0:0:0:0:
377,271,307282,1,0,1:0:0:0:
377,271,307391,2,0,L|399:217,1,41.9999987182618,8|0,1:2|0:0,0:0:0:0:
459,253,307608,2,0,L|439:305,1,41.9999987182618,4|0,1:2|0:0,0:0:0:0:
412,355,307826,5,0,1:0:0:0:
412,355,308043,1,2,1:2:0:0:
380,367,308152,1,0,1:0:0:0:
346,369,308260,2,0,L|294:355,1,41.9999987182618,8|0,1:2|0:0,0:0:0:0:
250,307,308478,2,0,L|302:290,1,41.9999987182618,2|0,1:2|0:0,0:0:0:0:
185,273,308695,1,0,1:0:0:0:
185,273,308804,2,0,P|148:320|114:341,1,83.9999974365235,4|0,1:2|1:0,0:0:0:0:
62,341,309130,2,0,L|54:286,1,41.9999987182618,8|0,1:2|0:0,0:0:0:0:
104,219,309347,2,0,L|111:271,1,41.9999987182618,4|0,1:2|0:0,0:0:0:0:
33,181,309565,5,0,1:0:0:0:
33,181,309782,1,2,1:2:0:0:
57,157,309891,1,2,1:2:0:0:
69,125,310000,2,0,L|49:69,1,41.9999987182618,8|0,1:2|0:0,0:0:0:0:
103,29,310217,2,0,L|123:82,1,41.9999987182618,2|0,1:2|0:0,0:0:0:0:
157,124,310434,2,0,P|217:130|250:114,1,83.9999974365235,0|2,1:0|0:0,0:0:0:0:
297,88,310760,1,0,1:0:0:0:
297,88,310869,2,0,L|288:56,2,20.9999993591309,8|0|0,1:2|0:0|0:0,0:0:0:0:
335,148,311087,2,0,L|324:198,1,41.9999987182618,4|0,1:2|0:0,0:0:0:0:
266,230,311304,5,0,1:0:0:0:
266,230,311521,1,2,1:2:0:0:
234,242,311630,1,2,1:2:0:0:
201,251,311739,2,0,L|188:200,1,41.9999987182618,8|0,1:2|0:0,0:0:0:0:
145,293,311956,2,0,L|156:349,1,41.9999987182618,2|0,1:2|0:0,0:0:0:0:
216,362,312174,2,0,L|223:318,1,41.9999987182618,0|0,1:0|0:0,0:0:0:0:
293,300,312391,1,2,1:2:0:0:
293,300,312500,2,0,P|341:308|385:321,1,83.9999974365235,4|0,1:2|0:0,0:0:0:0:
441,354,312826,1,4,1:2:0:0:
441,354,312934,1,0,0:0:0:0:
441,354,313043,5,4,1:0:0:0:
468,335,313152,1,0,0:0:0:0:
479,303,313260,1,2,1:2:0:0:
466,271,313369,1,2,1:2:0:0:
440,248,313478,2,0,L|338:263,1,83.9999974365235,8|2,1:0|0:0,0:0:0:0:
297,221,313804,1,0,1:0:0:0:
297,221,313913,2,0,L|386:160,1,83.9999974365235,4|0,1:3|0:0,0:0:0:0:
345,104,314239,1,2,1:0:0:0:
345,104,314347,2,0,L|243:119,1,83.9999974365235,8|2,1:0|1:0,0:0:0:0:
192,120,314674,1,0,0:0:0:0:
192,120,314782,6,0,L|182:62,1,41.9999987182618,4|0,1:3|0:0,0:0:0:0:
121,37,315000,1,2,1:2:0:0:
121,37,315108,1,2,1:2:0:0:
121,37,315217,2,0,L|111:131,1,83.9999974365235,8|2,1:0|0:0,0:0:0:0:
49,163,315543,1,0,1:0:0:0:
49,163,315652,2,0,L|40:79,1,83.9999974365235,4|2,1:3|0:0,0:0:0:0:
32,11,315978,1,2,1:0:0:0:
32,11,316087,1,8,1:0:0:0:
65,6,316195,1,0,1:0:0:0:
97,13,316304,1,2,1:0:0:0:
123,34,316413,1,0,1:0:0:0:
141,61,316521,6,0,L|226:56,1,83.9999974365235,4|2,1:2|0:0,0:0:0:0:
273,113,316847,1,2,1:2:0:0:
273,113,316956,2,0,L|165:168,1,83.9999974365235,8|2,1:0|0:0,0:0:0:0:
179,218,317282,1,2,1:2:0:0:
179,218,317391,2,0,L|264:213,1,83.9999974365235,4|2,1:3|0:0,0:0:0:0:
325,241,317717,1,2,1:0:0:0:
325,241,317826,1,8,1:0:0:0:
341,269,317934,1,0,1:0:0:0:
349,301,318043,1,2,1:0:0:0:
342,334,318152,1,0,1:0:0:0:
323,362,318260,6,0,L|278:360,1,41.9999987182618,4|0,1:3|0:0,0:0:0:0:
416,318,318478,1,2,1:2:0:0:
416,318,318587,1,2,1:2:0:0:
416,318,318695,2,0,L|465:325,1,41.9999987182618,8|0,1:0|0:0,0:0:0:0:
337,224,318913,1,2,1:2:0:0:
337,224,319021,1,2,1:2:0:0:
337,224,319130,2,0,L|274:227,1,41.9999987182618,2|0,1:0|0:0,0:0:0:0:
243,176,319347,2,0,L|176:191,1,41.9999987182618,2|0,1:0|0:0,0:0:0:0:
137,211,319565,1,10,1:0:0:0:
115,212,319674,1,0,1:0:0:0:
94,213,319782,1,8,1:0:0:0:
72,214,319891,1,8,1:0:0:0:
51,216,320000,2,0,L|58:258,1,41.9999987182618,4|0,1:3|0:0,0:0:0:0:
127,303,320217,5,0,3:0:0:0:
143,305,320326,1,0,3:0:0:0:
159,308,320434,1,8,0:0:0:0:
175,311,320543,2,0,L|268:295,1,83.9999974365235,2|0,0:0|0:0,0:0:0:0:
327,342,320869,1,0,1:0:0:0:
327,342,320978,2,0,L|334:283,1,41.9999987182618,0|0,3:0|0:0,0:0:0:0:
297,233,321195,1,2,0:0:0:0:
297,233,321304,2,0,B|278:197|278:197|295:157,1,83.9999974365235,8|2,0:0|0:0,0:0:0:0:
312,157,321630,1,0,3:0:0:0:
312,157,321739,1,0,1:0:0:0:
421,82,321956,5,0,3:0:0:0:
420,96,322065,1,0,3:0:0:0:
420,110,322174,1,8,0:0:0:0:
420,123,322282,2,0,L|459:115,1,35,2|0,0:0|0:0,0:0:0:0:
416,199,322500,2,0,L|377:192,1,35,2|0,0:0|0:0,0:0:0:0:
312,138,322717,2,0,L|353:129,1,35,2|0,0:0|0:0,0:0:0:0:
314,214,322934,1,0,3:0:0:0:
314,214,323043,2,0,B|304:233|304:233|314:283,1,70,8|2,0:0|0:0,0:0:0:0:
313,280,323478,6,0,L|271:272,1,35,0|0,1:0|0:0,0:0:0:0:
265,349,323695,2,0,L|222:340,1,35,2|0,0:0|0:0,0:0:0:0:
174,273,323913,2,0,L|208:266,1,35,8|0,0:0|0:0,0:0:0:0:
126,205,324130,2,0,L|160:198,1,35,2|0,0:0|0:0,0:0:0:0:
238,128,324347,6,0,L|245:86,1,35,0|0,1:0|0:0,0:0:0:0:
139,53,324565,2,0,L|131:19,1,35,2|0,0:0|0:0,0:0:0:0:
273,79,324782,2,0,L|268:114,1,35,8|0,0:0|0:0,0:0:0:0:
100,7,325000,2,0,L|108:41,1,35,2|0,0:0|0:0,0:0:0:0:
133,145,325217,5,2,1:0:0:0:
140,164,325326,1,0,1:0:0:0:
153,179,325434,1,0,1:0:0:0:
172,185,325543,1,0,1:0:0:0:
188,172,325652,5,8,1:2:0:0:
201,168,325760,1,0,1:0:0:0:
213,174,325869,1,0,1:0:0:0:
221,184,325978,1,0,1:0:0:0:
224,197,326087,5,0,1:0:0:0:
222,203,326195,1,0,1:0:0:0:
219,209,326304,1,0,1:0:0:0:
215,215,326413,1,0,1:0:0:0:
200,216,326521,6,0,L|207:252,1,35,0|2,3:0|0:0,0:0:0:0:
289,72,326956,6,0,B|304:94|304:94|288:169,1,90.9999958343508,4|2,1:0|0:0,0:0:0:0:
326,115,327282,1,2,1:0:0:0:
380,113,327391,1,8,1:0:0:0:
421,148,327500,1,2,1:0:0:0:
411,117,327608,1,2,0:0:0:0:
415,85,327717,1,2,1:0:0:0:
431,57,327826,2,0,L|484:66,1,45.4999979171754,4|2,1:3|1:0,0:0:0:0:
351,14,328043,5,2,1:2:0:0:
296,19,328152,1,2,1:0:0:0:
242,28,328260,2,0,L|249:73,1,45.4999979171754,8|0,1:0|0:0,0:0:0:0:
175,143,328478,2,2,P|213:157|276:154,1,90.9999958343508,4|4,1:2|0:3,0:1:0:0:
322,211,328913,5,2,1:2:0:0:
273,236,329021,1,2,1:0:0:0:
219,226,329130,2,0,L|224:289,2,45.4999979171754,8|2|0,1:0|1:0|1:0,0:0:0:0:
145,313,329456,2,0,L|148:255,2,45.4999979171754,2|4|2,1:0|1:3|1:0,0:0:0:0:
152,197,329782,5,2,1:2:0:0:
99,214,329891,1,2,1:0:0:0:
45,201,330000,2,0,L|52:140,1,45.4999979171754,8|0,1:0|0:0,0:0:0:0:
106,44,330217,2,2,L|117:143,1,90.9999958343508,4|4,1:2|0:3,0:1:0:0:
178,72,330652,5,2,1:2:0:0:
214,32,330760,1,2,1:0:0:0:
268,29,330869,2,0,L|260:88,2,45.4999979171754,8|2|2,1:0|1:0|0:0,0:0:0:0:
343,126,331195,2,0,L|336:63,2,45.4999979171754,2|4|2,1:0|1:3|1:0,0:0:0:0:
420,163,331521,1,2,1:2:0:0:
376,196,331630,1,2,1:0:0:0:
321,199,331739,1,8,1:0:0:0:
321,199,331956,2,2,B|311:228|311:228|334:299,1,90.9999958343508,4|4,1:2|0:3,0:1:0:0:
362,376,332391,5,2,1:2:0:0:
311,366,332500,1,2,1:0:0:0:
257,356,332608,2,0,L|274:299,1,45.4999979171754,8|2,1:0|0:1,0:0:0:0:
189,311,332826,1,0,0:2:0:0:
184,290,332934,2,0,L|173:240,1,45.4999979171754,2|0,1:0|0:0,0:0:0:0:
97,248,333152,5,2,1:0:0:0:
48,271,333260,1,2,1:2:0:0:
1,242,333369,1,2,1:0:0:0:
9,187,333478,2,0,B|27:173|27:173|21:131,1,45.4999979171754,8|0,1:0|0:0,0:0:0:0:
127,91,333695,2,2,B|110:108|110:108|99:187,1,90.9999958343508,4|4,1:2|0:3,0:1:0:0:
207,183,334130,5,2,1:2:0:0:
207,183,334239,2,0,L|275:167,1,45.4999979171754,2|8,1:0|1:0,0:0:0:0:
347,161,334457,1,2,1:0:0:0:
327,141,334566,1,2,1:2:0:0:
316,115,334674,2,0,L|336:52,1,45.4999979171754,2|0,1:0|0:0,0:0:0:0:
388,25,334891,1,2,1:0:0:0:
442,27,335000,1,2,1:2:0:0:
485,59,335108,1,2,1:0:0:0:
492,113,335217,2,0,L|439:103,1,45.4999979171754,8|0,1:0|0:0,0:0:0:0:
421,173,335434,2,2,L|476:185,1,45.4999979171754,4|0,1:2|0:0,0:1:0:0:
341,226,335652,6,0,P|375:255|361:320,1,90.9999958343508,4|2,1:3|0:2,0:0:0:0:
308,341,335978,1,2,1:0:0:0:
308,341,336087,2,0,L|304:285,1,45.4999979171754,8|0,1:0|0:0,0:0:0:0:
234,275,336304,2,0,L|235:337,2,45.4999979171754,2|2|4,1:0|1:0|0:3,0:0:0:0:
189,211,336630,1,2,1:0:0:0:
134,211,336739,1,2,1:2:0:0:
86,237,336847,2,0,L|139:250,2,45.4999979171754,8|0|0,1:0|0:0|0:0,0:0:0:0:
38,295,337174,2,2,L|98:309,1,45.4999979171754,4|0,1:2|0:0,0:1:0:0:
16,231,337391,6,0,L|54:120,1,90.9999958343508,4|2,1:3|0:0,0:0:0:0:
97,99,337717,1,2,1:0:0:0:
97,99,337826,2,0,L|35:69,1,45.4999979171754,8|0,1:0|0:0,0:0:0:0:
14,25,338043,1,2,1:0:0:0:
64,4,338152,1,2,1:0:0:0:
117,13,338260,1,4,1:3:0:0:
167,33,338369,1,2,1:0:0:0:
189,82,338478,1,2,1:0:0:0:
238,104,338587,1,2,1:2:0:0:
291,94,338695,2,0,L|310:41,1,45.4999979171754,8|0,1:0|0:0,0:0:0:0:
256,170,338913,2,0,L|230:238,1,45.4999979171754,2|0,1:0|0:0,0:0:0:0:
278,294,339130,5,4,1:3:0:0:
318,331,339239,1,2,1:2:0:0:
372,341,339347,1,2,1:0:0:0:
423,321,339456,1,2,1:0:0:0:
432,268,339565,5,8,1:0:0:0:
410,253,339674,1,2,1:0:0:0:
386,241,339782,1,2,1:0:0:0:
364,226,339891,1,2,1:2:0:0:
370,199,340000,5,4,1:3:0:0:
383,202,340108,1,2,1:0:0:0:
396,205,340217,1,2,1:0:0:0:
409,208,340326,1,2,1:2:0:0:
422,211,340434,2,0,L|399:160,1,45.4999979171754,8|0,1:0|0:0,0:0:0:0:
388,104,340652,1,0,1:0:0:0:
441,113,340760,1,0,1:0:0:0:
469,66,340869,6,0,L|441:52,3,24.4999992523194,4|0|2|0,1:2|0:0|0:0|0:0,0:0:0:0:
384,24,341304,2,0,L|352:35,3,24.4999992523194,8|0|2|0,1:2|0:0|0:0|0:0,0:0:0:0:
281,42,341739,2,0,L|308:135,1,73.4999977569581,4|0,1:2|0:0,0:0:0:0:
307,131,342174,1,8,1:2:0:0:
244,190,342391,2,0,L|180:177,1,48.9999985046387,4|0,0:0|1:0,0:0:0:0:
106,166,342826,5,2,0:0:0:0:
106,166,342934,1,0,0:0:0:0:
106,166,343043,2,0,L|77:176,3,24.4999992523194,8|0|0|0,1:2|0:0|0:0|0:0,0:0:0:0:
28,212,343478,2,0,L|43:255,3,24.4999992523194,4|0|2|0,1:2|0:0|0:0|0:0,0:0:0:0:
88,280,343913,2,0,L|155:255,1,48.9999985046387,8|4,1:2|0:0,0:0:0:0:
206,273,344347,5,0,1:0:0:0:
209,287,344456,1,0,0:0:0:0:
212,301,344565,1,2,0:0:0:0:
215,315,344674,1,0,0:0:0:0:
218,329,344782,2,0,L|179:324,3,24.4999992523194,8|0|2|0,1:2|0:0|0:0|0:0,0:0:0:0:
276,362,345217,1,4,1:2:0:0:
335,319,345434,1,2,0:0:0:0:
335,319,345543,1,0,0:0:0:0:
335,319,345652,1,8,1:2:0:0:
309,252,345869,1,4,0:0:0:0:
252,291,346087,5,0,1:0:0:0:
387,237,346304,1,2,0:0:0:0:
387,237,346413,1,0,0:0:0:0:
387,237,346521,2,0,L|390:271,3,24.4999992523194,8|0|2|0,1:2|0:0|0:0|0:0,0:0:0:0:
451,302,346956,2,0,L|456:255,3,24.4999992523194,4|0|2|0,1:2|0:0|0:0|0:0,0:0:0:0:
485,213,347391,1,8,1:2:0:0:
477,194,347500,1,2,1:2:0:0:
462,180,347608,1,4,1:2:0:0:
444,172,347717,1,0,1:0:0:0:
423,171,347826,6,0,L|365:180,1,48.9999985046387,4|0,1:3|0:0,0:0:0:0:
219,201,348260,2,0,L|271:207,1,48.9999985046387,4|0,0:3|0:0,0:0:0:0:
427,193,348695,2,0,L|358:201,1,59.5000011348725,4|0,1:3|0:0,0:0:0:0:
197,222,349130,2,0,L|264:230,1,59.5000011348725,4|0,1:3|0:0,0:0:0:0:
427,340,349565,5,4,1:3:0:0:
404,312,349674,1,4,1:3:0:0:
369,303,349782,1,4,1:3:0:0:
337,320,349891,1,4,1:3:0:0:
345,354,350000,5,4,1:3:0:0:
313,369,350108,1,4,1:3:0:0:
277,364,350217,1,4,1:3:0:0:
260,332,350326,1,4,1:3:0:0:
225,323,350434,5,8,1:3:0:0:
209,284,350543,1,8,1:3:0:0:
223,244,350652,1,8,1:3:0:0:
258,223,350760,1,8,1:3:0:0:
290,248,350869,5,4,1:3:0:0:
331,240,350978,1,4,1:3:0:0:
345,200,351087,1,4,1:3:0:0:
324,164,351195,1,4,1:3:0:0:
283,154,351304,6,0,L|287:176,6,14.8750002837181,4|0|0|0|0|0|0,1:3|3:0|3:0|3:0|3:0|3:0|3:0,3:0:0:0:
225,229,351739,6,0,L|221:251,6,14.8750002837181,8|0|0|0|2|0|0,1:2|3:0|3:0|3:0|3:0|3:0|3:0,3:0:0:0:
170,117,352174,6,0,L|175:144,6,17.5,4|0|0|0|0|0|0,1:3|0:0|0:0|0:0|0:0|0:0|0:0,0:0:0:0:
99,253,352608,6,0,L|94:280,6,17.5,8|0|0|0|2|0|0,1:2|0:0|0:0|0:0|0:0|0:0|0:0,0:0:0:0:
22,91,353043,6,0,L|25:109,48,11.3749994792938,0|0|0|0|2|0|0|0|0|0|0|0|2|0|0|0|0|0|0|0|2|0|0|0|0|0|0|0|0|0|0|0|0|0|0|0|0|0|0|0|0|0|0|0|0|0|0|0|0,1:0|3:0|3:0|3:0|3:0|3:0|3:0|3:0|3:0|3:0|3:0|3:0|3:0|3:0|3:0|3:0|3:0|3:0|3:0|3:0|3:0|3:0|3:0|3:0|0:0|3:0|3:0|3:0|3:0|3:0|3:0|3:0|3:0|3:0|3:0|3:0|3:0|3:0|3:0|3:0|3:0|3:0|3:0|3:0|3:0|3:0|3:0|3:0|3:0,3:0:0:0:
3,311,354782,5,4,1:0:0:0:
48,252,354891,1,0,1:0:0:0:
121,248,355000,1,2,1:2:0:0:
180,289,355108,1,0,1:0:0:0:
194,361,355217,6,0,P|246:374|293:324,1,105.000004005432,8|2,1:0|1:2,0:0:0:0:
287,324,355543,2,0,L|277:264,1,52.5000020027161,2|0,1:0|0:0,0:0:0:0:
266,199,355760,5,2,1:0:0:0:
300,158,355869,1,2,1:2:0:0:
351,149,355978,2,2,L|343:256,1,105.000004005432,2|0,1:0|0:0,0:1:0:0:
405,358,356304,2,0,L|397:300,1,52.5000020027161,4|0,1:2|0:0,0:0:0:0:
421,236,356521,5,4,1:3:0:0:
482,195,356630,1,0,1:0:0:0:
496,122,356739,1,2,1:2:0:0:
466,55,356847,1,0,1:0:0:0:
395,34,356956,5,8,1:0:0:0:
367,78,357065,1,2,1:0:0:0:
316,92,357174,1,2,1:2:0:0:
265,79,357282,2,0,L|270:141,1,52.5000020027161,2|0,1:0|0:0,0:0:0:0:
307,195,357500,5,2,1:0:0:0:
263,223,357608,1,2,1:2:0:0:
212,208,357717,2,2,P|186:212|157:232,1,52.5000020027161,2|8,1:0|0:1,0:1:0:0:
113,278,357934,5,2,1:0:0:0:
113,278,358043,2,0,L|57:270,1,52.5000020027161,4|0,1:2|0:0,0:0:0:0:
11,216,358260,5,4,1:3:0:0:
0,141,358369,1,2,1:0:0:0:
42,80,358478,1,2,0:2:0:0:
114,67,358587,1,2,1:0:0:0:
165,119,358695,6,0,L|153:187,1,52.5000020027161,8|2,1:0|0:1,0:0:0:0:
223,202,358913,2,0,L|232:267,2,52.5000020027161,2|2|4,1:2|1:0|1:3,0:0:0:0:
233,128,359239,5,2,1:0:0:0:
261,84,359347,1,2,1:2:0:0:
312,74,359456,1,2,1:0:0:0:
360,94,359565,2,0,L|349:167,1,52.5000020027161,8|0,1:0|0:0,0:0:0:0:
342,219,359782,2,2,L|464:202,1,105.000004005432,4|4,1:2|1:3,0:1:0:0:
371,345,360217,5,2,1:0:0:0:
312,300,360326,2,0,L|251:309,1,52.5000020027161,2|8,1:0|0:1,0:0:0:0:
205,356,360543,2,0,L|144:352,1,52.5000020027161,2|0,1:0|0:0,0:0:0:0:
98,302,360760,2,0,L|39:312,1,52.5000020027161,2|0,1:0|0:0,0:0:0:0:
11,244,360978,1,2,1:0:0:0:
18,191,361087,1,2,1:2:0:0:
76,147,361195,5,2,1:0:0:0:
116,208,361304,1,8,1:0:0:0:
187,225,361413,1,2,1:0:0:0:
249,186,361521,2,2,B|268:159|268:159|249:70,1,105.000004005432,4|4,1:2|0:3,0:1:0:0:
319,228,361956,5,2,1:0:0:0:
380,187,362065,2,0,L|466:196,1,52.5000020027161,2|8,1:0|0:1,0:0:0:0:
455,260,362282,2,0,L|541:269,1,52.5000020027161,2|0,1:0|0:0,0:0:0:0:
386,304,362500,2,0,L|269:314,1,105.000004005432,2|2,1:0|1:0,0:0:0:0:
189,323,362826,1,2,1:2:0:0:
189,323,362934,1,2,1:0:0:0:
189,323,363043,2,0,L|197:249,1,52.5000020027161,8|0,1:0|0:0,0:0:0:0:
44,318,363260,2,2,L|59:387,1,52.5000020027161,4|0,1:2|0:0,0:1:0:0:
84,233,363478,5,4,1:3:0:0:
84,233,363695,1,2,1:0:0:0:
126,172,363804,2,0,L|139:113,1,52.5000020027161,2|8,1:0|0:1,0:0:0:0:
86,75,364021,2,0,L|99:16,1,52.5000020027161,2|0,1:0|0:0,0:0:0:0:
5,130,364239,1,2,1:0:0:0:
5,130,364347,2,0,L|123:153,1,105.000004005432,4|2,1:3|1:2,0:0:0:0:
177,127,364674,1,2,1:0:0:0:
244,183,364782,2,0,L|153:201,1,52.5000020027161,8|0,1:0|0:0,0:0:0:0:
140,256,365000,2,2,L|234:267,1,52.5000020027161,4|0,1:2|0:0,0:1:0:0:
251,303,365217,5,4,1:3:0:0:
251,303,365434,1,2,1:0:0:0:
308,348,365543,2,0,L|248:374,1,52.5000020027161,2|8,1:0|0:1,0:0:0:0:
328,249,365760,1,2,1:0:0:0:
370,309,365869,1,2,1:2:0:0:
443,300,365978,1,2,1:0:0:0:
454,227,366087,5,2,1:0:0:0:
436,216,366195,1,2,1:0:0:0:
417,206,366304,1,2,1:2:0:0:
398,196,366413,1,2,1:0:0:0:
387,268,366521,6,0,L|422:152,1,105.000004005432,8|2,1:0|1:0,0:0:0:0:
134,42,366956,5,4,1:3:0:0:
156,111,367064,1,2,1:0:0:0:
226,132,367173,1,2,1:2:0:0:
287,91,367282,1,2,1:2:0:0:
280,17,367391,5,10,1:0:0:0:
259,21,367500,1,2,1:2:0:0:
238,25,367608,1,2,1:2:0:0:
217,28,367717,1,2,1:0:0:0:
147,53,367826,5,4,1:3:0:0:
75,66,367934,1,2,1:0:0:0:
56,137,368043,1,2,1:2:0:0:
102,194,368152,1,2,1:0:0:0:
168,225,368260,1,10,1:0:0:0:
207,287,368369,1,2,1:0:0:0:
170,350,368478,1,2,1:2:0:0:
97,361,368587,1,2,1:0:0:0:
120,284,368695,5,4,1:0:0:0:
129,287,368804,1,0,1:0:0:0:
134,296,368913,1,2,1:2:0:0:
127,304,369021,1,2,1:2:0:0:
119,302,369130,6,0,L|150:200,1,105.000004005432,10|2,1:0|1:2,0:0:0:0:
91,162,369456,1,2,1:0:0:0:
26,198,369565,1,4,1:3:0:0:
36,270,369674,2,0,B|75:237|75:237|138:237,1,105.000004005432,2|2,1:0|1:0,0:0:0:0:
194,270,370000,2,0,L|280:279,1,52.5000020027161,8|0,1:0|0:0,0:0:0:0:
300,346,370217,2,2,L|214:337,1,52.5000020027161,4|0,1:2|0:0,0:1:0:0:
336,252,370434,5,4,1:3:0:0:
408,237,370543,1,2,1:0:0:0:
463,285,370652,1,2,1:2:0:0:
448,356,370760,1,2,1:0:0:0:
389,310,370869,5,8,1:0:0:0:
377,237,370978,2,0,L|401:176,1,52.5000020027161,2|2,1:0|0:0,0:0:0:0:
313,273,371195,1,2,1:0:0:0:
301,200,371304,2,0,L|325:139,1,52.5000020027161,4|2,1:3|0:1,0:0:0:0:
334,74,371521,2,2,L|218:107,1,105.000004005432,2|8,1:2|0:1,0:1:0:0:
178,50,371847,1,2,1:0:0:0:
178,50,371956,2,2,L|255:26,1,52.5000020027161,4|0,1:2|0:0,0:1:0:0:
10,279,372282,5,2,1:0:0:0:
63,227,372391,1,2,1:2:0:0:
135,241,372500,1,2,1:0:0:0:
154,311,372608,1,8,1:0:0:0:
106,367,372717,2,0,L|37:356,1,52.5000020027161,2|0,1:0|0:0,0:0:0:0:
152,232,372934,5,2,1:0:0:0:
177,300,373043,1,4,1:3:0:0:
249,313,373152,2,0,L|347:299,1,52.5000020027161,2|2,1:0|0:0,0:0:0:0:
174,160,373369,5,2,1:0:0:0:
137,224,373478,2,0,L|65:211,1,52.5000020027161,8|0,1:0|0:0,0:0:0:0:
225,109,373695,2,2,L|297:121,1,52.5000020027161,4|0,1:2|0:0,0:1:0:0:
162,38,373913,5,4,1:3:0:0:
162,38,374130,1,2,1:0:0:0:
89,48,374239,1,2,1:0:0:0:
62,115,374347,1,8,1:0:0:0:
106,172,374456,2,0,L|178:164,1,52.5000020027161,2|2,1:0|0:0,0:0:0:0:
251,220,374674,2,0,L|179:228,1,52.5000020027161,2|0,1:0|0:0,0:0:0:0:
143,274,374891,5,2,1:0:0:0:
182,336,375000,1,2,1:2:0:0:
253,352,375108,1,2,1:0:0:0:
301,296,375217,1,8,1:2:0:0:
374,290,375326,1,2,1:0:0:0:
433,331,375434,2,0,L|423:372,2,26.2500010013581,2|0|0,1:0|0:0|0:0,0:0:0:0:
433,331,375869,5,2,1:0:0:0:
489,283,375978,2,0,L|479:226,1,52.5000020027161,2|8,1:0|0:1,0:0:0:0:
417,191,376195,2,0,L|424:125,1,52.5000020027161,2|2,1:0|0:0,0:0:0:0:
479,91,376413,2,0,B|467:68|467:68|371:50,1,105.000004005432,2|2,1:0|1:0,0:0:0:0:
270,36,376847,1,2,1:0:0:0:
270,36,376956,1,8,1:0:0:0:
314,145,377174,5,2,1:0:0:0:
262,151,377282,1,0,1:0:0:0:
210,160,377391,2,0,L|222:233,1,52.5000020027161,4|0,1:3|0:0,0:0:0:0:
238,324,377608,5,2,1:0:0:0:
175,352,377717,1,2,1:0:0:0:
108,334,377826,2,0,L|119:265,1,52.5000020027161,8|2,1:0|0:1,0:0:0:0:
53,243,378043,2,0,L|47:185,1,52.5000020027161,2|2,1:2|0:1,0:0:0:0:
7,128,378260,2,0,L|17:66,1,52.5000020027161,4|2,1:3|0:1,0:0:0:0:
142,36,378478,5,2,1:2:0:0:
142,36,378587,1,2,1:0:0:0:
142,36,378695,1,8,1:0:0:0:
109,264,378913,2,2,L|125:144,1,105.000004005432,4|4,1:2|0:3,0:1:0:0:
59,303,379347,5,2,1:0:0:0:
109,264,379456,1,2,1:0:0:0:
172,265,379565,1,8,1:0:0:0:
218,307,379674,1,2,1:0:0:0:
276,329,379782,1,2,1:2:0:0:
338,319,379891,1,2,1:0:0:0:
375,268,380000,5,4,1:3:0:0:
361,228,380108,1,2,1:0:0:0:
376,188,380217,1,2,1:2:0:0:
413,169,380326,1,2,1:0:0:0:
453,180,380434,2,0,B|479:198|479:198|467:278,1,105.000004005432,8|2,1:0|1:0,0:0:0:0:
337,322,380869,5,4,1:2:0:0:
272,286,380978,1,2,1:0:0:0:
265,212,381087,1,2,1:2:0:0:
322,167,381195,1,0,1:0:0:0:
394,179,381304,5,10,1:0:0:0:
408,163,381413,1,2,1:2:0:0:
414,143,381521,1,2,1:2:0:0:
404,124,381630,1,2,1:0:0:0:
388,110,381739,5,4,1:3:0:0:
359,37,381847,1,2,1:0:0:0:
430,4,381956,1,2,1:2:0:0:
495,47,382065,1,0,1:0:0:0:
486,125,382174,1,10,1:0:0:0:
418,165,382282,1,2,1:0:0:0:
341,145,382391,1,8,1:0:0:0:
262,141,382500,1,8,1:0:0:0:
203,193,382608,5,4,0:0:0:0:
200,310,382826,1,0,0:0:0:0:
200,310,382934,1,0,0:0:0:0:
265,261,383152,1,0,0:0:0:0:
310,327,383369,1,0,0:0:0:0:
247,375,383587,1,0,3:0:0:0:
80,284,383804,2,0,L|79:273,8,6.56250025033952,0|0|0|0|0|0|0|0|0,3:0|3:0|3:0|3:0|3:0|3:0|3:0|3:0|3:0,3:0:0:0:
13,314,384130,2,0,L|22:369,1,52.5000020027161,0|0,1:0|0:0,0:0:0:0:
129,178,384565,5,2,0:0:0:0:
129,178,384674,1,0,3:0:0:0:
193,217,384891,1,0,0:0:0:0:
246,171,385108,1,0,0:0:0:0:
204,97,385326,2,0,L|257:85,1,52.5000020027161,2|0,0:0|0:0,0:0:0:0:
336,148,385760,1,2,0:0:0:0:
328,147,385869,2,0,L|338:149,8,6.56250025033952,0|0|0|0|0|0|0|0|0,3:0|3:0|3:0|3:0|3:0|3:0|0:0|3:0|1:0,3:0:0:0:
327,337,386304,5,2,0:0:0:0:
327,337,386413,1,0,1:0:0:0:
380,279,386630,1,0,3:0:0:0:
456,296,386847,1,2,0:0:0:0:
504,233,387065,1,0,3:0:0:0:
477,159,387282,2,0,L|395:169,1,78.7500030040742,0|2,1:0|0:0,0:0:0:0:
196,190,388043,5,0,1:0:0:0:
178,154,388152,1,0,3:0:0:0:
186,115,388260,1,0,3:0:0:0:
220,94,388369,1,2,3:0:0:0:
298,102,388587,1,0,3:0:0:0:
335,171,388804,1,2,0:0:0:0:
277,224,389021,2,0,B|298:231|298:231|317:258|317:258|345:266,1,78.7500030040742,0|2,3:0|0:0,0:0:0:0:
407,280,389565,5,0,1:0:0:0:
474,237,389782,1,2,0:0:0:0:
474,237,389891,1,2,0:0:0:0:
452,161,390108,1,0,1:0:0:0:
376,137,390326,1,2,0:0:0:0:
317,189,390543,1,0,3:0:0:0:
246,162,390760,1,0,3:0:0:0:
246,162,390869,2,0,L|254:87,1,52.5000020027161,0|2,1:0|0:0,0:0:0:0:
155,159,391304,6,0,L|165:222,1,52.5000020027161,0|0,1:0|0:0,0:0:0:0:
152,229,391630,2,0,L|92:225,1,52.5000020027161,0|2,3:0|0:0,0:0:0:0:
44,286,392065,2,0,L|121:295,1,52.5000020027161,0|2,1:0|3:0,0:0:0:0:
163,311,392500,1,2,0:0:0:0:
163,311,392608,2,0,L|170:370,1,52.5000020027161,0|0,1:0|0:0,0:0:0:0:
237,246,393043,5,0,1:0:0:0:
309,263,393260,1,0,3:0:0:0:
309,263,393369,1,2,0:0:0:0:
295,185,393587,1,2,3:0:0:0:
386,262,393804,2,0,L|381:282,6,13.125000500679,2|0|0|0|0|0|0,1:2|3:0|3:0|3:0|3:0|3:0|3:0,3:0:0:0:
431,208,394239,1,0,1:0:0:0:
431,208,394347,2,0,L|426:197,4,6.56250025033952,2|0|0|0|0,3:0|3:0|3:0|3:0|3:0,3:0:0:0:
488,247,394565,2,0,L|486:257,4,6.56250025033952,2|0|0|0|0,3:2|3:0|3:0|3:0|3:0,3:0:0:0:
428,297,394782,6,0,B|386:306|386:306|341:291,1,78.7500030040742,4|0,1:2|0:0,0:0:0:0:
330,282,395217,2,0,L|308:364,1,78.7500030040742,0|0,1:0|0:0,0:0:0:0:
289,351,395652,2,0,B|255:339|255:339|213:348,1,78.7500030040742,0|0,1:0|0:0,0:0:0:0:
192,353,396087,1,2,3:2:0:0:
171,356,396195,1,0,3:0:0:0:
150,360,396304,1,2,3:2:0:0:
129,364,396413,1,0,3:0:0:0:
108,368,396521,6,0,L|97:287,2,78.7500030040742,4|0|2,1:2|3:0|0:0,0:0:0:0:
10,283,397391,2,0,L|23:182,1,78.7500030040742,0|0,1:0|0:0,0:0:0:0:
11,185,397826,2,0,L|81:198,1,52.5000020027161,2|0,0:0|3:0,0:0:0:0:
142,191,398260,6,0,L|123:131,1,52.5000020027161,2|0,1:2|3:0,0:0:0:0:
85,78,398695,2,0,L|57:134,1,52.5000020027161,2|0,0:0|3:0,0:0:0:0:
11,185,399130,2,0,L|131:204,1,105.000004005432,0|2,1:0|0:0,0:0:0:0:
114,201,399782,1,2,3:0:0:0:
174,140,400000,6,0,P|208:181|277:192,1,105.000004005432,4|0,1:2|0:0,0:0:0:0:
305,135,400652,2,0,P|271:94|202:83,1,105.000004005432,2|0,1:2|3:0,0:0:0:0:
151,73,401304,1,2,1:2:0:0:
197,18,401521,1,2,3:0:0:0:
141,66,401739,1,0,1:0:0:0:
70,59,401956,2,0,L|5:47,1,52.5000020027161,2|0,1:2|0:0,0:0:0:0:
297,166,402608,6,0,L|357:153,1,52.5000020027161,2|0,1:2|3:0,0:0:0:0:
411,191,403043,2,0,L|477:179,1,52.5000020027161,2|0,1:2|3:0,0:0:0:0:
503,242,403478,6,0,L|476:358,1,105.000004005432,4|2,1:2|0:0,0:0:0:0:
408,358,404130,1,2,0:0:0:0:
408,358,404347,2,0,L|397:291,1,52.5000020027161,2|2,3:0|0:0,0:0:0:0:
339,264,404782,2,0,L|328:320,1,52.5000020027161,2|2,3:0|0:0,0:0:0:0:
274,358,405217,6,0,P|232:355|213:281,1,105.000004005432,4|0,1:2|3:0,0:0:0:0:
184,238,405869,2,0,L|123:252,2,52.5000020027161,2|2|0,1:2|3:0|3:0,0:0:0:0:
244,203,406521,1,2,1:2:0:0:
226,135,406739,1,2,3:0:0:0:
159,115,406956,6,0,P|113:137|67:58,2,157.500006008148,4|2|0,1:2|0:0|1:0,0:0:0:0:
296,266,408695,6,0,P|342:288|388:209,2,157.500006008148,4|2|0,1:2|0:0|1:0,0:0:0:0:
296,266,410217,1,2,0:0:0:0:
256,192,410326,12,0,416413,0:0:0:0:
