osu file format v14

[General]
AudioFilename: audio.mp3
AudioLeadIn: 0
PreviewTime: 60957
Countdown: 0
SampleSet: Soft
StackLeniency: 0.7
Mode: 2
LetterboxInBreaks: 0
WidescreenStoryboard: 0

[Editor]
Bookmarks: 16642,91411,105257,114488,121873,195719,203103,225257
DistanceSpacing: 1.4
BeatDivisor: 12
GridSize: 4
TimelineZoom: 4.799996

[Metadata]
Title:Never Mind
TitleUnicode:Never Mind
Artist:Infected Mushroom
ArtistUnicode:Infected Mushroom
Creator:WildOne94
Version:Forget About It!
Source:
Tags:JBHyperion JBH monstercat nevermind electronic instrumental dubstep army of mushrooms dim mak records
BeatmapID:2167648
BeatmapSetID:1036774

[Difficulty]
HPDrainRate:6
CircleSize:3.7
OverallDifficulty:9.3
ApproachRate:9.3
SliderMultiplier:2.3
SliderTickRate:1

[Events]
//Background and Video events
0,0,"Weird.jpg",0,0
//Break Periods
2,92565,104565
2,195950,202411
2,321488,325180
//Storyboard Layer 0 (Background)
//Storyboard Layer 1 (Fail)
//Storyboard Layer 2 (Pass)
//Storyboard Layer 3 (Foreground)
//Storyboard Layer 4 (Overlay)
//Storyboard Sound Samples

[TimingPoints]
34,461.538461538462,4,2,0,5,1,0
264,-100,4,2,0,8,0,0
495,-100,4,2,0,11,0,0
726,-100,4,2,0,14,0,0
957,-100,4,2,0,17,0,0
1187,-100,4,2,0,20,0,0
1418,-100,4,2,0,23,0,0
1649,-100,4,2,0,5,0,0
1880,-100,4,2,1,60,0,0
2572,-83.3333333333333,4,2,1,60,0,0
2803,-100,4,2,1,60,0,0
3264,-83.3333333333333,4,2,1,60,0,0
3726,-83.3333333333333,4,2,1,60,0,0
4187,-100,4,2,1,60,0,0
4649,-90.9090909090909,4,2,1,60,0,0
5110,-83.3333333333333,4,2,1,60,0,0
5572,-90.9090909090909,4,2,1,60,0,0
6264,-83.3333333333333,4,2,1,60,0,0
6495,-100,4,2,1,60,0,0
6957,-83.3333333333333,4,2,1,60,0,0
7418,-76.9230769230769,4,2,1,60,0,0
7880,-100,4,2,1,60,0,0
9264,-83.3333333333333,4,2,1,65,0,0
9957,-76.9230769230769,4,2,1,65,0,0
10187,-100,4,2,1,65,0,0
10649,-90.9090909090909,4,2,1,65,0,0
11110,-76.9230769230769,4,2,1,70,0,0
11572,-100,4,2,1,70,0,0
12495,-90.9090909090909,4,2,1,70,0,0
12957,-83.3333333333333,4,2,1,75,0,0
13649,-76.9230769230769,4,2,1,75,0,0
13880,-100,4,2,1,75,0,0
14803,-83.3333333333333,4,2,1,80,0,0
15264,-100,4,2,1,80,0,0
15726,-83.3333333333333,4,2,1,80,0,0
16187,-100,4,2,1,80,0,0
16649,-100,4,2,1,60,0,0
17341,-71.4285714285714,4,2,1,60,0,0
17495,-100,4,2,1,60,0,0
19187,-71.4285714285714,4,2,1,60,0,0
19341,-100,4,2,1,60,0,0
20110,-83.3333333333333,4,2,1,60,0,0
20264,-100,4,2,1,60,0,0
21034,-71.4285714285714,4,2,1,60,0,0
21187,-100,4,2,1,60,0,0
22880,-71.4285714285714,4,2,1,60,0,0
23034,-100,4,2,1,60,0,0
23110,-40,4,3,1,80,0,0
23264,-40,4,3,1,60,0,0
23341,-76.9230769230769,4,3,1,60,0,0
23495,-100,4,2,1,60,0,0
23803,-71.4285714285714,4,3,1,60,0,0
23957,-100,4,2,1,60,0,0
24726,-71.4285714285714,4,2,1,60,0,0
24880,-100,4,2,1,60,0,0
26803,-83.3333333333333,4,3,1,80,0,0
27034,-100,4,2,1,60,0,0
27495,-71.4285714285714,4,2,1,60,0,0
27649,-100,4,2,1,60,0,0
28418,-71.4285714285714,4,2,1,60,0,0
28572,-100,4,2,1,60,0,0
30495,-83.3333333333333,4,3,1,80,0,0
30880,-100,4,2,1,60,0,0
31418,-100,4,2,1,70,0,1
31649,-100,4,3,1,70,0,1
31726,-100,4,2,1,70,0,1
32110,-71.4285714285714,4,2,1,70,0,1
32264,-100,4,2,1,70,0,1
32572,-100,4,3,1,70,0,1
32649,-100,4,2,1,70,0,1
33034,-100,4,3,1,70,0,1
33111,-100,4,2,1,70,0,1
33495,-100,4,3,1,70,0,1
33572,-100,4,2,1,70,0,1
33957,-71.4285714285714,4,2,1,70,0,1
34110,-100,4,2,1,70,0,1
34418,-100,4,3,1,70,0,1
34495,-100,4,2,1,70,0,1
34880,-83.3333333333333,4,2,1,70,0,1
35034,-100,4,2,1,70,0,1
35341,-100,4,3,1,70,0,1
35418,-100,4,2,1,70,0,1
35803,-71.4285714285714,4,2,1,70,0,1
35957,-100,4,2,1,70,0,1
36264,-100,4,3,1,70,0,1
36341,-100,4,2,1,70,0,1
36649,-100,4,3,1,70,0,1
36726,-100,4,2,1,70,0,1
37187,-100,4,3,1,70,0,1
37264,-100,4,2,1,70,0,1
37649,-71.4285714285714,4,2,1,70,0,1
37803,-100,4,2,1,70,0,1
37880,-100,4,3,1,90,0,1
38034,-100,4,2,1,70,0,1
38110,-100,4,3,1,70,0,1
38341,-100,4,2,1,70,0,1
38572,-100,4,3,1,70,0,1
38803,-100,4,2,1,70,0,1
39034,-100,4,3,1,70,0,1
39111,-100,4,2,1,70,0,1
39495,-71.4285714285714,4,2,1,70,0,1
39649,-100,4,2,1,70,0,1
39957,-100,4,3,1,70,0,1
40034,-100,4,2,1,70,0,1
40418,-100,4,3,1,70,0,1
40495,-100,4,2,1,70,0,1
40880,-100,4,3,1,70,0,1
40957,-100,4,2,1,70,0,1
41341,-71.4285714285714,4,2,1,70,0,1
41572,-71.4285714285714,4,3,1,90,0,1
41803,-100,4,2,1,70,0,1
42187,-100,4,3,1,70,0,1
42264,-100,4,2,1,70,0,1
42726,-100,4,3,1,70,0,1
42803,-100,4,2,1,70,0,1
43649,-100,4,3,1,70,0,1
43726,-100,4,2,1,70,0,1
44110,-100,4,3,1,70,0,1
44187,-100,4,2,1,70,0,1
44341,-71.4285714285714,4,3,1,90,0,1
44572,-100,4,2,1,70,0,1
45034,-100,4,3,1,70,0,1
45111,-100,4,2,1,70,0,1
45495,-100,4,3,1,70,0,1
45572,-100,4,2,1,70,0,1
46187,-71.4285714285714,4,2,1,60,0,0
46649,-100,4,2,1,60,0,0
46880,-100,4,3,1,60,0,0
47110,-100,4,2,1,60,0,0
47341,-90.9090909090909,4,2,1,60,0,0
47572,-76.9230769230769,4,2,1,60,0,0
47803,-66.6666666666667,4,3,1,60,0,0
48034,-83.3333333333333,4,2,1,60,0,0
48495,-100,4,2,1,60,0,0
48957,-90.9090909090909,4,3,1,60,0,0
49187,-80,4,3,1,60,0,0
49418,-66.6666666666667,4,2,1,60,0,0
49649,-62.5,4,2,1,60,0,0
49880,-83.3333333333333,4,2,1,60,0,0
50649,-66.6666666666667,4,3,1,60,0,0
50803,-100,4,2,1,60,0,0
51264,-90.9090909090909,4,2,1,60,0,0
51495,-76.9230769230769,4,2,1,60,0,0
51726,-100,4,2,1,60,0,0
52110,-100,4,3,1,60,0,0
52187,-100,4,2,1,60,0,0
52341,-100,4,3,1,60,0,0
52418,-100,4,2,1,60,0,0
52649,-100,4,3,1,60,0,0
52726,-100,4,2,1,60,0,0
53572,-76.9230769230769,4,3,1,65,0,0
53726,-100,4,2,1,65,0,0
54495,-90.9090909090909,4,2,1,65,0,0
54726,-80,4,2,1,65,0,0
54957,-74.0740740740741,4,2,1,65,0,0
55187,-66.6666666666667,4,2,1,65,0,0
55418,-76.9230769230769,4,2,1,70,0,0
55803,-100,4,2,1,70,0,0
55880,-83.3333333333333,4,2,1,70,0,0
56110,-71.4285714285714,4,2,1,70,0,0
56341,-66.6666666666667,4,2,1,70,0,0
56572,-62.5,4,2,1,70,0,0
57264,-71.4285714285714,4,2,1,75,0,0
57649,-100,4,2,1,75,0,0
57726,-76.9230769230769,4,2,1,75,0,0
57957,-71.4285714285714,4,2,1,75,0,0
58187,-64.5161290322581,4,2,1,75,0,0
58418,-58.8235294117647,4,2,1,75,0,0
58649,-66.6666666666667,4,2,1,75,0,0
59110,-83.3333333333333,4,3,1,80,0,0
60726,-100,4,3,1,40,0,0
60957,-66.6666666666667,4,3,1,70,0,1
61341,-100,4,2,1,70,0,1
61649,-90.9090909090909,4,2,1,70,0,1
62341,-83.3333333333333,4,2,1,70,0,1
62803,-71.4285714285714,4,2,1,70,0,1
63264,-100,4,2,1,70,0,1
63880,-90.9090909090909,4,2,1,70,0,1
64187,-76.9230769230769,4,2,1,70,0,1
64649,-66.6666666666667,4,3,1,70,0,1
64880,-66.6666666666667,4,2,1,70,0,1
65341,-100,4,2,1,70,0,1
66034,-83.3333333333333,4,2,1,70,0,1
66495,-90.9090909090909,4,2,1,70,0,1
66880,-71.4285714285714,4,2,1,70,0,1
66957,-100,4,2,1,70,0,1
68341,-71.4285714285714,4,2,1,70,0,1
70187,-83.3333333333333,4,2,1,70,0,1
70418,-100,4,2,1,70,0,1
71572,-83.3333333333333,4,2,1,70,0,1
72034,-66.6666666666667,4,2,1,70,0,1
72418,-100,4,2,1,70,0,1
73418,-66.6666666666667,4,2,1,70,0,1
73880,-90.9090909090909,4,2,1,70,0,1
74110,-100,4,2,1,70,0,1
75034,-90.9090909090909,4,2,1,70,0,1
75264,-66.6666666666667,4,3,2,70,0,0
75726,-66.6666666666667,4,3,1,70,0,1
76110,-100,4,2,1,70,0,1
77110,-71.4285714285714,4,2,1,70,0,1
77803,-100,4,2,1,70,0,1
78495,-90.9090909090909,4,2,1,70,0,1
78957,-83.3333333333333,4,2,1,70,0,1
79418,-66.6666666666667,4,2,1,70,0,1
80803,-83.3333333333333,4,2,1,70,0,1
81264,-90.9090909090909,4,2,1,70,0,1
81649,-71.4285714285714,4,2,1,70,0,1
81726,-100,4,2,1,70,0,1
83110,-71.4285714285714,4,2,1,70,0,1
83495,-100,4,2,1,70,0,1
86341,-83.3333333333333,4,2,1,70,0,1
86803,-62.5,4,2,1,70,0,1
87187,-100,4,2,1,70,0,1
88187,-66.6666666666667,4,2,1,70,0,1
88649,-100,4,2,1,60,0,0
90034,-100,4,3,2,60,0,0
90495,-100,4,2,0,34,0,0
90726,-100,4,2,0,31,0,0
90957,-100,4,2,0,28,0,0
91187,-100,4,2,0,25,0,0
91418,-100,4,2,0,22,0,0
91649,-100,4,2,0,19,0,0
91880,-100,4,2,0,16,0,0
92110,-100,4,2,0,13,0,0
92341,-100,4,2,0,10,0,0
105264,-100,4,2,0,15,0,0
105726,-100,4,2,0,20,0,0
106187,-100,4,2,0,25,0,0
106649,-100,4,2,0,30,0,0
106880,-100,4,2,0,5,0,0
107110,-100,4,2,1,10,0,0
108957,-100,4,2,1,13,0,0
110803,-100,4,2,1,16,0,0
112649,-100,4,2,1,19,0,0
114495,-100,4,2,1,22,0,0
115418,-100,4,2,1,25,0,0
116341,-83.3333333333333,4,2,1,28,0,0
116495,-100,4,2,1,28,0,0
117264,-100,4,2,1,31,0,0
118187,-100,4,2,1,34,0,0
118649,-100,4,2,1,37,0,0
119110,-100,4,2,1,40,0,0
119572,-100,4,2,1,43,0,0
120034,-76.9230769230769,4,2,1,43,0,0
120418,-100,4,2,1,43,0,0
120495,-100,4,2,1,46,0,0
120957,-100,4,2,1,49,0,0
121418,-100,4,2,1,52,0,0
121880,-66.6666666666667,4,2,1,55,0,0
122341,-100,4,2,1,55,0,0
122572,-76.9230769230769,4,2,1,55,0,0
122726,-100,4,2,1,55,0,0
123264,-66.6666666666667,4,2,1,55,0,0
123726,-76.9230769230769,4,2,1,60,0,0
123957,-100,4,2,1,60,0,0
124649,-74.0740740740741,4,2,1,60,0,0
124880,-100,4,2,1,60,0,0
125572,-66.6666666666667,4,2,1,65,0,0
126264,-74.0740740740741,4,2,1,65,0,0
126495,-100,4,2,1,65,0,0
126957,-66.6666666666667,4,2,1,65,0,0
127418,-76.9230769230769,4,2,1,70,0,0
127649,-100,4,2,1,70,0,0
127880,-71.4285714285714,4,2,1,70,0,0
128341,-74.0740740740741,4,2,1,70,0,0
128726,-100,4,2,1,70,0,0
129264,-100,4,2,1,40,0,0
129957,-100,4,2,1,44,0,0
130649,-100,4,2,1,48,0,0
131110,-100,4,2,1,52,0,0
132034,-100,4,2,1,56,0,0
132957,-100,4,2,1,60,0,0
133880,-100,4,2,1,64,0,0
134803,-100,4,2,1,68,0,0
135726,-100,4,2,1,72,0,0
136187,-100,4,3,1,76,0,0
136649,-100,4,3,1,80,0,1
136803,-100,4,2,1,60,0,1
139418,-62.5,4,2,1,60,0,1
139880,-100,4,2,1,60,0,1
140341,-100,4,3,1,80,0,1
140495,-100,4,2,1,60,0,1
143110,-100,4,2,1,60,0,0
143341,-100,4,2,2,40,0,0
144034,-100,4,3,1,80,0,1
144187,-100,4,2,1,60,0,1
146803,-66.6666666666667,4,2,77,80,0,0
147726,-100,4,3,1,80,0,1
147880,-100,4,2,1,60,0,1
151418,-100,4,3,1,80,0,1
151572,-100,4,2,1,60,0,1
153264,-52.6315789473684,4,3,1,80,0,1
153726,-100,4,2,1,60,0,1
155110,-100,4,3,1,80,0,1
155264,-100,4,2,1,60,0,1
156957,-66.6666666666667,4,3,1,80,0,1
157418,-100,4,2,1,60,0,1
157880,-62.5,4,2,1,60,0,1
158187,-100,4,2,1,60,0,1
161264,-100,4,2,2,60,0,1
161572,-71.4285714285714,4,2,77,60,0,0
162034,-66.6666666666667,4,2,1,65,0,0
162495,-100,4,3,1,90,0,1
162649,-100,4,2,1,70,0,1
163572,-100,4,2,2,70,0,1
163803,-100,4,2,1,70,0,1
163880,-100,4,2,77,70,0,1
164110,-100,4,2,1,70,0,1
164341,-76.9230769230769,4,2,1,70,0,1
164803,-100,4,2,1,70,0,1
164957,-100,4,2,2,70,0,1
165187,-100,4,2,1,70,0,1
165495,-76.9230769230769,4,2,1,70,0,1
165726,-100,4,2,1,70,0,1
166187,-100,4,3,1,90,0,1
166341,-100,4,2,1,70,0,1
167264,-100,4,2,2,70,0,1
167495,-100,4,2,1,70,0,1
167726,-100,4,2,2,70,0,1
168034,-71.4285714285714,4,2,1,70,0,1
168418,-100,4,2,1,70,0,1
168649,-100,4,2,2,70,0,1
168880,-100,4,2,1,70,0,1
169880,-83.3333333333333,4,2,1,70,0,1
170264,-100,4,2,1,70,0,1
170957,-100,4,2,2,70,0,1
171187,-100,4,2,1,70,0,1
171418,-100,4,2,2,70,0,1
171726,-83.3333333333333,4,2,1,70,0,1
171957,-100,4,2,1,70,0,1
172341,-100,4,2,2,70,0,1
172649,-90.9090909090909,4,2,1,70,0,1
173110,-83.3333333333333,4,2,1,70,0,1
173572,-58.8235294117647,4,2,1,70,0,1
173957,-100,4,2,1,70,0,1
174649,-100,4,2,2,70,0,1
174880,-100,4,2,1,70,0,1
175418,-83.3333333333333,4,2,1,70,0,1
175649,-100,4,2,2,70,0,1
175880,-100,4,2,1,70,0,1
176341,-90.9090909090909,4,2,1,70,0,1
176803,-83.3333333333333,4,2,1,70,0,1
177264,-71.4285714285714,4,2,1,70,0,1
177649,-100,4,2,1,70,0,1
177957,-90.9090909090909,4,2,1,70,0,1
178187,-100,4,2,1,70,0,1
178418,-90.9090909090909,4,2,1,70,0,1
178649,-83.3333333333333,4,2,1,70,0,1
179110,-100,4,2,77,70,0,0
180957,-100,4,3,1,80,0,0
181187,-100,4,2,1,60,0,0
184649,-83.3333333333333,4,2,1,60,0,0
184880,-100,4,2,1,60,0,0
189726,-90.9090909090909,4,2,1,60,0,0
190418,-100,4,2,1,60,0,0
192034,-83.3333333333333,4,2,1,60,0,0
192495,-90.9090909090909,4,2,1,60,0,0
192957,-100,4,2,1,60,0,0
193880,-100,4,2,77,60,0,0
195264,-100,4,2,1,40,0,0
195726,-100,4,3,1,70,0,0
203110,-100,4,2,1,60,0,0
203187,-100,4,2,2,20,0,0
205880,-100,4,2,2,30,0,0
206341,-100,4,2,2,40,0,0
206803,-100,4,2,1,30,0,0
206880,-100,4,2,2,30,0,0
208187,-83.3333333333333,4,2,2,30,0,0
208418,-100,4,2,2,30,0,0
210034,-100,4,2,2,35,0,0
210264,-76.9230769230769,4,2,2,40,0,0
210418,-100,4,2,2,20,0,0
210495,-100,4,2,1,60,0,0
210572,-100,4,2,2,30,0,0
211418,-100,4,2,1,60,0,0
211495,-100,4,2,2,30,0,0
212341,-100,4,2,1,60,0,0
212418,-100,4,2,2,30,0,0
213264,-100,4,2,1,60,0,0
213341,-100,4,2,2,30,0,0
214187,-100,4,2,1,60,0,0
214264,-100,4,2,2,30,0,0
215110,-100,4,2,1,60,0,0
215187,-100,4,2,2,30,0,0
216034,-100,4,2,1,60,0,0
216111,-100,4,2,2,30,0,0
216957,-100,4,2,1,60,0,0
217034,-100,4,2,2,30,0,0
217880,-100,4,2,1,65,0,0
217957,-100,4,2,2,35,0,0
218803,-100,4,2,1,65,0,0
218880,-100,4,2,2,35,0,0
219726,-100,4,2,1,65,0,0
219803,-100,4,2,2,35,0,0
220649,-100,4,2,1,65,0,0
220726,-100,4,2,2,35,0,0
221572,-100,4,2,1,65,0,0
221649,-100,4,2,2,35,0,0
222495,-100,4,2,1,65,0,0
222572,-100,4,2,2,35,0,0
223418,-100,4,2,1,65,0,0
223495,-100,4,2,2,35,0,0
224341,-100,4,2,1,65,0,0
224418,-100,4,2,2,35,0,0
225264,-100,4,2,1,60,0,0
228957,-100,4,2,1,65,0,0
230803,-100,4,2,1,70,0,0
232649,-100,4,2,1,75,0,0
234495,-100,4,2,1,80,0,0
236341,-100,4,2,1,85,0,0
238187,-100,4,2,77,90,0,0
239572,-83.3333333333333,4,3,1,80,0,0
239957,-100,4,2,1,60,0,0
240034,-100,4,3,1,90,0,1
240110,-100,4,2,1,70,0,1
241187,-83.3333333333333,4,2,1,70,0,1
241649,-100,4,2,1,70,0,1
243264,-90.9090909090909,4,2,1,70,0,1
243418,-100,4,2,1,70,0,1
243726,-66.6666666666667,4,3,1,90,0,1
243803,-66.6666666666667,4,2,1,70,0,1
244187,-76.9230769230769,4,2,1,70,0,1
244418,-100,4,2,1,70,0,1
244880,-83.3333333333333,4,2,1,70,0,1
245110,-100,4,2,1,70,0,1
247418,-100,4,3,1,90,0,1
247495,-100,4,2,1,70,0,1
248572,-83.3333333333333,4,2,1,70,0,1
249034,-100,4,2,1,70,0,1
250649,-66.6666666666667,4,2,1,70,0,1
250880,-100,4,2,1,70,0,1
251110,-100,4,3,1,90,0,1
251187,-100,4,2,1,70,0,1
254110,-100,4,2,1,70,0,0
254803,-100,4,2,1,90,0,1
254880,-100,4,2,1,70,0,1
255495,-76.9230769230769,4,2,1,70,0,1
255649,-100,4,2,1,70,0,1
256187,-83.3333333333333,4,2,1,70,0,1
256418,-100,4,2,1,70,0,1
258495,-100,4,3,1,90,0,1
258572,-100,4,2,1,70,0,1
259187,-76.9230769230769,4,2,1,70,0,1
259418,-100,4,2,1,70,0,1
260341,-55.5555555555556,4,3,1,90,0,1
260418,-55.5555555555556,4,2,1,70,0,1
260803,-100,4,2,1,70,0,1
262880,-71.4285714285714,4,2,1,70,0,1
263034,-100,4,2,1,70,0,1
263572,-90.9090909090909,4,2,1,70,0,1
263803,-100,4,2,1,70,0,1
264495,-83.3333333333333,4,2,1,70,0,1
264649,-100,4,2,1,70,0,1
265418,-76.9230769230769,4,2,1,70,0,1
265803,-100,4,2,1,70,0,1
266341,-86.9565217391304,4,2,1,70,0,1
266572,-76.9230769230769,4,2,1,70,0,1
266803,-100,4,2,1,70,0,1
267726,-83.3333333333333,4,2,1,70,0,1
268187,-100,4,2,1,70,0,1
268803,-100,4,2,2,70,0,1
269110,-100,4,2,1,70,0,1
269264,-100,4,2,2,70,0,1
269572,-100,4,3,1,80,0,0
270495,-100,4,2,1,60,0,0
271418,-100,4,2,1,65,0,0
273264,-100,4,2,1,70,0,0
275110,-100,4,2,1,75,0,0
276957,-100,4,2,1,80,0,0
280649,-100,4,2,1,70,0,0
282495,-100,4,2,1,75,0,0
282957,-83.3333333333333,4,2,1,75,0,0
283187,-100,4,2,1,75,0,0
283880,-83.3333333333333,4,2,1,75,0,0
284034,-100,4,2,1,75,0,0
284341,-83.3333333333333,4,2,1,80,0,0
288495,-83.3333333333333,4,2,1,83,0,0
288957,-83.3333333333333,4,2,1,86,0,0
289418,-83.3333333333333,4,2,1,90,0,0
289880,-83.3333333333333,4,2,1,60,0,0
290034,-83.3333333333333,4,2,2,60,0,0
290264,-83.3333333333333,4,2,1,60,0,0
290495,-83.3333333333333,4,2,2,60,0,0
290726,-83.3333333333333,4,2,1,60,0,0
291726,-83.3333333333333,4,3,1,90,0,1
291803,-83.3333333333333,4,2,1,70,0,1
293110,-55.5555555555556,4,2,1,70,0,1
293264,-83.3333333333333,4,2,1,70,0,1
294957,-66.6666666666667,4,2,77,70,0,1
295341,-83.3333333333333,4,2,1,70,0,1
296803,-66.6666666666667,4,2,1,70,0,1
296957,-83.3333333333333,4,2,1,70,0,1
298649,-66.6666666666667,4,2,1,70,0,1
299034,-83.3333333333333,4,2,1,70,0,1
302341,-83.3333333333333,4,2,77,90,0,1
302803,-83.3333333333333,4,2,1,70,0,1
304649,-100,4,3,1,90,0,0
304726,-100,4,2,1,70,0,0
306034,-76.9230769230769,4,2,77,70,0,0
306495,-100,4,3,1,90,0,1
306572,-100,4,2,1,70,0,1
309726,-66.6666666666667,4,2,77,90,0,1
310110,-100,4,2,1,70,0,1
312034,-55.5555555555556,4,3,1,90,0,1
312110,-55.5555555555556,4,2,1,70,0,1
312880,-100,4,2,1,70,0,1
313418,-83.3333333333333,4,2,1,70,0,1
313880,-100,4,2,1,70,0,1
316880,-83.3333333333333,4,2,1,70,0,1
317110,-66.6666666666667,4,2,77,90,0,1
317495,-100,4,2,1,70,0,1
319418,-66.6666666666667,4,2,1,60,0,0
320110,-100,4,2,1,60,0,0
320572,-100,4,2,2,60,0,0
320803,-76.9230769230769,4,2,1,60,0,0
321264,-100,4,3,1,80,0,0
325880,-100,4,2,2,20,0,0
326572,-100,4,2,2,25,0,0
327264,-100,4,2,2,30,0,0
327957,-100,4,2,2,35,0,0
328649,-100,4,3,1,100,0,1
328726,-100,4,2,1,80,0,1
331880,-83.3333333333333,4,2,77,80,0,1
332264,-100,4,2,1,80,0,1
335418,-100,4,2,2,80,0,1
335572,-100,4,2,1,90,0,1
336034,-100,4,2,1,80,0,1
339264,-62.5,4,2,77,80,0,1
339726,-100,4,2,1,80,0,1
343418,-100,4,2,1,70,0,0
358187,-100,4,3,1,90,0,0
358341,-100,4,2,0,50,0,0
358649,-100,4,2,0,47,0,0
359110,-100,4,2,0,44,0,0
359572,-100,4,2,0,41,0,0
360034,-100,4,2,0,38,0,0
360495,-100,4,2,0,35,0,0
360957,-100,4,2,0,32,0,0
361418,-100,4,2,0,29,0,0
361880,-100,4,2,0,26,0,0
362341,-100,4,2,0,29,0,0
362803,-100,4,2,0,32,0,0
363265,-100,4,2,0,35,0,0
363726,-100,4,2,0,30,0,0
364188,-100,4,2,0,25,0,0
364649,-100,4,2,0,20,0,0
365110,-100,4,2,0,15,0,0
365572,-100,4,2,0,10,0,0

[Colours]
Combo1 : 193,38,147
Combo2 : 255,47,151
Combo3 : 109,109,220
Combo4 : 66,0,132

[HitObjects]
256,192,34,12,0,1649,0:0:0:0:
256,192,1880,5,2,0:0:0:0:
404,192,2110,1,0,0:0:0:0:
108,192,2341,1,8,0:0:0:0:
416,204,2572,2,0,P|464:184|424:112,1,137.999995788574,4|2,0:0|0:0,0:0:0:0:
120,128,2957,1,2,0:0:0:0:
28,128,3034,1,2,0:0:0:0:
172,128,3187,1,0,0:0:0:0:
356,100,3264,2,0,P|416:104|488:168,1,137.999995788574,8|0,0:0|0:0,0:0:0:0:
56,204,3726,6,0,B|-8:152|12:48|196:44,1,275.999991577149,2|8,0:0|0:0,0:0:0:0:
328,76,4341,2,0,L|392:52,1,38.3333333333333,2|2,0:0|0:0,0:0:0:0:
456,48,4572,1,0,0:0:0:0:
256,64,4649,2,0,L|144:80,1,84.3333359069825
80,104,4880,2,0,L|168:132,1,84.3333359069825,2|0,0:0|0:0,0:0:0:0:
348,136,5110,2,0,P|400:136|488:104,1,137.999995788574,8|0,0:0|0:0,0:0:0:0:
48,256,5572,6,0,B|184:248|188:124|8:148,1,253.000007720948,2|8,0:0|0:0,0:0:0:0:
448,140,6264,2,0,P|416:180|312:184,1,137.999995788574,4|2,0:0|0:0,0:0:0:0:
84,208,6649,1,2,0:0:0:0:
128,196,6726,1,2,0:0:0:0:
256,148,6880,1,0,0:0:0:0:
472,192,6957,2,0,P|472:124|416:96,1,137.999995788574,8|0,0:0|0:0,0:0:0:0:
92,164,7418,6,0,B|-32:196|20:396|172:268,1,298.999986312867,2|8,0:0|0:0,0:0:0:0:
44,292,8034,2,0,L|44:240,1,38.3333333333333,2|2,0:0|0:0,0:0:0:0:
148,252,8264,1,0,0:0:0:0:
288,252,8341,2,0,L|372:252,1,76.6666666666667,2|0,0:0|0:0,0:0:0:0:
152,192,8572,2,0,L|16:192,2,115,2|8|2,0:0|0:0|0:0,0:0:0:0:
444,280,9264,6,0,B|532:72|368:64,1,275.999991577149,2|8,0:0|0:0,0:0:0:0:
60,128,9957,2,0,P|36:96|104:40,1,149.499993156433,4|2,0:0|0:0,0:0:0:0:
373,59,10341,2,0,L|427:86,1,38.3333333333333,2|2,0:0|0:0,0:0:0:0:
256,80,10572,1,0,0:0:0:0:
64,104,10649,2,0,P|72:160|154:182,1,126.500003860474,8|0,0:0|0:0,0:0:0:0:
477,198,11110,6,0,B|368:256|604:-20|348:64,1,298.999986312867,2|8,0:0|0:0,0:0:0:0:
192,96,11726,1,2,0:0:0:0:
236,92,11803,2,0,L|320:84,1,76.6666666666667,2|2,0:0|0:0,0:0:0:0:
96,100,12034,1,8,0:0:0:0:
12,104,12187,1,2,0:0:0:0:
12,104,12264,1,2,0:0:0:0:
308,76,12495,2,0,L|180:112,1,126.500003860474,8|0,0:0|0:0,0:0:0:0:
480,104,12957,6,0,P|432:280|360:292,1,275.999991577149,2|8,0:0|0:0,0:0:0:0:
44,196,13649,2,0,P|40:136|132:104,1,149.499993156433,4|2,0:0|0:0,0:0:0:0:
268,104,14034,1,2,0:0:0:0:
404,104,14110,1,2,0:0:0:0:
332,104,14264,1,2,0:0:0:0:
188,104,14341,2,0,L|36:104,1,115,8|0,0:0|0:0,0:0:0:0:
480,100,14803,6,0,B|516:264|264:256,1,275.999991577149,2|8,0:0|0:0,0:0:0:0:
452,220,15495,1,0,0:0:0:0:
344,220,15649,1,2,0:0:0:0:
156,204,15726,2,0,L|48:204,1,91.9999971923829,2|0,0:0|0:0,0:0:0:0:
260,196,15957,2,0,L|356:196,1,91.9999971923829
140,220,16187,2,0,P|108:160|204:68,1,191.666666666667,12|0,0:0|0:0,0:0:0:0:
358,281,16649,5,2,0:0:0:0:
444,256,16726,1,0,0:0:0:0:
487,179,16803,1,0,0:0:0:0:
470,93,16880,1,0,0:0:0:0:
398,48,16957,1,0,0:0:0:0:
313,41,17034,1,0,0:0:0:0:
160,56,17110,1,8,0:0:0:0:
364,56,17341,2,0,P|416:56|328:56,1,107.33333005778,4|2,0:0|0:0,0:0:0:0:
172,80,17572,1,2,0:0:0:0:
172,80,17726,1,0,0:0:0:0:
224,80,17803,1,0,0:0:0:0:
332,80,17957,1,2,0:0:0:0:
172,80,18034,2,0,L|68:80,1,76.6666666666667,8|0,0:0|0:0,0:0:0:0:
256,80,18418,1,2,0:0:0:0:
444,56,18495,6,0,L|444:148,1,76.6666666666667,2|0,0:0|0:0,0:0:0:0:
388,132,18726,1,0,0:0:0:0:
40,152,18957,1,8,0:0:0:0:
236,156,19187,2,0,L|124:104,1,107.33333005778,4|0,0:0|0:0,0:0:0:0:
324,128,19418,1,2,0:0:0:0:
196,128,19649,1,0,0:0:0:0:
88,124,19803,1,2,0:0:0:0:
256,128,19880,2,0,L|256:40,1,76.6666666666667,8|0,0:0|0:0,0:0:0:0:
80,76,20110,2,0,P|36:76|88:76,1,91.9999971923829,2|0,0:0|0:0,0:0:0:0:
276,292,20341,5,2,0:0:0:0:
356,272,20418,1,0,0:0:0:0:
432,204,20495,1,0,0:0:0:0:
456,112,20572,1,0,0:0:0:0:
408,32,20649,1,0,0:0:0:0:
324,68,20726,1,0,0:0:0:0:
144,68,20803,1,8,0:0:0:0:
304,92,21034,2,0,L|196:68,1,107.33333005778,4|0,0:0|0:0,0:0:0:0:
388,88,21264,1,2,0:0:0:0:
388,88,21418,1,2,0:0:0:0:
332,88,21495,1,2,0:0:0:0:
224,92,21649,1,2,0:0:0:0:
44,132,21726,1,8,0:0:0:0:
44,132,21880,1,2,0:0:0:0:
204,132,22110,1,0,0:0:0:0:
384,136,22187,6,0,P|412:100|368:64,1,76.6666666666667,2|0,0:0|0:0,0:0:0:0:
348,68,22418,1,0,0:0:0:0:
20,64,22649,1,8,0:0:0:0:
128,60,22803,1,0,0:0:0:0:
204,60,22880,2,0,L|100:120,1,107.33333005778,4|0,0:0|0:0,0:0:0:0:
368,84,23110,2,0,B|464:84|464:84|360:84,1,191.666666666667,4|0,0:0|0:0,0:0:0:0:
156,96,23341,2,0,L|84:80,2,49.8333310521445
360,88,23572,1,8,0:0:0:0:
264,192,23803,2,0,L|404:132,1,107.33333005778,4|0,0:0|0:0,0:0:0:0:
204,312,24034,5,2,0:0:0:0:
112,300,24110,1,0,0:0:0:0:
48,244,24187,1,0,0:0:0:0:
16,164,24264,1,0,0:0:0:0:
64,88,24341,1,0,0:0:0:0:
144,44,24418,1,0,0:0:0:0:
344,108,24495,1,8,0:0:0:0:
176,108,24726,2,0,L|276:56,1,107.33333005778,4|0,0:0|0:0,0:0:0:0:
112,72,24957,1,2,0:0:0:0:
112,72,25110,1,2,0:0:0:0:
164,72,25187,1,2,0:0:0:0:
272,76,25341,1,2,0:0:0:0:
456,72,25418,2,0,P|476:100|428:136,1,76.6666666666667,8|0,0:0|0:0,0:0:0:0:
296,132,25803,1,0,0:0:0:0:
128,132,25880,5,2,0:0:0:0:
24,136,26034,1,0,0:0:0:0:
76,136,26110,1,0,0:0:0:0:
452,108,26341,1,8,0:0:0:0:
308,112,26572,2,0,L|200:100,1,76.6666666666667,4|0,0:0|0:0,0:0:0:0:
440,80,26803,2,0,P|476:104|455:183,1,137.999995788574,8|0,0:0|0:0,0:0:0:0:
224,200,27187,1,2,0:0:0:0:
68,192,27264,1,8,0:0:0:0:
124,184,27418,1,0,0:0:0:0:
68,192,27495,2,0,P|72:144|144:112,1,107.33333005778
312,64,27726,5,2,0:0:0:0:
400,60,27803,1,0,0:0:0:0:
460,128,27880,1,0,0:0:0:0:
444,224,27957,1,0,0:0:0:0:
356,260,28034,1,0,0:0:0:0:
260,244,28111,1,0,0:0:0:0:
76,192,28188,1,8,0:0:0:0:
248,176,28418,2,0,P|280:168|276:100,1,107.33333005778,4|0,0:0|0:0,0:0:0:0:
84,192,28649,1,2,0:0:0:0:
192,188,28803,1,2,0:0:0:0:
192,188,28880,1,2,0:0:0:0:
84,192,29034,1,2,0:0:0:0:
236,168,29110,2,0,L|180:96,1,76.6666666666667,8|0,0:0|0:0,0:0:0:0:
28,104,29495,1,0,0:0:0:0:
244,104,29572,5,2,0:0:0:0:
352,104,29726,1,0,0:0:0:0:
352,104,29803,1,0,0:0:0:0:
16,104,30034,1,8,0:0:0:0:
122,103,30187,1,0,0:0:0:0:
175,104,30264,1,0,0:0:0:0:
465,37,30495,6,0,P|457:141|329:157,1,229.999992980957,4|0,0:0|0:0,0:0:0:0:
208,200,30957,2,0,L|276:140,1,76.6666666666667,8|2,0:0|0:0,0:0:0:0:
316,128,31187,1,2,0:0:0:0:
448,120,31341,1,0,0:0:0:0:
256,48,31418,5,2,0:0:0:0:
212,92,31495,1,0,0:0:0:0:
285,121,31572,1,0,0:0:0:0:
313,161,31649,1,0,0:0:0:0:
238,177,31726,1,0,0:0:0:0:
206,221,31803,1,0,0:0:0:0:
384,220,31880,1,8,0:0:0:0:
216,216,32110,2,0,L|324:160,1,107.33333005778,4|0,0:0|0:0,0:0:0:0:
140,216,32341,1,2,0:0:0:0:
32,217,32495,1,0,0:0:0:0:
33,163,32572,1,0,0:0:0:0:
140,159,32726,1,2,0:0:0:0:
308,184,32803,1,8,0:0:0:0:
415,184,32957,2,0,L|415:116,1,38.3333333333333
307,144,33187,1,2,0:0:0:0:
148,140,33264,5,2,0:0:0:0:
40,140,33418,1,0,0:0:0:0:
40,88,33495,1,0,0:0:0:0:
384,72,33726,1,8,0:0:0:0:
172,76,33957,2,0,P|148:84|156:152,1,107.33333005778,4|0,0:0|0:0,0:0:0:0:
312,148,34187,1,2,0:0:0:0:
472,148,34418,1,0,0:0:0:0:
364,152,34572,1,0,0:0:0:0:
136,184,34649,2,0,P|120:156|152:116,1,76.6666666666667,8|0,0:0|0:0,0:0:0:0:
320,144,34880,2,0,L|224:88,1,91.9999971923829,4|0,0:0|0:0,0:0:0:0:
400,248,35110,5,2,0:0:0:0:
484,216,35187,1,0,0:0:0:0:
496,132,35264,1,0,0:0:0:0:
468,52,35341,1,0,0:0:0:0:
392,28,35418,1,0,0:0:0:0:
312,40,35495,1,0,0:0:0:0:
156,52,35572,1,8,0:0:0:0:
324,68,35803,2,0,P|320:124|264:144,1,107.33333005778,4|0,0:0|0:0,0:0:0:0:
132,136,36034,1,2,0:0:0:0:
24,136,36187,1,0,0:0:0:0:
24,136,36264,1,0,0:0:0:0:
132,136,36418,1,2,0:0:0:0:
348,136,36495,2,0,L|436:136,1,76.6666666666667,8|0,0:0|0:0,0:0:0:0:
288,136,36880,1,2,0:0:0:0:
128,136,36957,5,2,0:0:0:0:
20,136,37110,1,0,0:0:0:0:
72,136,37187,1,0,0:0:0:0:
408,124,37418,1,8,0:0:0:0:
280,120,37649,2,0,P|296:188|344:200,1,107.33333005778,4|0,0:0|0:0,0:0:0:0:
136,152,37880,2,0,L|52:161,1,76.6666666666667,8|0,0:0|0:0,0:0:0:0:
220,156,38110,2,0,L|284:156,2,38.3333333333333
32,160,38341,1,8,0:0:0:0:
192,148,38572,2,0,L|104:148,1,76.6666666666667,4|0,0:0|0:0,0:0:0:0:
372,144,38803,6,0,L|476:144,1,76.6666666666667,6|0,0:0|0:0,0:0:0:0:
480,144,39034,1,0,0:0:0:0:
460,96,39110,1,0,0:0:0:0:
412,76,39187,1,0,0:0:0:0:
256,140,39264,2,0,L|168:156,1,76.6666666666667,8|0,0:0|0:0,0:0:0:0:
304,156,39495,2,0,P|360:156|300:156,1,107.33333005778,4|0,0:0|0:0,0:0:0:0:
116,172,39726,1,2,0:0:0:0:
200,172,39880,1,0,0:0:0:0:
200,128,39957,1,0,0:0:0:0:
92,128,40110,1,0,0:0:0:0:
264,120,40187,2,0,L|364:120,1,76.6666666666667,8|0,0:0|0:0,0:0:0:0:
340,120,40418,1,0,0:0:0:0:
232,120,40572,1,0,0:0:0:0:
392,124,40649,5,2,0:0:0:0:
500,124,40803,1,0,0:0:0:0:
448,124,40880,1,0,0:0:0:0:
28,136,41110,1,8,0:0:0:0:
188,136,41341,2,0,P|132:136|192:136,1,107.33333005778,4|0,0:0|0:0,0:0:0:0:
408,132,41572,2,0,P|464:120|472:24,1,160.99999508667,8|2,0:0|0:0,0:0:0:0:
256,88,41957,1,2,0:0:0:0:
56,88,42034,1,8,0:0:0:0:
56,88,42187,1,0,0:0:0:0:
256,88,42264,2,0,L|348:96,1,76.6666666666667
136,264,42495,5,2,0:0:0:0:
60,224,42572,1,0,0:0:0:0:
40,144,42649,1,0,0:0:0:0:
84,64,42726,1,0,0:0:0:0:
164,36,42803,1,0,0:0:0:0:
244,44,42880,1,0,0:0:0:0:
440,72,42957,1,8,0:0:0:0:
292,80,43187,2,0,L|360:152,1,76.6666666666667,4|0,0:0|0:0,0:0:0:0:
148,136,43418,1,2,0:0:0:0:
40,136,43572,1,0,0:0:0:0:
40,136,43649,1,0,0:0:0:0:
148,132,43803,1,0,0:0:0:0:
292,140,43880,2,0,L|384:140,1,76.6666666666667,8|0,0:0|0:0,0:0:0:0:
314,140,44110,1,0,0:0:0:0:
206,140,44264,1,0,0:0:0:0:
456,88,44341,6,0,P|484:132|396:204,1,160.99999508667,4|0,0:0|3:0,0:0:0:0:
260,196,44803,1,8,0:0:0:0:
152,196,44957,1,0,0:0:0:0:
100,196,45034,2,0,P|68:148|104:132,1,76.6666666666667
292,136,45264,2,0,L|396:128,1,76.6666666666667,2|0,0:0|0:0,0:0:0:0:
212,136,45495,2,0,L|116:120,1,76.6666666666667
368,136,45726,2,0,L|284:72,1,76.6666666666667,8|0,0:0|0:0,0:0:0:0:
112,136,45957,2,0,L|196:72,1,76.6666666666667,2|0,0:0|0:0,0:0:0:0:
332,208,46187,6,0,B|468:208|468:208|476:80|344:112,1,321.99999017334,6|8,0:0|0:0,0:0:0:0:
192,106,46880,1,0,0:0:0:0:
192,106,46957,1,0,0:0:0:0:
192,106,47034,1,0,0:0:0:0:
336,108,47110,1,8,0:0:0:0:
256,208,47264,5,2,0:0:0:0:
204,204,47341,2,0,L|280:136,1,84.3333359069825,4|0,0:0|0:0,0:0:0:0:
388,132,47572,2,0,B|476:132|476:132|428:68,1,149.499993156433,8|0,0:0|0:0,0:0:0:0:
80,92,48034,6,0,P|71:241|176:245,1,275.999991577149,2|8,0:0|0:0,0:0:0:0:
256,260,48649,1,2,0:0:0:0:
256,212,48726,1,2,0:0:0:0:
164,212,48880,1,0,0:0:0:0:
264,210,48957,2,0,L|360:182,1,84.3333359069825
288,170,49187,2,0,L|192:122,1,95.8333333333333
120,118,49418,2,0,B|40:142|-28:74|60:42,1,172.500006580353,8|0,0:0|0:0,0:0:0:0:
384,64,49880,6,0,B|464:64|464:64|400:64,1,137.999995788574,2|2,0:0|0:0,0:0:0:0:
332,64,50187,1,2,0:0:0:0:
256,64,50264,1,2,0:0:0:0:
84,72,50341,1,8,0:0:0:0:
216,136,50572,1,4,0:0:0:0:
432,140,50649,2,0,P|491:140|416:140,1,115.000004386902
328,152,50957,1,0,0:0:0:0:
256,150,51034,1,0,0:3:0:0:
256,150,51187,1,0,0:0:0:0:
358,154,51264,2,0,P|344:112|314:74,1,84.3333359069825,8|0,0:0|0:0,0:0:0:0:
200,75,51495,2,0,P|148:68|104:43,1,99.6666621042889,2|0,0:0|0:0,0:0:0:0:
340,104,51726,6,0,B|396:112|404:228|244:192,1,191.666666666667,2|0,0:0|0:0,0:0:0:0:
132,200,52187,1,8,0:0:0:0:
24,200,52341,1,0,0:0:0:0:
24,152,52418,1,0,0:0:0:0:
136,148,52572,1,0,0:0:0:0:
248,144,52649,2,0,L|336:128,1,76.6666666666667
220,136,52880,2,0,L|96:136,2,115,4|8|0,0:0|0:0|0:0,0:0:0:0:
256,136,53380,1,0,0:0:0:0:
256,136,53418,1,0,0:0:0:0:
256,136,53457,1,0,0:0:0:0:
256,136,53495,1,0,0:0:0:0:
48,120,53572,6,0,P|36:188|84:204,1,99.6666621042889,4|0,3:2|3:2,3:2:0:0:
100,228,53803,1,0,3:2:0:0:
208,232,53957,1,0,3:2:0:0:
260,228,54034,2,0,L|344:208,1,76.6666666666667,8|2,3:2|3:2,3:2:0:0:
388,196,54265,1,2,3:2:0:0:
280,188,54419,1,2,3:2:0:0:
120,160,54495,2,0,L|20:136,1,84.3333359069825,8|0,3:2|3:2,3:2:0:0:
88,108,54726,2,0,L|192:84,1,95.8333333333333,2|0,3:2|3:2,3:2:0:0:
268,56,54957,2,0,L|140:88,1,103.500000394821,8|0,3:2|3:2,3:2:0:0:
228,92,55187,2,0,L|340:116,1,115.000004386902,2|0,3:2|3:2,3:2:0:0:
80,132,55418,6,0,P|52:256|140:252,1,249.166655260722,6|0,3:2|3:2,3:2:0:0:
272,216,55880,2,0,L|368:196,1,91.9999971923829,8|0,3:2|3:2,3:2:0:0:
312,180,56110,2,0,L|204:132,1,107.33333005778,2|0,3:2|3:2,3:2:0:0:
128,128,56341,2,0,L|236:80,1,115.000004386902,8|0,3:2|3:2,3:2:0:0:
296,64,56572,2,0,L|420:40,1,122.666666666667,2|0,3:2|3:2,3:2:0:0:
212,68,56803,2,0,L|96:152,1,122.666666666667,8|0,3:2|3:2,3:2:0:0:
296,64,57034,2,0,L|400:144,1,122.666666666667,8|0,3:2|3:2,3:2:0:0:
132,112,57264,6,0,P|36:144|140:164,1,268.33332514445,6|0,3:2|3:2,3:2:0:0:
340,176,57726,2,0,L|460:152,1,99.6666621042889,8|2,3:2|3:2,3:2:0:0:
240,148,57957,2,0,L|128:92,1,107.33333005778,2|2,3:2|3:2,3:2:0:0:
384,104,58187,2,0,L|272:28,1,118.83333423996,8|0,3:2|3:2,3:2:0:0:
40,56,58418,2,0,L|40:192,1,130.333335819244,2|2,3:2|3:2,3:2:0:0:
320,128,58649,2,0,L|476:128,1,115.000004386902,8|2,3:2|3:2,3:2:0:0:
192,128,58880,2,0,L|40:128,1,115.000004386902,2|0,3:2|3:2,3:2:0:0:
300,104,59110,6,0,B|404:136|368:216|368:216|204:192|72:280|72:280|204:344|340:360|520:336|492:216|424:196,1,965.99997052002,8|0,0:0|0:0,0:0:0:0:
72,224,60957,6,0,B|0:188|12:28|216:64,1,287.500010967255,4|0,0:0|0:0,0:0:0:0:
364,64,61418,1,8,0:0:0:0:
168,168,61649,2,0,P|152:116|212:64,1,126.500003860474,4|0,0:0|0:0,0:0:0:0:
368,80,62034,2,0,L|408:52,1,42.1666679534912,2|2,0:0|0:0,0:0:0:0:
276,72,62264,1,0,0:0:0:0:
116,72,62341,2,0,L|4:92,1,91.9999971923829,8|0,0:0|0:0,0:0:0:0:
76,76,62572,1,2,0:0:0:0:
424,72,62803,6,0,P|468:136|312:264,1,321.99999017334,2|8,0:0|0:0,0:0:0:0:
172,272,63418,1,2,0:0:0:0:
116,272,63495,1,2,0:0:0:0:
232,272,63649,1,0,0:0:0:0:
436,168,63726,2,0,L|408:76,1,76.6666666666667,2|0,0:0|0:0,0:0:0:0:
220,112,63957,2,0,L|300:64,1,84.3333359069825,4|0,0:0|0:0,0:0:0:0:
56,84,64187,2,0,P|52:168|132:188,1,149.499993156433,8|2,0:0|0:0,0:0:0:0:
432,112,64649,6,0,P|488:88|416:64,1,172.500006580353,8|2,0:0|0:0,0:0:0:0:
256,68,64957,1,2,0:0:0:0:
80,52,65034,1,6,0:0:0:0:
80,120,65110,1,8,0:0:0:0:
256,116,65341,2,0,L|256:88,5,19.1666666666667,4|0|0|0|0|0,0:0|0:0|0:0|0:0|0:0|0:0,0:0:0:0:
120,104,65572,1,2,0:0:0:0:
36,104,65726,1,2,0:0:0:0:
36,48,65803,1,2,0:0:0:0:
256,44,65957,1,0,0:0:0:0:
425,128,66034,2,0,P|465:100|433:24,1,137.999995788574,8|2,0:0|0:0,0:0:0:0:
140,192,66495,6,0,P|84:184|40:132,1,126.500003860474,2|0,0:0|0:0,0:0:0:0:
208,96,66880,1,2,0:0:0:0:
364,88,66957,1,4,0:0:0:0:
468,104,67110,2,0,L|436:52,1,38.3333333333333
352,88,67341,1,2,0:0:0:0:
204,84,67418,2,0,L|100:64,1,76.6666666666667,2|0,0:0|0:0,0:0:0:0:
48,88,67649,2,0,L|160:28,1,115,0|8,0:0|0:0,0:0:0:0:
384,56,68110,1,2,0:0:0:0:
411,58,68149,1,2,0:0:0:0:
426,79,68187,1,2,0:0:0:0:
414,103,68226,1,2,0:0:0:0:
388,108,68264,1,2,0:0:0:0:
188,72,68341,6,0,B|-80:64|196:72,1,268.33332514445,6|2,0:0|0:0,0:0:0:0:
372,76,68803,1,8,0:0:0:0:
256,72,69034,1,0,0:0:0:0:
448,72,69264,1,2,0:0:0:0:
108,100,69418,2,0,L|52:68,1,53.66666502889
188,52,69649,1,0,0:0:0:0:
412,40,69726,1,8,0:0:0:0:
467,97,69803,1,2,0:0:0:0:
487,177,69880,1,2,0:0:0:0:
447,248,69957,1,2,0:0:0:0:
374,277,70034,1,2,0:0:0:0:
296,260,70110,1,2,0:0:0:0:
124,264,70187,6,0,P|52:264|148:264,1,137.999995788574,2|0,0:0|0:0,0:0:0:0:
432,264,70649,1,8,0:0:0:0:
272,272,70880,1,4,0:0:0:0:
404,272,71034,1,2,0:0:0:0:
244,264,71110,2,0,L|164:240,1,76.6666666666667,2|0,0:0|0:0,0:0:0:0:
272,264,71341,2,0,L|352:240,1,76.6666666666667
164,268,71572,2,0,L|36:208,1,137.999995788574,8|0,0:0|0:0,0:0:0:0:
388,56,72034,6,0,P|452:156|304:212,1,287.500010967255,6|2,0:0|0:0,0:0:0:0:
144,216,72495,1,8,0:0:0:0:
256,228,72726,1,2,0:0:0:0:
225,227,72764,1,2,0:0:0:0:
197,212,72803,1,2,0:0:0:0:
193,181,72841,1,2,0:0:0:0:
207,153,72880,1,2,0:0:0:0:
360,84,72957,5,2,0:0:0:0:
468,80,73110,1,0,0:0:0:0:
416,80,73187,2,0,L|308:96,1,76.6666666666667
184,84,73418,2,0,L|40:128,1,115.000004386902,8|0,0:0|0:0,0:0:0:0:
316,72,73649,2,0,P|348:128|296:180,1,115.000004386902,8|0,0:0|0:0,0:0:0:0:
116,120,73880,6,0,P|116:160|212:192,1,126.500003860474,2|0,0:0|0:0,0:0:0:0:
296,204,74264,1,0,0:0:0:0:
448,184,74341,1,8,0:0:0:0:
332,188,74495,1,2,0:0:0:0:
240,184,74572,2,0,P|208:188|144:148,1,76.6666666666667,2|0,0:0|0:0,0:0:0:0:
328,140,74803,1,2,0:0:0:0:
392,140,74880,1,2,0:0:0:0:
328,140,74957,1,2,0:0:0:0:
240,136,75034,2,0,P|200:144|156:160,1,84.3333359069825,4|0,0:0|0:0,0:0:0:0:
420,84,75264,2,0,P|384:144|320:152,2,115.000004386902,8|8|8,0:0|0:0|0:0,0:0:0:0:
128,60,75726,6,0,P|88:96|208:224,1,287.500010967255,4|0,0:0|0:0,0:0:0:0:
396,212,76187,1,8,0:0:0:0:
264,200,76418,2,0,L|328:116,1,76.6666666666667,0|0,3:0|0:0,0:0:0:0:
108,148,76649,1,2,0:0:0:0:
16,148,76803,1,0,0:0:0:0:
16,148,76880,1,0,3:0:0:0:
156,144,77034,1,2,0:0:0:0:
320,140,77110,2,0,L|124:80,1,160.99999508667,8|0,0:0|3:0,0:0:0:0:
480,112,77572,6,0,P|472:180|352:212,1,160.99999508667,2|0,0:0|3:0,0:0:0:0:
80,240,78034,2,0,P|72:188|104:148,1,76.6666666666667,8|0,0:0|0:0,0:0:0:0:
160,152,78264,1,0,3:0:0:0:
288,132,78418,1,2,0:0:0:0:
472,116,78495,2,0,L|476:224,1,84.3333359069825,2|0,0:0|0:0,0:0:0:0:
280,200,78726,2,0,L|196:156,1,84.3333359069825,0|0,3:0|0:0,0:0:0:0:
440,168,78957,2,0,L|352:120,1,91.9999971923829,8|0,0:0|0:0,0:0:0:0:
208,88,79187,2,0,L|328:36,1,91.9999971923829,2|0,0:0|0:0,0:0:0:0:
80,124,79418,6,0,B|24:124|24:124|24:60|24:60|84:60,1,172.500006580353,2|0,0:0|0:0,0:0:0:0:
224,64,79726,1,2,0:0:0:0:
368,68,79803,1,6,0:0:0:0:
336,144,79880,1,8,0:0:0:0:
120,160,80110,2,0,L|120:120,5,28.7500010967255,4|0|0|0|0|0,0:0|0:0|0:0|0:0|0:0|0:0,0:0:0:0:
268,160,80341,1,2,0:0:0:0:
406,162,80495,1,0,0:0:0:0:
406,162,80572,1,0,3:0:0:0:
267,160,80726,1,0,3:0:0:0:
88,168,80803,2,0,P|65:119|135:71,1,137.999995788574,8|2,0:0|0:0,0:0:0:0:
480,80,81264,6,0,P|456:142|376:166,1,126.500003860474,2|0,0:0|0:0,0:0:0:0:
276,170,81649,1,4,0:0:0:0:
120,176,81726,1,8,0:0:0:0:
28,184,81880,2,0,L|29:131,1,38.3333333333333
120,144,82111,1,0,0:0:0:0:
264,68,82188,2,0,P|304:68|264:68,1,76.6666666666667,2|0,0:0|0:0,0:0:0:0:
160,64,82418,2,0,L|40:64,1,115,0|8,3:0|0:0,0:0:0:0:
476,44,82880,1,2,0:0:0:0:
488,72,82918,1,2,0:0:0:0:
484,104,82957,1,2,0:0:0:0:
464,128,82995,1,2,0:0:0:0:
432,132,83034,1,2,0:0:0:0:
168,40,83110,6,0,B|-104:40|180:40,1,268.33332514445,4|0,0:0|0:0,0:0:0:0:
316,40,83572,1,8,0:0:0:0:
476,40,83803,1,0,3:0:0:0:
52,56,84034,2,0,B|28:88|28:88|60:128,1,76.6666666666667,2|0,0:0|0:0,0:0:0:0:
160,56,84264,2,0,L|252:56,1,76.6666666666667,0|0,3:0|0:0,0:0:0:0:
392,80,84495,1,8,0:0:0:0:
432,60,84572,1,2,0:0:0:0:
348,128,84649,1,2,0:0:0:0:
308,104,84726,1,2,0:0:0:0:
392,204,84803,1,2,0:0:0:0:
436,184,84880,1,2,0:0:0:0:
224,196,84957,6,0,P|168:176|184:100,1,115,2|0,0:0|3:0,0:0:0:0:
480,104,85418,1,8,0:0:0:0:
64,120,85649,2,0,L|64:224,1,76.6666666666667,0|2,0:0|0:0,0:0:0:0:
220,116,85880,2,0,L|312:104,1,76.6666666666667,2|0,0:0|0:0,0:0:0:0:
100,108,86110,2,0,L|160:52,1,76.6666666666667,0|0,3:0|0:0,0:0:0:0:
336,40,86341,2,0,L|436:72,1,91.9999971923829,8|0,0:0|0:0,0:0:0:0:
184,40,86572,2,0,L|84:72,1,91.9999971923829,2|0,0:0|0:0,0:0:0:0:
388,204,86803,6,0,B|504:204|504:204|504:132|504:132|368:132,1,306.666666666667,4|0,0:0|0:0,0:0:0:0:
188,48,87264,1,8,0:0:0:0:
336,48,87495,1,2,0:0:0:0:
336,48,87534,1,2,0:0:0:0:
336,48,87572,1,2,0:0:0:0:
336,48,87610,1,2,0:0:0:0:
336,48,87649,1,2,0:0:0:0:
148,52,87726,1,2,0:0:0:0:
28,52,87880,2,0,L|28:104,1,38.3333333333333,0|0,3:0|3:0,3:0:0:0:
136,92,88110,1,0,3:0:0:0:
384,128,88187,2,0,L|276:60,1,115.000004386902,8|0,0:0|0:0,0:0:0:0:
132,136,88418,2,0,L|236:64,1,115.000004386902,8|0,0:0|0:0,0:0:0:0:
414,93,88649,6,0,P|470:93|406:93,1,115,2|0,0:0|0:0,0:0:0:0:
164,96,89264,1,0,0:0:0:0:
208,96,89341,2,0,L|308:96,1,76.6666666666667,0|0,3:0|0:0,0:0:0:0:
338,95,89572,1,2,0:0:0:0:
278,87,89649,1,2,0:0:0:0:
218,79,89726,1,2,0:0:0:0:
114,95,89803,2,0,P|142:67|190:47,1,76.6666666666667,0|0,3:0|0:0,0:0:0:0:
364,80,90034,1,8,0:0:0:0:
256,80,90187,1,8,0:0:0:0:
148,80,90341,5,8,0:0:0:0:
256,192,90495,12,0,92341,0:0:0:0:
256,192,105264,12,0,106880,0:0:0:0:
256,188,107110,5,2,0:0:0:0:
416,188,107572,1,2,0:0:0:0:
288,192,107803,2,0,P|248:168|292:112,1,115,0|2,3:0|0:0,0:0:0:0:
356,112,108187,1,0,0:0:0:0:
356,112,108264,1,0,0:0:0:0:
270,114,108418,1,0,0:0:0:0:
228,116,108495,2,0,P|128:132|40:68,1,191.666666666667,2|0,0:0|0:0,0:0:0:0:
96,88,108957,6,0,P|68:156|160:196,1,191.666666666667,2|0,0:0|0:0,0:0:0:0:
240,192,109457,2,0,L|347:191,1,95.8333333333333,0|0,3:0|3:0,3:0:0:0:
228,196,109803,1,0,0:0:0:0:
176,196,109880,2,0,P|144:128|248:84,1,191.666666666667,2|0,0:0|0:0,0:0:0:0:
268,76,110341,2,0,L|88:172,1,191.666666666667,2|0,0:0|0:0,0:0:0:0:
208,156,110803,6,0,P|324:156|204:156,1,230,2|2,0:0|0:0,0:0:0:0:
68,168,111495,2,0,P|72:108|144:88,1,115,0|2,3:0|0:0,0:0:0:0:
208,84,111880,1,0,0:0:0:0:
256,84,111957,1,0,0:0:0:0:
348,80,112110,1,0,0:0:0:0:
392,84,112187,2,0,P|412:180|360:272,1,191.666666666667,2|0,0:0|0:0,0:0:0:0:
264,84,112649,6,0,P|236:124|352:204,1,230,2|2,0:0|0:0,0:0:0:0:
256,196,113264,1,0,3:0:0:0:
256,196,113341,1,0,3:0:0:0:
364,194,113495,1,0,0:0:0:0:
256,196,113572,2,0,L|48:136,1,191.666666666667,2|0,0:0|0:0,0:0:0:0:
120,120,114034,2,0,L|308:152,1,191.666666666667,2|0,0:0|0:0,0:0:0:0:
192,104,114495,6,0,L|92:104,1,76.6666666666667,2|2,0:0|0:0,0:0:0:0:
256,100,114880,1,2,0:0:0:0:
304,100,114957,2,0,L|392:100,1,76.6666666666667,2|2,0:0|0:0,0:0:0:0:
244,108,115341,1,2,0:0:0:0:
196,108,115418,2,0,L|120:72,1,76.6666666666667,2|2,0:0|0:0,0:0:0:0:
152,36,115649,2,0,L|264:36,1,76.6666666666667,2|0,0:0|0:0,0:0:0:0:
276,40,115880,2,0,P|276:80|220:104,1,76.6666666666667,2|2,0:0|0:0,0:0:0:0:
112,104,116264,1,2,0:0:0:0:
220,104,116341,6,0,P|268:104|212:104,1,91.9999971923829,2|2,0:0|0:0,0:0:0:0:
84,112,116726,1,0,0:0:0:0:
132,112,116803,1,2,0:0:0:0:
224,112,116957,1,0,3:0:0:0:
360,116,117187,1,0,3:0:0:0:
312,116,117264,2,0,L|220:116,1,76.6666666666667,2|2,0:0|0:0,0:0:0:0:
72,116,117649,1,2,0:0:0:0:
152,116,117726,2,0,L|236:116,1,76.6666666666667,2|2,0:0|0:0,0:0:0:0:
360,112,118110,1,2,0:0:0:0:
260,112,118187,5,8,0:0:0:0:
260,112,118341,1,2,0:0:0:0:
408,112,118572,1,2,0:0:0:0:
304,108,118649,1,8,0:0:0:0:
196,108,118803,1,2,0:0:0:0:
376,116,119110,1,8,0:0:0:0:
272,108,119187,1,2,0:0:0:0:
164,112,119341,1,0,0:0:0:0:
164,112,119495,1,2,0:0:0:0:
272,108,119572,2,0,L|376:108,1,76.6666666666667,8|2,0:0|0:0,0:0:0:0:
188,108,119957,1,2,0:0:0:0:
364,112,120034,6,0,P|448:164|348:208,1,249.166655260722,8|2,0:0|0:0,0:0:0:0:
256,212,120495,1,8,0:0:0:0:
148,212,120649,1,0,3:0:0:0:
148,212,120726,1,2,0:0:0:0:
256,212,120880,1,0,3:0:0:0:
408,212,120957,2,0,L|488:212,1,76.6666666666667,8|2,0:0|0:0,0:0:0:0:
288,220,121341,1,2,0:0:0:0:
136,236,121418,1,8,0:0:0:0:
68,232,121495,1,2,0:0:0:0:
24,180,121572,1,2,0:0:0:0:
40,112,121649,1,2,0:0:0:0:
104,88,121726,1,2,0:0:0:0:
172,92,121803,1,2,0:0:0:0:
348,96,121880,6,0,L|476:96,1,115.000004386902,2|0,3:2|3:2,3:2:0:0:
400,96,122110,2,0,L|280:96,1,115.000004386902,2|0,3:2|3:2,3:2:0:0:
456,96,122341,2,0,L|456:200,1,76.6666666666667,8|0,3:2|3:2,3:2:0:0:
288,192,122572,2,0,P|236:192|308:192,1,99.6666621042889,2|0,3:2|3:2,3:2:0:0:
340,192,122803,1,2,3:2:0:0:
232,192,122957,1,0,3:2:0:0:
232,192,123034,1,2,3:2:0:0:
340,192,123187,1,0,3:2:0:0:
200,192,123264,2,0,L|76:192,1,115.000004386902,8|0,3:2|3:2,3:2:0:0:
148,188,123495,2,0,L|276:188,1,115.000004386902,2|0,3:2|3:2,3:2:0:0:
100,152,123726,6,0,P|24:152|116:152,1,149.499993156433,2|2,3:2|3:2,3:2:0:0:
204,152,124110,1,0,3:2:0:0:
60,112,124187,1,8,3:2:0:0:
164,88,124341,1,0,3:2:0:0:
244,108,124418,1,8,3:2:0:0:
368,104,124572,1,0,3:2:0:0:
196,52,124649,2,0,P|116:52|200:52,1,155.250000592232,2|2,3:2|3:2,3:2:0:0:
300,52,125034,1,0,3:2:0:0:
152,52,125110,2,0,L|24:52,1,115,8|2,3:2|3:2,3:2:0:0:
184,52,125495,1,0,3:2:0:0:
436,52,125572,6,0,P|476:96|424:112,1,115.000004386902,2|0,0:0|0:0,0:0:0:0:
371,112,125803,2,0,L|255:112,1,115.000004386902,2|0,0:0|0:0,0:0:0:0:
319,112,126034,2,0,L|439:112,1,115.000004386902,8|0,0:0|0:0,0:0:0:0:
256,112,126264,2,0,P|180:112|272:112,1,155.250000592232,2|2,0:0|0:0,0:0:0:0:
360,116,126649,1,0,0:0:0:0:
412,116,126726,1,2,0:0:0:0:
304,116,126880,1,0,0:0:0:0:
128,116,126957,2,0,L|12:116,1,115.000004386902,8|0,0:0|0:0,0:0:0:0:
76,116,127187,2,0,L|204:116,1,115.000004386902,2|0,0:0|0:0,0:0:0:0:
348,108,127418,6,0,P|424:108|332:108,1,149.499993156433,2|2,0:0|0:0,0:0:0:0:
232,108,127803,1,0,0:0:0:0:
36,120,127880,2,0,P|48:176|96:208,1,107.33333005778,8|0,0:0|0:0,0:0:0:0:
144,204,128110,2,0,L|256:204,1,107.33333005778,2|0,0:0|0:0,0:0:0:0:
396,208,128341,2,0,P|484:140|368:96,1,258.750000987053,2|0,0:0|0:0,0:0:0:0:
216,96,128803,2,0,L|104:96,1,76.6666666666667,8|0,0:0|0:0,0:0:0:0:
296,96,129034,2,0,L|408:96,1,76.6666666666667,2|0,0:0|0:0,0:0:0:0:
216,96,129264,5,10,0:0:0:0:
166,117,129341,1,8,0:0:0:0:
148,167,129418,1,8,0:0:0:0:
189,201,129495,1,8,0:0:0:0:
242,202,129572,1,8,0:0:0:0:
293,215,129649,1,8,0:0:0:0:
326,257,129726,1,10,0:0:0:0:
288,295,129803,1,8,0:0:0:0:
234,295,129880,1,8,0:0:0:0:
86,292,129957,5,8,0:0:0:0:
32,280,130034,1,8,0:0:0:0:
16,228,130110,1,8,0:0:0:0:
32,176,130187,1,10,0:0:0:0:
84,156,130264,1,8,0:0:0:0:
220,80,130341,1,8,0:0:0:0:
308,76,130418,1,8,0:0:0:0:
360,76,130495,1,8,0:0:0:0:
308,76,130572,1,8,0:0:0:0:
204,80,130649,5,10,0:0:0:0:
152,80,130726,1,8,0:0:0:0:
204,80,130803,1,8,0:0:0:0:
308,76,130880,1,8,0:0:0:0:
360,76,130957,1,8,0:0:0:0:
308,76,131034,1,8,0:0:0:0:
132,152,131110,5,10,0:0:0:0:
148,204,131187,1,8,0:0:0:0:
184,244,131264,1,8,0:0:0:0:
232,268,131341,1,8,0:0:0:0:
284,272,131418,1,8,0:0:0:0:
336,268,131495,1,8,0:0:0:0:
388,252,131572,1,10,0:0:0:0:
428,216,131649,1,8,0:0:0:0:
456,168,131726,1,8,0:0:0:0:
456,116,131803,1,8,0:0:0:0:
428,72,131880,1,8,0:0:0:0:
384,40,131957,1,8,0:0:0:0:
188,48,132034,5,10,0:0:0:0:
136,52,132110,1,8,0:0:0:0:
156,100,132187,1,8,0:0:0:0:
208,116,132264,1,8,0:0:0:0:
260,120,132341,1,8,0:0:0:0:
312,112,132418,1,8,0:0:0:0:
480,64,132495,1,10,0:0:0:0:
488,116,132572,1,8,0:0:0:0:
476,168,132649,1,8,0:0:0:0:
436,200,132726,1,8,0:0:0:0:
384,208,132803,1,8,0:0:0:0:
332,200,132880,1,8,0:0:0:0:
152,84,132957,5,10,0:0:0:0:
100,84,133034,1,8,0:0:0:0:
152,84,133110,1,8,0:0:0:0:
100,84,133187,1,8,0:0:0:0:
48,104,133264,1,8,0:0:0:0:
100,120,133341,1,8,0:0:0:0:
276,80,133418,5,10,0:0:0:0:
328,80,133495,1,8,0:0:0:0:
328,132,133571,1,8,0:0:0:0:
276,132,133649,1,8,0:0:0:0:
128,112,133725,1,8,0:0:0:0:
76,124,133802,1,8,0:0:0:0:
48,168,133880,1,10,0:0:0:0:
80,212,133957,1,8,0:0:0:0:
132,216,134034,1,8,0:0:0:0:
288,216,134110,5,8,0:0:0:0:
340,212,134187,1,8,0:0:0:0:
392,204,134264,1,8,0:0:0:0:
204,208,134341,1,10,0:0:0:0:
148,180,134418,1,8,0:0:0:0:
132,120,134495,1,8,0:0:0:0:
152,60,134572,1,8,0:0:0:0:
208,36,134649,1,8,0:0:0:0:
268,36,134726,1,8,0:0:0:0:
64,312,134803,5,10,0:0:0:0:
24,268,134880,1,8,0:0:0:0:
16,208,134957,1,8,0:0:0:0:
44,152,135034,1,8,0:0:0:0:
92,116,135110,1,8,0:0:0:0:
152,112,135187,1,8,0:0:0:0:
308,284,135264,5,10,0:0:0:0:
376,280,135341,1,8,0:0:0:0:
440,256,135418,1,8,0:0:0:0:
484,204,135495,1,8,0:0:0:0:
492,136,135572,1,8,0:0:0:0:
452,80,135649,1,8,0:0:0:0:
260,88,135726,5,10,0:0:0:0:
188,88,135803,1,8,0:0:0:0:
116,88,135880,1,8,0:0:0:0:
116,160,135957,1,8,0:0:0:0:
188,160,136034,1,8,0:0:0:0:
260,160,136110,1,8,0:0:0:0:
424,232,136187,2,0,B|596:232|336:232,1,191.666666666667,12|0,0:0|0:0,0:0:0:0:
188,244,136649,5,4,0:0:0:0:
64,244,136803,1,0,0:0:0:0:
5,182,136880,1,0,0:0:0:0:
63,119,136957,1,0,0:0:0:0:
144,120,137034,1,0,0:0:0:0:
312,120,137110,1,8,0:0:0:0:
472,120,137341,2,0,L|360:120,1,76.6666666666667,4|0,0:0|0:0,0:0:0:0:
244,120,137572,1,2,0:0:0:0:
352,120,137726,1,0,0:0:0:0:
415,122,137803,1,0,0:0:0:0:
415,174,137880,1,0,0:0:0:0:
352,172,137957,1,0,0:0:0:0:
192,172,138034,1,8,0:0:0:0:
352,172,138264,2,0,L|352:264,1,76.6666666666667,2|0,0:0|0:0,0:0:0:0:
192,244,138495,5,2,0:0:0:0:
87,224,138649,1,0,0:0:0:0:
27,213,138726,1,0,0:0:0:0:
3,163,138803,1,0,0:0:0:0:
41,117,138880,1,0,0:0:0:0:
184,100,138957,1,8,0:0:0:0:
24,96,139187,2,0,L|120:96,1,76.6666666666667,4|0,0:0|0:0,0:0:0:0:
256,100,139418,2,0,L|448:100,2,184,2|0|8,0:0|0:0|0:0,0:0:0:0:
96,100,140110,2,0,L|96:200,1,76.6666666666667,4|0,0:0|0:0,0:0:0:0:
296,176,140341,5,8,0:0:0:0:
388,132,140495,1,0,0:0:0:0:
446,78,140572,1,0,0:0:0:0:
386,31,140649,1,0,0:0:0:0:
316,44,140726,1,0,0:0:0:0:
164,56,140803,1,8,0:0:0:0:
324,56,141034,2,0,L|216:56,1,76.6666666666667,4|0,0:0|0:0,0:0:0:0:
108,60,141264,1,2,0:0:0:0:
4,88,141418,1,0,0:0:0:0:
7,157,141495,1,0,0:0:0:0:
60,204,141572,1,0,0:0:0:0:
136,208,141649,1,0,0:0:0:0:
269,167,141726,1,8,0:0:0:0:
109,163,141957,2,0,L|193:163,1,76.6666666666667,4|0,0:0|0:0,0:0:0:0:
348,120,142187,5,2,0:0:0:0:
268,176,142341,1,0,0:0:0:0:
268,224,142418,1,0,0:0:0:0:
308,260,142495,1,0,0:0:0:0:
360,264,142572,1,0,0:0:0:0:
200,268,142649,1,8,0:0:0:0:
360,272,142880,2,0,L|360:168,1,76.6666666666667,4|0,0:0|0:0,0:0:0:0:
164,176,143110,1,2,0:0:0:0:
256,188,143341,1,0,0:0:0:0:
428,216,143803,1,0,0:0:0:0:
88,192,144034,5,4,0:0:0:0:
183,183,144187,1,0,0:0:0:0:
252,149,144264,1,0,0:0:0:0:
224,80,144341,1,0,0:0:0:0:
155,71,144418,1,0,0:0:0:0:
368,72,144495,1,8,0:0:0:0:
208,68,144726,2,0,L|96:68,1,76.6666666666667,4|2,0:0|0:0,0:0:0:0:
312,64,144957,1,2,0:0:0:0:
228,64,145110,1,0,0:0:0:0:
228,116,145187,1,0,0:0:0:0:
280,159,145264,1,0,0:0:0:0:
346,160,145341,1,0,0:0:0:0:
496,152,145418,1,8,0:0:0:0:
336,148,145649,2,0,L|440:148,1,76.6666666666667,0|0,3:0|0:0,0:0:0:0:
216,184,145880,5,2,0:0:0:0:
130,194,145957,1,2,0:0:0:0:
61,163,146034,1,2,0:0:0:0:
68,77,146110,1,2,0:0:0:0:
142,67,146187,1,2,0:0:0:0:
216,72,146264,1,2,0:0:0:0:
368,72,146341,1,8,0:0:0:0:
208,72,146572,2,0,L|100:72,1,76.6666666666667,4|0,0:0|0:0,0:0:0:0:
280,76,146803,2,0,B|400:168|400:168|124:168|124:168|244:76,1,575.00002193451,4|0,0:0|0:0,0:0:0:0:
464,72,147726,5,4,0:0:0:0:
356,76,147880,1,0,0:0:0:0:
428,99,147957,1,0,0:0:0:0:
420,161,148034,1,0,0:0:0:0:
356,172,148110,1,0,0:0:0:0:
200,180,148187,1,8,0:0:0:0:
360,180,148418,2,0,L|360:72,1,76.6666666666667,4|0,0:0|0:0,0:0:0:0:
188,92,148649,1,2,0:0:0:0:
80,92,148803,1,0,0:0:0:0:
44,132,148880,1,0,0:0:0:0:
80,92,148957,1,0,0:0:0:0:
44,132,149034,1,0,0:0:0:0:
220,152,149110,1,8,0:0:0:0:
60,156,149341,2,0,L|136:156,1,76.6666666666667,4|0,0:0|0:0,0:0:0:0:
292,160,149572,5,2,0:0:0:0:
368,160,149649,1,2,0:0:0:0:
440,132,149726,1,2,0:0:0:0:
432,48,149803,1,2,0:0:0:0:
356,36,149880,1,2,0:0:0:0:
280,42,149957,1,2,0:0:0:0:
136,44,150034,1,8,0:0:0:0:
256,48,150264,2,0,L|160:48,1,76.6666666666667,4|0,0:0|0:0,0:0:0:0:
360,48,150495,1,2,0:0:0:0:
192,64,150726,2,0,L|192:112,1,38.3333333333333,0|0,3:0|0:0,3:0:0:0:
468,72,150957,2,0,L|396:72,1,38.3333333333333,8|0,0:0|0:0,0:0:0:0:
256,80,151110,1,0,0:0:0:0:
72,80,151187,2,0,B|32:80|32:80|96:80,1,76.6666666666667,2|0,0:0|0:0,0:0:0:0:
240,80,151418,5,8,0:0:0:0:
348,80,151572,1,0,0:0:0:0:
419,82,151649,1,0,0:0:0:0:
419,134,151726,1,0,0:0:0:0:
348,132,151803,1,0,0:0:0:0:
168,136,151880,1,8,0:0:0:0:
484,132,152110,2,0,P|456:184|372:204,1,115,4|2,0:0|0:0,0:0:0:0:
300,224,152495,1,0,0:0:0:0:
360,224,152572,1,0,0:0:0:0:
416,200,152649,1,0,0:0:0:0:
420,148,152726,1,0,0:0:0:0:
276,124,152803,2,0,B|236:124|236:124|284:124,1,76.6666666666667,8|0,0:0|0:0,0:0:0:0:
384,124,153034,2,0,L|492:124,1,76.6666666666667,2|0,0:0|0:0,0:0:0:0:
256,192,153264,6,0,B|112:192|112:192|244:188|244:188|400:152|228:96,1,436.999988330841,8|8,0:0|0:0,0:0:0:0:
108,84,153957,2,0,L|24:84,1,76.6666666666667,4|0,0:0|0:0,0:0:0:0:
200,84,154187,1,2,0:0:0:0:
308,84,154341,1,2,0:0:0:0:
388,84,154418,2,0,P|428:84|380:84,1,76.6666666666667,2|2,0:0|0:0,0:0:0:0:
240,152,154649,1,8,0:0:0:0:
460,156,154880,2,0,L|356:156,1,76.6666666666667,4|0,0:0|0:0,0:0:0:0:
168,148,155110,5,8,0:0:0:0:
60,152,155264,1,0,0:0:0:0:
66,95,155341,1,0,0:0:0:0:
117,54,155418,1,0,0:0:0:0:
182,49,155495,1,0,0:0:0:0:
324,56,155572,1,8,0:0:0:0:
16,56,155803,2,0,P|52:104|128:104,1,115,4|2,0:0|0:0,0:0:0:0:
255,110,156187,1,0,0:0:0:0:
255,110,156264,1,0,0:0:0:0:
221,168,156341,1,0,0:0:0:0:
159,154,156418,1,0,0:0:0:0:
368,116,156495,1,8,0:0:0:0:
216,116,156726,2,0,L|312:116,1,76.6666666666667,0|0,3:0|0:0,0:0:0:0:
52,252,156957,6,0,P|60:128|280:64,1,345.000013160706,8|8,0:0|0:0,0:0:0:0:
84,52,157649,1,0,3:0:0:0:
316,176,157880,6,0,L|192:176,2,122.666666666667,8|0|0,0:0|0:0|0:0,0:0:0:0:
100,208,158341,1,8,0:0:0:0:
33,203,158418,1,2,0:0:0:0:
0,146,158495,1,2,0:0:0:0:
32,92,158572,1,8,0:0:0:0:
108,79,158649,1,2,0:0:0:0:
180,84,158726,1,2,0:0:0:0:
360,88,158803,5,8,0:0:0:0:
468,88,158957,1,2,0:0:0:0:
493,158,159034,1,2,0:0:0:0:
431,197,159110,1,2,0:0:0:0:
355,194,159187,1,2,0:0:0:0:
200,188,159264,2,0,L|104:188,1,76.6666666666667,8|0,0:0|0:0,0:0:0:0:
304,192,159495,2,0,P|360:192|296:192,1,115,4|2,0:0|0:0,0:0:0:0:
160,88,159880,1,2,0:0:0:0:
108,92,159957,2,0,L|108:40,2,38.3333333333333,2|2|2,0:0|0:0|0:0,0:0:0:0:
324,80,160187,2,0,L|468:80,1,115,8|4,0:0|0:0,0:0:0:0:
240,192,160649,6,0,P|96:192|7:165,1,230,2|8,0:0|0:0,0:0:0:0:
120,160,161264,1,0,0:0:0:0:
120,160,161341,1,0,0:0:0:0:
44,160,161418,1,0,0:0:0:0:
44,160,161495,1,0,0:0:0:0:
224,156,161572,2,0,B|300:156|300:156|168:156|168:156|252:156,1,268.33332514445,4|0,0:0|0:0,0:0:0:0:
388,96,162034,2,0,P|504:96|328:96,1,287.500010967255,8|0,0:0|0:0,0:0:0:0:
176,100,162495,5,4,0:0:0:0:
68,108,162649,1,0,0:0:0:0:
0,141,162726,1,0,0:0:0:0:
40,201,162803,1,0,0:0:0:0:
117,187,162880,1,0,0:0:0:0:
280,192,162957,2,0,L|384:192,1,76.6666666666667,8|0,0:0|0:0,0:0:0:0:
180,192,163187,2,0,P|140:192|200:192,1,76.6666666666667,4|0,0:0|0:0,0:0:0:0:
336,188,163418,1,2,0:0:0:0:
452,188,163572,1,0,0:0:0:0:
452,136,163649,1,0,0:0:0:0:
344,132,163803,1,2,0:0:0:0:
168,128,163880,2,0,L|40:128,1,115,8|2,0:0|0:0,0:0:0:0:
436,144,164341,6,0,P|472:240|300:292,1,298.999986312867,6|8,0:0|0:0,0:0:0:0:
200,292,164957,1,0,0:0:0:0:
108,288,165034,2,0,B|72:288|72:288|116:232,1,76.6666666666667
256,284,165264,2,0,L|256:204,1,76.6666666666667,4|0,0:0|0:0,0:0:0:0:
76,192,165495,2,0,P|28:192|100:192,1,99.6666621042889,0|2,3:0|0:0,0:0:0:0:
284,212,165726,2,0,L|204:152,1,76.6666666666667,8|0,0:0|0:0,0:0:0:0:
436,188,165957,2,0,P|476:188|428:188,1,76.6666666666667
252,144,166187,6,0,L|148:144,1,76.6666666666667,8|0,0:0|0:0,0:0:0:0:
176,88,166418,1,2,0:0:0:0:
284,84,166572,1,2,0:0:0:0:
132,76,166649,2,0,L|16:76,1,115,8|0,0:0|3:0,0:0:0:0:
408,80,167110,1,2,0:0:0:0:
300,88,167264,1,0,0:0:0:0:
408,96,167341,2,0,L|320:96,1,76.6666666666667,0|2,0:0|0:0,0:0:0:0:
164,96,167572,2,0,L|60:96,1,76.6666666666667,8|0,0:0|0:0,0:0:0:0:
32,96,167803,2,0,L|124:96,1,76.6666666666667
272,112,168034,6,0,B|392:112|392:112|392:196|392:196|280:196,1,268.33332514445,2|0,0:0|0:0,0:0:0:0:
188,192,168495,1,8,0:0:0:0:
80,192,168649,1,0,0:0:0:0:
80,140,168726,1,0,0:0:0:0:
188,136,168880,1,0,0:0:0:0:
344,164,168957,2,0,L|432:164,1,76.6666666666667,2|2,0:0|0:0,0:0:0:0:
256,132,169187,2,0,B|236:168|236:168|265:213,1,76.6666666666667,2|0,0:0|0:0,0:0:0:0:
424,208,169418,2,0,L|504:208,1,76.6666666666667,8|0,0:0|0:0,0:0:0:0:
320,212,169649,2,0,L|392:168,1,76.6666666666667,2|0,0:0|0:0,0:0:0:0:
212,168,169880,6,0,L|116:168,1,91.9999971923829,2|0,0:0|0:0,0:0:0:0:
60,168,170110,2,0,B|16:168|16:168|72:168,1,91.9999971923829,4|0,0:0|0:0,0:0:0:0:
256,188,170341,1,8,0:0:0:0:
416,192,170572,1,0,0:0:0:0:
308,192,170726,1,0,0:0:0:0:
144,192,170803,1,2,0:0:0:0:
252,192,170957,1,0,0:0:0:0:
252,140,171034,1,0,0:0:0:0:
144,132,171187,1,2,0:0:0:0:
300,132,171264,2,0,L|408:136,1,76.6666666666667,8|0,0:0|0:0,0:0:0:0:
432,136,171495,2,0,L|336:100,1,76.6666666666667
184,100,171726,6,0,B|108:100|108:100|172:100,1,137.999995788574,2|0,0:0|0:0,0:0:0:0:
316,100,172110,1,4,0:0:0:0:
480,104,172187,1,8,0:0:0:0:
372,108,172341,1,0,0:0:0:0:
320,108,172418,2,0,L|232:108,1,76.6666666666667
40,116,172649,2,0,L|36:224,1,84.3333359069825,8|0,0:0|0:0,0:0:0:0:
232,200,172880,2,0,L|316:156,1,84.3333359069825,2|0,0:0|0:0,0:0:0:0:
80,172,173111,2,0,L|168:124,1,91.9999971923829,8|0,0:0|0:0,0:0:0:0:
388,112,173341,2,0,P|444:112|372:112,1,91.9999971923829,2|0,0:0|0:0,0:0:0:0:
188,112,173572,6,0,B|12:112|12:112|204:112,1,325.833339548111,2|2,0:0|0:0,0:0:0:0:
336,108,174034,1,8,0:0:0:0:
228,108,174187,1,0,0:0:0:0:
376,216,174264,2,0,P|420:208|460:132,1,115,4|2,0:0|0:0,0:0:0:0:
296,136,174649,1,0,0:0:0:0:
296,84,174726,1,0,0:0:0:0:
404,76,174880,1,2,0:0:0:0:
256,160,174956,1,8,0:0:0:0:
118,162,175110,1,2,0:0:0:0:
118,162,175187,1,2,0:0:0:0:
257,160,175341,1,2,0:0:0:0:
448,168,175418,6,0,P|471:119|401:71,1,137.999995788574,2|0,0:0|0:0,0:0:0:0:
308,72,175803,1,0,0:0:0:0:
156,76,175880,1,8,0:0:0:0:
264,72,176034,1,0,0:0:0:0:
364,76,176110,2,0,L|460:76,1,76.6666666666667,4|0,0:0|0:0,0:0:0:0:
283,77,176341,2,0,L|167:77,1,84.3333359069825,2|0,0:0|0:0,0:0:0:0:
36,92,176572,2,0,L|132:92,1,84.3333359069825,2|0,0:0|0:0,0:0:0:0:
296,88,176803,2,0,L|388:88,1,91.9999971923829,8|0,0:0|0:0,0:0:0:0:
180,88,177034,2,0,L|80:88,1,91.9999971923829,2|0,0:0|0:0,0:0:0:0:
332,84,177264,6,0,B|488:84|488:84|488:160|368:144,1,268.33332514445,2|2,0:0|0:0,0:0:0:0:
212,152,177726,1,8,0:0:0:0:
104,152,177880,1,0,0:0:0:0:
292,112,177957,2,0,P|340:104|320:36,1,126.500003860474,4|2,0:0|0:0,0:0:0:0:
224,40,178341,1,2,0:0:0:0:
116,80,178418,2,0,P|148:105|202:115,1,84.3333359069825,2|2,0:0|0:0,0:0:0:0:
368,136,178649,2,0,P|416:136|364:136,1,91.9999971923829,8|0,0:0|0:0,0:0:0:0:
160,184,178880,2,0,L|52:184,1,91.9999971923829,2|0,0:0|0:0,0:0:0:0:
256,192,179110,6,0,B|476:140|476:140|56:100|56:100|292:44,1,881.666666666667,4|0,0:0|0:0,0:0:0:0:
428,60,180957,5,8,0:0:0:0:
272,56,181187,1,2,0:0:0:0:
44,56,181418,2,0,L|132:56,1,76.6666666666667,8|0,0:0|0:0,0:0:0:0:
176,56,181649,1,2,0:0:0:0:
336,56,181880,1,2,0:0:0:0:
176,56,182110,1,2,0:0:0:0:
484,68,182341,2,0,P|477:121|424:148,1,115,8|2,0:0|0:0,0:0:0:0:
196,120,182803,6,0,L|336:136,1,115,6|2,0:0|0:0,0:0:0:0:
8,128,183264,1,8,0:0:0:0:
116,128,183418,2,0,L|188:128,1,38.3333333333333,2|2,0:0|0:0,0:0:0:0:
384,132,183726,1,2,0:0:0:0:
492,132,183880,2,0,L|424:132,1,38.3333333333333,2|2,0:0|0:0,0:0:0:0:
144,144,184187,1,8,0:0:0:0:
360,140,184418,1,2,0:0:0:0:
36,136,184649,6,0,P|48:200|136:200,1,137.999995788574,6|2,0:0|0:0,0:0:0:0:
332,224,185110,2,0,P|376:196|396:124,1,115,8|2,0:0|0:0,0:0:0:0:
44,152,185572,2,0,L|44:64,1,76.6666666666667,2|6,0:0|0:0,0:0:0:0:
100,76,185803,1,2,0:0:0:0:
432,104,186034,2,0,P|400:160|320:176,1,115,0|2,0:0|0:0,0:0:0:0:
128,160,186495,6,0,P|140:232|204:248,1,115,6|2,0:0|0:0,0:0:0:0:
400,236,186957,1,8,0:0:0:0:
476,236,187110,1,6,0:0:0:0:
436,236,187187,1,2,0:0:0:0:
96,240,187418,1,2,0:0:0:0:
184,240,187572,2,0,L|252:240,1,38.3333333333333,2|2,0:0|0:0,0:0:0:0:
440,240,187880,1,8,0:0:0:0:
124,252,188110,1,2,0:0:0:0:
440,200,188341,6,0,P|416:256|356:260,1,115,2|2,0:0|0:0,0:0:0:0:
120,192,188803,1,8,0:0:0:0:
280,196,189034,1,2,0:0:0:0:
496,200,189264,2,0,L|496:120,1,76.6666666666667,2|6,0:0|0:0,0:0:0:0:
440,124,189495,1,2,0:0:0:0:
116,192,189726,2,0,P|104:260|164:276,1,126.500003860474,8|2,0:0|0:0,0:0:0:0:
472,192,190187,6,0,L|344:192,1,126.500003860474,6|2,0:0|0:0,0:0:0:0:
124,184,190649,1,8,0:0:0:0:
16,188,190803,2,0,L|16:128,1,38.3333333333333,2|2,0:0|0:0,0:0:0:0:
328,104,191110,1,2,0:0:0:0:
168,104,191341,1,2,0:0:0:0:
476,112,191572,1,8,0:0:0:0:
480,272,191803,1,2,0:0:0:0:
136,276,192034,6,0,P|120:208|200:160,1,137.999995788574,6|2,0:0|0:0,0:0:0:0:
480,184,192495,2,0,P|480:116|416:84,1,126.500003860474,8|2,0:0|0:0,0:0:0:0:
124,100,192957,2,0,L|272:100,1,115,2|2,0:0|0:0,0:0:0:0:
488,96,193418,2,0,L|488:248,1,115,8|2,0:0|0:0,0:0:0:0:
132,192,193880,6,0,B|368:192|368:192|156:96|156:96|376:36,1,690,4|0,0:0|0:0,0:0:0:0:
50,73,195726,5,8,2:3:0:0:
256,280,203110,5,2,0:0:0:0:
228,236,203187,1,0,0:0:0:0:
220,184,203264,1,0,0:0:0:0:
220,132,203341,1,0,0:0:0:0:
240,84,203418,1,0,0:0:0:0:
276,44,203495,1,0,0:0:0:0:
328,44,203572,2,0,L|384:160,1,115,2|0,0:0|0:0,0:0:0:0:
248,248,204034,5,2,0:0:0:0:
296,224,204110,1,0,0:0:0:0:
324,176,204187,1,0,0:0:0:0:
320,124,204264,1,0,0:0:0:0:
292,76,204341,1,0,0:0:0:0:
248,48,204418,1,0,0:0:0:0:
196,48,204495,2,0,L|100:128,1,115,2|0,0:0|0:0,0:0:0:0:
256,216,204957,5,2,0:0:0:0:
204,208,205034,1,0,0:0:0:0:
172,168,205110,1,0,0:0:0:0:
164,112,205187,1,0,0:0:0:0:
196,68,205264,1,0,0:0:0:0:
248,52,205341,1,0,0:0:0:0:
300,48,205418,2,0,L|424:88,1,115,2|0,0:0|0:0,0:0:0:0:
256,180,205880,5,2,0:0:0:0:
200,184,205957,1,0,0:0:0:0:
144,168,206033,1,0,0:0:0:0:
108,124,206110,1,0,0:0:0:0:
128,68,206187,1,0,0:0:0:0:
184,60,206264,1,0,0:0:0:0:
284,56,206341,2,0,L|416:56,1,115,8|0,0:0|0:0,0:0:0:0:
168,288,206803,5,2,0:0:0:0:
116,280,206880,1,0,0:0:0:0:
68,256,206957,1,0,0:0:0:0:
40,208,207034,1,0,0:0:0:0:
48,156,207110,1,0,0:0:0:0:
72,108,207187,1,0,0:0:0:0:
124,92,207264,2,0,L|268:92,1,115,2|0,0:0|0:0,0:0:0:0:
392,48,207726,5,2,0:0:0:0:
440,84,207803,1,0,0:0:0:0:
456,148,207880,1,0,0:0:0:0:
416,200,207957,1,0,0:0:0:0:
356,216,208034,1,0,0:0:0:0:
296,196,208110,1,0,0:0:0:0:
176,180,208187,2,0,B|108:180|108:180|196:184,1,137.999995788574,8|0,0:0|0:0,0:0:0:0:
316,252,208649,5,2,0:0:0:0:
328,200,208726,1,0,0:0:0:0:
320,144,208803,1,0,0:0:0:0:
300,92,208880,1,0,0:0:0:0:
256,60,208956,1,0,0:0:0:0:
200,48,209033,1,0,0:0:0:0:
144,48,209110,2,0,L|-4:48,1,115,2|0,0:0|0:0,0:0:0:0:
196,56,209572,5,2,0:0:0:0:
144,56,209649,1,0,0:0:0:0:
96,80,209726,1,0,0:0:0:0:
80,132,209803,1,0,0:0:0:0:
104,180,209880,1,0,0:0:0:0:
156,196,209957,1,0,0:0:0:0:
256,216,210034,1,2,0:0:0:0:
344,160,210110,1,2,0:0:0:0:
256,104,210187,1,2,0:0:0:0:
156,100,210264,2,0,B|104:100|104:100|164:100,1,99.6666621042889,8|0,0:0|0:0,0:0:0:0:
332,96,210495,5,2,0:0:0:0:
384,100,210572,1,0,0:0:0:0:
432,124,210649,1,0,0:0:0:0:
452,172,210726,1,0,0:0:0:0:
420,216,210803,1,0,0:0:0:0:
368,228,210880,1,0,0:0:0:0:
264,232,210957,2,0,L|124:232,1,115,2|0,0:0|0:0,0:0:0:0:
100,228,211264,1,0,0:0:0:0:
149,232,211341,1,0,0:0:0:0:
304,192,211418,5,8,0:0:0:0:
352,192,211495,1,0,0:0:0:0:
304,192,211572,1,0,0:0:0:0:
196,192,211649,2,0,L|336:152,1,115,0|2,0:0|0:0,0:0:0:0:
356,144,211957,1,0,0:0:0:0:
356,96,212034,1,0,0:0:0:0:
256,64,212110,2,0,L|360:64,1,76.6666666666667
152,56,212341,5,2,0:0:0:0:
104,72,212418,1,0,0:0:0:0:
72,108,212495,1,0,0:0:0:0:
76,156,212572,1,0,0:0:0:0:
112,188,212649,1,0,0:0:0:0:
160,196,212726,1,0,0:0:0:0:
264,196,212803,2,0,L|404:196,1,115,2|0,0:0|0:0,0:0:0:0:
428,196,213110,1,0,0:0:0:0:
379,196,213187,1,0,0:0:0:0:
212,200,213264,5,8,0:0:0:0:
164,200,213341,1,0,0:0:0:0:
212,200,213418,1,0,0:0:0:0:
320,192,213495,2,0,L|180:152,1,115,0|2,0:0|0:0,0:0:0:0:
160,160,213803,1,0,0:0:0:0:
209,160,213880,1,0,0:0:0:0:
312,108,213957,2,0,L|416:108,1,76.6666666666667
172,72,214187,5,2,0:0:0:0:
124,72,214264,1,0,0:0:0:0:
76,88,214341,1,0,0:0:0:0:
52,132,214418,1,0,0:0:0:0:
72,176,214495,1,0,0:0:0:0:
120,192,214572,1,0,0:0:0:0:
224,192,214649,2,0,L|352:192,1,115,2|0,0:0|0:0,0:0:0:0:
392,192,214957,1,0,0:0:0:0:
444,192,215034,1,0,0:0:0:0:
256,188,215110,5,8,0:0:0:0:
204,192,215187,1,0,0:0:0:0:
204,140,215264,1,0,0:0:0:0:
300,136,215341,2,0,L|420:136,1,115,0|2,0:0|0:0,0:0:0:0:
468,136,215649,1,0,0:0:0:0:
416,136,215726,1,0,0:0:0:0:
316,136,215803,2,0,L|224:136,1,76.6666666666667
428,40,216034,5,2,0:0:0:0:
428,92,216111,1,0,0:0:0:0:
420,144,216188,1,0,0:0:0:0:
376,172,216265,1,0,0:0:0:0:
324,176,216342,1,0,0:0:0:0:
272,180,216419,1,0,0:0:0:0:
172,184,216496,2,0,L|32:184,1,115,2|0,0:0|0:0,0:0:0:0:
4,184,216803,1,0,0:0:0:0:
57,184,216880,1,0,0:0:0:0:
224,192,216957,5,8,0:0:0:0:
276,196,217034,1,0,0:0:0:0:
328,196,217111,1,0,0:0:0:0:
228,200,217188,2,0,P|184:172|212:124,1,115,0|2,0:0|0:0,0:0:0:0:
264,120,217496,1,0,0:0:0:0:
316,120,217573,1,0,0:0:0:0:
420,120,217650,2,0,L|316:120,1,76.6666666666667
136,112,217880,5,2,0:0:0:0:
84,112,217957,1,0,0:0:0:0:
40,140,218034,1,0,0:0:0:0:
44,192,218110,1,0,0:0:0:0:
88,224,218187,1,0,0:0:0:0:
140,220,218264,1,0,0:0:0:0:
240,220,218341,2,0,L|368:224,1,115,2|0,0:0|0:0,0:0:0:0:
408,224,218649,1,0,0:0:0:0:
352,224,218726,1,0,0:0:0:0:
200,220,218803,5,8,0:0:0:0:
148,220,218880,1,0,0:0:0:0:
96,220,218957,1,0,0:0:0:0:
196,200,219034,2,0,L|320:200,1,115,0|2,0:0|0:0,0:0:0:0:
364,200,219341,1,0,0:0:0:0:
312,200,219418,1,0,0:0:0:0:
208,176,219495,2,0,L|208:272,1,76.6666666666667
388,256,219726,5,2,0:0:0:0:
440,256,219803,1,0,0:0:0:0:
480,220,219880,1,0,0:0:0:0:
480,168,219957,1,0,0:0:0:0:
440,132,220034,1,0,0:0:0:0:
388,128,220110,1,0,0:0:0:0:
288,136,220187,2,0,P|252:112|296:60,1,115,2|0,0:0|0:0,0:0:0:0:
336,60,220495,1,0,0:0:0:0:
284,60,220572,1,0,0:0:0:0:
128,60,220649,5,8,0:0:0:0:
76,60,220726,1,0,0:0:0:0:
128,60,220803,1,0,0:0:0:0:
216,60,220880,2,0,L|336:60,1,115,0|2,0:0|0:0,0:0:0:0:
384,60,221187,1,0,0:0:0:0:
384,60,221264,1,0,0:0:0:0:
284,60,221341,2,0,L|208:60,1,76.6666666666667
400,64,221572,5,2,0:0:0:0:
360,116,221649,1,0,0:0:0:0:
316,148,221726,1,0,0:0:0:0:
260,152,221803,1,0,0:0:0:0:
212,116,221880,1,0,0:0:0:0:
264,88,221957,1,0,0:0:0:0:
368,88,222034,2,0,L|488:88,1,115,2|0,0:0|0:0,0:0:0:0:
440,104,222341,1,0,0:0:0:0:
388,104,222418,1,0,0:0:0:0:
216,104,222495,5,8,0:0:0:0:
164,108,222572,1,0,0:0:0:0:
216,104,222649,1,0,0:0:0:0:
316,104,222726,2,0,L|184:104,1,115,0|2,0:0|0:0,0:0:0:0:
148,108,223034,1,0,0:0:0:0:
201,104,223110,1,0,0:0:0:0:
300,100,223187,2,0,L|388:100,1,76.6666666666667
184,104,223418,5,2,0:0:0:0:
132,104,223495,1,0,0:0:0:0:
80,120,223572,1,0,0:0:0:0:
68,172,223649,1,0,0:0:0:0:
112,204,223726,1,0,0:0:0:0:
164,208,223803,1,0,0:0:0:0:
260,212,223880,2,0,L|384:212,1,115,2|0,0:0|0:0,0:0:0:0:
428,212,224187,1,0,0:0:0:0:
376,212,224264,1,0,0:0:0:0:
208,220,224341,5,8,0:0:0:0:
156,220,224418,1,0,0:0:0:0:
208,224,224495,1,0,0:0:0:0:
304,224,224572,2,0,L|452:224,1,115,0|2,0:0|0:0,0:0:0:0:
364,224,224880,1,0,0:0:0:0:
312,224,224957,1,0,0:0:0:0:
208,224,225034,2,0,L|100:224,1,76.6666666666667
312,292,225264,5,2,0:0:0:0:
396,280,225341,1,2,0:0:0:0:
464,232,225418,1,2,0:0:0:0:
496,152,225495,1,2,0:0:0:0:
468,72,225572,1,2,0:0:0:0:
388,40,225649,1,2,0:0:0:0:
220,80,225726,2,0,B|164:80|164:80|224:80,1,115,8|2,0:0|0:0,0:0:0:0:
276,80,226034,1,2,0:0:0:0:
328,80,226110,1,2,0:0:0:0:
192,80,226187,5,2,0:0:0:0:
140,80,226264,1,2,0:0:0:0:
192,80,226341,1,2,0:0:0:0:
404,80,226418,2,0,P|444:80|408:80,1,76.6666666666667,8|0,0:0|0:0,0:0:0:0:
256,80,226649,1,2,0:0:0:0:
200,80,226726,1,2,0:0:0:0:
256,80,226803,1,2,0:0:0:0:
360,84,226880,2,0,L|468:84,1,76.6666666666667,8|0,0:0|0:0,0:0:0:0:
256,80,227110,5,2,0:0:0:0:
172,80,227187,1,2,0:0:0:0:
96,120,227264,1,2,0:0:0:0:
84,204,227341,1,2,0:0:0:0:
120,280,227418,1,2,0:0:0:0:
204,300,227495,1,2,0:0:0:0:
360,288,227572,2,0,L|496:288,1,115,8|2,0:0|0:0,0:0:0:0:
420,288,227880,1,2,0:0:0:0:
368,288,227956,1,2,0:0:0:0:
224,288,228033,5,2,0:0:0:0:
224,288,228110,1,2,0:0:0:0:
224,288,228187,1,2,0:0:0:0:
376,288,228264,2,0,L|480:288,1,76.6666666666667,8|0,0:0|0:0,0:0:0:0:
232,292,228495,1,2,0:0:0:0:
284,292,228572,1,2,0:0:0:0:
332,292,228649,1,2,0:0:0:0:
148,296,228726,2,0,L|64:296,1,76.6666666666667,8|0,0:0|0:0,0:0:0:0:
264,296,228957,5,2,0:0:0:0:
348,276,229034,1,2,0:0:0:0:
376,196,229110,1,2,0:0:0:0:
320,132,229187,1,2,0:0:0:0:
376,68,229264,1,2,0:0:0:0:
296,36,229341,1,2,0:0:0:0:
132,40,229418,2,0,P|76:40|156:40,1,115,8|2,0:0|0:0,0:0:0:0:
192,40,229726,1,2,0:0:0:0:
248,40,229803,1,2,0:0:0:0:
416,40,229880,5,2,0:0:0:0:
472,40,229957,1,2,0:0:0:0:
472,96,230034,1,2,0:0:0:0:
416,96,230110,2,0,L|312:96,1,76.6666666666667,8|0,0:0|0:0,0:0:0:0:
200,104,230341,1,2,0:0:0:0:
144,104,230418,1,2,0:0:0:0:
200,104,230495,1,2,0:0:0:0:
304,104,230572,2,0,L|400:104,1,76.6666666666667,8|0,0:0|0:0,0:0:0:0:
240,296,230803,5,2,0:0:0:0:
156,276,230880,1,2,0:0:0:0:
128,196,230956,1,2,0:0:0:0:
184,132,231033,1,2,0:0:0:0:
128,68,231110,1,2,0:0:0:0:
208,36,231187,1,2,0:0:0:0:
372,40,231264,2,0,P|428:40|348:40,1,115,8|2,0:0|0:0,0:0:0:0:
312,40,231572,1,2,0:0:0:0:
256,40,231649,1,2,0:0:0:0:
88,40,231726,5,2,0:0:0:0:
32,40,231803,1,2,0:0:0:0:
32,96,231880,1,2,0:0:0:0:
88,96,231956,2,0,L|192:96,1,76.6666666666667,8|0,0:0|0:0,0:0:0:0:
304,104,232187,1,2,0:0:0:0:
360,104,232264,1,2,0:0:0:0:
304,104,232341,1,2,0:0:0:0:
200,104,232418,2,0,L|104:104,1,76.6666666666667,8|0,0:0|0:0,0:0:0:0:
308,40,232649,5,10,0:0:0:0:
360,64,232726,1,2,0:0:0:0:
308,92,232803,1,2,0:0:0:0:
204,100,232880,1,10,0:0:0:0:
148,104,232957,1,2,0:0:0:0:
92,108,233034,1,2,0:0:0:0:
256,112,233110,1,10,0:0:0:0:
428,96,233341,1,10,0:0:0:0:
484,96,233418,1,2,0:0:0:0:
428,96,233495,1,2,0:0:0:0:
256,104,233572,5,10,0:0:0:0:
200,104,233649,1,2,0:0:0:0:
256,104,233726,1,2,0:0:0:0:
404,108,233803,1,10,0:0:0:0:
232,116,234034,1,10,0:0:0:0:
176,120,234110,1,2,0:0:0:0:
120,120,234187,1,2,0:0:0:0:
288,124,234264,2,0,L|400:124,1,76.6666666666667,10|0,0:0|0:0,0:0:0:0:
204,40,234495,5,10,0:0:0:0:
152,64,234572,1,2,0:0:0:0:
204,92,234649,1,2,0:0:0:0:
308,100,234726,1,10,0:0:0:0:
364,104,234803,1,2,0:0:0:0:
420,108,234880,1,2,0:0:0:0:
256,112,234956,1,10,0:0:0:0:
84,96,235187,1,10,0:0:0:0:
28,96,235264,1,2,0:0:0:0:
84,96,235341,1,2,0:0:0:0:
256,104,235418,5,10,0:0:0:0:
312,104,235495,1,2,0:0:0:0:
256,104,235572,1,2,0:0:0:0:
108,108,235649,1,10,0:0:0:0:
280,116,235880,1,10,0:0:0:0:
336,120,235956,1,2,0:0:0:0:
392,120,236033,1,2,0:0:0:0:
224,124,236110,2,0,L|112:124,1,76.6666666666667,10|0,0:0|0:0,0:0:0:0:
312,120,236341,5,10,0:0:0:0:
380,144,236418,1,2,0:0:0:0:
428,200,236495,1,2,0:0:0:0:
408,268,236572,1,10,0:0:0:0:
340,300,236649,1,2,0:0:0:0:
268,296,236726,1,2,0:0:0:0:
204,260,236803,1,10,0:0:0:0:
212,188,236880,1,2,0:0:0:0:
260,132,236957,1,2,0:0:0:0:
332,128,237034,1,10,0:0:0:0:
380,180,237110,1,2,0:0:0:0:
316,212,237187,1,2,0:0:0:0:
160,160,237264,5,10,0:0:0:0:
180,232,237341,1,2,0:0:0:0:
252,248,237418,1,2,0:0:0:0:
324,256,237495,1,10,0:0:0:0:
388,220,237572,1,2,0:0:0:0:
324,184,237649,1,2,0:0:0:0:
184,344,237726,5,10,0:0:0:0:
132,344,237803,1,2,0:0:0:0:
80,340,237880,1,2,0:0:0:0:
36,312,237957,1,10,0:0:0:0:
20,260,238034,1,2,0:0:0:0:
56,220,238110,1,2,0:0:0:0:
192,260,238187,6,0,B|480:260|480:260|520:184|520:184|480:108|480:108|284:108,1,651.666666666667,4|0,0:0|0:0,0:0:0:0:
132,216,239572,2,0,B|16:216|16:216|160:216,1,229.999992980957,4|0,0:0|0:0,0:0:0:0:
304,152,240034,5,12,0:0:0:0:
372,152,240110,1,0,0:0:0:0:
440,152,240187,1,0,0:0:0:0:
492,108,240264,1,0,0:0:0:0:
440,60,240341,1,0,0:0:0:0:
368,60,240418,1,0,0:0:0:0:
200,88,240495,2,0,L|68:104,1,115,0|0,3:0|0:0,0:0:0:0:
16,132,240803,1,0,0:0:0:0:
80,176,240880,1,2,0:0:0:0:
256,204,240957,1,8,0:0:0:0:
316,180,241034,1,2,0:0:0:0:
256,148,241110,1,2,0:0:0:0:
144,96,241187,2,0,P|84:96|0:44,2,137.999995788574,2|2|0,3:0|3:0|0:0,0:0:0:0:
480,132,241880,5,2,0:0:0:0:
480,200,241957,1,0,0:0:0:0:
452,268,242034,1,0,0:0:0:0:
392,296,242110,1,0,0:0:0:0:
320,308,242187,1,0,0:0:0:0:
252,312,242264,1,0,0:0:0:0:
152,304,242341,2,0,L|232:288,1,76.6666666666667,0|0,3:0|0:0,0:0:0:0:
44,244,242572,1,2,0:0:0:0:
0,196,242649,1,0,0:0:0:0:
68,172,242726,1,0,0:0:0:0:
228,76,242803,5,8,0:0:0:0:
284,76,242880,1,2,0:0:0:0:
340,76,242957,1,2,0:0:0:0:
404,76,243034,2,0,B|444:76|444:76|392:76,1,76.6666666666667,2|2,0:0|0:0,0:0:0:0:
164,80,243264,2,0,P|196:108|252:116,1,84.3333359069825,12|0,0:0|0:0,0:0:0:0:
340,108,243495,1,2,0:0:0:0:
340,108,243534,1,2,0:0:0:0:
340,108,243572,1,2,0:0:0:0:
340,108,243610,1,2,0:0:0:0:
340,108,243649,1,2,0:0:0:0:
116,76,243726,6,0,L|32:76,2,57.500002193451,8|0|0,0:0|0:0|0:0,0:0:0:0:
263,76,243957,2,0,L|348:76,2,57.500002193451
40,84,244187,2,0,P|84:132|180:140,1,149.499993156433,0|0,3:0|0:0,0:0:0:0:
220,148,244495,1,0,0:0:0:0:
272,148,244572,1,0,0:0:0:0:
424,152,244649,1,8,0:0:0:0:
476,152,244726,1,2,0:0:0:0:
424,152,244803,1,2,0:0:0:0:
324,148,244880,2,0,B|248:148|248:148|332:148,1,137.999995788574,0|2,3:0|3:0,0:0:0:0:
472,144,245341,1,0,0:0:0:0:
52,180,245572,5,2,0:0:0:0:
108,180,245649,1,0,0:0:0:0:
168,180,245726,1,0,0:0:0:0:
224,132,245803,1,0,0:0:0:0:
196,64,245880,1,0,0:0:0:0:
124,56,245957,1,0,0:0:0:0:
280,68,246034,2,0,L|404:68,1,115,0|0,3:0|0:0,0:0:0:0:
448,68,246341,1,0,0:0:0:0:
395,68,246418,1,0,0:0:0:0:
216,268,246495,5,8,0:0:0:0:
144,228,246572,1,0,0:0:0:0:
128,144,246649,1,0,0:0:0:0:
200,88,246726,1,2,0:0:0:0:
292,96,246803,1,2,0:0:0:0:
352,200,246880,1,2,0:0:0:0:
268,264,246957,1,4,0:0:0:0:
176,236,247034,1,4,0:0:0:0:
332,256,247110,1,0,3:0:0:0:
420,252,247187,1,4,0:0:0:0:
464,168,247264,1,4,0:0:0:0:
380,132,247341,1,0,3:0:0:0:
192,156,247418,5,8,0:0:0:0:
116,164,247494,1,0,0:0:0:0:
40,152,247571,1,0,0:0:0:0:
16,76,247648,1,0,0:0:0:0:
76,20,247725,1,0,0:0:0:0:
152,40,247802,1,0,0:0:0:0:
296,68,247880,2,0,P|360:68|300:68,1,115,0|0,3:0|0:0,0:0:0:0:
256,68,248187,1,0,0:0:0:0:
204,68,248264,1,2,0:0:0:0:
356,72,248341,1,8,0:0:0:0:
304,72,248418,1,2,0:0:0:0:
252,68,248495,1,2,0:0:0:0:
356,72,248572,2,0,L|512:72,2,137.999995788574,2|2|0,3:0|3:0|0:0,0:0:0:0:
28,120,249264,5,2,0:0:0:0:
104,120,249341,1,0,0:0:0:0:
28,120,249418,1,0,0:0:0:0:
36,60,249495,1,0,0:0:0:0:
100,56,249572,1,0,0:0:0:0:
140,96,249649,1,0,0:0:0:0:
280,116,249726,2,0,P|280:176|208:208,1,115,0|2,3:0|0:0,0:0:0:0:
184,216,250034,1,0,0:0:0:0:
240,216,250110,1,0,0:0:0:0:
384,208,250187,1,8,0:0:0:0:
436,208,250264,1,2,0:0:0:0:
384,212,250341,1,2,0:0:0:0:
196,216,250418,2,0,L|88:216,1,76.6666666666667,0|2,3:0|0:0,0:0:0:0:
324,220,250649,2,0,B|404:220|404:220|456:216|484:176,1,172.500006580353,8|2,0:0|0:0,0:0:0:0:
152,192,251110,5,8,0:0:0:0:
204,192,251187,1,0,0:0:0:0:
264,192,251264,1,0,0:0:0:0:
324,172,251341,1,0,0:0:0:0:
364,108,251418,1,0,0:0:0:0:
300,76,251495,1,0,0:0:0:0:
200,80,251572,2,0,L|56:80,1,115,0|0,3:0|0:0,0:0:0:0:
32,84,251880,1,0,0:0:0:0:
32,136,251957,1,0,0:0:0:0:
228,160,252034,1,8,0:0:0:0:
280,160,252110,1,2,0:0:0:0:
228,160,252187,1,2,0:0:0:0:
136,168,252264,2,0,L|240:112,1,115,2|2,3:0|3:0,0:0:0:0:
76,112,252726,1,0,0:0:0:0:
440,188,252957,5,2,0:0:0:0:
388,188,253034,1,0,0:0:0:0:
324,184,253110,1,0,0:0:0:0:
272,140,253187,1,0,0:0:0:0:
300,72,253264,1,0,0:0:0:0:
368,72,253341,1,0,0:0:0:0:
472,72,253418,2,0,P|436:108|352:104,1,115,0|0,3:0|0:0,0:0:0:0:
320,116,253726,1,0,0:0:0:0:
268,116,253803,1,0,0:0:0:0:
92,116,253880,5,8,0:0:0:0:
28,116,253957,1,0,0:0:0:0:
92,116,254034,1,0,0:0:0:0:
228,112,254110,1,2,0:0:0:0:
308,112,254187,1,2,0:0:0:0:
388,132,254264,1,2,0:0:0:0:
440,208,254341,1,4,0:0:0:0:
364,272,254418,1,4,0:0:0:0:
184,284,254495,1,0,3:0:0:0:
124,284,254572,1,4,0:0:0:0:
184,284,254649,1,4,0:0:0:0:
124,284,254726,1,0,3:0:0:0:
288,284,254803,5,12,0:0:0:0:
376,288,254880,1,0,0:0:0:0:
428,288,254957,1,0,0:0:0:0:
428,288,255034,1,0,0:0:0:0:
376,288,255110,1,0,0:0:0:0:
324,292,255187,1,0,0:0:0:0:
220,296,255264,2,0,L|136:296,1,76.6666666666667,0|0,3:0|0:0,0:0:0:0:
319,292,255495,2,0,P|371:292|315:292,1,99.6666621042889,4|2,0:0|0:0,0:0:0:0:
172,236,255726,1,8,0:0:0:0:
332,240,255957,1,0,3:0:0:0:
20,196,256187,2,0,P|16:264|76:292,1,137.999995788574,8|0,0:0|0:0,0:0:0:0:
396,292,256649,5,2,0:0:0:0:
396,240,256726,1,0,0:0:0:0:
320,240,256803,1,0,0:0:0:0:
320,188,256880,1,0,0:0:0:0:
396,184,256957,1,0,0:0:0:0:
396,132,257034,1,0,0:0:0:0:
256,120,257110,2,0,L|136:128,1,115,0|2,3:0|0:0,0:0:0:0:
52,128,257418,1,2,0:0:0:0:
52,180,257495,1,2,0:0:0:0:
292,148,257572,2,0,L|356:148,2,38.3333333333333,8|0|0,0:0|0:0|0:0,0:0:0:0:
192,148,257803,2,0,L|84:148,1,76.6666666666667,0|2,3:0|0:0,0:0:0:0:
260,144,258034,2,0,L|176:200,1,76.6666666666667,8|0,0:0|0:0,0:0:0:0:
420,188,258264,2,0,P|440:224|404:256,1,76.6666666666667,2|0,0:0|0:0,0:0:0:0:
256,256,258495,5,8,0:0:0:0:
180,260,258572,1,0,0:0:0:0:
108,240,258649,1,0,0:0:0:0:
80,160,258726,1,0,0:0:0:0:
132,100,258803,1,0,0:0:0:0:
208,100,258880,1,0,0:0:0:0:
308,100,258957,2,0,L|404:100,1,76.6666666666667,0|0,3:0|0:0,0:0:0:0:
176,128,259187,2,0,P|124:168|188:188,1,149.499993156433,4|8,0:0|0:0,0:0:0:0:
342,198,259649,1,0,0:0:0:0:
132,204,259880,1,2,0:0:0:0:
194,204,259957,1,2,0:0:0:0:
256,204,260034,1,2,0:0:0:0:
364,200,260110,2,0,L|440:200,1,76.6666666666667,0|0,3:0|0:0,0:0:0:0:
256,128,260341,6,0,P|144:224|320:252,1,413.999987365723,8|0,0:0|0:0,0:0:0:0:
140,272,261034,1,2,0:0:0:0:
88,272,261110,1,2,0:0:0:0:
140,272,261187,1,2,0:0:0:0:
300,184,261264,2,0,L|364:184,1,38.3333333333333,8|0,0:0|0:0,0:0:0:0:
200,188,261418,2,0,L|148:188,1,38.3333333333333,0|0,3:0|0:0,0:0:0:0:
324,184,261572,2,0,L|372:184,1,38.3333333333333,0|0,3:0|0:0,0:0:0:0:
180,184,261726,2,0,L|180:116,1,38.3333333333333,2|0,3:0|0:0,0:0:0:0:
338,184,261880,2,0,L|336:120,1,38.3333333333333,2|0,3:0|0:0,0:0:0:0:
102,184,262034,2,0,L|144:164,1,38.3333333333333,2|0,3:0|0:0,0:0:0:0:
308,168,262187,5,2,0:0:0:0:
416,164,262341,1,0,0:0:0:0:
480,164,262418,1,0,0:0:0:0:
480,112,262495,1,0,0:0:0:0:
416,116,262572,1,0,0:0:0:0:
236,64,262649,2,0,L|136:68,1,76.6666666666667,8|0,0:0|0:0,0:0:0:0:
396,56,262880,2,0,P|436:84|392:108,1,107.33333005778,4|2,0:0|0:0,0:0:0:0:
220,120,263110,1,8,0:0:0:0:
356,120,263341,1,0,0:0:0:0:
176,128,263572,2,0,L|52:196,1,126.500003860474,0|0,3:0|0:0,0:0:0:0:
480,188,264034,5,2,0:0:0:0:
480,188,264110,1,0,0:0:0:0:
480,188,264187,1,0,0:0:0:0:
376,172,264264,1,0,0:0:0:0:
324,160,264341,1,0,0:0:0:0:
272,148,264418,1,0,0:0:0:0:
132,128,264495,2,0,L|16:128,1,91.9999971923829,0|0,3:0|0:0,0:0:0:0:
284,148,264726,5,2,0:0:0:0:
364,116,264803,1,2,0:0:0:0:
284,84,264880,1,2,0:0:0:0:
148,84,264957,1,8,0:0:0:0:
72,84,265034,1,2,0:0:0:0:
72,84,265110,1,2,0:0:0:0:
180,76,265187,2,0,L|276:68,1,76.6666666666667,2|2,0:0|0:0,0:0:0:0:
88,76,265418,2,0,P|32:76|76:76,1,99.6666621042889,8|0,0:0|0:0,0:0:0:0:
300,68,265649,2,0,P|368:68|416:48,1,99.6666621042889,2|0,0:0|0:0,0:0:0:0:
184,64,265880,5,2,0:0:0:0:
76,64,266034,1,0,0:0:0:0:
20,100,266110,1,0,0:0:0:0:
48,160,266187,1,0,0:0:0:0:
108,148,266264,1,0,0:0:0:0:
216,144,266341,2,0,L|312:144,1,88.1666683483124,0|0,3:0|0:0,0:0:0:0:
468,144,266572,2,0,P|480:96|416:28,1,149.499993156433,4|8,0:0|0:0,0:0:0:0:
256,40,267034,1,0,0:0:0:0:
24,60,267264,1,2,0:0:0:0:
24,112,267341,1,0,0:0:0:0:
136,56,267418,1,0,0:0:0:0:
180,88,267495,1,0,0:0:0:0:
464,88,267726,6,0,P|480:124|348:292,1,275.999991577149,2|0,0:0|3:0,0:0:0:0:
200,296,268418,2,0,L|148:296,2,38.3333333333333
384,228,268649,1,2,0:0:0:0:
280,204,268803,2,0,L|236:180,1,38.3333333333333
352,168,269034,1,0,0:0:0:0:
456,164,269110,2,0,L|456:264,1,76.6666666666667,2|0,0:0|0:0,0:0:0:0:
376,240,269341,1,0,0:0:0:0:
224,240,269495,1,0,0:0:0:0:
40,240,269572,5,12,0:0:0:0:
356,152,270495,1,8,0:0:0:0:
144,152,271418,5,2,0:0:0:0:
468,140,272341,1,8,0:0:0:0:
328,56,273264,6,0,P|352:196|76:264,1,460,2|8,0:0|0:0,0:0:0:0:
184,56,275110,6,0,P|160:196|436:264,1,460,2|8,0:0|0:0,0:0:0:0:
128,192,276957,5,2,0:0:0:0:
336,192,277418,1,2,0:0:0:0:
16,192,277880,1,8,0:0:0:0:
216,188,278341,1,2,0:0:0:0:
424,188,278803,5,2,0:0:0:0:
200,188,279264,1,2,0:0:0:0:
508,188,279726,1,8,0:0:0:0:
300,192,280187,1,2,0:0:0:0:
124,192,280649,5,2,0:0:0:0:
232,192,280803,1,2,0:0:0:0:
232,192,280880,1,2,0:0:0:0:
124,188,281034,1,2,0:0:0:0:
288,192,281110,2,0,L|396:192,1,76.6666666666667,8|2,0:0|0:0,0:0:0:0:
253,192,281341,2,0,L|165:192,1,76.6666666666667,2|2,0:0|0:0,0:0:0:0:
352,184,281572,1,2,0:0:0:0:
460,188,281726,1,2,0:0:0:0:
460,188,281803,1,2,0:0:0:0:
349,188,281957,1,2,0:0:0:0:
197,192,282034,2,0,L|89:192,1,76.6666666666667,8|2,0:0|0:0,0:0:0:0:
232,192,282264,2,0,L|320:192,1,76.6666666666667,2|2,0:0|0:0,0:0:0:0:
120,192,282495,5,0,0:0:0:0:
12,196,282649,1,2,0:0:0:0:
12,144,282726,1,2,0:0:0:0:
120,144,282880,1,2,0:0:0:0:
328,152,282957,2,0,L|456:152,1,91.9999971923829,8|2,0:0|0:0,0:0:0:0:
480,152,283187,2,0,L|480:48,1,76.6666666666667,2|2,0:0|0:0,0:0:0:0:
328,88,283418,1,2,0:0:0:0:
436,88,283572,1,2,0:0:0:0:
436,88,283649,1,2,0:0:0:0:
328,88,283803,1,2,0:0:0:0:
168,92,283880,2,0,L|68:92,1,91.9999971923829,8|2,0:0|0:0,0:0:0:0:
8,92,284110,2,0,L|8:176,1,76.6666666666667,2|2,0:0|0:0,0:0:0:0:
244,240,284341,5,10,0:0:0:0:
308,244,284418,1,2,0:0:0:0:
368,216,284495,1,2,0:0:0:0:
396,160,284572,1,2,0:0:0:0:
360,108,284649,1,2,0:0:0:0:
300,84,284726,1,2,0:0:0:0:
152,112,284803,1,10,0:0:0:0:
108,160,284880,1,2,0:0:0:0:
120,224,284957,1,2,0:0:0:0:
164,272,285034,1,2,0:0:0:0:
228,284,285110,1,2,0:0:0:0:
292,268,285187,1,2,0:0:0:0:
144,300,285264,5,10,0:0:0:0:
188,256,285341,1,2,0:0:0:0:
212,196,285418,1,2,0:0:0:0:
188,136,285495,1,2,0:0:0:0:
120,112,285572,1,2,0:0:0:0:
56,120,285649,1,2,0:0:0:0:
280,188,285726,1,10,0:0:0:0:
344,188,285803,1,2,0:0:0:0:
400,152,285880,1,2,0:0:0:0:
400,88,285957,1,2,0:0:0:0:
344,56,286034,1,2,0:0:0:0:
280,52,286110,1,2,0:0:0:0:
132,64,286187,5,10,0:0:0:0:
76,96,286264,1,2,0:0:0:0:
48,156,286341,1,2,0:0:0:0:
92,204,286418,1,10,0:0:0:0:
56,256,286495,1,2,0:0:0:0:
116,276,286572,1,2,0:0:0:0:
304,72,286649,1,10,0:0:0:0:
368,76,286726,1,2,0:0:0:0:
304,72,286803,1,2,0:0:0:0:
244,96,286880,1,10,0:0:0:0:
268,156,286957,1,2,0:0:0:0:
332,156,287034,1,2,0:0:0:0:
176,140,287110,5,10,0:0:0:0:
116,164,287187,1,2,0:0:0:0:
128,228,287264,1,2,0:0:0:0:
180,264,287341,1,10,0:0:0:0:
244,268,287418,1,2,0:0:0:0:
308,256,287495,1,2,0:0:0:0:
496,248,287572,1,10,0:0:0:0:
488,184,287649,1,2,0:0:0:0:
476,120,287726,1,2,0:0:0:0:
432,72,287803,1,10,0:0:0:0:
368,56,287880,1,2,0:0:0:0:
304,60,287957,1,2,0:0:0:0:
136,284,288034,5,10,0:0:0:0:
104,276,288072,1,2,0:0:0:0:
76,264,288110,1,2,0:0:0:0:
56,240,288149,1,2,0:0:0:0:
48,208,288187,1,2,0:0:0:0:
48,176,288226,1,2,0:0:0:0:
60,148,288264,1,2,0:0:0:0:
80,124,288303,1,2,0:0:0:0:
108,108,288341,1,2,0:0:0:0:
140,100,288380,1,2,0:0:0:0:
172,96,288418,1,2,0:0:0:0:
204,100,288457,1,2,0:0:0:0:
324,120,288495,5,2,0:0:0:0:
360,120,288533,1,2,0:0:0:0:
396,124,288571,1,2,0:0:0:0:
432,136,288610,1,2,0:0:0:0:
460,160,288648,1,2,0:0:0:0:
476,196,288687,1,2,0:0:0:0:
480,232,288725,1,2,0:0:0:0:
460,264,288764,1,2,0:0:0:0:
428,284,288802,1,2,0:0:0:0:
396,300,288841,1,2,0:0:0:0:
360,312,288879,1,2,0:0:0:0:
324,312,288918,1,2,0:0:0:0:
208,288,288957,5,2,0:0:0:0:
172,272,288995,1,2,0:0:0:0:
156,232,289033,1,2,0:0:0:0:
180,196,289072,1,2,0:0:0:0:
216,176,289110,1,2,0:0:0:0:
256,176,289149,1,2,0:0:0:0:
296,172,289187,1,2,0:0:0:0:
328,144,289226,1,2,0:0:0:0:
340,104,289264,1,2,0:0:0:0:
324,64,289303,1,2,0:0:0:0:
284,48,289341,1,2,0:0:0:0:
244,52,289380,1,2,0:0:0:0:
120,312,289418,5,2,0:0:0:0:
76,308,289456,1,2,0:0:0:0:
36,288,289494,1,2,0:0:0:0:
12,248,289533,1,2,0:0:0:0:
4,204,289571,1,2,0:0:0:0:
8,156,289610,1,2,0:0:0:0:
16,112,289648,1,2,0:0:0:0:
44,76,289687,1,2,0:0:0:0:
84,52,289725,1,2,0:0:0:0:
128,40,289764,1,2,0:0:0:0:
172,40,289802,1,2,0:0:0:0:
220,44,289841,1,2,0:0:0:0:
256,80,289880,5,8,0:0:0:0:
332,192,290034,1,2,0:0:0:0:
332,192,290110,1,2,0:0:0:0:
256,192,290264,1,2,0:0:0:0:
172,192,290341,1,8,0:0:0:0:
248,192,290495,1,2,0:0:0:0:
288,192,290572,1,2,0:0:0:0:
212,192,290726,1,2,0:0:0:0:
288,192,290803,1,10,0:0:0:0:
308,192,290841,1,2,0:0:0:0:
308,172,290880,1,2,0:0:0:0:
288,172,290918,1,2,0:0:0:0:
268,172,290957,2,0,L|209:171,1,45.9999985961914,2|0,0:0|0:0,0:0:0:0:
308,168,291187,1,2,0:0:0:0:
52,168,291264,1,8,0:0:0:0:
388,208,291726,5,12,0:0:0:0:
444,176,291803,1,0,0:0:0:0:
496,140,291879,1,2,0:0:0:0:
304,172,291957,2,0,L|208:148,1,91.9999971923829,2|2,0:0|0:0,0:0:0:0:
424,128,292187,2,0,L|328:68,1,91.9999971923829,8|2,0:0|0:0,0:0:0:0:
136,84,292418,2,0,L|228:52,1,91.9999971923829,2|0,0:0|0:0,0:0:0:0:
408,48,292649,1,2,0:0:0:0:
436,48,292687,1,2,0:0:0:0:
464,48,292726,1,2,0:0:0:0:
464,48,292764,1,2,0:0:0:0:
436,48,292803,1,2,0:0:0:0:
380,48,292880,1,2,0:0:0:0:
436,48,293034,1,2,0:0:0:0:
184,60,293110,2,0,P|112:60|184:60,1,137.999995788574,8|2,0:0|0:0,0:0:0:0:
244,60,293341,1,2,0:0:0:0:
436,72,293572,5,2,0:0:0:0:
484,112,293649,1,0,0:0:0:0:
484,176,293725,1,2,0:0:0:0:
316,132,293803,2,0,L|220:156,1,91.9999971923829,2|2,0:0|0:0,0:0:0:0:
36,176,294034,2,0,L|120:136,1,91.9999971923829,8|2,0:0|0:0,0:0:0:0:
312,92,294264,2,0,L|432:56,1,91.9999971923829,2|0,0:0|0:0,0:0:0:0:
128,84,294495,1,2,0:0:0:0:
96,84,294534,1,2,0:0:0:0:
64,84,294572,1,2,0:0:0:0:
96,84,294610,1,2,0:0:0:0:
128,84,294649,1,2,0:0:0:0:
192,84,294726,1,2,0:0:0:0:
64,92,294880,1,2,0:0:0:0:
332,100,294957,2,0,P|388:208|236:204,1,287.500010967255,4|0,0:0|0:0,0:0:0:0:
96,248,295418,6,0,L|28:248,2,45.9999985961914,2|0|2,0:0|0:0|0:0,0:0:0:0:
352,232,295649,2,0,L|280:152,1,91.9999971923829,2|2,0:0|0:0,0:0:0:0:
144,148,295880,2,0,L|40:96,1,91.9999971923829,8|2,0:0|0:0,0:0:0:0:
256,96,296110,2,0,L|140:36,1,91.9999971923829,2|0,0:0|0:0,0:0:0:0:
348,48,296341,1,2,0:0:0:0:
376,48,296379,1,2,0:0:0:0:
404,48,296418,1,2,0:0:0:0:
404,48,296456,1,2,0:0:0:0:
376,48,296495,1,2,0:0:0:0:
320,48,296572,1,2,0:0:0:0:
192,48,296726,1,2,0:0:0:0:
432,48,296803,1,8,0:0:0:0:
432,48,296957,1,2,0:0:0:0:
256,76,297034,2,0,L|148:120,1,91.9999971923829,2|0,0:0|0:0,0:0:0:0:
256,120,297264,5,2,0:0:0:0:
324,172,297341,1,0,0:0:0:0:
324,172,297418,1,2,0:0:0:0:
164,180,297495,2,0,L|76:136,1,91.9999971923829,2|2,0:0|0:0,0:0:0:0:
276,176,297726,2,0,L|380:120,1,91.9999971923829,8|2,0:0|0:0,0:0:0:0:
164,180,297957,2,0,L|80:132,1,91.9999971923829,2|0,0:0|0:0,0:0:0:0:
280,180,298187,2,2,L|320:180,4,22.9999992980957
216,180,298418,1,2,0:0:0:0:
88,180,298572,1,2,0:0:0:0:
344,80,298649,2,0,P|288:228|180:300,1,287.500010967255,12|0,0:0|0:0,0:0:0:0:
424,244,299110,5,2,0:0:0:0:
490,242,299187,1,0,0:0:0:0:
424,244,299264,1,2,0:0:0:0:
256,248,299341,2,0,L|256:148,1,91.9999971923829,2|2,0:0|0:0,0:0:0:0:
442,246,299572,2,0,L|440:144,1,91.9999971923829,8|2,0:0|0:0,0:0:0:0:
172,170,299803,2,0,L|259:234,1,91.9999971923829,2|0,0:0|0:0,0:0:0:0:
421,158,300034,1,2,0:0:0:0:
453,161,300072,1,2,0:0:0:0:
482,177,300111,1,2,0:0:0:0:
476,209,300149,1,2,0:0:0:0:
447,221,300187,1,2,0:0:0:0:
340,224,300264,2,0,L|232:224,1,91.9999971923829,0|2,0:0|0:0,0:0:0:0:
28,232,300495,1,8,0:0:0:0:
28,232,300649,1,2,0:0:0:0:
92,232,300726,1,2,0:0:0:0:
272,232,300957,5,2,0:0:0:0:
212,212,301034,1,0,0:0:0:0:
256,168,301110,1,2,0:0:0:0:
420,168,301187,2,0,L|504:112,1,91.9999971923829,2|2,0:0|0:0,0:0:0:0:
280,140,301418,2,0,L|368:72,1,91.9999971923829,8|2,0:0|0:0,0:0:0:0:
144,84,301649,2,0,L|32:84,1,91.9999971923829,2|0,0:0|0:0,0:0:0:0:
256,72,301880,1,2,0:0:0:0:
288,72,301919,1,2,0:0:0:0:
320,72,301957,1,2,0:0:0:0:
288,72,301995,1,2,0:0:0:0:
256,72,302034,1,2,0:0:0:0:
192,72,302111,1,2,0:0:0:0:
72,76,302264,1,2,0:0:0:0:
272,80,302341,2,0,L|484:188,1,229.999992980957,4|0,0:0|0:0,0:0:0:0:
216,192,302803,5,2,0:0:0:0:
168,160,302880,1,0,0:0:0:0:
120,120,302957,1,2,0:0:0:0:
296,192,303034,2,0,L|396:116,1,91.9999971923829,2|2,0:0|0:0,0:0:0:0:
144,200,303264,2,0,L|144:88,1,91.9999971923829,8|2,0:0|0:0,0:0:0:0:
360,200,303495,2,0,L|360:88,1,91.9999971923829,2|0,0:0|0:0,0:0:0:0:
144,64,303726,1,2,0:0:0:0:
112,64,303765,1,2,0:0:0:0:
80,64,303803,1,2,0:0:0:0:
112,64,303841,1,2,0:0:0:0:
144,64,303880,1,2,0:0:0:0:
208,64,303957,1,2,0:0:0:0:
328,64,304110,1,2,0:0:0:0:
144,124,304187,1,8,0:0:0:0:
264,124,304341,1,2,0:0:0:0:
324,120,304418,2,0,L|440:120,1,91.9999971923829,2|0,0:0|0:0,0:0:0:0:
256,192,304649,6,0,L|256:120,4,38.3333333333333,12|0|0|0|0,0:0|0:0|0:0|0:0|0:0,0:0:0:0:
488,196,305110,2,0,P|484:136|456:100,1,76.6666666666667,8|0,0:0|0:0,0:0:0:0:
424,112,305341,1,0,0:0:0:0:
316,108,305495,1,0,3:0:0:0:
119,119,305572,2,0,L|51:127,2,38.3333333333333,2|0|0,3:0|0:0|0:0,0:0:0:0:
228,112,305803,2,0,L|244:160,1,38.3333333333333,2|2,0:0|0:0,0:0:0:0:
184,152,305957,1,2,0:0:0:0:
372,192,306034,2,0,B|440:192|440:192|396:76|268:116,1,249.166655260722,4|0,0:0|0:0,0:0:0:0:
52,196,306495,6,0,L|52:128,2,38.3333333333333,12|0|0,0:0|0:0|0:0,0:0:0:0:
212,192,306726,2,0,L|324:192,1,76.6666666666667,0|2,0:0|0:0,0:0:0:0:
120,192,306957,2,0,L|60:192,2,38.3333333333333,8|0|2,0:0|0:0|0:0,0:0:0:0:
328,192,307187,1,2,0:0:0:0:
328,84,307341,1,2,0:0:0:0:
180,92,307418,2,2,L|128:48,3,38.3333333333333,0|2|2|0,0:0|0:0|0:0|0:0,0:0:0:0:
368,80,307880,2,0,L|368:8,3,38.3333333333333,8|2|2|0,0:0|0:0|0:0|0:0,0:0:0:0:
52,92,308341,5,2,0:0:0:0:
32,144,308418,1,2,0:0:0:0:
64,188,308495,1,2,0:0:0:0:
116,188,308572,1,0,0:0:0:0:
224,188,308726,1,2,0:0:0:0:
388,188,308803,1,8,0:0:0:0:
488,220,308957,1,2,0:0:0:0:
488,272,309034,1,2,0:0:0:0:
380,280,309187,1,2,0:0:0:0:
216,292,309264,1,2,0:0:0:0:
164,292,309341,1,2,0:0:0:0:
216,292,309418,1,2,0:0:0:0:
312,296,309495,2,0,L|404:296,1,76.6666666666667,2|0,0:0|0:0,0:0:0:0:
144,292,309726,2,0,B|24:292|24:292|24:236|24:236|152:236,1,287.500010967255,4|0,0:0|0:0,0:0:0:0:
304,240,310187,6,0,L|376:240,2,38.3333333333333,2|0|2,0:0|0:0|0:0,0:0:0:0:
128,240,310418,2,0,L|51:240,1,76.6666666666667,2|2,0:0|0:0,0:0:0:0:
212,240,310649,2,0,L|256:240,2,38.3333333333333,8|0|2,0:0|0:0|0:0,0:0:0:0:
16,240,310879,1,2,0:0:0:0:
128,240,311034,1,2,0:0:0:0:
308,192,311110,1,2,0:0:0:0:
360,192,311187,1,0,0:0:0:0:
396,152,311264,1,0,0:0:0:0:
364,108,311341,1,0,0:0:0:0:
144,116,311572,1,8,0:0:0:0:
96,92,311649,1,2,0:0:0:0:
48,120,311726,1,2,0:0:0:0:
60,172,311803,1,2,0:0:0:0:
256,264,312034,6,0,P|380:260|288:84,1,344.999989471436,4|2,0:0|0:0,0:0:0:0:
188,64,312495,2,0,B|16:84|16:84|204:136,1,344.999989471436,8|2,0:0|0:0,0:0:0:0:
352,104,312957,1,6,0:0:0:0:
460,104,313110,1,0,0:0:0:0:
256,144,313187,1,2,0:0:0:0:
192,144,313264,1,2,0:0:0:0:
256,144,313341,1,2,0:0:0:0:
400,148,313418,1,8,0:0:0:0:
80,160,313649,1,8,0:0:0:0:
428,152,313880,5,2,0:0:0:0:
416,88,313957,1,2,0:0:0:0:
352,76,314034,1,2,0:0:0:0:
280,76,314110,1,2,0:0:0:0:
388,76,314264,1,2,0:0:0:0:
184,120,314341,2,0,L|112:120,2,38.3333333333333,8|0|2,0:0|0:0|0:0,0:0:0:0:
328,120,314572,2,0,L|420:120,1,76.6666666666667,2|2,0:0|0:0,0:0:0:0:
224,120,314803,2,0,L|160:136,3,38.3333333333333,2|2|2|2,0:0|0:0|0:0|0:0,0:0:0:0:
392,128,315264,2,0,L|392:180,3,38.3333333333333,8|2|2|2,0:0|0:0|0:0|0:0,0:0:0:0:
68,136,315726,5,2,0:0:0:0:
120,136,315803,1,2,0:0:0:0:
168,116,315880,1,2,0:0:0:0:
132,76,315957,2,0,L|28:76,1,76.6666666666667,2|2,0:0|0:0,0:0:0:0:
240,152,316187,1,8,0:0:0:0:
292,152,316264,1,0,0:0:0:0:
292,100,316341,1,2,0:0:0:0:
240,104,316418,1,2,0:0:0:0:
348,104,316572,1,0,0:0:0:0:
148,100,316649,1,2,0:0:0:0:
96,112,316726,1,2,0:0:0:0:
132,152,316803,1,2,0:0:0:0:
188,156,316880,2,0,L|292:156,1,91.9999971923829,2|0,0:0|0:0,0:0:0:0:
424,164,317110,2,0,B|500:164|500:164|500:80|500:80|332:80,1,287.500010967255,4|0,0:0|0:0,0:0:0:0:
212,68,317572,6,0,L|140:68,2,38.3333333333333,2|0|2,0:0|0:0|0:0,0:0:0:0:
400,72,317803,2,0,L|477:72,1,76.6666666666667,2|2,0:0|0:0,0:0:0:0:
300,240,318034,2,0,L|256:240,2,38.3333333333333,8|0|2,0:0|0:0|0:0,0:0:0:0:
496,240,318264,1,2,0:0:0:0:
384,240,318419,1,2,0:0:0:0:
204,192,318495,1,2,0:0:0:0:
152,176,318572,1,2,0:0:0:0:
164,124,318649,1,2,0:0:0:0:
216,116,318726,1,2,0:0:0:0:
436,104,318957,1,8,0:0:0:0:
484,128,319034,1,2,0:0:0:0:
492,180,319111,1,2,0:0:0:0:
440,192,319188,1,2,0:0:0:0:
104,192,319418,6,0,B|72:192|72:192|224:192,1,172.500006580353,8|2,0:0|0:0,0:0:0:0:
368,196,319880,2,0,B|440:196|440:196|496:148|368:108,1,172.500006580353,8|2,0:0|0:0,0:0:0:0:
256,144,320341,1,0,3:0:0:0:
148,142,320495,1,0,0:0:0:0:
321,236,320572,1,0,0:0:0:0:
389,237,320649,1,0,0:0:0:0:
389,201,320726,1,0,0:0:0:0:
196,188,320803,2,0,P|140:188|96:152,1,99.6666621042889,4|0,0:0|0:0,0:0:0:0:
316,188,321034,2,0,P|364:188|428:152,1,99.6666621042889,4|0,0:0|0:0,0:0:0:0:
216,112,321264,5,12,0:0:0:0:
188,168,325880,6,0,L|196:280,1,76.6666666666667,2|0,0:0|0:0,0:0:0:0:
232,276,326110,1,2,0:0:0:0:
280,280,326187,1,2,0:0:0:0:
324,260,326264,1,2,0:0:0:0:
340,212,326341,1,8,0:0:0:0:
312,172,326418,1,0,0:0:0:0:
264,156,326495,1,0,0:0:0:0:
344,160,326572,6,0,L|284:240,1,76.6666666666667,2|0,0:0|0:0,0:0:0:0:
344,240,326803,1,2,0:0:0:0:
392,224,326880,1,2,0:0:0:0:
428,188,326957,1,2,0:0:0:0:
432,140,327034,1,8,0:0:0:0:
400,104,327110,1,0,0:0:0:0:
352,88,327187,1,0,0:0:0:0:
256,80,327264,6,0,L|152:80,1,76.6666666666667,2|0,0:0|0:0,0:0:0:0:
128,88,327495,1,2,0:0:0:0:
88,116,327572,1,2,0:0:0:0:
60,156,327649,1,2,0:0:0:0:
80,200,327726,1,8,0:0:0:0:
124,220,327803,1,0,0:0:0:0:
172,228,327880,1,0,0:0:0:0:
76,248,327957,2,0,P|36:248|84:248,1,76.6666666666667,2|0,0:0|0:0,0:0:0:0:
124,248,328187,1,8,0:0:0:0:
388,244,328649,5,12,0:0:0:0:
328,216,328726,1,2,0:0:0:0:
316,148,328803,1,2,0:0:0:0:
352,88,328880,1,2,0:0:0:0:
408,56,328957,1,2,0:0:0:0:
476,56,329034,1,2,0:0:0:0:
256,56,329110,1,8,0:0:0:0:
400,56,329341,1,2,0:0:0:0:
348,60,329418,1,2,0:0:0:0:
296,64,329495,1,2,0:0:0:0:
136,68,329572,2,0,L|68:68,2,38.3333333333333,2|0|0,0:0|0:0|0:0,0:0:0:0:
244,68,329803,2,0,L|336:68,1,76.6666666666667,4|0,0:0|0:0,0:0:0:0:
152,68,330034,1,8,0:0:0:0:
312,68,330264,1,2,0:0:0:0:
20,80,330495,5,2,0:0:0:0:
12,132,330572,1,2,0:0:0:0:
20,184,330649,1,2,0:0:0:0:
60,220,330726,1,2,0:0:0:0:
112,232,330803,1,2,0:0:0:0:
164,228,330880,1,2,0:0:0:0:
364,184,330957,1,8,0:0:0:0:
204,192,331187,1,2,0:0:0:0:
256,192,331264,1,2,0:0:0:0:
204,192,331341,1,2,0:0:0:0:
68,204,331418,1,2,0:0:0:0:
16,204,331495,1,2,0:0:0:0:
68,204,331572,1,2,0:0:0:0:
168,200,331649,2,0,L|100:148,1,76.6666666666667,4|0,0:0|0:0,0:0:0:0:
256,148,331880,2,0,P|372:148|240:148,1,229.999992980957,4|0,0:0|0:0,0:0:0:0:
448,152,332341,5,2,0:0:0:0:
500,152,332418,1,2,0:0:0:0:
500,100,332495,1,2,0:0:0:0:
456,72,332572,1,0,0:0:0:0:
404,64,332649,1,0,0:0:0:0:
352,72,332726,1,0,0:0:0:0:
188,88,332803,1,8,0:0:0:0:
340,92,333034,1,2,0:0:0:0:
392,92,333110,1,2,0:0:0:0:
340,92,333187,1,2,0:0:0:0:
200,100,333264,5,2,0:0:0:0:
148,144,333341,1,2,0:0:0:0:
200,184,333418,1,2,0:0:0:0:
304,192,333495,2,0,L|416:192,1,76.6666666666667,4|0,0:0|0:0,0:0:0:0:
188,216,333726,1,2,0:0:0:0:
100,216,333803,1,2,0:0:0:0:
24,168,333880,1,2,0:0:0:0:
40,116,333957,1,2,0:0:0:0:
388,192,334187,5,2,0:0:0:0:
448,176,334264,1,2,0:0:0:0:
464,116,334341,1,2,0:0:0:0:
404,80,334418,1,2,0:0:0:0:
436,28,334495,1,2,0:0:0:0:
504,44,334572,1,2,0:0:0:0:
328,40,334649,1,8,0:0:0:0:
168,52,334880,1,2,0:0:0:0:
220,52,334957,1,2,0:0:0:0:
168,52,335034,1,2,0:0:0:0:
16,64,335110,5,2,0:0:0:0:
20,140,335187,1,2,0:0:0:0:
52,208,335264,1,2,0:0:0:0:
104,268,335341,1,2,0:0:0:0:
180,288,335418,1,0,0:0:0:0:
264,280,335495,1,0,0:0:0:0:
396,180,335572,1,4,0:0:0:0:
472,96,335649,1,4,0:0:0:0:
348,48,335726,1,2,0:0:0:0:
248,56,335803,1,4,0:0:0:0:
144,112,335880,1,2,0:0:0:0:
256,144,335957,1,2,0:0:0:0:
388,248,336034,5,2,0:0:0:0:
440,244,336110,1,2,0:0:0:0:
484,212,336187,1,2,0:0:0:0:
496,160,336264,1,2,0:0:0:0:
476,112,336341,1,2,0:0:0:0:
428,88,336418,1,2,0:0:0:0:
288,84,336495,1,8,0:0:0:0:
128,84,336726,1,2,0:0:0:0:
180,84,336803,1,2,0:0:0:0:
232,84,336880,1,2,0:0:0:0:
376,88,336957,1,2,0:0:0:0:
428,88,337034,1,2,0:0:0:0:
376,88,337110,1,2,0:0:0:0:
216,92,337187,2,0,L|120:92,1,76.6666666666667,4|0,0:0|0:0,0:0:0:0:
312,96,337418,1,8,0:0:0:0:
472,96,337649,1,2,0:0:0:0:
104,112,337880,5,2,0:0:0:0:
72,156,337957,1,2,0:0:0:0:
64,208,338034,1,2,0:0:0:0:
88,256,338110,1,2,0:0:0:0:
136,276,338187,1,2,0:0:0:0:
188,276,338264,1,2,0:0:0:0:
340,276,338341,1,8,0:0:0:0:
208,180,338572,1,2,0:0:0:0:
156,180,338649,1,2,0:0:0:0:
208,180,338726,1,2,0:0:0:0:
344,188,338803,1,2,0:0:0:0:
396,188,338880,1,2,0:0:0:0:
448,188,338957,1,2,0:0:0:0:
352,192,339034,2,0,L|436:192,1,76.6666666666667,4|0,0:0|0:0,0:0:0:0:
228,192,339264,2,0,B|160:192|160:192|320:192|320:192|204:192,1,306.666666666667,4|0,0:0|0:0,0:0:0:0:
80,196,339726,5,2,0:0:0:0:
32,172,339803,1,2,0:0:0:0:
24,120,339880,1,2,0:0:0:0:
64,84,339957,1,2,0:0:0:0:
116,76,340034,1,2,0:0:0:0:
168,76,340110,1,2,0:0:0:0:
316,80,340187,1,8,0:0:0:0:
156,96,340418,1,2,0:0:0:0:
156,148,340495,1,2,0:0:0:0:
208,148,340572,1,2,0:0:0:0:
368,148,340649,1,2,0:0:0:0:
420,148,340726,1,2,0:0:0:0:
472,148,340803,1,2,0:0:0:0:
368,148,340880,2,0,L|260:148,1,76.6666666666667,4|0,0:0|0:0,0:0:0:0:
152,152,341110,1,8,0:0:0:0:
80,152,341187,1,2,0:0:0:0:
8,152,341264,1,2,0:0:0:0:
80,152,341341,1,4,0:0:0:0:
416,240,341572,5,2,0:0:0:0:
364,220,341649,1,2,0:0:0:0:
352,168,341726,1,2,0:0:0:0:
384,124,341803,1,2,0:0:0:0:
436,108,341880,1,2,0:0:0:0:
488,108,341957,1,2,0:0:0:0:
332,68,342034,1,8,0:0:0:0:
172,68,342264,1,2,0:0:0:0:
184,120,342341,1,2,0:0:0:0:
236,132,342418,1,2,0:0:0:0:
388,132,342495,5,2,0:0:0:0:
456,144,342572,1,2,0:0:0:0:
504,200,342649,1,2,0:0:0:0:
456,264,342726,1,8,0:0:0:0:
384,292,342803,1,2,0:0:0:0:
304,304,342880,1,2,0:0:0:0:
158,303,342957,1,4,0:0:0:0:
13,302,343034,1,4,0:0:0:0:
158,303,343110,1,8,0:0:0:0:
304,304,343187,2,2,L|374:303,2,38.3333333333333,4|4|2,0:0|0:0|0:0,0:0:0:0:
121,303,343418,5,2,0:0:0:0:
68,290,343495,1,2,0:0:0:0:
55,237,343572,1,2,0:0:0:0:
69,185,343649,1,2,0:0:0:0:
121,173,343726,1,2,0:0:0:0:
173,162,343803,1,2,0:0:0:0:
337,167,343880,1,8,0:0:0:0:
72,160,344341,1,2,0:0:0:0:
324,104,344572,1,2,0:0:0:0:
348,152,344649,1,2,0:0:0:0:
296,152,344726,1,2,0:0:0:0:
128,160,344803,1,8,0:0:0:0:
80,140,344880,1,2,0:0:0:0:
44,180,344957,1,2,0:0:0:0:
72,224,345034,1,2,0:0:0:0:
396,252,345264,5,2,0:0:0:0:
412,200,345341,1,2,0:0:0:0:
408,148,345418,1,2,0:0:0:0:
360,96,345495,1,2,0:0:0:0:
292,64,345572,1,2,0:0:0:0:
212,60,345649,1,2,0:0:0:0:
56,68,345726,1,8,0:0:0:0:
391,146,346187,1,2,0:0:0:0:
136,92,346418,1,2,0:0:0:0:
108,140,346495,1,2,0:0:0:0:
160,140,346572,1,2,0:0:0:0:
351,171,346649,1,8,0:0:0:0:
399,151,346726,1,2,0:0:0:0:
435,191,346803,1,2,0:0:0:0:
407,235,346880,1,2,0:0:0:0:
91,207,347110,5,2,0:0:0:0:
143,211,347187,1,2,0:0:0:0:
195,203,347264,1,2,0:0:0:0:
235,155,347341,1,2,0:0:0:0:
203,87,347418,1,2,0:0:0:0:
131,59,347495,1,2,0:0:0:0:
303,67,347572,1,8,0:0:0:0:
80,81,348034,1,2,0:0:0:0:
436,80,348264,1,2,0:0:0:0:
488,80,348341,1,2,0:0:0:0:
436,80,348418,1,2,0:0:0:0:
280,80,348495,1,8,0:0:0:0:
256,128,348572,1,2,0:0:0:0:
284,172,348649,1,2,0:0:0:0:
336,172,348726,1,2,0:0:0:0:
24,196,348957,5,2,0:0:0:0:
16,144,349034,1,2,0:0:0:0:
32,92,349111,1,2,0:0:0:0:
72,56,349188,1,2,0:0:0:0:
124,52,349265,1,2,0:0:0:0:
176,52,349342,1,2,0:0:0:0:
336,52,349419,1,8,0:0:0:0:
96,56,349881,1,2,0:0:0:0:
424,48,350111,1,2,0:0:0:0:
372,48,350188,1,2,0:0:0:0:
320,48,350265,1,2,0:0:0:0:
132,56,350341,1,8,0:0:0:0:
56,56,350419,1,2,0:0:0:0:
96,128,350496,1,2,0:0:0:0:
172,128,350573,1,2,0:0:0:0:
484,132,350803,5,2,0:0:0:0:
424,148,350880,1,2,0:0:0:0:
360,136,350957,1,2,0:0:0:0:
336,76,351034,1,2,0:0:0:0:
380,32,351110,1,2,0:0:0:0:
440,32,351187,1,2,0:0:0:0:
256,112,351264,1,8,0:0:0:0:
480,108,351726,1,2,0:0:0:0:
256,112,351957,1,2,0:0:0:0:
308,112,352034,1,2,0:0:0:0:
360,112,352110,1,2,0:0:0:0:
204,112,352187,1,8,0:0:0:0:
144,116,352264,1,2,0:0:0:0:
112,168,352341,1,2,0:0:0:0:
168,204,352418,1,2,0:0:0:0:
476,204,352649,5,2,0:0:0:0:
504,156,352726,1,2,0:0:0:0:
500,104,352803,1,2,0:0:0:0:
464,64,352880,1,2,0:0:0:0:
412,52,352957,1,2,0:0:0:0:
360,56,353034,1,2,0:0:0:0:
200,68,353110,1,8,0:0:0:0:
416,76,353572,1,2,0:0:0:0:
200,88,353803,1,2,0:0:0:0:
148,88,353880,1,2,0:0:0:0:
96,88,353957,1,2,0:0:0:0:
296,88,354034,1,8,0:0:0:0:
384,64,354110,1,2,0:0:0:0:
408,152,354187,1,2,0:0:0:0:
320,176,354264,1,2,0:0:0:0:
12,192,354495,5,2,0:0:0:0:
64,188,354572,1,2,0:0:0:0:
108,156,354649,1,2,0:0:0:0:
112,104,354726,1,2,0:0:0:0:
72,68,354803,1,2,0:0:0:0:
20,56,354880,1,2,0:0:0:0:
208,44,354957,1,8,0:0:0:0:
444,48,355418,1,2,0:0:0:0:
120,56,355649,1,2,0:0:0:0:
68,56,355726,1,2,0:0:0:0:
120,56,355803,1,2,0:0:0:0:
308,52,355880,1,8,0:0:0:0:
388,56,355957,1,2,0:0:0:0:
432,128,356034,1,2,0:0:0:0:
348,152,356110,1,2,0:0:0:0:
36,160,356341,5,2,0:0:0:0:
24,212,356418,1,2,0:0:0:0:
32,264,356495,1,2,0:0:0:0:
72,300,356572,1,2,0:0:0:0:
124,316,356649,1,2,0:0:0:0:
176,312,356726,1,2,0:0:0:0:
360,300,356803,1,8,0:0:0:0:
112,328,357264,1,2,0:0:0:0:
420,320,357495,1,2,0:0:0:0:
492,320,357572,1,2,0:0:0:0:
420,320,357649,1,2,0:0:0:0:
268,324,357726,1,8,0:0:0:0:
184,324,357803,1,2,0:0:0:0:
268,324,357880,1,2,0:0:0:0:
420,320,357957,1,2,0:0:0:0:
88,192,358187,5,12,0:0:0:0:
256,192,358341,12,0,365572,0:0:0:0:
