osu file format v14

[General]
AudioFilename: audio.mp3
AudioLeadIn: 0
PreviewTime: 92338
Countdown: 0
SampleSet: Soft
StackLeniency: 0.2
Mode: 0
LetterboxInBreaks: 0
WidescreenStoryboard: 0

[Editor]
Bookmarks: 63,19925,26132,39787,53028,66269,79787,92338,92752,105994,119235,132063,145718,158959,172201,185442,198683,211925,225166,238407,251649,264890,278132,291373,302959,319511,326132,339373,352614,365856,379097
DistanceSpacing: 0.8
BeatDivisor: 6
GridSize: 8
TimelineZoom: 1

[Metadata]
Title:Guitarmass
TitleUnicode:Guitarmass
Artist:Infected Mushroom
ArtistUnicode:Infected Mushroom
Creator:DuckRadio
Version:Mycelium
Source:
Tags:psytrance psychedelic trance monstercat amit duvdevani erez eisen head of nasa and the 2 amish boys
BeatmapID:1935211
BeatmapSetID:926478

[Difficulty]
HPDrainRate:6
CircleSize:5
OverallDifficulty:9
ApproachRate:9.3
SliderMultiplier:1.4
SliderTickRate:1

[Events]
//Background and Video events
0,0,"infected-mushroom-guitarmass-music-cover-monstercat.jpg",0,0
//Break Periods
//Storyboard Layer 0 (Background)
//Storyboard Layer 1 (Fail)
//Storyboard Layer 2 (Pass)
//Storyboard Layer 3 (Foreground)
//Storyboard Layer 4 (Overlay)
//Storyboard Sound Samples

[TimingPoints]
63.082191780822,413.793103448276,4,2,0,60,1,0
1718,-76.9230769230769,4,2,0,60,0,0
4201,-100,4,2,0,60,0,0
7097,-90.9090909090909,4,2,0,60,0,0
8338,-71.4285714285714,4,2,0,60,0,0
10821,-90.9090909090909,4,2,0,60,0,0
13718,-83.3333333333333,4,2,0,60,0,0
14959,-71.4285714285714,4,2,0,60,0,0
17442,-83.3333333333333,4,2,0,60,0,0
24890,-200,4,2,0,60,0,0
26132,-333.333333333333,4,2,0,60,0,0
27373,-100,4,2,0,60,0,0
29028,-83.3333333333333,4,2,0,60,0,0
29856,-133.333333333333,4,2,0,60,0,0
30683,-100,4,2,0,60,0,0
32338,-133.333333333333,4,2,0,60,0,0
33994,-100,4,2,0,60,0,0
36476,-133.333333333333,4,2,0,60,0,0
37304,-100,4,2,0,60,0,0
38959,-133.333333333333,4,2,0,60,0,0
40614,-100,4,2,0,60,0,0
41856,-66.6666666666667,4,2,0,60,0,0
44338,-58.8235294117647,4,2,0,60,0,0
52201,-333.333333333333,4,2,0,60,0,0
66683,-66.6666666666667,4,2,0,60,0,0
68752,-58.8235294117647,4,2,0,60,0,0
69166,-52.6315789473684,4,2,0,60,0,0
69994,-66.6666666666667,4,2,0,60,0,0
71649,-52.6315789473684,4,2,0,60,0,0
79925,-100,4,2,0,60,0,0
81028,-133.333333333333,4,2,0,60,0,0
81994,-100,4,2,0,60,0,0
82407,-200,4,2,0,60,0,0
83097,-100,4,2,0,60,0,0
83649,-133.333333333333,4,2,0,60,0,0
83925,-100,4,2,0,60,0,0
84338,-200,4,2,0,60,0,0
84890,-100,4,2,0,60,0,0
85304,-133.333333333333,4,2,0,60,0,0
86545,-100,4,2,0,60,0,0
87649,-133.333333333333,4,2,0,60,0,0
88614,-100,4,2,0,60,0,0
89028,-200,4,2,0,60,0,0
89856,-100,4,2,0,60,0,0
90269,-133.333333333333,4,2,0,60,0,0
90545,-100,4,2,0,60,0,0
90959,-333.333333333333,4,2,0,60,0,0
92890,-100,4,2,0,60,0,0
94821,-80,4,2,0,60,0,0
95649,-86.9565217391304,4,2,0,60,0,0
96201,-66.6666666666667,4,2,0,60,0,0
97580,-100,4,2,0,60,0,0
98132,-66.6666666666667,4,2,0,60,0,0
98683,-80,4,2,0,60,0,0
99235,-100,4,2,0,60,0,0
100201,-66.6666666666667,4,2,0,60,0,0
100890,-100,4,2,0,60,0,0
101442,-80,4,2,0,60,0,0
102269,-86.9565217391304,4,2,0,60,0,0
104201,-80,4,2,0,60,0,0
107511,-66.6666666666667,4,2,0,60,0,0
108063,-80,4,2,0,60,0,0
110821,-133.333333333333,4,2,0,60,0,0
111787,-80,4,2,0,60,0,0
112476,-100,4,2,0,60,0,0
113442,-80,4,2,0,60,0,0
114132,-133.333333333333,4,2,0,60,0,0
114683,-80,4,2,0,60,0,0
115511,-100,4,2,0,60,0,0
116338,-80,4,2,0,60,0,0
117442,-100,4,2,0,60,0,0
119235,-133.333333333333,4,2,0,60,0,0
121649,-66.6666666666667,4,2,0,60,0,0
122132,-100,4,2,0,60,0,0
122821,-142.857142857143,4,2,0,60,0,0
125028,-76.9230769230769,4,2,0,60,0,0
125442,-125,4,2,0,60,0,0
126132,-166.666666666667,4,2,0,60,0,0
127511,-250,4,2,0,60,0,0
129994,-400,4,2,0,60,0,0
132063,-333.333333333333,4,2,0,60,0,0
133304,-100,4,2,0,60,0,0

[Colours]
Combo1 : 184,37,74
Combo2 : 255,32,32
Combo3 : 239,58,104
Combo4 : 18,252,77
Combo5 : 9,202,43

[HitObjects]
116,363,65,6,0,B|106:322|106:322|95:303|95:303|102:267,1,93.3333333333333
151,217,476,1,0,0:0:0:0:
151,217,890,5,0,0:0:0:0:
151,217,1304,5,0,0:0:0:0:
67,199,1442,1,0,0:0:0:0:
92,165,1580,1,0,0:0:0:0:
38,89,1718,2,0,B|74:95|106:78|106:78|128:48|144:56|182:66|213:65,1,181.999991668702
210,65,2545,5,0,0:0:0:0:
210,65,2959,5,0,0:0:0:0:
262,104,3097,1,0,0:0:0:0:
277,97,3235,1,0,0:0:0:0:
305,158,3373,1,0,0:0:0:0:
305,158,3787,5,0,0:0:0:0:
305,158,4201,6,0,B|325:137|312:110|312:110|307:84|326:73,1,93.3333333333333
380,105,4614,1,0,0:0:0:0:
420,29,4752,1,0,0:0:0:0:
434,62,4890,1,0,0:0:0:0:
477,17,5028,1,0,0:0:0:0:
461,257,5442,5,0,0:0:0:0:
478,20,5856,5,0,0:0:0:0:
478,20,6132,5,0,0:0:0:0:
446,70,6269,1,0,0:0:0:0:
467,115,6407,1,0,0:0:0:0:
453,145,6545,1,0,0:0:0:0:
494,202,6683,1,0,0:0:0:0:
494,202,6959,5,0,0:0:0:0:
494,202,7097,2,0,B|488:224|471:238|471:238|483:279|461:289|461:289|464:312|486:314|492:348,1,154.000004699707
488,334,7925,5,0,0:0:0:0:
412,292,8063,1,0,0:0:0:0:
384,328,8201,1,0,0:0:0:0:
321,178,8338,2,0,B|302:205|302:205|286:226|301:239|291:253|291:253|272:270|272:270|285:294|286:324|266:355,1,195.999994018555
268,353,9166,5,0,0:0:0:0:
268,353,9580,5,0,0:0:0:0:
223,298,9718,1,0,0:0:0:0:
192,320,9856,1,0,0:0:0:0:
154,272,9994,1,0,0:0:0:0:
154,272,10407,5,0,0:0:0:0:
154,272,10821,6,0,B|136:277|113:278|113:278|97:305|64:312,1,102.666669799805
10,269,11235,1,0,0:0:0:0:
48,213,11373,1,0,0:0:0:0:
26,178,11511,1,0,0:0:0:0:
69,119,11649,1,0,0:0:0:0:
24,372,12063,5,0,0:0:0:0:
69,119,12476,5,0,0:0:0:0:
69,119,12752,5,0,0:0:0:0:
80,43,12890,1,0,0:0:0:0:
144,55,13028,1,0,0:0:0:0:
154,76,13166,1,0,0:0:0:0:
226,56,13304,1,0,0:0:0:0:
226,56,13580,5,0,0:0:0:0:
226,56,13718,2,0,B|214:25|298:38|298:38|318:65|366:13,1,167.999994873047
365,15,14545,5,0,0:0:0:0:
414,68,14683,1,0,0:0:0:0:
448,36,14821,1,0,0:0:0:0:
512,197,14959,2,0,B|501:177|460:162|460:162|437:185|418:175|410:184|407:196|407:210|403:230|366:223|356:189,1,195.999994018555
358,194,15787,5,0,0:0:0:0:
358,194,16201,5,0,0:0:0:0:
318,254,16338,1,0,0:0:0:0:
274,230,16476,1,0,0:0:0:0:
218,274,16614,1,0,0:0:0:0:
218,274,17028,5,0,0:0:0:0:
218,274,17442,6,0,B|210:234|210:234|194:218|194:218|162:170,1,111.999996582031
101,158,17856,1,0,0:0:0:0:
59,100,17994,1,0,0:0:0:0:
38,121,18132,1,0,0:0:0:0:
129,70,18269,1,0,0:0:0:0:
208,300,18683,5,0,0:0:0:0:
129,70,19097,5,0,0:0:0:0:
129,70,19373,5,0,0:0:0:0:
90,135,19511,1,0,0:0:0:0:
140,187,19649,1,0,0:0:0:0:
108,203,19787,1,0,0:0:0:0:
133,261,19925,6,0,P|88:260|37:308,1,111.999996582031
112,328,20338,2,0,B|171:331|171:331|167:312|225:318,1,111.999996582031
287,377,20752,2,0,B|292:356|288:328|291:317|320:304|319:265,1,111.999996582031
376,340,21166,5,0,0:0:0:0:
434,313,21304,1,0,0:0:0:0:
452,356,21442,1,0,0:0:0:0:
504,272,21580,2,0,B|512:248|488:224|488:224|496:192|496:192|492:151,1,111.999996582031
498,61,21994,2,0,L|504:89,4,27.9999991455078
438,24,22407,2,0,B|401:25|401:25|374:84|351:69,1,111.999996582031
276,28,22821,5,0,0:0:0:0:
271,102,22959,1,0,0:0:0:0:
248,26,23097,1,0,0:0:0:0:
196,84,23235,2,0,B|165:76|165:76|118:88|92:48,1,111.999996582031
39,207,23649,2,0,B|48:184|48:184|23:164|23:164|40:112,1,111.999996582031
210,223,24063,2,0,B|191:215|161:217|189:263|108:245,1,111.999996582031
274,280,24476,5,0,0:0:0:0:
288,208,24614,1,0,0:0:0:0:
304,284,24752,1,0,0:0:0:0:
174,288,24890,2,0,B|168:321|168:321|176:336|176:336|170:360,1,70
171,354,26132,6,0,L|133:361,1,34.9999989318848
80,268,26545,1,0,0:0:0:0:
80,268,26959,5,0,0:0:0:0:
80,268,27235,5,0,0:0:0:0:
141,195,27373,2,0,B|130:168|130:168|136:144|136:144|129:121|129:121|101:109,1,93.3333333333333
44,29,27787,5,0,0:0:0:0:
40,98,27925,1,0,0:0:0:0:
96,32,28063,1,0,0:0:0:0:
194,122,28201,2,0,B|196:108|196:108|186:103|186:103|188:82,2,46.6666666666667
260,4,28614,1,0,0:0:0:0:
260,4,28890,5,0,0:0:0:0:
310,80,29028,2,0,B|338:52|377:68|377:68|409:100|425:68,1,111.999996582031
483,56,29442,5,0,0:0:0:0:
447,143,29580,1,0,0:0:0:0:
491,131,29718,1,0,0:0:0:0:
428,291,29856,2,0,B|432:264|432:264|426:253|426:253|420:224,1,70.0000026702882
472,364,30269,1,0,0:0:0:0:
472,364,30545,5,0,0:0:0:0:
358,270,30683,2,0,L|324:267,4,23.3333333333333
310,370,31097,5,0,0:0:0:0:
278,306,31235,1,0,0:0:0:0:
275,377,31373,1,0,0:0:0:0:
228,248,31511,1,0,0:0:0:0:
228,248,31925,5,0,0:0:0:0:
228,248,32201,5,0,0:0:0:0:
105,332,32338,2,0,B|133:335|133:335|160:320|160:320|179:338,1,70.0000026702882
13,362,32752,5,0,0:0:0:0:
36,280,32890,1,0,0:0:0:0:
43,366,33028,1,0,0:0:0:0:
108,248,33166,1,0,0:0:0:0:
108,248,33580,5,0,0:0:0:0:
108,248,33856,5,0,0:0:0:0:
38,77,33994,2,0,B|33:84|33:110|33:110|20:127|20:127|28:141|31:164,1,93.3333333333333
102,22,34407,5,0,0:0:0:0:
106,112,34545,1,0,0:0:0:0:
125,23,34683,1,0,0:0:0:0:
209,168,34821,2,0,B|218:149|199:139|204:109,2,46.6666666666667
304,16,35235,1,0,0:0:0:0:
304,16,35511,5,0,0:0:0:0:
393,107,35649,2,0,B|380:78|407:69|400:48|408:32|408:32|408:16,1,93.3333333333333
497,41,36063,5,0,0:0:0:0:
489,94,36201,1,0,0:0:0:0:
503,115,36338,1,0,0:0:0:0:
457,246,36476,2,0,B|456:232|456:232|443:211|457:179,1,70.0000026702882
416,336,36890,1,0,0:0:0:0:
416,336,37166,5,0,0:0:0:0:
316,229,37304,2,0,L|340:232,4,23.3333333333333
312,368,37718,5,0,0:0:0:0:
289,292,37856,1,0,0:0:0:0:
285,373,37994,1,0,0:0:0:0:
227,194,38132,1,0,0:0:0:0:
227,194,38545,5,0,0:0:0:0:
227,194,38821,5,0,0:0:0:0:
168,333,38959,2,0,B|165:311|165:311|168:293|168:293|153:267,1,70.0000026702882
80,340,39373,5,0,0:0:0:0:
46,272,39511,1,0,0:0:0:0:
62,199,39649,1,0,0:0:0:0:
14,113,39787,1,0,0:0:0:0:
14,113,40063,6,0,L|46:108,1,17.500000667572
77,66,40201,1,0,0:0:0:0:
77,66,40476,5,0,0:0:0:0:
184,8,40614,2,0,B|196:37|153:69|208:96,1,93.3333333333333
271,13,41028,5,0,0:0:0:0:
298,64,41166,1,0,0:0:0:0:
343,31,41304,1,0,0:0:0:0:
437,98,41442,2,0,B|418:109|408:90|392:96,2,46.6666666666667
480,160,41856,2,0,B|465:181|488:201|491:235,2,70.0000026702882
408,275,42269,2,0,B|402:263|410:237|410:237|392:212,2,70.0000026702882
511,354,42683,2,0,B|455:362|519:314|438:357,2,70.0000026702882
288,214,43097,6,0,P|320:238|299:288,1,70.0000026702882
280,343,43373,1,0,0:0:0:0:
213,185,43511,2,0,B|181:207|207:229|207:229|199:265,1,70.0000026702882
190,328,43787,1,0,0:0:0:0:
55,352,43925,2,0,B|67:326|99:317|94:276,1,70.0000026702882
77,209,44201,1,0,0:0:0:0:
7,96,44338,2,0,B|-13:126|-4:150|-4:150|8:160|-12:198,1,79.3333348464966
0,268,44614,1,0,0:0:0:0:
114,127,44752,5,0,0:0:0:0:
170,54,44890,1,0,0:0:0:0:
181,118,45028,1,0,0:0:0:0:
272,40,45166,5,0,0:0:0:0:
344,32,45304,1,0,0:0:0:0:
392,104,45442,1,0,0:0:0:0:
456,32,45580,5,0,0:0:0:0:
480,120,45718,1,0,0:0:0:0:
423,206,45856,1,0,0:0:0:0:
361,105,45994,5,0,0:0:0:0:
420,188,46132,1,0,0:0:0:0:
512,180,46269,1,0,0:0:0:0:
329,284,46407,5,0,0:0:0:0:
439,338,46545,1,0,0:0:0:0:
439,338,46821,6,0,B|407:347|390:366|354:368,2,79.3333348464966
264,163,47235,1,0,0:0:0:0:
266,328,47373,1,0,0:0:0:0:
266,328,47649,5,0,0:0:0:0:
170,312,47787,1,0,0:0:0:0:
258,368,47925,1,0,0:0:0:0:
24,357,48063,2,0,B|39:329|64:333|95:337,2,79.3333348464966
20,177,48476,2,0,B|37:214|69:214|69:230|77:262,2,79.3333348464966
77,65,48890,2,0,B|21:65|13:33|-17:78,2,79.3333348464966
178,83,49304,5,0,0:0:0:0:
284,91,49442,1,0,0:0:0:0:
323,9,49580,1,0,0:0:0:0:
400,144,49718,5,0,0:0:0:0:
453,44,49856,1,0,0:0:0:0:
354,10,49994,1,0,0:0:0:0:
464,170,50132,5,0,0:0:0:0:
378,123,50269,1,0,0:0:0:0:
333,241,50407,1,0,0:0:0:0:
490,272,50545,2,0,P|506:288|514:312,4,39.6666674232483
359,209,50959,5,0,0:0:0:0:
289,333,51097,1,0,0:0:0:0:
239,180,51235,1,0,0:0:0:0:
182,349,51373,6,0,B|134:381|119:367|106:366|106:366|74:375,1,79.3333348464966
13,212,51649,2,0,B|5:164|-19:132|21:104,1,79.3333348464966
134,192,51925,2,0,B|158:264|122:237|158:296,1,79.3333348464966
194,72,52201,2,0,P|202:57|198:43,1,27.9999991455078
248,237,52614,1,0,0:0:0:0:
352,32,53028,5,0,0:0:0:0:
352,32,53442,5,0,0:0:0:0:
391,55,53580,1,0,0:0:0:0:
399,79,53718,1,0,0:0:0:0:
472,16,53856,1,0,0:0:0:0:
472,16,54269,5,0,0:0:0:0:
467,62,54407,1,0,0:0:0:0:
479,81,54545,1,0,0:0:0:0:
434,160,54683,1,0,0:0:0:0:
434,160,55097,5,0,0:0:0:0:
486,155,55235,1,0,0:0:0:0:
497,138,55373,1,0,0:0:0:0:
441,241,55511,1,0,0:0:0:0:
411,147,55649,1,0,0:0:0:0:
411,147,55925,5,0,0:0:0:0:
319,141,56063,1,0,0:0:0:0:
374,306,56338,5,0,0:0:0:0:
374,306,56752,5,0,0:0:0:0:
330,286,56890,1,0,0:0:0:0:
307,300,57028,1,0,0:0:0:0:
249,219,57166,1,0,0:0:0:0:
249,219,57580,5,0,0:0:0:0:
200,228,57718,1,0,0:0:0:0:
182,213,57856,1,0,0:0:0:0:
220,303,57994,1,0,0:0:0:0:
220,303,58407,5,0,0:0:0:0:
168,296,58545,1,0,0:0:0:0:
153,313,58683,1,0,0:0:0:0:
56,368,58821,5,0,0:0:0:0:
72,320,58959,1,0,0:0:0:0:
64,296,59097,1,0,0:0:0:0:
0,220,59235,5,0,0:0:0:0:
49,209,59373,1,0,0:0:0:0:
66,190,59511,1,0,0:0:0:0:
30,98,59649,1,0,0:0:0:0:
168,24,60063,5,0,0:0:0:0:
192,139,60201,1,0,0:0:0:0:
168,24,60338,1,0,0:0:0:0:
250,41,60476,1,0,0:0:0:0:
343,9,60890,5,0,0:0:0:0:
322,123,61028,1,0,0:0:0:0:
343,9,61165,1,0,0:0:0:0:
400,78,61303,1,0,0:0:0:0:
481,13,61718,5,0,0:0:0:0:
496,128,61856,1,0,0:0:0:0:
496,128,62132,5,0,0:0:0:0:
480,176,62269,1,0,0:0:0:0:
493,196,62407,1,0,0:0:0:0:
400,264,62545,5,0,0:0:0:0:
512,288,62683,1,0,0:0:0:0:
400,264,62821,1,0,0:0:0:0:
424,348,62959,1,0,0:0:0:0:
306,259,63373,5,0,0:0:0:0:
298,376,63511,1,0,0:0:0:0:
306,259,63649,1,0,0:0:0:0:
217,264,63787,1,0,0:0:0:0:
112,256,64201,5,0,0:0:0:0:
125,373,64338,1,0,0:0:0:0:
125,373,64614,5,0,0:0:0:0:
22,213,65028,5,0,0:0:0:0:
133,191,65166,1,0,0:0:0:0:
22,213,65304,1,0,0:0:0:0:
43,109,65442,5,0,0:0:0:0:
51,56,65580,1,0,0:0:0:0:
40,34,65718,1,0,0:0:0:0:
151,1,65856,5,0,0:0:0:0:
144,115,65994,1,0,0:0:0:0:
151,1,66132,1,0,0:0:0:0:
224,132,66269,1,0,0:0:0:0:
224,132,66683,6,0,B|216:100|232:92|235:73|235:73|228:60,2,70
338,0,67097,1,0,0:0:0:0:
338,0,67511,6,0,B|340:32|340:32|328:48|344:80,2,70.0000026702882
370,171,67925,1,0,0:0:0:0:
370,171,68338,6,0,B|350:205|378:226|369:232|369:248,2,70.0000026702882
264,368,68752,2,0,B|258:379|262:357|271:342|271:342|272:328|265:308|264:288,2,79.3333348464966
147,111,69166,2,0,B|144:139|160:155|152:171|144:179|152:195|160:219,2,88.6666642990113
72,328,69580,1,0,0:0:0:0:
72,328,69994,6,0,B|97:322|112:323|120:335|138:328|152:320,2,70.0000026702882
264,298,70407,1,0,0:0:0:0:
264,298,70821,6,0,B|267:276|259:267|259:267|274:241|265:205,2,70.0000026702882
182,111,71235,1,0,0:0:0:0:
182,111,71649,6,0,B|210:102|224:156|237:92|259:124|282:84,1,88.6666642990113
380,28,71925,1,0,0:0:0:0:
456,232,72063,2,0,B|451:208|442:210|433:167|442:145,1,88.6666642990113
489,12,72338,1,0,0:0:0:0:
356,247,72476,1,0,0:0:0:0:
284,48,72614,1,0,0:0:0:0:
274,207,72752,1,0,0:0:0:0:
224,8,72890,1,0,0:0:0:0:
224,8,73304,6,0,B|182:40|166:47|130:36,1,88.6666642990113
45,2,73580,1,0,0:0:0:0:
129,210,73718,1,0,0:0:0:0:
129,210,74132,6,0,B|144:252|127:283|124:316,1,88.6666642990113
32,350,74407,1,0,0:0:0:0:
198,153,74545,1,0,0:0:0:0:
198,153,74959,6,0,B|218:153|235:143|235:143|284:155|296:144,2,88.6666642990113
340,37,75373,1,0,0:0:0:0:
362,191,75511,1,0,0:0:0:0:
367,33,75649,1,0,0:0:0:0:
458,270,75787,1,0,0:0:0:0:
262,210,75925,1,0,0:0:0:0:
486,193,76063,1,0,0:0:0:0:
249,339,76201,1,0,0:0:0:0:
249,339,76614,5,0,0:0:0:0:
219,157,76752,1,0,0:0:0:0:
181,350,76890,1,0,0:0:0:0:
8,222,77028,1,0,0:0:0:0:
8,222,77442,5,0,0:0:0:0:
59,353,77580,1,0,0:0:0:0:
81,115,77718,1,0,0:0:0:0:
317,384,77856,2,0,B|321:361|312:344|312:344|326:324|326:324|306:303|294:255|334:235|321:203,1,177.333328598023
447,266,78269,5,0,0:0:0:0:
400,129,78407,1,0,0:0:0:0:
491,17,78545,1,0,0:0:0:0:
322,239,78683,1,0,0:0:0:0:
271,24,78821,1,0,0:0:0:0:
235,255,78959,1,0,0:0:0:0:
382,18,79097,2,0,B|368:66|368:78|382:87|384:97|364:113,1,88.6666642990113
321,255,79373,1,0,0:0:0:0:
222,0,79511,1,0,0:0:0:0:
222,0,79787,5,0,0:0:0:0:
186,150,79925,2,0,B|193:51|161:97|168:44,1,93.3333333333333
158,44,80338,2,0,B|137:31|126:43|105:28,1,46.6666666666667
98,22,80614,2,0,B|70:75|102:76|101:76|72:124,1,93.3333333333333
135,151,81028,6,0,P|157:140|166:190,1,70.0000026702882
183,185,81442,1,0,0:0:0:0:
130,254,81580,2,0,B|175:251|170:266|188:274|226:253,1,70.0000026702882
266,299,81994,2,0,B|227:332|220:309|208:296|173:312,1,93.3333333333333
225,353,82407,2,0,B|255:353|275:361|260:367,1,46.6666666666667
128,359,82821,1,0,0:0:0:0:
128,359,83097,5,0,0:0:0:0:
111,292,83235,2,0,B|80:291|80:291|74:296|60:295,2,46.6666666666667
211,347,83649,2,0,B|216:321|196:328|213:280,1,35.0000013351441
208,284,83925,2,0,B|233:285|233:285|250:293|281:268|300:276,1,93.3333333333333
335,348,84338,6,0,P|348:327|363:349,1,46.6666666666667
370,343,84752,1,0,0:0:0:0:
435,303,84890,2,0,B|451:284|438:267|451:243|451:243|455:210,1,93.3333333333333
465,194,85304,2,0,B|417:192|399:178|389:173|409:209,1,70.0000026702882
399,186,85718,5,0,0:0:0:0:
398,114,85856,1,0,0:0:0:0:
433,51,85994,1,0,0:0:0:0:
326,18,86132,1,0,0:0:0:0:
326,18,86407,5,0,0:0:0:0:
290,114,86545,2,0,B|267:149|289:128|290:187|265:222,1,93.3333333333333
246,200,86959,2,0,B|243:171|271:196|245:144,1,46.6666666666667
228,140,87235,2,0,B|206:153|176:134|157:152|157:152|123:137,1,93.3333333333333
63,84,87649,6,0,P|35:101|58:133,1,70.0000026702882
56,139,88063,1,0,0:0:0:0:
63,217,88201,2,0,B|71:246|71:246|86:272|70:291,1,70.0000026702882
52,323,88614,2,0,B|90:323|125:298|125:313|152:324,1,93.3333333333333
161,338,89028,2,0,B|207:327|208:344|203:358|233:355,1,46.6666666666667
257,271,89442,1,0,0:0:0:0:
257,271,89718,5,0,0:0:0:0:
264,249,89856,2,0,B|268:223|264:216|264:216|266:195,2,46.6666666666667
339,325,90269,2,0,B|362:335|362:335|394:319,1,35.0000013351441
391,321,90545,2,0,B|414:295|420:319|444:246,1,93.3333333333333
498,143,90959,2,0,B|505:182|505:182|522:191|510:241,1,97.9999970092774
258,13,92338,6,0,L|294:10,1,34.9999989318848
399,54,92752,5,0,0:0:0:0:
342,123,92890,2,0,L|339:146,2,23.3333333333333
225,10,93166,2,0,B|198:51|172:36|172:36|125:37,1,93.3333333333333
144,36,93580,1,0,0:0:0:0:
144,36,93856,1,0,0:0:0:0:
117,179,93994,1,0,0:0:0:0:
117,179,94269,5,0,0:0:0:0:
50,139,94407,2,0,B|39:111|53:102|47:91,2,46.6666666666667
137,248,94821,2,0,B|107:227|123:263|87:247|50:240|50:240|13:247,1,116.666666666667
207,359,95235,2,0,B|213:322|213:322|239:296|202:276|222:269|240:247,1,116.666666666667
399,341,95649,2,0,B|371:324|332:342|321:338|303:310,1,107.333335380554
471,364,96063,5,0,0:0:0:0:
497,270,96201,2,0,B|495:290|508:289|501:304,2,26.8333338451386
389,275,96476,1,0,0:0:0:0:
413,189,96614,1,0,0:0:0:0:
412,286,96752,1,0,0:0:0:0:
307,115,96890,2,0,B|308:145|329:153|306:166|312:195,1,70.0000026702882
309,261,97166,1,0,0:0:0:0:
230,74,97304,1,0,0:0:0:0:
230,74,97580,6,0,B|277:63|258:87|293:86|310:78|310:78|349:83|381:63,1,140
172,36,98132,2,0,B|140:71|161:107|168:124|196:145|196:145|158:173,1,140.000005340576
185,152,98545,1,0,0:0:0:0:
65,125,98821,2,0,B|56:107|57:85|64:72|54:55,1,58.3333333333333
125,230,99235,2,0,B|150:284|68:329|89:363|108:375,1,140
95,361,99787,5,0,0:0:0:0:
193,290,99925,1,0,0:0:0:0:
251,364,100063,1,0,0:0:0:0:
297,296,100201,2,0,B|296:274|311:259|311:259|300:233|309:184,1,70.0000026702882
304,147,100476,1,0,0:0:0:0:
366,353,100614,1,0,0:0:0:0:
366,353,100890,6,0,B|399:348|421:355|421:355|427:330|450:326|450:326|468:352|503:373,1,140
497,168,101442,2,0,B|480:194|463:209|526:318,1,116.666666666667
444,89,101856,2,0,B|471:118|365:128|390:183,1,116.666666666667
395,25,102269,2,0,B|369:67|321:55|330:33|271:40,1,107.333335380554
299,39,102683,5,0,0:0:0:0:
235,118,102821,2,0,L|232:157,2,26.8333338451386
176,30,103097,1,0,0:0:0:0:
152,133,103235,1,0,0:0:0:0:
142,21,103373,1,0,0:0:0:0:
85,164,103511,1,0,0:0:0:0:
85,164,103787,5,0,0:0:0:0:
296,186,103925,1,0,0:0:0:0:
296,186,104201,6,0,B|259:165|319:74|411:238|330:266,1,175
402,328,104752,2,0,B|343:329|373:251|450:265,1,116.666666666667
464,197,105166,2,0,B|465:256|387:226|401:149,1,116.666666666667
337,139,105511,1,0,0:0:0:0:
328,149,105580,2,0,P|302:163|264:161,2,58.3333333333333
275,19,105994,5,0,0:0:0:0:
422,98,106269,1,0,0:0:0:0:
422,98,106338,1,0,0:0:0:0:
422,98,106407,2,0,B|405:51|421:36|433:25|432:2,1,87.5
492,130,106821,2,0,P|495:162|482:186,1,58.3333333333333
440,256,107097,2,0,B|425:281|433:313|433:313|461:346|448:375,1,116.666666666667
323,380,107511,6,0,B|274:351|371:250|256:207|211:237,1,210.000008010865
126,282,108063,2,0,P|107:300|133:333,2,58.3333333333333
17,328,108476,2,0,P|36:346|10:379,2,58.3333333333333
60,238,108890,2,0,B|53:194|99:165|35:142|41:111,1,116.666666666667
8,10,109304,5,0,0:0:0:0:
113,103,109442,1,0,0:0:0:0:
113,103,109511,1,0,0:0:0:0:
113,103,109580,1,0,0:0:0:0:
184,29,109718,2,0,B|193:51|184:59|192:89,2,58.3333333333333
262,129,110132,2,0,P|281:141|322:124,1,58.3333333333333
401,25,110407,2,0,B|409:64|392:87|392:87|408:118|406:138,1,116.666666666667
504,206,110821,6,0,B|472:189|451:226|451:226|427:220|420:237|406:217,1,105.000004005432
500,382,111373,1,0,0:0:0:0:
437,302,111511,1,0,0:0:0:0:
437,302,111580,1,0,0:0:0:0:
437,302,111649,1,0,0:0:0:0:
334,384,111787,2,0,B|334:362|312:345|332:329,2,58.3333333333333
254,317,112201,2,0,B|254:295|276:278|256:262,1,58.3333333333333
196,360,112476,6,0,B|164:344|164:344|123:374|124:375|100:332|58:365,1,140
68,358,113028,1,0,0:0:0:0:
36,263,113166,1,0,0:0:0:0:
23,376,113304,1,0,0:0:0:0:
145,273,113442,2,0,B|184:264|194:286|222:294,1,58.3333333333333
276,222,113718,2,0,B|295:224|291:189|291:189|251:158|302:142|289:113,1,116.666666666667
397,20,114132,6,0,B|347:78|407:93|377:120,1,105.000004005432
426,183,114683,2,0,B|463:172|463:172|477:187,2,58.3333333333333
386,278,115097,2,0,B|428:257|457:277|470:258|470:258|498:274,1,116.666666666667
512,364,115511,2,0,B|467:367|450:342|428:356|428:356|412:352,1,93.3333333333333
308,376,115925,5,0,0:0:0:0:
250,276,116063,1,0,0:0:0:0:
250,276,116132,1,0,0:0:0:0:
250,276,116201,1,0,0:0:0:0:
158,384,116338,2,0,B|157:362|160:348|150:323,2,58.3333333333333
57,242,116752,2,0,B|38:268|50:286|46:298,1,58.3333333333333
17,86,117028,1,0,0:0:0:0:
66,153,117166,1,0,0:0:0:0:
66,153,117442,6,0,B|99:166|99:166|120:144|131:159|176:177|206:149,1,140
261,103,117994,2,0,B|263:68|242:47|254:36|275:29|276:17,1,93.3333333333333
397,28,118407,5,0,0:0:0:0:
397,38,118476,1,0,0:0:0:0:
399,49,118545,1,0,0:0:0:0:
403,62,118614,1,0,0:0:0:0:
407,72,118683,5,0,0:0:0:0:
432,132,118821,1,0,0:0:0:0:
452,198,118959,1,0,0:0:0:0:
455,267,119097,1,0,0:0:0:0:
456,280,119235,6,0,B|451:307|451:307|435:322|435:322|419:339|419:339|403:343|373:333,1,105.000004005432
388,337,119925,1,0,0:0:0:0:
357,260,120063,2,0,B|333:244|309:260|285:260|253:244,1,105.000004005432
257,342,120890,2,0,P|233:318|201:366,1,105.000004005432
198,361,121580,1,0,0:0:0:0:
198,361,121649,1,0,0:0:0:0:
198,361,121718,2,0,B|192:326|192:326|208:296|208:296|200:288|200:288|210:265|210:265|200:232|200:232|206:206,1,140.000005340576
136,120,122132,2,0,B|142:151|142:151|128:176|128:176|138:217,1,93.3333333333333
135,208,122545,5,0,0:0:0:0:
155,28,122821,2,0,B|115:30|115:30|91:54|56:46,1,97.9999970092775
271,19,123373,1,0,0:0:0:0:
271,19,123787,1,0,0:0:0:0:
324,86,123925,1,0,0:0:0:0:
346,20,124063,1,0,0:0:0:0:
305,159,124201,2,0,B|308:187|302:217|291:235|326:264,1,105.000004005432
319,258,124890,1,0,0:0:0:0:
319,258,124959,1,0,0:0:0:0:
319,258,125028,2,0,B|305:238|305:238|301:187|301:187|306:157|306:157|304:117,1,121.333327779134
378,54,125442,2,0,B|369:88|369:88|389:116|389:116|383:131,1,74.6666666666667
305,13,125856,5,0,0:0:0:0:
475,68,126132,2,0,B|491:47|487:35,1,27.9999991455078
487,43,126545,1,0,0:0:0:0:
427,152,126683,2,0,B|426:186|438:219|436:248,1,83.9999974365235
364,345,127511,2,0,P|417:336|421:338,1,56
277,296,128201,1,0,0:0:0:0:
277,296,128269,1,0,0:0:0:0:
277,296,128338,2,0,L|277:273,2,18.6666666666667
228,211,128752,2,0,B|234:190|234:190|228:178|228:178|229:154,1,56
228,156,129442,5,0,0:0:0:0:
272,75,129580,1,0,0:0:0:0:
272,75,129994,2,0,B|296:75|296:75|307:70,1,35
316,62,130545,1,0,0:0:0:0:
321,54,130683,1,0,0:0:0:0:
353,118,130821,1,0,0:0:0:0:
401,382,132063,6,0,L|399:347,1,34.9999989318848
479,374,132476,5,0,0:0:0:0:
495,224,132614,1,0,0:0:0:0:
495,224,132890,5,0,0:0:0:0:
512,384,133028,1,0,0:0:0:0:
507,135,133304,6,0,B|470:130|468:141|456:117|399:113,1,93.3333333333333
380,53,133718,1,0,0:0:0:0:
399,134,133856,1,0,0:0:0:0:
364,213,133994,1,0,0:0:0:0:
462,68,134132,5,0,0:0:0:0:
305,24,134269,1,0,0:0:0:0:
305,24,134545,5,0,0:0:0:0:
465,5,134683,1,0,0:0:0:0:
465,5,134959,5,0,0:0:0:0:
452,86,135097,1,0,0:0:0:0:
493,146,135235,1,0,0:0:0:0:
348,181,135373,2,0,B|377:166|377:166|409:176,1,46.6666666666667
446,234,135649,1,0,0:0:0:0:
291,118,135787,5,0,0:0:0:0:
259,259,135925,1,0,0:0:0:0:
259,259,136201,5,0,0:0:0:0:
236,100,136338,1,0,0:0:0:0:
358,314,136614,2,0,B|336:327|314:329|314:329|289:352|260:335,1,93.3333333333333
86,311,137028,1,0,0:0:0:0:
172,309,137166,1,0,0:0:0:0:
223,247,137304,1,0,0:0:0:0:
122,368,137442,5,0,0:0:0:0:
105,215,137580,1,0,0:0:0:0:
105,215,137856,5,0,0:0:0:0:
152,131,137994,1,0,0:0:0:0:
238,117,138132,1,0,0:0:0:0:
146,0,138269,1,0,0:0:0:0:
238,106,138407,1,0,0:0:0:0:
306,69,138545,1,0,0:0:0:0:
211,171,138683,1,0,0:0:0:0:
308,89,138821,1,0,0:0:0:0:
392,147,138959,1,0,0:0:0:0:
427,31,139097,5,0,0:0:0:0:
451,203,139235,1,0,0:0:0:0:
