osu file format v14

[General]
AudioFilename: audio.mp3
AudioLeadIn: 0
PreviewTime: 26102
Countdown: 0
SampleSet: Soft
StackLeniency: 0.7
Mode: 0
LetterboxInBreaks: 0
WidescreenStoryboard: 0

[Editor]
Bookmarks: 13275,19905,26525,39767,53008,66249,79491,92732,105974,119215
DistanceSpacing: 2.4
BeatDivisor: 6
GridSize: 4
TimelineZoom: 3.099999

[Metadata]
Title:Guitarmass (Cut Ver.)
TitleUnicode:Guitarmass (Cut Ver.)
Artist:Infected Mushroom
ArtistUnicode:Infected Mushroom
Creator:Ciyus Miapah
Version:Total Domination
Source:
Tags:edm rock electronic dance music psytrance psychedelic dark trance instrumental synth monstercat uncaged alternative Head of NASA and the 2 Amish Boys Fort ReFaller VanillaSandvich Kyrari Wezeh PaRaDogi Nerova Riuz GX InCritDouble Derandom Otaku Ren Alphabet Aistre Venax
BeatmapID:1977960
BeatmapSetID:947022

[Difficulty]
HPDrainRate:5
CircleSize:4
OverallDifficulty:9
ApproachRate:9.8
SliderMultiplier:2.2
SliderTickRate:1

[Events]
//Background and Video events
0,0,"BG.jpg",0,0
//Break Periods
2,82992,85210
//Storyboard Layer 0 (Background)
//Storyboard Layer 1 (Fail)
//Storyboard Layer 2 (Pass)
//Storyboard Layer 3 (Foreground)
//Storyboard Layer 4 (Overlay)
//Storyboard Sound Samples

[TimingPoints]
34,413.793103448276,4,2,1,50,1,0
19896,-100,4,2,1,60,0,0
20171,-100,4,2,1,5,0,0
20309,-100,4,2,1,60,0,0
20584,-100,4,2,1,5,0,0
20723,-133.333333333333,4,2,1,60,0,0
21551,-50,4,2,1,60,0,0
21826,-50,4,2,1,5,0,0
21965,-100,4,2,1,60,0,0
22378,-50,4,2,1,60,0,0
22653,-50,4,2,1,5,0,0
22792,-50,4,2,1,60,0,0
23206,-83.3333333333333,4,2,1,60,0,0
23481,-83.3333333333333,4,2,1,5,0,0
23620,-83.3333333333333,4,2,1,60,0,0
23895,-83.3333333333333,4,2,1,5,0,0
24034,-133.333333333333,4,2,1,60,0,0
24309,-133.333333333333,4,2,1,5,0,0
24447,-133.333333333333,4,2,1,60,0,0
24515,-133.333333333333,4,2,1,5,0,0
24585,-66.6666666666667,4,2,1,60,0,0
24653,-66.6666666666667,4,2,1,5,0,0
24723,-33.3333333333333,4,2,1,60,0,0
24791,-33.3333333333333,4,2,1,5,0,0
24861,-66.6666666666667,4,2,1,60,0,0
25274,-66.6666666666667,4,2,1,5,0,0
26240,-100,4,2,1,15,0,0
26309,-100,4,2,1,50,0,0
26378,-100,4,2,1,60,0,0
26446,-100,4,2,1,5,0,0
26516,-25,4,2,1,75,0,0
26653,-25,4,2,1,5,0,0
26930,-133.333333333333,4,2,1,75,0,0
27067,-133.333333333333,4,2,1,5,0,0
27206,-133.333333333333,4,2,1,75,0,0
27344,-40,4,2,1,75,0,0
27619,-40,4,2,1,5,0,0
27758,-40,4,2,1,75,0,0
27896,-133.333333333333,4,2,1,75,0,0
27964,-133.333333333333,4,2,1,5,0,0
28034,-133.333333333333,4,2,1,75,0,0
28102,-133.333333333333,4,2,1,5,0,0
28171,-33.3333333333333,4,2,1,75,0,0
28239,-33.3333333333333,4,2,1,5,0,0
28309,-33.3333333333333,4,2,1,75,0,0
28377,-33.3333333333333,4,2,1,5,0,0
28447,-100,4,2,1,75,0,0
28515,-100,4,2,1,5,0,0
28585,-100,4,2,1,75,0,0
28861,-200,4,2,1,75,0,0
28929,-200,4,2,1,5,0,0
28999,-50,4,2,1,75,0,0
29274,-50,4,2,1,5,0,0
29413,-50,4,2,1,75,0,0
29827,-40,4,2,1,75,0,0
30102,-40,4,2,1,5,0,0
30240,-80,4,2,1,75,0,0
30377,-80,4,2,1,5,0,0
30516,-80,4,2,1,75,0,0
30654,-40,4,2,1,75,0,0
30929,-40,4,2,1,5,0,0
31068,-40,4,2,1,75,0,0
31757,-40,4,2,1,5,0,0
31896,-40,4,2,1,75,0,0
32033,-40,4,2,1,5,0,0
32171,-40,4,2,1,75,0,0
32309,-37.037037037037,4,2,1,75,0,0
32584,-37.037037037037,4,2,1,5,0,0
32723,-37.037037037037,4,2,1,75,0,0
33137,-100,4,2,1,75,0,0
33412,-100,4,2,1,5,0,0
33551,-100,4,2,1,75,0,0
33688,-100,4,2,1,5,0,0
33827,-100,4,2,1,75,0,0
33965,-50,4,2,1,75,0,0
34102,-50,4,2,1,5,0,0
34240,-50,4,2,1,40,0,0
34378,-50,4,2,1,75,0,0
34516,-200,4,2,1,75,0,0
34584,-200,4,2,1,5,0,0
34654,-200,4,2,1,75,0,0
34722,-200,4,2,1,5,0,0
34792,-50,4,2,1,75,0,0
34860,-50,4,2,1,6,0,0
34930,-50,4,2,1,75,0,0
34998,-50,4,2,1,5,0,0
35068,-50,4,2,1,75,0,0
35895,-50,4,2,1,5,0,0
36034,-50,4,2,1,75,0,0
36447,-40,4,2,1,75,0,0
36722,-40,4,2,1,5,0,0
36861,-40,4,2,1,75,0,0
36998,-40,4,2,1,5,0,0
37137,-40,4,2,1,75,0,0
37275,-33.3333333333333,4,2,1,75,0,0
37550,-33.3333333333333,4,2,1,5,0,0
37689,-33.3333333333333,4,2,1,75,0,0
38102,-50,4,2,1,75,0,0
38377,-50,4,2,1,5,0,0
38516,-50,4,2,1,75,0,0
38653,-50,4,2,1,5,0,0
38792,-50,4,2,1,75,0,0
38930,-33.3333333333333,4,2,1,75,0,0
39205,-33.3333333333333,4,2,1,5,0,0
39344,-33.3333333333333,4,2,1,75,0,0
39758,-45.4545454545455,4,2,1,100,0,1
39964,-45.4545454545455,4,2,1,5,0,1
40034,-45.4545454545455,4,2,1,100,0,1
40308,-45.4545454545455,4,2,1,5,0,1
40447,-100,4,2,1,100,0,1
40515,-100,4,2,1,5,0,1
40585,-45.4545454545455,4,2,1,100,0,1
40860,-45.4545454545455,4,2,1,5,0,1
40999,-100,4,2,1,100,0,1
41067,-100,4,2,1,5,0,1
41137,-100,4,2,1,100,0,1
41205,-100,4,2,1,5,0,1
41275,-100,4,2,1,100,0,1
41343,-100,4,2,1,5,0,1
41413,-37.037037037037,4,2,1,100,0,1
41619,-37.037037037037,4,2,1,5,0,1
41689,-37.037037037037,4,2,1,100,0,1
42033,-37.037037037037,4,2,1,5,0,1
42102,-37.037037037037,4,2,1,100,0,1
42170,-37.037037037037,4,2,1,5,0,1
42240,-27.7777777777778,4,2,1,100,0,1
42584,-27.7777777777778,4,2,1,5,0,1
42654,-45.4545454545455,4,2,1,100,0,1
42722,-45.4545454545455,4,2,1,5,0,1
42792,-45.4545454545455,4,2,1,100,0,1
42860,-45.4545454545455,4,2,1,5,0,1
42930,-45.4545454545455,4,2,1,100,0,1
42998,-45.4545454545455,4,2,1,5,0,1
43068,-45.4545454545455,4,2,1,100,0,1
43896,-33.3333333333333,4,2,1,100,0,1
44171,-33.3333333333333,4,2,1,5,0,1
44309,-33.3333333333333,4,2,1,100,0,1
44377,-33.3333333333333,4,2,1,5,0,1
44447,-33.3333333333333,4,2,1,100,0,1
44515,-33.3333333333333,4,2,1,5,0,1
44585,-33.3333333333333,4,2,1,100,0,1
44653,-33.3333333333333,4,2,1,5,0,1
44723,-33.3333333333333,4,2,1,100,0,1
44860,-33.3333333333333,4,2,1,5,0,1
44999,-33.3333333333333,4,2,1,100,0,1
45412,-33.3333333333333,4,2,1,5,0,1
45551,-33.3333333333333,4,2,1,100,0,1
45826,-33.3333333333333,4,2,1,5,0,1
45965,-33.3333333333333,4,2,1,100,0,1
46653,-33.3333333333333,4,2,1,5,0,1
46792,-33.3333333333333,4,2,1,100,0,1
46929,-33.3333333333333,4,2,1,5,0,1
47068,-33.3333333333333,4,2,1,100,0,1
47481,-33.3333333333333,4,2,1,5,0,1
47620,-33.3333333333333,4,2,1,100,0,1
49136,-33.3333333333333,4,2,1,5,0,1
49275,-33.3333333333333,4,2,1,100,0,1
51344,-28.5714285714286,4,2,1,100,0,1
51481,-28.5714285714286,4,2,1,5,0,1
51620,-28.5714285714286,4,2,1,100,0,1
51757,-28.5714285714286,4,2,1,5,0,1
51896,-28.5714285714286,4,2,1,100,0,1
52446,-28.5714285714286,4,2,1,5,0,1
52585,-28.5714285714286,4,2,1,50,0,0
52999,-100,4,2,1,50,0,0
53274,-100,4,2,1,5,0,0
53413,-100,4,2,1,50,0,0
54102,-100,4,2,1,5,0,0
54240,-100,4,2,1,50,0,0
54929,-100,4,2,1,5,0,0
55068,-100,4,2,1,50,0,0
55757,-100,4,2,1,5,0,0
55896,-100,4,2,1,50,0,0
56171,-100,4,2,1,5,0,0
56309,-100,4,2,1,50,0,0
56584,-100,4,2,1,5,0,0
56723,-100,4,2,1,50,0,0
57412,-100,4,2,1,5,0,0
57551,-100,4,2,1,50,0,0
58240,-100,4,2,1,5,0,0
58378,-100,4,2,1,50,0,0
59620,-66.6666666666667,4,2,1,65,0,0
59964,-66.6666666666667,4,2,1,5,0,0
60034,-66.6666666666667,4,2,1,65,0,0
60447,-133.333333333333,4,2,1,65,0,0
60722,-133.333333333333,4,2,1,5,0,0
60861,-133.333333333333,4,2,1,65,0,0
61550,-133.333333333333,4,2,1,5,0,0
61689,-133.333333333333,4,2,1,65,0,0
63344,-66.6666666666667,4,2,1,65,0,0
63758,-133.333333333333,4,2,1,65,0,0
64033,-133.333333333333,4,2,1,5,0,0
64171,-133.333333333333,4,2,1,65,0,0
64860,-133.333333333333,4,2,1,5,0,0
64999,-133.333333333333,4,2,1,65,0,0
66240,-57.1428571428571,4,2,1,75,0,0
66515,-57.1428571428571,4,2,1,5,0,0
66654,-57.1428571428571,4,2,1,75,0,0
73413,-100,4,2,1,75,0,0
73481,-100,4,2,1,5,0,0
73551,-100,4,2,1,75,0,0
73619,-100,4,2,1,5,0,0
73689,-100,4,2,1,75,0,0
74308,-100,4,2,1,5,0,0
74378,-100,4,2,1,75,0,0
74446,-100,4,2,1,5,0,0
74516,-100,4,2,1,75,0,0
74998,-100,4,2,1,5,0,0
75068,-100,4,2,1,75,0,0
75136,-100,4,2,1,5,0,0
75206,-100,4,2,1,75,0,0
75274,-100,4,2,1,5,0,0
75344,-50,4,2,1,75,0,0
75412,-50,4,2,1,5,0,0
75482,-50,4,2,1,75,0,0
75550,-50,4,2,1,5,0,0
75620,-50,4,2,1,75,0,0
75688,-50,4,2,1,5,0,0
75758,-50,4,2,1,75,0,0
76723,-100,4,2,1,75,0,0
76791,-100,4,2,1,5,0,0
76861,-100,4,2,1,75,0,0
76929,-100,4,2,1,5,0,0
76999,-100,4,2,1,75,0,0
77481,-100,4,2,1,5,0,0
77551,-50,4,2,1,75,0,0
77619,-50,4,2,1,5,0,0
77689,-33.3333333333333,4,2,1,75,0,0
77757,-33.3333333333333,4,2,1,5,0,0
77827,-44.4444444444445,4,2,1,75,0,0
78102,-44.4444444444445,4,2,1,5,0,0
78240,-44.4444444444445,4,2,1,75,0,0
79620,-44.4444444444445,4,2,1,5,0,0
82792,-44.4444444444445,4,2,1,60,0,0
86102,-133.333333333333,4,2,1,50,0,0
90930,-500,4,2,1,50,0,0
90999,-500,4,2,1,5,0,0
91895,-500,4,2,1,60,0,0
92447,-100,4,2,1,15,0,0
92516,-100,4,2,1,50,0,0
92585,-100,4,2,1,60,0,0
92653,-100,4,2,1,5,0,0
92723,-66.6666666666667,4,2,1,75,0,0
93688,-66.6666666666667,4,2,1,5,0,0
93827,-66.6666666666667,4,2,1,75,0,0
94102,-66.6666666666667,4,2,1,5,0,0
94240,-66.6666666666667,4,2,1,75,0,0
94515,-66.6666666666667,4,2,1,5,0,0
94654,-66.6666666666667,4,2,1,75,0,0
94929,-66.6666666666667,4,2,1,5,0,0
95068,-66.6666666666667,4,2,1,75,0,0
95343,-66.6666666666667,4,2,1,5,0,0
95482,-66.6666666666667,4,2,1,75,0,0
96171,-66.6666666666667,4,2,1,5,0,0
96309,-66.6666666666667,4,2,1,75,0,0
96998,-66.6666666666667,4,2,1,5,0,0
97137,-66.6666666666667,4,2,1,75,0,0
97412,-66.6666666666667,4,2,1,5,0,0
97551,-66.6666666666667,4,2,1,75,0,0
97826,-66.6666666666667,4,2,1,5,0,0
97965,-66.6666666666667,4,2,1,75,0,0
98308,-66.6666666666667,4,2,1,5,0,0
98378,-66.6666666666667,4,2,1,75,0,0
98446,-66.6666666666667,4,2,1,5,0,0
98516,-66.6666666666667,4,2,1,75,0,0
98722,-66.6666666666667,4,2,1,5,0,0
98792,-66.6666666666667,4,2,1,75,0,0
98860,-66.6666666666667,4,2,1,5,0,0
98930,-66.6666666666667,4,2,1,75,0,0
99136,-66.6666666666667,4,2,1,5,0,0
99206,-66.6666666666667,4,2,1,75,0,0
99619,-66.6666666666667,4,2,1,5,0,0
99758,-66.6666666666667,4,2,1,75,0,0
99895,-66.6666666666667,4,2,1,5,0,0
100034,-66.6666666666667,4,2,1,75,0,0
100308,-66.6666666666667,4,2,1,5,0,0
100447,-66.6666666666667,4,2,1,75,0,0
100722,-66.6666666666667,4,2,1,5,0,0
100861,-66.6666666666667,4,2,1,75,0,0
101205,-66.6666666666667,4,2,1,5,0,0
101275,-66.6666666666667,4,2,1,75,0,0
101343,-66.6666666666667,4,2,1,5,0,0
101413,-66.6666666666667,4,2,1,75,0,0
101619,-66.6666666666667,4,2,1,5,0,0
101689,-66.6666666666667,4,2,1,75,0,0
101757,-66.6666666666667,4,2,1,5,0,0
101827,-66.6666666666667,4,2,1,75,0,0
102515,-66.6666666666667,4,2,1,5,0,0
102654,-66.6666666666667,4,2,1,75,0,0
102791,-66.6666666666667,4,2,1,5,0,0
102930,-66.6666666666667,4,2,1,75,0,0
103619,-66.6666666666667,4,2,1,5,0,0
103758,-66.6666666666667,4,2,1,75,0,0
104033,-66.6666666666667,4,2,1,5,0,0
104171,-66.6666666666667,4,2,1,75,0,0
104585,-66.6666666666667,4,2,1,5,0,0
104723,-66.6666666666667,4,2,1,75,0,0
105067,-66.6666666666667,4,2,1,5,0,0
105137,-66.6666666666667,4,2,1,75,0,0
105274,-66.6666666666667,4,2,1,5,0,0
105413,-66.6666666666667,4,2,1,75,0,0
105965,-50,4,2,1,100,0,1
106102,-50,4,2,1,5,0,1
106240,-50,4,2,1,100,0,1
106929,-50,4,2,1,5,0,1
107068,-50,4,2,1,100,0,1
107343,-50,4,2,1,5,0,1
107482,-50,4,2,1,100,0,1
108998,-50,4,2,1,5,0,1
109137,-50,4,2,1,100,0,1
109412,-50,4,2,1,5,0,1
109551,-50,4,2,1,100,0,1
110239,-50,4,2,1,5,0,1
110378,-50,4,2,1,100,0,1
110653,-50,4,2,1,5,0,1
110792,-50,4,2,1,100,0,1
111481,-50,4,2,1,5,0,1
111620,-50,4,2,1,100,0,1
112308,-50,4,2,1,5,0,1
112447,-50,4,2,1,100,0,1
112722,-50,4,2,1,5,0,1
112861,-50,4,2,1,100,0,1
113550,-50,4,2,1,5,0,1
113689,-50,4,2,1,100,0,1
113964,-50,4,2,1,5,0,1
114102,-50,4,2,1,100,0,1
115205,-50,4,2,1,5,0,1
115344,-50,4,2,1,100,0,1
115619,-50,4,2,1,5,0,1
115758,-50,4,2,1,100,0,1
116033,-50,4,2,1,5,0,1
116171,-50,4,2,1,100,0,1
117274,-50,4,2,1,5,0,1
117413,-50,4,2,1,100,0,1
117826,-50,4,2,1,5,0,1
117965,-50,4,2,1,100,0,1
118102,-50,4,2,1,5,0,1
118240,-50,4,2,1,100,0,1
118860,-50,4,2,1,5,0,1
118930,-50,4,2,1,100,0,1
118998,-50,4,2,1,5,0,1
119068,-50,4,2,1,100,0,1
119136,-50,4,2,1,5,0,1
119206,-133.333333333333,4,2,1,50,0,0
123619,-133.333333333333,4,2,1,5,0,0
123758,-133.333333333333,4,2,1,50,0,0

[Colours]
Combo1 : 0,64,128
Combo2 : 255,0,255
Combo3 : 0,128,255
Combo4 : 255,0,128

[HitObjects]
196,283,34,5,2,2:0:0:0:
255,149,309,1,0,2:0:0:0:
255,149,447,1,0,2:0:0:0:
316,283,861,1,0,2:0:0:0:
189,287,1275,5,0,2:0:0:0:
254,139,1413,1,0,2:0:0:0:
322,287,1551,1,0,2:0:0:0:
180,297,1689,5,2,2:0:0:0:
254,129,1965,1,0,2:0:0:0:
254,129,2102,1,0,2:0:0:0:
331,297,2516,1,0,2:0:0:0:
172,303,2930,5,0,2:0:0:0:
254,117,3068,1,0,2:0:0:0:
339,303,3206,1,0,2:0:0:0:
163,314,3344,5,2,2:0:0:0:
254,106,3620,1,0,2:0:0:0:
254,106,3758,1,0,2:0:0:0:
349,314,4171,1,0,2:0:0:0:
153,321,4585,5,0,2:0:0:0:
254,92,4723,1,0,2:0:0:0:
358,321,4861,1,0,2:0:0:0:
135,351,4999,5,2,2:0:0:0:
254,81,5275,1,0,2:0:0:0:
254,81,5413,1,0,2:0:0:0:
377,351,5827,1,0,2:0:0:0:
123,360,6240,5,0,2:0:0:0:
254,62,6378,1,0,2:0:0:0:
389,360,6516,1,0,2:0:0:0:
174,86,6654,6,0,P|217:134|329:99,1,146.666666666667,2|0,2:0|2:0,2:0:0:0:
373,91,7068,2,0,P|439:94|488:270,1,220,4|0,2:1|2:0,2:0:0:0:
501,248,7896,2,0,P|478:280|427:308,1,73.3333333333333,0|0,2:0|2:0,2:0:0:0:
364,278,8171,1,0,2:0:0:0:
338,298,8309,6,0,P|295:250|183:285,1,146.666666666667,2|0,2:0|2:0,2:0:0:0:
139,293,8723,2,0,P|73:290|24:114,1,220,0|0,2:0|2:0,2:0:0:0:
11,136,9551,2,0,P|34:104|85:76,1,73.3333333333333,0|0,2:0|2:0,2:0:0:0:
148,106,9827,1,0,2:0:0:0:
174,86,9965,6,0,P|217:134|329:99,1,146.666666666667,2|0,2:0|2:0,2:0:0:0:
373,91,10378,2,0,P|439:94|488:270,1,220,0|0,2:0|2:0,2:0:0:0:
501,248,11206,2,0,P|478:280|427:308,1,73.3333333333333,0|0,2:0|2:0,2:0:0:0:
364,278,11482,1,0,2:0:0:0:
338,298,11620,6,0,P|295:250|183:285,1,146.666666666667,2|0,2:0|2:0,2:0:0:0:
139,293,12034,2,0,P|73:290|24:114,1,220,0|0,2:0|2:0,2:0:0:0:
11,136,12861,2,0,P|34:104|85:76,1,73.3333333333333,0|0,2:0|2:0,2:0:0:0:
148,106,13137,1,0,2:0:0:0:
167,135,13275,6,0,P|224:181|327:157,1,146.666666666667,2|0,2:0|2:0,2:0:0:0:
381,164,13689,2,0,P|457:234|413:343,1,220,4|0,2:1|2:0,2:0:0:0:
163,296,14516,2,0,P|144:339|152:376,2,73.3333333333333,0|0|0,2:0|2:0|2:0,2:0:0:0:
345,249,14930,6,0,P|288:203|185:227,1,146.666666666667,2|0,2:0|2:0,2:0:0:0:
131,220,15344,2,0,P|55:150|99:41,1,220,0|0,2:0|2:0,2:0:0:0:
349,88,16171,2,0,P|368:45|360:8,2,73.3333333333333,0|0|0,2:0|2:0|2:0,2:0:0:0:
167,135,16585,6,0,P|224:181|327:157,1,146.666666666667,2|0,2:0|2:0,2:0:0:0:
381,164,16999,2,0,P|457:234|413:343,1,220,0|0,2:0|2:0,2:0:0:0:
163,296,17827,2,0,P|144:339|152:376,2,73.3333333333333,0|0|0,2:0|2:0|2:0,2:0:0:0:
345,249,18240,6,0,P|288:203|185:227,1,146.666666666667,2|0,2:0|2:0,2:0:0:0:
131,220,18654,2,0,P|55:150|99:41,1,220,0|0,2:0|2:0,2:0:0:0:
349,88,19482,2,0,P|368:45|360:8,2,73.3333333333333,0|0|0,2:0|2:0|2:0,2:0:0:0:
277,141,19896,6,0,L|91:123,1,146.666666666667,8|0,2:0|2:0,2:0:0:0:
277,141,20309,2,0,L|463:159,1,146.666666666667,8|0,2:0|2:0,2:0:0:0:
116,138,20723,2,0,P|59:163|36:203,1,110,8|0,2:0|2:0,2:0:0:0:
37,203,21137,5,0,2:0:0:0:
37,203,21275,1,0,2:0:0:0:
37,203,21413,1,0,2:0:0:0:
120,294,21551,6,0,P|179:292|223:102,1,293.333333333333,8|0,2:0|2:0,2:0:0:0:
265,267,21965,2,0,P|284:233|287:209,4,36.6666666666667,8|0|0|0|0,2:0|2:0|2:0|2:0|2:0,2:0:0:0:
200,313,22378,2,0,P|246:276|215:58,1,293.333333333333,8|0,2:0|2:0,2:0:0:0:
142,27,22792,5,0,2:0:0:0:
193,195,22930,1,0,2:0:0:0:
335,91,23068,1,0,2:0:0:0:
79,116,23206,6,0,P|52:174|101:275,1,176,8|0,2:0|2:0,2:0:0:0:
300,250,23620,2,0,P|327:192|278:91,1,176,8|0,2:0|2:0,2:0:0:0:
95,139,24034,6,0,P|76:179|110:249,1,110,8|0,2:0|2:0,2:0:0:0:
175,299,24447,6,0,P|195:287|218:281,1,27.5000000000001,0|0,2:0|2:0,2:0:0:0:
425,239,24585,2,0,P|388:227|355:229,1,55,0|0,2:0|2:0,2:0:0:0:
160,187,24723,2,0,P|221:175|271:147,1,110,0|0,2:0|2:0,2:0:0:0:
454,78,24861,6,0,L|108:52,1,330,4|0,2:1|2:0,2:0:0:0:
267,206,26240,6,0,P|256:196|289:105,1,110,0|0,2:0|2:0,2:0:0:0:
291,107,26516,6,0,P|331:193|172:235,1,293.333333333333,4|0,2:3|2:0,2:0:0:0:
168,266,26930,6,0,P|137:253|112:252,1,55.0000000000001,8|0,2:0|2:0,2:0:0:0:
246,363,27206,1,0,2:0:0:0:
237,54,27344,6,0,B|302:72|318:146|291:191|231:216|231:216|177:175|91:177,1,366.666666666667,2|0,3:0|2:0,2:0:0:0:
388,61,27758,5,8,2:0:0:0:
400,65,27896,2,0,P|405:94|405:111,1,27.5000000000001,0|0,2:0|2:0,2:0:0:0:
414,71,28034,2,0,P|419:100|419:117,1,27.5000000000001,0|0,2:0|2:0,2:0:0:0:
421,290,28171,6,0,P|391:270|317:267,1,110,4|0,3:0|2:0,2:0:0:0:
67,188,28309,2,0,P|97:208|171:211,1,110,0|0,2:0|2:0,2:0:0:0:
474,221,28447,2,0,P|435:202|426:199,1,36.6666666666667,0|0,2:0|2:0,2:0:0:0:
174,323,28585,5,8,2:0:0:0:
174,323,28861,2,0,L|169:293,1,18.3333333333333,0|0,2:0|2:0,2:0:0:0:
244,70,28999,6,0,L|295:380,1,293.333333333333,2|0,3:0|2:0,2:0:0:0:
404,353,29413,5,8,2:0:0:0:
103,239,29551,1,0,2:0:0:0:
407,145,29689,1,0,2:0:0:0:
103,271,29827,6,0,B|192:231|254:176|254:176|322:246|412:272,1,366.666666666667,4|0,3:0|2:0,2:0:0:0:
150,145,30240,6,0,P|129:104|130:58,1,91.6666666666667,8|0,2:0|2:0,2:0:0:0:
250,313,30516,1,0,2:0:0:0:
362,145,30654,6,0,B|393:103|382:59|382:59|391:67|391:67|400:69|400:69|392:78|392:78|404:75|404:75|398:86|398:86|413:87|413:87|404:96|404:96|413:98|413:98|407:105|407:105|421:105|421:105|406:116|406:116|414:123|414:123|399:179|302:209,1,366.666666666667,2|0,3:0|2:0,2:0:0:0:
254,35,31068,5,8,2:0:0:0:
239,326,31206,1,0,2:0:0:0:
482,225,31344,1,0,2:0:0:0:
197,225,31482,6,0,B|148:240|133:288|133:288|54:225|62:130|62:130|109:150|151:111,1,366.666666666667,4|0,3:0|2:0,2:0:0:0:
366,215,31896,6,0,P|397:263|365:382,1,183.333333333333,8|0,2:0|2:0,2:0:0:0:
289,109,32171,1,0,2:0:0:0:
289,109,32309,6,0,B|252:73|257:26|257:26|242:21|242:21|231:23|231:23|240:33|240:33|228:41|228:41|238:49|238:49|226:59|226:59|238:63|238:63|226:73|226:73|237:74|237:74|228:85|228:85|239:86|239:86|233:100|233:100|236:118|286:153|286:153|313:119|382:103,1,396,2|0,3:0|2:0,2:0:0:0:
346,41,32723,5,8,2:0:0:0:
255,371,32861,1,0,2:0:0:0:
147,158,32999,1,0,2:0:0:0:
361,199,33137,6,0,L|516:187,1,146.666666666667,4|0,3:0|2:0,2:0:0:0:
381,294,33551,6,0,P|367:326|369:374,1,73.3333333333333,8|0,2:0|2:0,2:0:0:0:
445,115,33827,1,0,2:0:0:0:
273,243,33965,6,0,B|244:269|212:264|212:264|203:274|203:274|166:251|128:259,1,146.666666666667,2|0,3:0|2:0,2:0:0:0:
430,110,34240,1,0,2:0:0:0:
203,163,34378,5,8,2:0:0:0:
470,254,34516,2,0,L|493:261,1,18.3333333333333,0|0,2:0|2:0,2:0:0:0:
130,115,34654,2,0,L|102:104,1,18.3333333333333,0|0,2:0|2:0,2:0:0:0:
386,197,34792,6,0,P|432:175|453:147,1,73.3333333333333,4|0,3:0|2:0,2:0:0:0:
250,83,34930,2,0,P|246:46|261:0,1,73.3333333333333,0|0,2:0|2:0,2:0:0:0:
146,342,35068,1,0,2:0:0:0:
357,98,35206,5,8,2:0:0:0:
364,81,35482,1,0,2:0:0:0:
78,299,35620,6,0,B|98:260|167:235|236:283|226:354|226:354|212:305|247:272,1,293.333333333333,2|0,3:0|2:0,2:0:0:0:
318,232,36034,5,8,2:0:0:0:
130,151,36171,1,0,2:0:0:0:
477,123,36309,1,0,2:0:0:0:
400,341,36447,6,0,B|419:308|398:210|313:216|313:216|229:208|203:136|223:84,1,366.666666666667,4|0,3:0|2:0,2:0:0:0:
315,121,36861,6,0,B|325:63|384:49|384:49|382:45|382:45|428:69|463:65,1,183.333333333333,8|0,2:0|2:0,2:0:0:0:
319,308,37137,1,0,2:0:0:0:
142,167,37275,6,0,B|125:99|150:45|150:45|124:33|124:33|135:54|135:54|107:55|107:55|123:73|123:73|94:74|94:74|112:93|112:93|84:97|84:97|102:109|102:109|76:128|76:128|76:185|136:213,1,440,2|0,3:0|2:0,2:0:0:0:
180,249,37689,5,8,2:0:0:0:
7,214,37827,1,0,2:0:0:0:
401,141,37965,1,0,2:0:0:0:
243,325,38102,6,0,B|216:353|144:358|107:316|107:316|36:325|36:325|77:315|84:272|84:272,1,293.333333333333,4|0,3:0|2:0,2:0:0:0:
333,248,38516,6,0,P|396:226|470:259,1,146.666666666667,8|0,2:0|2:0,2:0:0:0:
180,249,38792,1,0,2:0:0:0:
356,92,38930,6,0,B|368:73|412:54|412:54|380:58|380:58|374:76|374:76|365:59|365:59|352:87|352:87|350:68|350:68|341:88|341:88|340:77|340:77|325:90|325:90|316:79|316:79|303:88|303:88|289:76|289:76|276:85|276:85|267:72|267:72|243:82|243:82|294:114|334:106,1,440,2|0,3:0|2:0,2:0:0:0:
437,151,39344,5,8,2:0:0:0:
76,125,39482,1,0,2:0:0:0:
462,159,39620,1,0,2:0:0:0:
42,103,39758,6,0,P|105:96|178:255,1,242,4|0,3:0|2:0,2:0:0:0:
180,254,40034,2,0,P|160:281|116:312,1,80.6666666666666,0|0,2:0|2:0,2:0:0:0:
305,239,40171,6,0,B|357:227|387:243|387:243|400:239|400:239|431:256|477:245,1,161.333333333333,8|0,2:0|2:0,2:0:0:0:
71,209,40447,2,0,P|47:222|22:224,1,36.6666666666667,0|0,2:0|2:0,2:0:0:0:
362,115,40585,6,0,B|437:88|437:88|415:31|339:-1|264:63|282:136,1,322.666666666666,2|0,3:0|2:0,2:0:0:0:
324,323,40999,6,0,L|336:375,1,36.6666666666667,8|0,2:0|2:0,2:0:0:0:
443,173,41137,2,0,L|488:160,1,36.6666666666667,0|0,2:0|2:0,2:0:0:0:
248,361,41275,2,0,L|203:374,1,36.6666666666667,0|0,2:0|2:0,2:0:0:0:
449,283,41413,6,0,B|174:255|174:255|180:210,1,297,4|0,3:0|2:0,2:0:0:0:
93,310,41689,2,0,P|53:305|12:252,1,99.0000000000001,0|0,2:0|2:0,2:0:0:0:
89,232,41827,6,0,B|89:190|133:121|208:145|235:166|235:166|273:176|309:146|311:116,1,297,8|0,2:0|2:0,2:0:0:0:
254,25,42102,2,0,P|187:52|178:107,1,99.0000000000001,0|0,2:0|2:0,2:0:0:0:
389,151,42240,6,0,B|427:163|427:163|478:139|478:139|491:79|491:79|464:31|464:31|407:14|407:14|360:28|360:28|313:110|313:110|313:154|361:178|361:178|411:207|429:274|387:324|338:345,1,660,2|0,3:0|2:0,2:0:0:0:
356,341,42654,6,0,P|316:375|263:361,1,80.6666666666666,8|0,2:0|2:0,2:0:0:0:
215,205,42792,2,0,P|191:141|192:96,1,80.6666666666666,0|0,2:0|2:0,2:0:0:0:
126,320,42930,2,0,P|86:354|33:340,1,80.6666666666666,0|0,2:0|2:0,2:0:0:0:
392,180,43068,5,4,3:0:0:0:
236,345,43206,1,0,2:0:0:0:
184,39,43344,1,0,2:0:0:0:
318,266,43482,5,8,2:0:0:0:
98,204,43620,1,0,2:0:0:0:
344,16,43758,1,0,2:0:0:0:
236,345,43896,6,0,B|212:323|174:265|216:182|271:163|271:163|246:154|246:154|278:150|278:150|251:131|251:131|271:118|271:118|258:100|258:100|267:79|267:79|249:123|191:136,1,440,2|0,3:0|2:0,2:0:0:0:
382,101,44309,6,0,L|498:81,1,110,8|0,2:0|2:0,2:0:0:0:
120,123,44447,2,0,P|82:82|77:21,1,110,0|0,2:0|2:0,2:0:0:0:
318,266,44585,2,0,P|353:307|351:373,1,110,0|0,2:0|2:0,2:0:0:0:
104,213,44723,6,0,P|42:176|-9:39,1,220,4|0,3:0|2:0,2:0:0:0:
288,47,44999,2,0,L|507:5,1,220,2|8,3:0|2:0,2:0:0:0:
307,161,45275,2,0,P|383:189|467:343,1,220,2|0,3:0|2:0,2:0:0:0:
149,352,45551,6,0,B|111:314|125:256|125:256|123:246|123:246|160:181|160:181|182:111|129:83|120:82|120:82|121:74|121:74|113:79|113:79|76:67|12:92|24:153,1,440,2|0,3:0|2:0,2:0:0:0:
210,284,45965,5,8,2:0:0:0:
197,22,46102,1,0,2:0:0:0:
299,346,46240,1,0,2:0:0:0:
93,150,46378,6,0,B|305:162|305:162|368:74|368:74|536:85,1,440,4|0,3:0|2:0,2:0:0:0:
485,320,46792,6,0,B|365:327|365:327|293:231,1,220,8|0,2:0|2:0,2:0:0:0:
185,9,47068,1,0,2:0:0:0:
416,164,47206,6,0,B|354:254|354:254|17:236,1,440,2|0,3:0|2:0,2:0:0:0:
96,22,47620,5,8,2:0:0:0:
165,336,47758,1,0,2:0:0:0:
318,120,47896,1,0,2:0:0:0:
5,100,48034,6,0,L|246:114,1,220,4|0,3:0|2:0,2:0:0:0:
463,126,48309,1,0,2:0:0:0:
34,185,48447,6,0,L|275:199,1,220,8|0,2:0|2:0,2:0:0:0:
498,219,48723,1,0,2:0:0:0:
69,278,48861,6,0,L|514:304,1,440,2|0,3:0|2:0,2:0:0:0:
384,68,49275,5,8,2:0:0:0:
450,375,49413,1,0,2:0:0:0:
484,113,49551,1,0,2:0:0:0:
224,162,49689,6,0,L|0:140,1,220,4|0,3:0|2:0,2:0:0:0:
409,192,49965,1,0,2:0:0:0:
156,263,50102,5,8,2:0:0:0:
257,19,50240,1,0,2:0:0:0:
318,275,50378,1,0,2:0:0:0:
180,53,50516,6,0,B|241:62|276:41|276:41|281:50|281:50|334:16|433:50,1,220,2|0,3:0|2:0,2:0:0:0:
66,226,50792,1,0,2:0:0:0:
66,226,50861,1,0,2:0:0:0:
66,226,50930,5,8,2:0:0:0:
348,113,51068,1,0,2:0:0:0:
85,351,51206,1,0,2:0:0:0:
8,102,51344,6,0,L|256:183,1,256.666666666666,4|0,3:0|2:0,2:0:0:0:
507,234,51620,6,0,L|259:315,1,256.666666666666,4|0,2:0|2:0,2:0:0:0:
142,40,51896,1,4,2:0:0:0:
452,39,52034,1,0,2:0:0:0:
45,285,52171,6,0,B|228:231|228:231|242:103|242:103|438:45,1,513.333333333333,6|0,2:0|2:0,2:0:0:0:
256,338,52585,5,2,2:0:0:0:
274,356,52999,6,0,P|302:330|406:354,1,146.666666666667,4|0,3:0|2:0,2:0:0:0:
209,254,53413,2,0,P|181:280|149:277,2,73.3333333333333,4|0|0,3:0|2:0|2:0,2:0:0:0:
269,343,53827,6,0,P|297:317|401:341,1,146.666666666667,2|0,3:0|2:0,2:0:0:0:
204,241,54240,2,0,P|176:267|144:264,2,73.3333333333333,4|0|0,3:0|2:0|2:0,2:0:0:0:
263,332,54654,6,0,P|291:306|395:330,1,146.666666666667,4|0,3:0|2:0,2:0:0:0:
198,230,55068,2,0,P|170:256|138:253,2,73.3333333333333,4|0|0,3:0|2:0|2:0,2:0:0:0:
283,147,55482,5,2,3:0:0:0:
348,87,55620,2,0,L|331:7,1,73.3333333333333,0|0,2:0|2:0,2:0:0:0:
296,156,55896,5,4,3:0:0:0:
361,96,56034,2,0,L|344:16,1,73.3333333333333,0|0,2:0|2:0,2:0:0:0:
238,28,56309,6,0,P|210:54|106:30,1,146.666666666667,4|0,3:0|2:0,2:0:0:0:
303,130,56723,2,0,P|331:104|363:107,2,73.3333333333333,4|0|0,3:0|2:0|2:0,2:0:0:0:
243,41,57137,6,0,P|215:67|111:43,1,146.666666666667,2|0,3:0|2:0,2:0:0:0:
308,143,57551,2,0,P|336:117|368:120,2,73.3333333333333,4|0|0,3:0|2:0|2:0,2:0:0:0:
249,52,57965,6,0,P|221:78|117:54,1,146.666666666667,4|0,3:0|2:0,2:0:0:0:
314,154,58378,2,0,P|342:128|374:131,2,73.3333333333333,4|0|0,3:0|2:0|2:0,2:0:0:0:
229,237,58792,5,2,3:0:0:0:
376,258,58930,1,0,2:0:0:0:
211,234,59068,1,0,2:0:0:0:
189,230,59206,5,4,3:0:0:0:
302,350,59344,1,0,2:0:0:0:
167,225,59482,1,0,2:0:0:0:
209,352,59620,6,0,B|210:292|269:263|302:264|302:264|300:250|300:250|378:246|396:182,1,275,4|0,3:0|2:0,2:0:0:0:
394,169,60034,6,0,L|374:45,1,110,8|0,2:0|2:0,2:0:0:0:
424,316,60309,1,0,2:0:0:0:
289,155,60447,6,0,L|269:31,1,110,2|0,3:0|2:0,2:0:0:0:
264,25,60861,5,8,2:0:0:0:
381,241,60999,1,0,2:0:0:0:
381,241,61137,1,0,2:0:0:0:
187,154,61275,6,0,L|167:30,1,110,4|0,3:0|2:0,2:0:0:0:
166,26,61689,5,8,2:0:0:0:
283,242,61827,1,0,2:0:0:0:
166,26,62102,5,2,3:0:0:0:
283,242,62240,1,0,2:0:0:0:
283,242,62378,1,0,2:0:0:0:
70,25,62516,5,8,2:0:0:0:
187,241,62654,1,0,2:0:0:0:
187,241,62792,1,0,2:0:0:0:
70,25,62930,5,4,3:0:0:0:
101,223,63344,6,0,L|121:347,1,110,8|0,2:0|2:0,2:0:0:0:
71,76,63620,1,0,2:0:0:0:
206,237,63758,6,0,L|226:361,1,110,2|0,3:0|2:0,2:0:0:0:
231,367,64171,5,8,2:0:0:0:
114,151,64309,1,0,2:0:0:0:
308,238,64585,6,0,L|328:362,1,110,4|0,3:0|2:0,2:0:0:0:
329,366,64999,5,8,2:0:0:0:
212,150,65137,1,0,2:0:0:0:
212,150,65275,1,0,2:0:0:0:
415,359,65413,5,2,3:0:0:0:
298,143,65551,1,0,2:0:0:0:
298,143,65689,1,0,2:0:0:0:
499,349,65827,5,8,2:0:0:0:
382,133,65965,1,0,2:0:0:0:
382,133,66102,1,0,2:0:0:0:
259,306,66240,6,0,B|142:293|142:293|102:310|102:310|7:301,1,256.666666666667,4|0,3:0|2:0,2:0:0:0:
382,128,66654,5,8,2:0:0:0:
227,129,66792,1,0,2:0:0:0:
72,129,66930,1,0,2:0:0:0:
409,100,67068,5,2,3:0:0:0:
365,224,67482,5,8,2:0:0:0:
213,190,67620,1,0,2:0:0:0:
62,155,67758,1,0,2:0:0:0:
397,202,67896,5,4,3:0:0:0:
323,309,68309,5,8,2:0:0:0:
182,241,68447,1,0,2:0:0:0:
43,173,68585,1,0,2:0:0:0:
224,370,68723,5,2,3:0:0:0:
216,139,68861,1,0,2:0:0:0:
49,299,68999,1,0,2:0:0:0:
347,100,69137,5,8,2:0:0:0:
180,260,69275,1,0,2:0:0:0:
172,29,69413,1,0,2:0:0:0:
169,290,69551,5,4,3:0:0:0:
130,128,69965,5,8,2:0:0:0:
285,129,70102,1,0,2:0:0:0:
440,129,70240,1,0,2:0:0:0:
103,100,70378,5,2,3:0:0:0:
147,224,70792,5,8,2:0:0:0:
299,190,70930,1,0,2:0:0:0:
450,155,71068,1,0,2:0:0:0:
115,202,71206,5,4,3:0:0:0:
90,350,71620,5,8,2:0:0:0:
282,258,71758,1,0,2:0:0:0:
469,173,71896,1,0,2:0:0:0:
106,206,72034,5,2,3:0:0:0:
282,258,72171,1,0,2:0:0:0:
460,302,72309,1,0,2:0:0:0:
169,284,72447,5,8,2:0:0:0:
350,335,72585,1,0,2:0:0:0:
358,104,72723,1,0,2:0:0:0:
361,365,72861,5,4,3:0:0:0:
184,21,73275,5,8,2:0:0:0:
196,30,73413,2,0,L|189:79,1,36.6666666666667,0|0,2:0|2:0,2:0:0:0:
209,39,73551,2,0,L|202:88,1,36.6666666666667,0|0,2:0|2:0,2:0:0:0:
177,351,73689,5,2,3:0:0:0:
302,23,74102,5,8,2:0:0:0:
314,32,74240,2,0,L|307:81,1,36.6666666666667,0|0,2:0|2:0,2:0:0:0:
327,41,74378,2,0,L|320:90,1,36.6666666666667,0|0,2:0|2:0,2:0:0:0:
295,353,74516,5,4,3:0:0:0:
431,33,74930,6,0,L|429:76,1,36.6666666666667,8|0,2:0|2:0,2:0:0:0:
446,38,75068,2,0,L|439:87,1,36.6666666666667,0|0,2:0|2:0,2:0:0:0:
459,47,75206,2,0,L|452:96,1,36.6666666666667,0|0,2:0|2:0,2:0:0:0:
427,359,75344,6,0,P|415:308|390:272,1,73.3333333333333,2|0,3:0|2:0,2:0:0:0:
322,98,75482,2,0,P|309:145|281:183,1,73.3333333333333,0|0,2:0|2:0,2:0:0:0:
226,362,75620,2,0,P|191:328|153:321,1,73.3333333333333,0|0,2:0|2:0,2:0:0:0:
81,196,75758,5,8,2:0:0:0:
291,259,75896,1,0,2:0:0:0:
56,187,76034,1,0,2:0:0:0:
454,168,76171,5,4,3:0:0:0:
328,363,76585,5,8,2:0:0:0:
316,354,76723,2,0,L|323:305,1,36.6666666666667,0|0,2:0|2:0,2:0:0:0:
321,78,76861,2,0,L|314:127,1,36.6666666666667,0|0,2:0|2:0,2:0:0:0:
301,341,76999,5,2,3:0:0:0:
204,22,77413,6,0,L|200:65,1,36.6666666666667,8|0,2:0|2:0,2:0:0:0:
174,338,77551,2,0,L|179:255,1,73.3333333333333,0|0,2:0|2:0,2:0:0:0:
185,20,77689,2,0,L|175:136,1,110,0|0,2:0|2:0,2:0:0:0:
148,343,77827,6,0,B|153:230|153:230|231:133|231:133|231:17,1,330,4|0,3:0|2:0,2:0:0:0:
265,368,78240,5,8,2:0:0:0:
47,248,78378,1,0,2:0:0:0:
284,380,78516,1,0,2:0:0:0:
99,148,78654,5,2,3:0:0:0:
369,302,78792,1,0,2:0:0:0:
80,136,78930,1,0,2:0:0:0:
458,241,79068,5,8,2:0:0:0:
161,305,79206,1,0,2:0:0:0:
254,16,79344,1,0,2:0:0:0:
253,355,79482,5,6,2:0:0:0:
256,192,79551,12,2,82792,2:0:0:0:
234,217,85689,5,4,3:0:0:0:
234,217,85827,1,4,3:0:0:0:
234,217,85965,1,4,3:0:0:0:
234,217,86102,6,0,P|207:229|127:213,1,110,2|0,2:0|2:0,2:0:0:0:
136,67,86516,2,0,P|163:55|243:71,1,110,0|0,2:0|2:0,2:0:0:0:
305,118,86930,2,0,P|356:134|408:119,1,110,8|0,2:0|2:0,2:0:0:0:
417,97,87620,6,0,P|443:124|424:246,1,165,0|0,2:0|2:0,2:0:0:0:
223,211,88171,2,0,P|197:289|220:367,2,165,0|8|0,2:0|2:0|2:0,2:0:0:0:
244,177,89413,5,4,3:0:0:0:
143,45,89689,1,0,2:0:0:0:
136,36,89827,2,0,L|247:36,1,110,0|0,2:0|2:0,2:0:0:0:
473,101,90240,1,8,2:0:0:0:
473,101,90516,2,0,L|362:101,1,110,0|0,2:0|2:0,2:0:0:0:
142,155,90930,6,0,P|169:202|168:254,1,102.666666666667,0|4,2:0|2:1,2:0:0:0:
316,287,92447,6,0,P|314:272|386:212,1,110,0|0,2:0|2:0,2:0:0:0:
398,211,92723,6,0,P|416:162|297:78,1,220,4|0,3:0|2:0,2:0:0:0:
188,143,93137,2,0,P|139:161|55:42,1,220,2|0,2:0|2:0,2:0:0:0:
80,281,93551,2,0,P|126:251|190:272,1,110,2|0,2:0|2:0,2:0:0:0:
267,183,93827,2,0,P|153:139|34:187,1,220,2|0,2:0|2:0,2:0:0:0:
296,90,94240,6,0,P|364:171|362:305,1,220,2|0,2:0|2:0,2:0:0:0:
253,344,94654,2,0,P|287:310|470:329,1,220,2|0,2:0|2:0,2:0:0:0:
464,178,95068,1,0,2:0:0:0:
464,178,95206,2,0,P|372:179|341:154,1,110,2|0,2:0|2:0,2:0:0:0:
288,59,95482,1,0,2:0:0:0:
288,59,95620,2,0,P|261:125|116:187,1,220,2|0,2:0|2:0,2:0:0:0:
14,128,96034,6,0,P|32:99|114:66,1,110,4|0,3:0|2:0,2:0:0:0:
308,245,96309,1,0,2:0:0:0:
325,256,96378,1,0,2:0:0:0:
350,263,96447,2,0,L|479:238,1,110,2|0,2:0|2:0,2:0:0:0:
216,304,96723,1,0,2:0:0:0:
373,70,96861,2,0,P|379:134|367:185,1,110,2|0,2:0|2:0,2:0:0:0:
197,316,97137,1,2,2:0:0:0:
284,115,97275,2,0,L|158:107,1,110,0|0,2:0|2:0,2:0:0:0:
177,336,97551,6,0,L|434:321,1,220,2|0,2:0|2:0,2:0:0:0:
485,224,97965,1,0,2:0:0:0:
339,51,98102,2,0,P|361:107|346:236,1,165,2|0,2:0|2:0,2:0:0:0:
346,223,98378,2,0,P|332:261|336:316,1,55,0|0,2:0|2:0,2:0:0:0:
278,133,98516,2,0,L|485:114,1,165,2|0,2:0|2:0,2:0:0:0:
447,101,98792,2,0,P|467:101|504:112,1,55,2|0,2:0|2:0,2:0:0:0:
233,211,98930,2,0,P|185:232|72:149,1,165,0|0,2:0|2:0,2:0:0:0:
84,172,99206,1,2,2:0:0:0:
132,49,99344,6,0,L|370:62,1,220,4|0,3:0|2:0,2:0:0:0:
443,157,99758,2,0,P|406:205|398:297,1,110,2|0,2:0|2:0,2:0:0:0:
508,101,100034,1,2,2:0:0:0:
331,313,100171,2,0,P|311:253|309:176,1,110,2|0,2:0|2:0,2:0:0:0:
400,27,100447,2,0,P|365:74|186:94,1,220,2|0,2:0|2:0,2:0:0:0:
39,154,100861,6,0,P|97:160|215:354,1,275,2|0,2:0|2:0,2:0:0:0:
196,341,101275,2,0,P|178:296|184:263,1,55,2|0,2:0|2:0,2:0:0:0:
244,63,101413,2,0,P|216:136|100:182,1,165,2|0,2:0|2:0,2:0:0:0:
128,166,101689,2,0,P|161:150|202:156,1,55,0|0,2:0|2:0,2:0:0:0:
342,306,101827,2,0,P|328:252|429:116,1,220,2|0,2:0|2:0,2:0:0:0:
166,63,102240,2,0,P|212:113|209:285,1,220,2|0,2:0|2:0,2:0:0:0:
110,330,102654,6,0,P|98:274|127:197,1,110,4|0,3:0|2:0,2:0:0:0:
313,52,102930,1,0,2:0:0:0:
327,44,102999,1,0,2:0:0:0:
339,37,103068,2,0,L|466:40,1,110,2|0,2:0|2:0,2:0:0:0:
113,128,103344,1,0,2:0:0:0:
320,148,103482,2,0,L|463:159,1,110,2|0,2:0|2:0,2:0:0:0:
139,243,103758,1,2,2:0:0:0:
346,263,103896,2,0,L|489:274,1,110,0|0,2:0|2:0,2:0:0:0:
164,352,104171,6,0,B|125:365|55:343|34:276|34:276|71:59,1,385,2|0,2:0|2:0,2:0:0:0:
158,114,104723,2,0,B|162:63|215:19|275:47|275:47|389:110,1,275,2|0,2:0|2:0,2:0:0:0:
314,171,105137,2,0,P|339:220|304:300,1,110,2|0,2:0|2:0,2:0:0:0:
194,250,105413,1,2,2:0:0:0:
192,233,105482,1,2,2:0:0:0:
195,217,105551,5,8,2:0:0:0:
458,255,105689,1,8,2:0:0:0:
284,366,105827,1,8,2:0:0:0:
251,61,105965,6,0,L|429:55,1,146.666666666667,4|0,3:0|2:0,2:0:0:0:
175,274,106240,1,2,2:0:0:0:
142,290,106309,1,0,2:0:0:0:
105,292,106378,5,8,2:0:0:0:
376,177,106516,1,0,2:0:0:0:
112,179,106654,1,2,2:0:0:0:
299,321,106792,6,0,P|356:299|449:316,1,146.666666666667,4|0,3:0|2:0,2:0:0:0:
256,119,107068,1,2,2:0:0:0:
168,340,107206,2,0,P|210:259|259:221,1,146.666666666667,8|0,2:0|2:0,2:0:0:0:
408,141,107482,1,2,2:0:0:0:
124,87,107620,5,4,3:0:0:0:
348,204,107758,1,0,2:0:0:0:
49,42,107896,1,2,2:0:0:0:
281,70,108034,5,8,2:0:0:0:
221,234,108171,1,0,2:0:0:0:
289,55,108309,1,2,2:0:0:0:
109,180,108447,5,4,3:0:0:0:
411,70,108585,1,0,2:0:0:0:
318,290,108723,1,2,2:0:0:0:
122,83,108861,6,0,P|179:125|191:241,1,146.666666666667,8|0,2:0|2:0,2:0:0:0:
451,57,109137,1,2,2:0:0:0:
274,163,109275,6,0,P|200:220|174:311,1,146.666666666667,4|0,3:0|2:0,2:0:0:0:
487,188,109551,1,2,2:0:0:0:
487,188,109620,1,0,2:0:0:0:
487,188,109689,5,8,2:0:0:0:
278,51,109827,1,0,2:0:0:0:
426,264,109965,1,2,2:0:0:0:
142,140,110102,6,0,P|220:174|287:156,1,146.666666666667,4|0,3:0|2:0,2:0:0:0:
438,86,110378,1,2,2:0:0:0:
408,362,110516,6,0,P|394:304|312:242,1,146.666666666667,8|0,2:0|2:0,2:0:0:0:
231,57,110792,1,2,2:0:0:0:
295,356,110930,5,4,3:0:0:0:
418,113,111068,1,0,2:0:0:0:
140,265,111206,1,2,2:0:0:0:
458,212,111344,6,0,L|284:204,1,146.666666666667,8|0,2:0|2:0,2:0:0:0:
49,191,111620,1,2,2:0:0:0:
297,325,111758,5,4,3:0:0:0:
328,54,111896,1,0,2:0:0:0:
291,345,112034,1,2,2:0:0:0:
65,78,112171,6,0,L|239:70,1,146.666666666667,8|0,2:0|2:0,2:0:0:0:
474,57,112447,1,2,2:0:0:0:
279,364,112585,6,0,P|244:298|280:216,1,146.666666666667,4|0,3:0|2:0,2:0:0:0:
46,326,112861,1,2,2:0:0:0:
263,232,112999,6,0,P|298:166|262:84,1,146.666666666667,8|0,2:0|2:0,2:0:0:0:
466,326,113275,1,2,2:0:0:0:
278,100,113413,6,0,L|110:85,1,146.666666666667,4|0,3:0|2:0,2:0:0:0:
484,121,113689,1,2,2:0:0:0:
185,193,113827,6,0,L|17:178,1,146.666666666667,8|0,2:0|2:0,2:0:0:0:
391,214,114102,1,2,2:0:0:0:
265,320,114240,5,4,3:0:0:0:
341,50,114378,1,0,2:0:0:0:
488,280,114516,1,2,2:0:0:0:
241,126,114654,5,8,2:0:0:0:
388,356,114792,1,0,2:0:0:0:
464,86,114930,1,2,2:0:0:0:
160,55,115068,6,0,L|140:207,1,146.666666666667,4|0,3:0|2:0,2:0:0:0:
118,376,115344,1,2,2:0:0:0:
271,22,115482,6,0,L|251:174,1,146.666666666667,8|0,2:0|2:0,2:0:0:0:
229,343,115758,1,2,2:0:0:0:
459,24,115896,6,0,L|439:176,1,146.666666666667,4|0,3:0|2:0,2:0:0:0:
218,130,116171,1,2,2:0:0:0:
220,147,116240,1,0,2:0:0:0:
223,163,116309,6,0,L|243:315,1,146.666666666667,8|0,2:0|2:0,2:0:0:0:
202,36,116585,1,2,2:0:0:0:
430,189,116723,5,4,3:0:0:0:
94,143,116861,1,0,2:0:0:0:
342,43,116999,1,2,2:0:0:0:
124,273,117137,6,0,L|284:312,1,146.666666666667,8|0,2:0|2:0,2:0:0:0:
439,345,117413,1,2,2:0:0:0:
52,186,117551,6,0,L|368:173,1,293.333333333333,4|0,3:0|2:0,2:0:0:0:
492,165,117965,6,0,P|501:116|476:21,1,146.666666666667,4|0,3:0|2:0,2:0:0:0:
423,321,118240,1,2,2:0:0:0:
351,152,118378,6,0,P|302:73|117:72,1,293.333333333333,4|0,3:0|2:0,2:0:0:0:
98,94,118723,1,0,2:0:0:0:
67,119,118792,6,0,P|40:101|26:48,1,73.3333333333333,8|0,2:0|2:0,2:0:0:0:
180,127,118930,2,0,P|227:121|265:144,1,73.3333333333333,0|0,2:0|2:0,2:0:0:0:
113,218,119068,2,0,P|98:271|91:321,1,73.3333333333333,2|0,2:0|2:0,2:0:0:0:
239,362,119206,6,0,P|237:303|200:193,1,165,6|0,2:0|2:0,2:0:0:0:
258,81,119896,1,0,2:0:0:0:
258,81,120034,2,0,P|291:119|403:152,1,165,2|0,2:0|2:0,2:0:0:0:
494,193,120861,6,0,P|464:222|420:348,1,165,2|0,2:0|2:0,2:0:0:0:
314,255,121551,1,0,2:0:0:0:
314,255,121689,2,0,P|309:222|302:212,2,27.5000000000001,2|0|0,2:0|2:0|2:0,2:0:0:0:
182,269,121965,1,0,2:0:0:0:
182,269,122102,2,0,P|159:252|129:245,1,55.0000000000001,2|0,2:0|2:0,2:0:0:0:
21,314,122378,6,0,P|10:250|43:136,1,165,2|2,2:0|2:0,2:0:0:0:
117,66,123344,6,0,P|165:53|241:72,1,110,2|0,2:0|2:0,2:0:0:0:
288,116,123758,2,0,P|294:139|290:175,2,55.0000000000001,0|0|0,2:0|2:0|2:0,2:0:0:0:
343,40,124171,6,0,L|511:16,1,165,2|0,2:0|2:0,2:0:0:0:
433,231,124861,1,0,2:0:0:0:
431,239,124930,1,0,2:0:0:0:
429,246,124999,6,0,L|353:232,2,55.0000000000001,2|0|0,2:0|2:0|2:0,2:0:0:0:
278,163,125413,2,0,L|338:150,2,55.0000000000001,2|0|0,2:0|2:0|2:0,2:0:0:0:
149,196,125827,6,0,P|122:174|105:44,2,165,2|0|2,2:0|2:0|2:0,2:0:0:0:
223,231,127068,1,0,2:0:0:0:
305,222,127482,2,0,P|345:204|471:240,1,165,2|0,2:0|2:0,2:0:0:0:
278,122,128171,1,0,2:0:0:0:
265,116,128309,2,0,P|258:87|288:9,1,110,2|0,2:0|2:0,2:0:0:0:
302,314,128723,6,0,L|171:321,1,110,2|0,2:0|2:0,2:0:0:0:
189,328,129137,5,2,2:0:0:0:
147,253,129413,1,2,2:0:0:0:
147,253,129551,1,0,2:0:0:0:
195,186,129965,5,2,2:0:0:0:
420,226,130378,5,0,2:0:0:0:
418,234,130516,1,0,2:0:0:0:
417,241,130654,1,0,2:0:0:0:
434,141,130792,5,2,2:0:0:0:
