osu file format v14

[General]
AudioFilename: audio.mp3
AudioLeadIn: 0
PreviewTime: 26102
Countdown: 0
SampleSet: Soft
StackLeniency: 0.7
Mode: 0
LetterboxInBreaks: 0
WidescreenStoryboard: 0

[Editor]
Bookmarks: 1689,19896,26516,39758,52999,59620,66240,79482,92723,105965,119206
DistanceSpacing: 1
BeatDivisor: 6
GridSize: 32
TimelineZoom: 2.6

[Metadata]
Title:Guitarmass (Cut Ver.)
TitleUnicode:Guitarmass (Cut Ver.)
Artist:Infected Mushroom
ArtistUnicode:Infected Mushroom
Creator:Ciyus Miapah
Version:Normal
Source:
Tags:edm rock electronic dance music psytrance psychedelic dark trance instrumental synth monstercat uncaged alternative Head of NASA and the 2 Amish Boys Fort ReFaller VanillaSandvich Kyrari Wezeh PaRaDogi Nerova Riuz GX InCritDouble Derandom Otaku Ren Alphabet Aistre Venax
BeatmapID:2202595
BeatmapSetID:947022

[Difficulty]
HPDrainRate:3
CircleSize:3
OverallDifficulty:3
ApproachRate:4
SliderMultiplier:1
SliderTickRate:1

[Events]
//Background and Video events
0,0,"BG.jpg",0,0
//Break Periods
2,79682,84745
//Storyboard Layer 0 (Background)
//Storyboard Layer 1 (Fail)
//Storyboard Layer 2 (Pass)
//Storyboard Layer 3 (Foreground)
//Storyboard Layer 4 (Overlay)
//Storyboard Sound Samples

[TimingPoints]
34,413.793103448276,4,2,1,50,1,0
19896,-100,4,2,1,60,0,0
22016,-100,4,2,1,60,0,0
22378,-100,4,2,1,60,0,0
26516,-100,4,2,1,75,0,0
39758,-100,4,2,1,100,0,1
42723,-100,4,2,1,5,0,1
43068,-100,4,2,1,100,0,1
52999,-100,4,2,1,50,0,0
86102,-100,4,2,1,50,0,0
90930,-100,4,2,1,50,0,0
92723,-100,4,2,1,75,0,0
93965,-100,4,2,1,75,0,0
98861,-100,4,2,1,5,0,0
98929,-100,4,2,1,75,0,0
101620,-100,4,2,1,5,0,0
101826,-100,4,2,1,75,0,0
104585,-100,4,2,1,5,0,0
105136,-100,4,2,1,75,0,0
105275,-100,4,2,1,5,0,0
105965,-100,4,2,1,100,0,1
119206,-100,4,2,1,50,0,0

[Colours]
Combo1 : 0,64,128
Combo2 : 255,0,255
Combo3 : 0,128,255
Combo4 : 255,0,128

[HitObjects]
256,84,34,6,0,P|282:50|346:52,2,100,2|0|0,0:0|0:0|0:0,0:0:0:0:
208,280,1689,2,0,P|182:314|118:312,2,100,2|0|0,0:0|0:0|0:0,0:0:0:0:
64,140,3344,1,2,0:0:0:0:
260,184,4171,1,0,0:0:0:0:
452,240,4999,1,2,0:0:0:0:
365,187,6654,6,0,B|260:265|192:130|85:125|32:165|45:272|100:263,2,400,2|2|2,0:0|0:0|0:0,0:0:0:0:
464,12,10792,1,0,0:0:0:0:
270,67,11620,2,0,P|241:84|375:304,2,400,2|2|2,0:0|0:0|0:0,0:0:0:0:
256,192,15344,12,2,18240,0:0:0:0:
328,219,19896,6,0,L|441:210,2,100,8|8|8,0:0|0:0|0:0,0:0:0:0:
156,115,21551,2,0,P|147:94|165:19,2,100,8|8|8,0:0|0:0|0:0,0:0:0:0:
327,218,23206,2,0,P|336:239|318:314,2,100,8|8|8,0:0|0:0|0:0,0:0:0:0:
291,124,24447,1,0,0:0:0:0:
375,70,24861,1,4,0:1:0:0:
382,247,26516,6,0,L|172:226,1,200,4|2,0:3|3:0,0:0:0:0:
86,254,27758,1,8,0:0:0:0:
46,162,28171,2,0,P|37:134|55:65,2,100,4|8|2,3:0|0:0|3:0,0:0:0:0:
230,84,29827,6,0,L|435:103,1,200,4|2,3:0|3:0,0:0:0:0:
483,186,31068,1,8,0:0:0:0:
420,264,31482,2,0,P|396:276|324:255,1,100,4|8,3:0|0:0,0:0:0:0:
242,208,32309,2,0,P|217:194|142:198,1,100,2|8,3:0|0:0,0:0:0:0:
51,225,33137,6,0,P|31:201|96:66,1,200,4|2,3:0|3:0,0:0:0:0:
188,73,34378,1,8,0:0:0:0:
282,105,34792,2,0,P|304:105|367:52,2,100,4|8|2,3:0|0:0|3:0,0:0:0:0:
190,283,36447,6,0,P|202:313|270:333,1,100,4|8,3:0|0:0,0:0:0:0:
359,356,37275,2,0,P|390:338|398:275,1,100,2|8,3:0|0:0,0:0:0:0:
429,183,38102,2,0,P|396:153|254:186,1,200,4|2,3:0|3:0,0:0:0:0:
202,265,39344,1,8,0:0:0:0:
102,255,39758,6,0,P|73:234|64:168,2,100,4|8|2,3:0|0:0|3:0,0:0:0:0:
144,345,40999,1,8,0:0:0:0:
203,264,41413,2,0,P|224:246|350:326,2,200,4|2|4,3:0|3:0|3:0,0:0:0:0:
115,215,43482,1,8,0:0:0:0:
56,134,43896,2,0,P|49:111|95:50,1,100,2|8,3:0|0:0,0:0:0:0:
186,36,44723,2,0,L|388:76,1,200,4|2,3:0|3:0,0:0:0:0:
479,98,45965,1,8,0:0:0:0:
466,197,46378,6,0,P|446:218|373:225,1,100,4|8,3:0|0:0,0:0:0:0:
293,279,47206,2,0,P|262:263|238:197,1,100,2|8,3:0|0:0,0:0:0:0:
189,116,48034,2,0,P|164:148|174:305,2,200,4|2|4,3:0|3:0|3:0,0:0:0:0:
276,68,50102,1,8,0:0:0:0:
365,111,50516,2,0,P|390:148|398:215,1,100,2|8,3:0|0:0,0:0:0:0:
433,296,51344,2,0,P|396:333|244:350,1,200,4|6,3:0|0:0,0:0:0:0:
171,299,52585,1,2,0:0:0:0:
103,224,52999,6,0,P|94:199|125:131,1,100,4|4,3:0|3:0,0:0:0:0:
207,84,53827,1,2,3:0:0:0:
272,159,54240,1,4,3:0:0:0:
367,130,54654,2,0,P|391:104|393:36,2,100,4|4|2,3:0|3:0|3:0,0:0:0:0:
272,159,55896,1,4,3:0:0:0:
230,249,56309,6,0,P|226:281|273:336,1,100,4|4,3:0|3:0,0:0:0:0:
364,335,57137,1,2,3:0:0:0:
449,283,57551,1,4,3:0:0:0:
465,184,57965,2,0,P|449:167|375:156,1,100,4|4,3:0|3:0,0:0:0:0:
289,204,58792,2,0,P|259:226|94:91,1,300,2|8,3:0|0:0,2:0:0:0:
157,21,60447,5,2,3:0:0:0:
253,48,60861,2,0,L|354:74,1,100,8|4,0:0|3:0,2:0:0:0:
445,101,61689,1,8,0:0:0:0:
380,176,62102,1,2,3:0:0:0:
452,245,62516,2,0,P|468:285|456:341,2,100,8|4|8,0:0|3:0|0:0,2:0:0:0:
380,176,63758,5,2,3:0:0:0:
287,212,64171,2,0,B|201:243|148:184|77:205,1,200,8|8,0:0|0:0,2:0:0:0:
17,271,65413,1,2,3:0:0:0:
82,346,65827,2,0,P|131:356|178:334,1,100,8|4,0:0|3:0,2:0:0:0:
221,247,66654,5,8,0:0:0:0:
197,149,67068,1,2,3:0:0:0:
113,94,67482,2,0,P|82:85|18:123,2,100,8|4|8,0:0|3:0|0:0,2:0:0:0:
195,149,68723,1,2,3:0:0:0:
294,160,69137,2,0,P|329:163|386:118,1,100,8|4,0:0|3:0,2:0:0:0:
444,50,69965,6,0,P|464:70|478:148,1,100,8|2,0:0|3:0,2:0:0:0:
438,228,70792,1,8,0:0:0:0:
338,220,71206,1,4,3:0:0:0:
278,300,71620,2,0,P|252:319|173:317,1,100,8|2,0:0|3:0,2:0:0:0:
95,281,72447,1,8,0:0:0:0:
59,187,72861,5,4,3:0:0:0:
157,170,73275,2,0,P|179:142|107:12,2,200,8|8|8,0:0|0:0|0:0,2:0:0:0:
68,216,75344,1,2,3:0:0:0:
139,285,75758,1,8,0:0:0:0:
221,341,76171,6,0,L|329:308,1,100,4|8,3:0|0:0,2:0:0:0:
411,344,76999,2,0,L|454:247,1,100,2|8,3:0|0:0,2:0:0:0:
481,156,77827,2,0,B|413:120|413:120|343:129|295:174,1,200,4|2,3:0|3:0,0:0:0:0:
229,237,79068,1,8,0:0:0:0:
138,194,79482,5,6,0:0:0:0:
256,192,86102,12,0,90930,0:0:0:0:
136,140,92723,6,0,P|173:128|223:163,1,100,4|10,3:0|0:0,0:0:0:0:
224,259,93551,1,2,0:0:0:0:
169,342,93965,2,0,P|139:359|73:340,2,100,8|0|8,2:0|2:0|2:0,2:0:0:0:
224,259,95206,1,2,0:0:0:0:
302,321,95620,1,10,0:0:0:0:
358,238,96034,6,0,L|466:221,2,100,4|10|2,3:0|0:0|0:0,0:0:0:0:
296,159,97275,1,8,0:0:0:0:
195,159,97689,2,0,P|169:182|98:192,1,100,0|10,2:0|0:0,2:0:0:0:
70,100,98516,2,0,P|96:77|167:67,1,100,2|8,0:0|0:0,0:0:0:0:
257,84,99344,6,0,P|281:109|305:182,1,100,4|10,3:0|0:0,0:0:0:0:
258,258,100171,1,2,0:0:0:0:
340,315,100585,1,8,2:0:0:0:
398,233,100999,2,0,L|501:214,2,100,0|10|2,2:0|0:0|0:0,2:0:0:0:
340,315,102240,1,10,0:0:0:0:
250,270,102654,6,0,L|141:289,1,100,4|10,3:0|0:0,0:0:0:0:
80,216,103482,1,2,0:0:0:0:
132,131,103896,1,8,0:0:0:0:
184,45,104309,2,0,L|381:75,2,200,0|2|4,2:0|0:0|3:0,2:0:0:0:
84,31,106378,5,8,0:0:0:0:
115,126,106792,1,4,3:0:0:0:
36,188,107206,1,8,0:0:0:0:
81,277,107620,1,4,3:0:0:0:
134,361,108034,1,8,0:0:0:0:
213,300,108447,2,0,P|233:284|302:310,1,100,4|8,3:0|0:0,2:0:0:0:
382,358,109275,5,4,3:0:0:0:
465,303,109689,1,8,0:0:0:0:
461,203,110102,1,4,3:0:0:0:
378,146,110516,1,8,0:0:0:0:
279,165,110930,2,0,P|256:174|179:142,1,100,4|8,3:0|0:0,2:0:0:0:
124,74,111758,1,4,3:0:0:0:
197,6,112171,1,8,0:0:0:0:
286,49,112585,6,0,L|275:262,1,200,4|4,3:0|3:0,0:0:0:0:
211,325,113827,1,8,0:0:0:0:
121,280,114240,2,0,P|92:250|100:192,1,100,4|8,3:0|0:0,2:0:0:0:
175,132,115068,2,0,L|277:154,1,100,4|8,3:0|0:0,0:0:0:0:
368,184,115896,5,4,3:0:0:0:
465,207,116309,1,8,0:0:0:0:
455,107,116723,1,4,3:0:0:0:
360,75,117137,1,8,0:0:0:0:
265,107,117551,6,0,P|204:183|227:291,1,200,4|4,3:0|3:0,0:0:0:0:
287,351,118792,2,0,P|334:363|380:339,1,100,8|6,0:0|0:0,0:0:0:0:
