osu file format v14

[General]
AudioFilename: audio.mp3
AudioLeadIn: 0
PreviewTime: 26102
Countdown: 0
SampleSet: Soft
StackLeniency: 0.7
Mode: 0
LetterboxInBreaks: 0
WidescreenStoryboard: 0

[Editor]
Bookmarks: 1689,19896,26516,39758,52999,59620,66240,79482,92723,105965,119206
DistanceSpacing: 2.4
BeatDivisor: 6
GridSize: 4
TimelineZoom: 2.6

[Metadata]
Title:Guitarmass (Cut Ver.)
TitleUnicode:Guitarmass (Cut Ver.)
Artist:Infected Mushroom
ArtistUnicode:Infected Mushroom
Creator:Ciyus Miapah
Version:Hard
Source:
Tags:edm rock electronic dance music psytrance psychedelic dark trance instrumental synth monstercat uncaged alternative Head of NASA and the 2 Amish Boys Fort ReFaller VanillaSandvich Kyrari Wezeh PaRaDogi Nerova Riuz GX InCritDouble Derandom Otaku Ren Alphabet Aistre Venax
BeatmapID:2202594
BeatmapSetID:947022

[Difficulty]
HPDrainRate:5
CircleSize:4
OverallDifficulty:7
ApproachRate:8
SliderMultiplier:1.55
SliderTickRate:1

[Events]
//Background and Video events
0,0,"BG.jpg",0,0
//Break Periods
2,79682,84939
//Storyboard Layer 0 (Background)
//Storyboard Layer 1 (Fail)
//Storyboard Layer 2 (Pass)
//Storyboard Layer 3 (Foreground)
//Storyboard Layer 4 (Overlay)
//Storyboard Sound Samples

[TimingPoints]
34,413.793103448276,4,2,1,50,1,0
19896,-100,4,2,1,60,0,0
20171,-100,4,2,1,5,0,0
20309,-100,4,2,1,60,0,0
20584,-100,4,2,1,5,0,0
20723,-100,4,2,1,60,0,0
20998,-100,4,2,1,5,0,0
21137,-100,4,2,1,60,0,0
25275,-100,4,2,1,5,0,0
26516,-90.9090909090909,4,2,1,75,0,0
27619,-90.9090909090909,4,2,1,5,0,0
27758,-90.9090909090909,4,2,1,75,0,0
30929,-90.9090909090909,4,2,1,5,0,0
31068,-90.9090909090909,4,2,1,75,0,0
31757,-90.9090909090909,4,2,1,5,0,0
31896,-90.9090909090909,4,2,1,75,0,0
32034,-90.9090909090909,4,2,1,5,0,0
32171,-90.9090909090909,4,2,1,75,0,0
32584,-90.9090909090909,4,2,1,5,0,0
32723,-90.9090909090909,4,2,1,75,0,0
34102,-90.9090909090909,4,2,1,5,0,0
34240,-90.9090909090909,4,2,1,40,0,0
34378,-90.9090909090909,4,2,1,75,0,0
34861,-90.9090909090909,4,2,1,6,0,0
34930,-90.9090909090909,4,2,1,75,0,0
39758,-86.9565217391304,4,2,1,100,0,1
40860,-86.9565217391304,4,2,1,5,0,1
40999,-86.9565217391304,4,2,1,100,0,1
46378,-76.9230769230769,4,2,1,100,0,1
46653,-76.9230769230769,4,2,1,5,0,1
46792,-76.9230769230769,4,2,1,100,0,1
47481,-76.9230769230769,4,2,1,5,0,1
47620,-76.9230769230769,4,2,1,100,0,1
49136,-76.9230769230769,4,2,1,5,0,1
49275,-76.9230769230769,4,2,1,100,0,1
52171,-86.9565217391304,4,2,1,100,0,1
52447,-86.9565217391304,4,2,1,5,0,1
52584,-86.9565217391304,4,2,1,100,0,1
52999,-86.9565217391304,4,2,1,50,0,0
53413,-100,4,2,1,50,0,0
54929,-100,4,2,1,5,0,0
55068,-100,4,2,1,50,0,0
58240,-100,4,2,1,5,0,0
58378,-100,4,2,1,50,0,0
59620,-100,4,2,1,65,0,0
66515,-100,4,2,1,5,0,0
66654,-100,4,2,1,100,0,0
86102,-100,4,2,1,50,0,0
90999,-100,4,2,1,5,0,0
91895,-100,4,2,1,50,0,0
92723,-90.9090909090909,4,2,1,75,0,0
93689,-90.9090909090909,4,2,1,5,0,0
93964,-90.9090909090909,4,2,1,75,0,0
96999,-90.9090909090909,4,2,1,5,0,0
97274,-90.9090909090909,4,2,1,75,0,0
98309,-90.9090909090909,4,2,1,5,0,0
98377,-90.9090909090909,4,2,1,75,0,0
99619,-90.9090909090909,4,2,1,5,0,0
99758,-90.9090909090909,4,2,1,75,0,0
102515,-90.9090909090909,4,2,1,5,0,0
102654,-90.9090909090909,4,2,1,75,0,0
104033,-90.9090909090909,4,2,1,5,0,0
104171,-90.9090909090909,4,2,1,75,0,0
105275,-90.9090909090909,4,2,1,5,0,0
105412,-90.9090909090909,4,2,1,75,0,0
105965,-76.9230769230769,4,2,1,100,0,1
111481,-76.9230769230769,4,2,1,100,0,1
111620,-76.9230769230769,4,2,1,100,0,1
115619,-76.9230769230769,4,2,1,5,0,1
115758,-76.9230769230769,4,2,1,100,0,1
116446,-76.9230769230769,4,2,1,100,0,1
116585,-76.9230769230769,4,2,1,100,0,1
119206,-76.9230769230769,4,2,1,50,0,0

[Colours]
Combo1 : 0,64,128
Combo2 : 255,0,255
Combo3 : 0,128,255
Combo4 : 255,0,128

[HitObjects]
358,223,34,6,0,P|324:206|262:249,1,103.333333333333,2|0,0:0|0:0,0:0:0:0:
268,232,447,1,0,0:0:0:0:
268,232,861,1,0,0:0:0:0:
124,176,1275,6,0,P|97:193|66:190,2,51.6666666666667
124,176,1689,1,2,0:0:0:0:
234,67,2102,1,0,0:0:0:0:
234,67,2516,1,0,0:0:0:0:
367,146,2930,6,0,P|380:142|420:112,2,51.6666666666667,0|0|0,0:0|0:0|0:0,2:0:0:0:
367,146,3344,2,0,P|333:132|236:196,2,155,2|0|0,0:0|0:0|0:0,0:0:0:0:
374,300,4585,2,0,P|391:318|430:320,1,51.6666666666667,0|0,0:0|0:0,2:0:0:0:
416,323,4999,2,0,P|398:295|284:319,1,155,2|0,0:0|0:0,0:0:0:0:
291,305,5827,1,0,0:0:0:0:
138,330,6240,2,0,P|104:348|75:346,2,51.6666666666667,0|0|0,0:0|0:0|0:0,2:0:0:0:
138,330,6654,6,0,P|154:298|90:201,2,155,2|4|0,0:0|0:1|0:0,0:0:0:0:
242,214,7896,2,0,P|220:192|220:168,2,51.6666666666667
242,214,8309,2,0,L|410:186,2,155,2|0|0,0:0|0:0|0:0,0:0:0:0:
386,270,9551,2,0,P|367:308|368:337,2,51.6666666666667
386,270,9965,2,0,P|402:233|355:119,1,155,2|0,0:0|0:0,0:0:0:0:
249,29,10792,1,0,0:0:0:0:
108,95,11206,2,0,P|93:129|99:150,1,51.6666666666667
37,227,11620,6,0,P|66:261|182:261,1,155,2|0,0:0|0:0,0:0:0:0:
277,157,12447,1,0,0:0:0:0:
431,147,12861,2,0,P|448:172|451:194,3,51.6666666666667,0|0|0|2,0:0|0:0|0:0|0:0,0:0:0:0:
412,343,13689,2,0,P|377:359|277:292,1,155,4|0,0:1|0:0,0:0:0:0:
223,165,14516,2,0,P|229:127|249:112,2,51.6666666666667
223,165,14930,2,0,P|198:187|104:125,2,155,2|0|0,0:0|0:0|0:0,0:0:0:0:
217,32,16171,2,0,P|242:10|336:72,1,155,0|2,0:0|0:0,0:0:0:0:
433,177,16999,6,0,P|410:238|184:322,1,310
199,326,18240,1,2,0:0:0:0:
79,227,18654,1,0,0:0:0:0:
111,75,19068,1,0,0:0:0:0:
266,76,19482,2,0,P|274:48|277:18,2,51.6666666666667
234,117,19896,6,0,P|219:156|236:223,1,103.333333333333,8|0,0:0|0:0,0:0:0:0:
262,255,20309,2,0,P|293:278|360:245,1,103.333333333333,8|0,0:0|0:0,0:0:0:0:
386,222,20723,2,0,P|412:179|402:120,1,103.333333333333,8|0,0:0|0:0,0:0:0:0:
377,85,21137,2,0,P|366:50|387:27,1,51.6666666666667,0|0,0:0|0:0,2:0:0:0:
419,17,21413,1,0,0:0:0:0:
464,41,21551,6,0,P|453:70|330:103,1,155,8|8,0:0|0:0,0:0:0:0:
202,50,22378,6,0,B|167:41|167:41|124:122|124:122|136:163,1,155,8|0,0:0|0:0,0:0:0:0:
153,195,22930,2,0,P|164:222|158:247,1,51.6666666666667,0|0,0:0|0:0,2:0:0:0:
122,279,23206,1,8,0:0:0:0:
254,358,23620,1,8,0:0:0:0:
395,293,24034,1,8,0:0:0:0:
451,148,24447,2,0,P|442:112|430:105,2,51.6666666666667
420,188,24861,6,0,P|392:208|312:144,1,155,4|0,0:1|0:0,0:0:0:0:
400,261,26516,6,0,L|271:248,1,113.666670135498,4|0,0:3|2:0,0:0:0:0:
229,245,26930,1,8,0:0:0:0:
137,312,27206,1,0,0:0:0:0:
137,312,27344,2,0,P|102:320|33:263,1,113.666670135498,2|0,3:0|0:0,0:0:0:0:
23,225,27758,2,0,P|16:196|31:170,1,56.8333350677491,8|0,0:0|0:0,2:0:0:0:
75,141,28034,1,0,0:0:0:0:
124,112,28171,6,0,P|134:79|126:50,2,56.8333350677491,4|0|0,3:0|0:0|0:0,0:0:0:0:
164,152,28585,2,0,P|204:158|271:102,1,113.666670135498,8|0,0:0|0:0,2:0:0:0:
274,63,28999,2,0,P|299:36|434:63,1,170.500005203247,2|8,3:0|0:0,0:0:0:0:
458,89,29551,2,0,P|469:126|468:152,1,56.8333350677491,0|0,0:0|0:0,2:0:0:0:
465,201,29827,2,0,P|449:247|335:271,1,170.500005203247,4|8,3:0|0:0,0:0:0:0:
242,330,30516,1,0,0:0:0:0:
242,330,30654,2,0,P|199:305|130:328,1,113.666670135498,2|0,3:0|0:0,0:0:0:0:
89,347,31068,2,0,P|56:350|31:333,2,56.8333350677491,8|0|0,0:0|0:0|0:0,2:0:0:0:
139,319,31482,6,0,P|151:286|95:216,1,113.666670135498,4|0,3:0|0:0,0:0:0:0:
88,171,31896,2,0,P|71:140|114:58,1,113.666670135498,8|0,0:0|0:0,0:0:0:0:
147,51,32309,2,0,L|270:61,1,113.666670135498,2|0,3:0|0:0,0:0:0:0:
315,44,32723,2,0,L|320:109,1,56.8333350677491,8|0,0:0|0:0,2:0:0:0:
365,134,32999,1,0,0:0:0:0:
413,164,33137,6,0,L|431:342,1,170.500005203247,4|8,3:0|0:0,0:0:0:0:
318,309,33827,1,0,0:0:0:0:
318,309,33965,2,0,L|188:340,1,113.666670135498,2|0,3:0|0:0,0:0:0:0:
159,305,34378,2,0,P|129:330|126:361,2,56.8333350677491,8|0|0,0:0|0:0|0:0,2:0:0:0:
177,250,34792,2,0,P|176:209|119:160,1,113.666670135498,4|0,3:0|0:0,0:0:0:0:
74,135,35206,2,0,P|55:107|64:79,1,56.8333350677491,8|0,0:0|2:0,2:0:0:0:
92,39,35482,1,0,0:0:0:0:
148,36,35620,2,0,L|326:65,1,170.500005203247,2|8,3:0|0:0,0:0:0:0:
327,119,36171,1,0,0:0:0:0:
372,153,36309,1,0,0:0:0:0:
428,143,36447,6,0,P|469:115|453:4,2,170.500005203247,4|8|2,3:0|0:0|3:0,0:0:0:0:
448,312,37689,2,0,P|412:288|380:294,1,56.8333350677491,8|0,0:0|0:0,2:0:0:0:
354,253,37965,1,0,0:0:0:0:
299,237,38102,2,0,P|245:251|197:361,2,170.500005203247,4|8|2,3:0|0:0|3:0,0:0:0:0:
433,131,39344,2,0,P|433:91|415:69,2,56.8333350677491,8|0|0,0:0|0:0|0:0,2:0:0:0:
404,183,39758,6,0,P|360:202|257:134,1,178.250003399849,4|8,3:0|0:0,0:0:0:0:
189,41,40447,1,0,0:0:0:0:
189,41,40585,2,0,P|142:57|117:133,1,118.833335599899,2|0,3:0|0:0,0:0:0:0:
57,135,40999,2,0,P|71:172|141:221,1,118.833335599899,8|0,0:0|0:0,0:0:0:0:
120,277,41413,2,0,L|312:235,1,178.250003399849,4|8,3:0|0:0,0:0:0:0:
381,319,42102,1,0,0:0:0:0:
381,319,42240,2,0,P|361:263|381:208,1,118.833335599899,2|0,3:0|0:0,0:0:0:0:
436,184,42654,2,0,P|456:212|488:224,2,59.4166677999497,8|0|0,0:0|2:0|2:0,0:0:0:0:
444,124,43068,6,0,P|400:84|328:80,1,118.833335599899,4|0,3:0|0:0,2:0:0:0:
316,24,43482,2,0,L|190:66,1,118.833335599899,8|0,0:0|0:0,2:0:0:0:
176,114,43896,2,0,L|102:101,3,59.4166677999497,2|0|0|8,3:0|2:0|2:0|0:0,0:0:0:0:
46,198,44585,1,0,0:0:0:0:
46,198,44723,2,0,P|75:211|114:304,1,118.833335599899,4|2,3:0|3:0,0:0:0:0:
115,344,45137,2,0,P|135:302|214:276,1,118.833335599899,8|0,0:0|0:0,2:0:0:0:
256,290,45551,2,0,L|437:316,1,178.250003399849,2|8,3:0|0:0,0:0:0:0:
484,286,46102,1,0,0:0:0:0:
490,226,46240,1,0,0:0:0:0:
458,175,46378,6,0,L|316:199,1,134.333327184042,4|0,3:0|0:0,0:0:0:0:
261,159,46792,2,0,P|237:130|264:23,1,134.333327184042,8|0,0:0|0:0,0:0:0:0:
318,21,47206,2,0,L|471:43,1,134.333327184042,2|0,3:0|0:0,0:0:0:0:
485,106,47620,2,0,P|489:136|475:175,1,67.1666635920208,8|0,0:0|0:0,2:0:0:0:
426,224,47896,1,0,0:0:0:0:
356,250,48034,2,0,L|198:235,1,134.333327184042,4|0,3:0|0:0,0:0:0:0:
167,287,48447,2,0,P|182:247|109:184,1,134.333327184042,8|0,0:0|0:0,0:0:0:0:
60,151,48861,2,0,P|49:118|133:43,1,134.333327184042,2|0,3:0|0:0,0:0:0:0:
173,22,49275,2,0,P|200:50|201:86,1,67.1666635920208,8|0,0:0|0:0,2:0:0:0:
237,142,49551,1,0,0:0:0:0:
308,159,49689,6,0,P|351:145|386:45,1,134.333327184042,4|0,3:0|0:0,0:0:0:0:
440,15,50102,2,0,P|469:45|486:159,1,134.333327184042,8|0,0:0|0:0,2:0:0:0:
472,204,50516,2,0,P|456:259|329:348,1,201.499990776062,2|8,3:0|0:0,0:0:0:0:
215,275,51206,1,0,0:0:0:0:
215,275,51344,2,0,P|152:252|92:291,2,134.333327184042,4|4|4,3:0|0:0|0:0,0:0:0:0:
322,200,52171,2,0,P|328:166|234:61,1,178.250003399849,6|2,0:0|0:0,0:0:0:0:
244,62,52999,5,4,3:0:0:0:
79,105,53413,2,0,P|48:104|27:85,3,51.6666666666667,4|0|0|2,3:0|0:0|0:0|3:0,0:0:0:0:
167,195,54240,1,4,3:0:0:0:
139,244,54378,1,0,0:0:0:0:
159,296,54516,1,0,0:0:0:0:
211,318,54654,2,0,L|317:285,1,103.333333333333,4|0,3:0|0:0,0:0:0:0:
363,268,55068,6,0,P|384:292|383:329,2,51.6666666666667,4|0|0,3:0|0:0|0:0,0:0:0:0:
350,212,55482,2,0,P|350:179|382:158,1,51.6666666666667,2|0,3:0|0:0,2:0:0:0:
359,51,55896,2,0,P|390:43|418:48,1,51.6666666666667,4|0,3:0|0:0,2:0:0:0:
475,137,56309,5,4,3:0:0:0:
346,249,56723,2,0,P|336:280|346:312,3,51.6666666666667,4|0|0|2,3:0|0:0|0:0|3:0,0:0:0:0:
179,358,57551,1,4,3:0:0:0:
138,318,57689,1,0,0:0:0:0:
145,261,57827,1,0,0:0:0:0:
170,210,57965,2,0,P|189:175|163:97,1,103.333333333333,4|0,3:0|0:0,0:0:0:0:
139,73,58378,2,0,L|72:69,2,51.6666666666667,4|0|0,3:0|0:0|0:0,0:0:0:0:
190,48,58792,2,0,P|200:23|197:-2,2,51.6666666666667,2|0|0,3:0|0:0|0:0,2:0:0:0:
217,98,59206,1,4,3:0:0:0:
268,123,59344,1,0,0:0:0:0:
324,117,59482,1,0,0:0:0:0:
373,88,59620,6,0,P|409:69|467:159,1,155,4|8,3:0|0:0,0:0:0:0:
448,308,60447,1,2,3:0:0:0:
448,308,60861,2,0,L|284:294,1,155,8|4,0:0|3:0,2:0:0:0:
135,360,61689,2,0,L|112:206,1,155,8|2,0:0|3:0,2:0:0:0:
32,56,62516,2,0,L|207:25,1,155,8|4,0:0|3:0,2:0:0:0:
355,27,63344,2,0,P|376:61|331:159,1,155,8|2,0:0|3:0,0:0:0:0:
164,176,64171,2,0,L|0:154,2,155,8|4|8,0:0|3:0|0:0,2:0:0:0:
275,305,65413,1,2,3:0:0:0:
416,210,65827,2,0,P|438:207|468:232,2,51.6666666666667,8|0|0,0:0|0:0|0:0,2:0:0:0:
362,228,66240,6,0,P|336:213|319:126,1,103.333333333333,4|0,3:0|0:0,0:0:0:0:
332,93,66654,2,0,P|340:54|291:5,1,103.333333333333,8|0,0:0|0:0,2:0:0:0:
248,27,67068,2,0,L|140:66,1,103.333333333333,2|0,3:0|2:0,2:0:0:0:
103,94,67482,2,0,P|98:128|142:193,1,103.333333333333,8|0,0:0|0:0,2:0:0:0:
186,199,67896,5,4,3:0:0:0:
113,352,68309,1,8,0:0:0:0:
159,318,68447,1,0,0:0:0:0:
211,341,68585,1,0,0:0:0:0:
260,368,68723,2,0,L|353:292,1,103.333333333333,2|0,3:0|0:0,2:0:0:0:
384,266,69137,2,0,L|512:359,1,155,8|4,0:0|3:0,2:0:0:0:
487,187,69965,5,8,0:0:0:0:
434,165,70102,1,0,0:0:0:0:
409,113,70240,1,0,0:0:0:0:
424,58,70378,2,0,P|447:88|382:180,1,155,2|8,3:0|0:0,2:0:0:0:
353,214,70930,2,0,P|301:216|289:208,1,51.6666666666667,0|0,0:0|0:0,2:0:0:0:
247,228,71206,2,0,P|220:207|204:132,1,103.333333333333,4|0,3:0|2:0,2:0:0:0:
214,86,71620,2,0,P|220:56|216:25,2,51.6666666666667,8|0|0,0:0|0:0|0:0,2:0:0:0:
160,106,72034,2,0,P|142:83|124:71,2,51.6666666666667,2|0|0,3:0|0:0|0:0,2:0:0:0:
127,152,72447,2,0,P|96:152|68:159,2,51.6666666666667,8|0|0,0:0|0:0|0:0,2:0:0:0:
147,205,72861,6,0,P|125:226|118:312,1,103.333333333333,4|0,3:0|2:0,2:0:0:0:
145,341,73275,1,8,0:0:0:0:
199,358,73413,1,0,0:0:0:0:
252,338,73551,1,0,0:0:0:0:
272,285,73689,1,2,3:0:0:0:
235,118,74102,1,8,0:0:0:0:
251,63,74240,1,0,0:0:0:0:
303,40,74378,1,0,0:0:0:0:
354,64,74516,5,4,3:0:0:0:
467,191,74930,1,8,0:0:0:0:
447,244,75068,1,0,0:0:0:0:
395,267,75206,1,0,0:0:0:0:
343,243,75344,2,0,P|322:214|326:187,2,51.6666666666667,2|0|0,3:0|0:0|0:0,0:0:0:0:
341,300,75758,2,0,P|296:303|226:281,1,103.333333333333,8|0,0:0|0:0,2:0:0:0:
187,266,76171,6,0,P|151:259|83:281,1,103.333333333333,4|0,3:0|2:0,2:0:0:0:
30,275,76585,1,8,0:0:0:0:
19,219,76723,1,0,0:0:0:0:
57,176,76861,1,0,0:0:0:0:
113,168,76999,2,0,P|167:164|199:121,1,103.333333333333,2|0,3:0|2:0,2:0:0:0:
249,104,77413,2,0,P|247:72|228:44,2,51.6666666666667,8|0|0,0:0|0:0|0:0,0:0:0:0:
291,142,77827,2,0,P|298:181|392:248,2,155,4|8|4,3:0|0:0|3:0,0:0:0:0:
389,34,79068,1,8,0:0:0:0:
389,34,79482,5,6,0:0:0:0:
269,196,85689,5,4,3:0:0:0:
308,236,85827,1,4,3:0:0:0:
364,243,85965,1,4,3:0:0:0:
417,226,86102,6,0,P|418:187|332:119,1,155,2|0,0:0|0:0,0:0:0:0:
229,77,86792,1,0,0:0:0:0:
229,77,86930,2,0,P|173:100|130:79,1,103.333333333333,8|0,0:0|0:0,0:0:0:0:
15,205,87620,2,0,P|62:220|90:284,1,103.333333333333,0|0,0:0|2:0,0:0:0:0:
77,320,88034,1,0,0:0:0:0:
108,366,88171,2,0,L|276:346,1,155,0|8,0:0|0:0,0:0:0:0:
431,329,88999,1,0,0:0:0:0:
403,160,89413,5,4,3:0:0:0:
290,178,89689,2,0,L|303:243,1,51.6666666666667,0|0,0:0|0:0,2:0:0:0:
191,261,90102,2,0,L|204:326,1,51.6666666666667,0|8,0:0|0:0,2:0:0:0:
94,353,90516,1,0,0:0:0:0:
117,184,90930,6,0,B|123:134|176:101|231:123|249:165|249:165|249:165|249:165|270:211|330:226|375:191|381:145,1,361.666666666666,0|4,0:0|0:1,0:0:0:0:
381,143,92723,6,0,P|380:109|298:61,1,113.666670135498,4|0,3:0|0:0,0:0:0:0:
323,59,93137,1,10,0:0:0:0:
213,119,93413,1,0,0:0:0:0:
213,119,93551,2,0,P|159:143|75:72,2,170.500005203247,2|8|0,0:0|2:0|2:0,0:0:0:0:
203,306,94792,1,8,2:0:0:0:
315,251,95068,1,0,0:0:0:0:
315,251,95206,1,2,0:0:0:0:
402,340,95482,1,0,0:0:0:0:
402,340,95620,1,10,0:0:0:0:
483,245,95896,1,0,0:0:0:0:
483,245,96034,6,0,P|482:212|420:161,1,113.666670135498,4|0,3:0|0:0,0:0:0:0:
425,161,96447,1,10,0:0:0:0:
356,57,96723,1,0,0:0:0:0:
356,57,96861,2,0,P|316:90|194:61,1,170.500005203247,2|8,0:0|0:0,0:0:0:0:
89,27,97551,1,2,0:0:0:0:
89,27,97689,6,0,B|64:67|64:67|82:156,1,113.666670135498,0|0,2:0|0:0,2:0:0:0:
126,170,98102,2,0,P|156:187|177:271,1,113.666670135498,10|0,0:0|0:0,0:0:0:0:
180,258,98516,1,2,0:0:0:0:
266,349,98792,1,2,0:0:0:0:
266,349,98930,2,0,P|289:312|369:311,1,113.666670135498,8|2,0:0|0:0,0:0:0:0:
414,322,99344,6,0,P|440:310|448:218,1,113.666670135498,4|0,3:0|0:0,0:0:0:0:
423,181,99758,1,10,0:0:0:0:
354,76,100034,1,2,0:0:0:0:
354,76,100171,1,2,0:0:0:0:
270,168,100447,1,2,0:0:0:0:
270,168,100585,6,0,P|224:194|131:130,2,170.500005203247,8|0|10,2:0|2:0|0:0,2:0:0:0:
357,77,101689,1,0,0:0:0:0:
357,77,101827,2,0,P|369:105|379:196,1,113.666670135498,2|0,0:0|0:0,0:0:0:0:
419,235,102240,2,0,P|398:268|322:316,1,113.666670135498,10|0,0:0|0:0,0:0:0:0:
306,365,102654,6,0,P|312:324|219:243,1,170.500005203247,4|10,3:0|0:0,0:0:0:0:
106,278,103344,1,0,0:0:0:0:
106,278,103482,1,2,0:0:0:0:
35,174,103758,2,0,P|36:132|93:76,1,113.666670135498,2|0,0:0|0:0,2:0:0:0:
143,74,104171,2,0,L|327:109,1,170.500005203247,2|0,0:0|2:0,0:0:0:0:
360,67,104723,2,0,L|378:194,1,113.666670135498,2|0,0:0|2:0,0:0:0:0:
435,158,105137,2,0,L|411:288,1,113.666670135498,2|2,0:0|0:0,0:0:0:0:
422,332,105551,2,0,P|451:345|496:341,2,56.8333350677491,8|8|8,0:0|0:0|0:0,2:0:0:0:
422,332,105965,6,0,P|385:305|289:334,1,134.333327184042,4|2,3:0|0:0,0:0:0:0:
239,358,106378,2,0,P|198:375|122:318,1,134.333327184042,8|2,0:0|0:0,2:0:0:0:
106,259,106792,1,4,3:0:0:0:
154,119,107068,1,2,0:0:0:0:
154,119,107206,1,8,0:0:0:0:
245,234,107482,1,2,0:0:0:0:
245,234,107620,6,0,L|396:210,1,134.333327184042,4|2,3:0|0:0,2:0:0:0:
420,274,108034,2,0,P|394:235|422:145,1,134.333327184042,8|2,0:0|0:0,2:0:0:0:
471,109,108447,2,0,L|316:132,1,134.333327184042,4|2,3:0|0:0,2:0:0:0:
287,73,108861,1,8,0:0:0:0:
168,161,109137,1,2,0:0:0:0:
168,161,109275,6,0,P|142:133|167:28,1,134.333327184042,4|2,3:0|0:0,0:0:0:0:
219,14,109689,2,0,P|267:55|266:197,1,201.499990776062,8|4,0:0|3:0,2:0:0:0:
169,291,110378,1,2,0:0:0:0:
169,291,110516,1,8,0:0:0:0:
296,365,110792,1,2,0:0:0:0:
296,365,110930,6,0,P|322:320|424:321,1,134.333327184042,4|2,3:0|0:0,2:0:0:0:
465,337,111344,2,0,P|493:307|495:272,1,67.1666635920208,8|0,0:0|0:0,0:0:0:0:
457,219,111620,1,2,0:0:0:0:
391,185,111758,2,0,P|345:181|300:202,1,67.1666635920208,4|0,3:0|0:0,2:0:0:0:
255,212,112034,1,2,0:0:0:0:
190,247,112171,1,8,0:0:0:0:
88,139,112447,1,2,0:0:0:0:
105,67,112585,6,0,L|245:95,1,134.333327184042,4|2,3:0|0:0,0:0:0:0:
291,42,112999,2,0,P|268:87|291:183,1,134.333327184042,8|2,0:0|0:0,0:0:0:0:
325,226,113413,1,4,3:0:0:0:
466,182,113689,1,2,0:0:0:0:
466,182,113827,1,8,0:0:0:0:
421,322,114102,1,2,0:0:0:0:
421,322,114240,6,0,P|399:287|300:285,1,134.333327184042,4|2,3:0|0:0,2:0:0:0:
247,312,114654,1,8,0:0:0:0:
104,352,114930,1,2,0:0:0:0:
104,352,115068,2,0,P|70:321|82:218,1,134.333327184042,4|2,3:0|0:0,0:0:0:0:
117,181,115482,2,0,P|122:143|104:110,1,67.1666635920208,8|0,0:0|0:0,0:0:0:0:
67,56,115758,1,2,0:0:0:0:
67,56,115896,6,0,P|103:90|190:49,1,134.333327184042,4|2,3:0|0:0,0:0:0:0:
236,24,116309,2,0,L|324:36,1,67.1666635920208,8|0,0:0|0:0,0:0:0:0:
375,46,116585,1,2,0:0:0:0:
421,103,116723,2,0,P|433:148|423:177,1,67.1666635920208,4|0,3:0|0:0,2:0:0:0:
371,215,116999,1,2,0:0:0:0:
371,215,117137,2,0,L|232:199,1,134.333327184042,8|2,0:0|0:0,0:0:0:0:
165,218,117551,6,0,P|130:256|198:374,2,201.499990776062,4|4|4,3:0|3:0|3:0,0:0:0:0:
255,101,118654,1,0,0:0:0:0:
255,101,118792,2,0,P|263:56|258:35,2,67.1666635920208,8|0|2,0:0|0:0|0:0,0:0:0:0:
203,154,119206,5,6,0:0:0:0:
