osu file format v14

[General]
AudioFilename: audio.mp3
AudioLeadIn: 0
PreviewTime: 26102
Countdown: 0
SampleSet: Soft
StackLeniency: 0.7
Mode: 0
LetterboxInBreaks: 0
WidescreenStoryboard: 0

[Editor]
Bookmarks: 1689,19896,26516,39758,52999,59620,66240,79482,92723,105965,119206
DistanceSpacing: 2.4
BeatDivisor: 6
GridSize: 4
TimelineZoom: 2.6

[Metadata]
Title:Guitarmass (Cut Ver.)
TitleUnicode:Guitarmass (Cut Ver.)
Artist:Infected Mushroom
ArtistUnicode:Infected Mushroom
Creator:Ciyus Miapah
Version:Easy
Source:
Tags:edm rock electronic dance music psytrance psychedelic dark trance instrumental synth monstercat uncaged alternative Head of NASA and the 2 Amish Boys Fort ReFaller VanillaSandvich Kyrari Wezeh PaRaDogi Nerova Riuz GX InCritDouble Derandom Otaku Ren Alphabet Aistre Venax
BeatmapID:2202593
BeatmapSetID:947022

[Difficulty]
HPDrainRate:2
CircleSize:2
OverallDifficulty:2
ApproachRate:3
SliderMultiplier:0.8
SliderTickRate:1

[Events]
//Background and Video events
0,0,"BG.jpg",0,0
//Break Periods
2,79682,84542
//Storyboard Layer 0 (Background)
//Storyboard Layer 1 (Fail)
//Storyboard Layer 2 (Pass)
//Storyboard Layer 3 (Foreground)
//Storyboard Layer 4 (Overlay)
//Storyboard Sound Samples

[TimingPoints]
34,413.793103448276,4,2,1,50,1,0
19896,-100,4,2,1,60,0,0
22016,-100,4,2,1,60,0,0
22378,-100,4,2,1,60,0,0
26516,-100,4,2,1,75,0,0
32034,-100,4,2,1,5,0,0
32309,-100,4,2,1,75,0,0
34102,-100,4,2,1,5,0,0
34792,-100,4,2,1,75,0,0
39758,-100,4,2,1,100,0,1
52999,-100,4,2,1,50,0,0
86102,-100,4,2,1,75,0,0
90930,-100,4,2,1,50,0,0
92723,-100,4,2,1,75,0,0
93689,-100,4,2,1,5,0,0
94378,-100,4,2,1,75,0,0
96999,-100,4,2,1,5,0,0
97689,-100,4,2,1,75,0,0
101620,-100,4,2,1,5,0,0
101826,-100,4,2,1,75,0,0
104585,-100,4,2,1,5,0,0
105136,-100,4,2,1,75,0,0
105275,-100,4,2,1,5,0,0
105965,-100,4,2,1,100,0,1
119206,-100,4,2,1,50,0,0

[Colours]
Combo1 : 0,64,128
Combo2 : 255,0,255
Combo3 : 0,128,255
Combo4 : 255,0,128

[HitObjects]
244,213,34,6,0,P|272:228|423:59,2,320,2|2|2,0:0|0:0|0:0,0:0:0:0:
134,96,4999,1,2,0:0:0:0:
67,241,6654,6,0,B|139:293|170:211|286:194|341:218|364:258|390:325|368:370|306:380|220:379|185:351|203:185|219:145,2,640,2|2|2,0:0|0:0|0:0,0:0:0:0:
95,83,14930,1,2,0:0:0:0:
256,192,15344,12,0,18240,0:0:0:0:
271,302,19896,6,0,L|359:294,2,80,8|8|8,0:0|0:0|0:0,0:0:0:0:
131,223,21551,2,0,L|43:231,2,80,8|8|8,0:0|0:0|0:0,0:0:0:0:
255,122,23206,1,8,0:0:0:0:
409,163,24034,1,8,0:0:0:0:
487,23,24861,1,4,0:1:0:0:
359,316,26516,6,0,B|220:358|174:194|62:225,1,320,4|4,0:3|3:0,0:0:0:0:
25,69,28999,1,2,3:0:0:0:
176,16,29827,2,0,P|200:32|167:143,1,160,4|2,3:0|3:0,0:0:0:0:
33,212,31482,2,0,P|-10:274|32:336,1,160,4|2,3:0|3:0,0:0:0:0:
190,359,33137,6,0,B|329:401|375:237|487:268,1,320,4|4,3:0|3:0,0:0:0:0:
507,108,35620,1,2,3:0:0:0:
356,52,36448,2,0,P|284:74|279:149,1,160,4|2,3:0|3:0,0:0:0:0:
375,276,38102,2,0,B|332:345|332:345|223:370|140:340|140:340|106:303,1,320,4|4,3:0|3:0,0:0:0:0:
52,159,40585,5,2,3:0:0:0:
170,50,41413,2,0,B|249:49|249:49|323:85,1,160,4|2,3:0|3:0,0:0:0:0:
481,81,43068,2,0,B|497:158|497:158|476:240,1,160,4|2,3:0|3:0,2:0:0:0:
345,328,44723,2,0,B|211:367|159:183|60:217,2,320,4|4|4,3:0|3:0|3:0,0:0:0:0:
466,223,48861,5,2,3:0:0:0:
402,76,49689,2,0,P|363:73|283:161,1,160,4|2,3:0|3:0,0:0:0:0:
152,244,51344,2,0,P|164:281|265:349,1,160,4|6,3:0|0:0,0:0:0:0:
401,275,52999,5,4,3:0:0:0:
446,121,53827,1,2,3:0:0:0:
323,17,54654,1,4,3:0:0:0:
163,24,55482,1,2,3:0:0:0:
43,130,56309,6,0,P|29:168|96:267,1,160,4|2,3:0|3:0,0:0:0:0:
214,358,57965,2,0,P|236:353|293:232,1,160,4|2,3:0|3:0,0:0:0:0:
300,82,59620,6,0,L|213:72,1,80,4|8,3:0|0:0,0:0:0:0:
61,54,60861,1,8,0:0:0:0:
99,209,61689,1,8,0:0:0:0:
258,222,62516,2,0,L|426:236,1,160,8|8,0:0|0:0,2:0:0:0:
492,94,64171,5,8,0:0:0:0:
332,82,64999,1,8,0:0:0:0:
173,60,65827,2,0,L|90:50,2,80,8|4|8,0:0|3:0|0:0,2:0:0:0:
288,170,67482,5,8,0:0:0:0:
202,305,68309,2,0,P|178:324|125:324,2,80,8|2|8,0:0|3:0|0:0,2:0:0:0:
260,155,69965,1,8,0:0:0:0:
374,266,70792,2,0,P|402:269|487:179,2,160,8|8|8,0:0|0:0|0:0,2:0:0:0:
219,222,73275,5,8,0:0:0:0:
74,291,74102,1,8,0:0:0:0:
7,145,74930,1,8,0:0:0:0:
154,83,75758,1,8,0:0:0:0:
305,31,76585,2,0,P|371:72|386:154,1,160,8|8,0:0|0:0,2:0:0:0:
322,294,78240,2,0,L|233:289,1,80,8|2,0:0|3:0,2:0:0:0:
82,282,79482,5,6,0:0:0:0:
256,192,86102,12,0,90930,0:0:0:0:
159,198,92723,6,0,P|143:172|211:84,2,160,4|2|0,3:0|0:0|2:0,0:0:0:0:
299,275,95206,1,2,0:0:0:0:
437,195,96034,2,0,P|453:169|385:81,2,160,4|2|0,3:0|0:0|2:0,0:0:0:0:
298,274,98516,1,2,0:0:0:0:
156,348,99344,6,0,P|133:348|47:254,1,160,4|2,3:0|0:0,0:0:0:0:
71,97,100999,2,0,L|234:78,1,160,0|2,2:0|0:0,2:0:0:0:
388,54,102654,1,4,3:0:0:0:
436,206,103482,1,2,0:0:0:0:
276,220,104309,2,0,L|117:238,2,160,0|2|4,2:0|0:0|3:0,2:0:0:0:
412,303,106792,5,4,3:0:0:0:
463,151,107620,2,0,P|447:95|353:60,1,160,4|4,3:0|3:0,2:0:0:0:
222,143,109275,2,0,B|183:172|118:172|118:172|74:131,2,160,4|4|4,3:0|3:0|3:0,0:0:0:0:
347,44,111758,2,0,P|376:54|420:173,1,160,4|4,3:0|3:0,2:0:0:0:
318,285,113413,6,0,B|235:296|235:296|175:233,1,160,4|4,3:0|3:0,0:0:0:0:
87,111,115068,1,4,3:0:0:0:
220,22,115896,2,0,L|384:47,1,160,4|4,3:0|3:0,0:0:0:0:
401,204,117551,2,0,L|82:268,1,320,4|6,3:0|0:0,0:0:0:0:
