osu file format v14

[General]
AudioFilename: audio.mp3
AudioLeadIn: 0
PreviewTime: 26102
Countdown: 0
SampleSet: Soft
StackLeniency: 0.7
Mode: 0
LetterboxInBreaks: 0
WidescreenStoryboard: 0

[Editor]
Bookmarks: 1689,19896,26516,39758,52999,59620,66240,79482,92723,105965,119206
DistanceSpacing: 2.4
BeatDivisor: 6
GridSize: 4
TimelineZoom: 2.6

[Metadata]
Title:Guitarmass (Cut Ver.)
TitleUnicode:Guitarmass (Cut Ver.)
Artist:Infected Mushroom
ArtistUnicode:Infected Mushroom
Creator:Ciyus Miapah
Version:Advanced
Source:
Tags:edm rock electronic dance music psytrance psychedelic dark trance instrumental synth monstercat uncaged alternative Head of NASA and the 2 Amish Boys Fort ReFaller VanillaSandvich Kyrari Wezeh PaRaDogi Nerova Riuz GX InCritDouble Derandom Otaku Ren Alphabet Aistre Venax
BeatmapID:2202592
BeatmapSetID:947022

[Difficulty]
HPDrainRate:4
CircleSize:3.5
OverallDifficulty:5
ApproachRate:5.5
SliderMultiplier:1.4
SliderTickRate:1

[Events]
//Background and Video events
0,0,"BG.jpg",0,0
//Break Periods
2,79681,84977
//Storyboard Layer 0 (Background)
//Storyboard Layer 1 (Fail)
//Storyboard Layer 2 (Pass)
//Storyboard Layer 3 (Foreground)
//Storyboard Layer 4 (Overlay)
//Storyboard Sound Samples

[TimingPoints]
34,413.793103448276,4,2,1,50,1,0
19896,-100,4,2,1,60,0,0
22016,-100,4,2,1,60,0,0
22378,-100,4,2,1,60,0,0
26516,-100,4,2,1,75,0,0
32034,-100,4,2,1,5,0,0
32171,-100,4,2,1,75,0,0
34102,-100,4,2,1,5,0,0
34378,-100,4,2,1,75,0,0
39758,-100,4,2,1,100,0,1
52447,-100,4,2,1,5,0,1
52585,-100,4,2,1,100,0,1
52999,-100,4,2,1,50,0,0
55757,-100,4,2,1,5,0,0
55896,-100,4,2,1,50,0,0
56171,-100,4,2,1,5,0,0
56309,-100,4,2,1,50,0,0
59620,-100,4,2,1,65,0,0
66240,-100,4,2,1,75,0,0
86102,-100,4,2,1,50,0,0
90930,-100,4,2,1,50,0,0
92723,-100,4,2,1,75,0,0
93965,-100,4,2,1,75,0,0
95344,-100,4,2,1,5,0,0
95619,-100,4,2,1,75,0,0
98309,-100,4,2,1,5,0,0
98516,-100,4,2,1,75,0,0
104585,-100,4,2,1,5,0,0
104722,-100,4,2,1,75,0,0
105275,-100,4,2,1,5,0,0
105550,-100,4,2,1,75,0,0
105965,-100,4,2,1,100,0,1
119206,-100,4,2,1,50,0,0

[Colours]
Combo1 : 0,64,128
Combo2 : 255,0,255
Combo3 : 0,128,255
Combo4 : 255,0,128

[HitObjects]
194,128,34,6,0,P|223:134|231:234,2,140,2|0|0,0:0|0:0|0:0,0:0:0:0:
79,208,1275,1,0,0:0:0:0:
157,323,1689,2,0,P|207:349|302:325,1,140,2|0,0:0|0:0,0:0:0:0:
405,261,2516,1,0,0:0:0:0:
405,261,2930,2,0,P|437:243|489:319,2,140,0|2|0,0:0|0:0|0:0,2:0:0:0:
356,129,4171,1,0,0:0:0:0:
356,129,4585,6,0,P|324:152|242:110,1,140,0|2,0:0|0:0,2:0:0:0:
142,13,5413,1,0,0:0:0:0:
78,137,5827,1,0,0:0:0:0:
141,261,6240,1,0,0:0:0:0:
262,330,6654,6,0,B|371:240|409:368|489:300|489:300|454:264,1,280,2|0,0:0|0:0,0:0:0:0:
392,155,7896,1,0,0:0:0:0:
296,53,8309,2,0,P|262:84|261:184,2,140,2|0|0,0:0|0:0|0:0,0:0:0:0:
391,156,9551,1,0,0:0:0:0:
301,263,9965,6,0,P|268:280|85:156,2,280,2|0|2,0:0|0:0|0:0,0:0:0:0:
394,158,12034,1,0,0:0:0:0:
478,268,12447,1,0,0:0:0:0:
394,158,12861,6,0,L|373:16,2,140,0|2|4,0:0|0:0|0:1,0:0:0:0:
176,334,14516,1,0,0:0:0:0:
176,334,14930,2,0,L|16:319,2,140,2|0|0,0:0|0:0|0:0,0:0:0:0:
291,254,16171,1,0,0:0:0:0:
256,192,16585,12,0,18240,0:0:0:0:
367,150,19896,6,0,P|342:165|261:106,1,140,8|8,0:0|0:0,0:0:0:0:
135,49,20723,1,8,0:0:0:0:
78,177,21137,2,0,P|56:196|27:196,3,46.6666666666667,0|0|0|8,0:0|0:0|0:0|0:0,2:0:0:0:
78,333,21965,2,0,P|117:316|186:236,1,140,8|8,0:0|0:0,0:0:0:0:
287,153,22792,2,0,P|274:132|247:102,3,46.6666666666667,0|0|0|8,0:0|0:0|0:0|0:0,2:0:0:0:
383,47,23620,2,0,P|407:97|418:196,1,140,8|8,0:0|0:0,0:0:0:0:
374,312,24447,2,0,P|347:303|329:290,3,46.6666666666667,0|0|0|4,0:0|0:0|0:0|0:1,0:0:0:0:
296,301,26516,6,0,P|285:281|335:172,1,140,4|8,0:3|0:0,0:0:0:0:
404,139,27206,2,0,P|428:128|447:101,1,46.6666666666667,0|2,0:0|3:0,2:0:0:0:
336,18,27758,2,0,P|298:35|264:87,1,93.3333333333333,8|0,0:0|0:0,2:0:0:0:
239,112,28171,2,0,P|215:128|111:101,2,140,4|8|2,3:0|0:0|3:0,0:0:0:0:
373,150,29413,2,0,P|387:173|387:210,3,46.6666666666667,8|0|0|4,0:0|0:0|0:0|3:0,2:0:0:0:
311,308,30240,1,8,0:0:0:0:
218,203,30654,1,2,3:0:0:0:
130,312,31068,2,0,P|97:328|82:325,3,46.6666666666667,8|0|0|4,0:0|0:0|0:0|3:0,2:0:0:0:
20,203,31896,2,0,P|60:183|122:204,1,93.3333333333333,8|0,0:0|0:0,0:0:0:0:
144,218,32309,2,0,P|177:234|269:181,1,140,2|8,3:0|0:0,0:0:0:0:
330,69,33137,5,4,3:0:0:0:
463,112,33551,1,8,0:0:0:0:
423,246,33965,2,0,P|373:312|324:338,2,140,2|8|4,3:0|0:0|3:0,0:0:0:0:
459,110,35206,1,8,0:0:0:0:
329,162,35620,1,2,3:0:0:0:
197,115,36034,2,0,P|186:90|190:59,3,46.6666666666667,8|0|0|4,0:0|0:0|0:0|3:0,2:0:0:0:
317,21,36861,1,8,0:0:0:0:
324,160,37275,1,2,3:0:0:0:
312,299,37689,2,0,P|282:319|174:308,1,140,8|4,0:0|3:0,2:0:0:0:
78,218,38516,1,8,0:0:0:0:
119,84,38930,1,2,3:0:0:0:
254,47,39344,2,0,P|272:68|278:94,3,46.6666666666667,8|0|0|4,0:0|0:0|0:0|3:0,2:0:0:0:
293,224,40171,5,8,0:0:0:0:
405,140,40585,2,0,P|424:116|442:8,2,140,2|8|4,3:0|0:0|3:0,0:0:0:0:
280,205,41827,1,8,0:0:0:0:
143,176,42240,2,0,P|111:158|7:190,1,140,2|8,3:0|0:0,0:0:0:0:
9,273,42930,2,0,P|31:288|65:285,1,46.6666666666667,0|4,0:0|3:0,0:0:0:0:
136,325,43344,2,0,P|169:308|186:291,1,46.6666666666667,0|8,0:0|0:0,2:0:0:0:
268,290,43758,2,0,P|282:268|283:243,1,46.6666666666667,0|2,0:0|3:0,2:0:0:0:
295,108,44309,2,0,P|273:85|264:66,3,46.6666666666667,8|0|0|4,0:0|0:0|0:0|3:0,0:0:0:0:
391,8,45137,1,8,0:0:0:0:
480,115,45551,1,2,3:0:0:0:
457,253,45965,2,0,P|421:271|359:257,1,93.3333333333333,8|0,0:0|0:0,2:0:0:0:
332,236,46378,6,0,P|300:215|198:225,1,140,4|8,3:0|0:0,0:0:0:0:
129,281,47068,2,0,P|111:293|72:292,1,46.6666666666667,0|2,0:0|3:0,2:0:0:0:
56,158,47620,2,0,P|44:126|45:101,3,46.6666666666667,8|0|0|4,0:0|0:0|0:0|3:0,2:0:0:0:
158,33,48447,1,8,0:0:0:0:
232,89,48723,2,0,P|239:114|237:145,1,46.6666666666667,0|2,0:0|3:0,2:0:0:0:
308,256,49275,2,0,P|271:281|170:283,2,140,8|4|8,0:0|3:0|0:0,2:0:0:0:
370,186,50378,2,0,P|398:181|424:195,1,46.6666666666667,0|2,0:0|3:0,2:0:0:0:
480,63,50930,2,0,P|447:50|375:54,1,93.3333333333333,8|0,0:0|0:0,2:0:0:0:
345,65,51344,6,0,B|280:170|148:161|81:52|81:52|177:22,1,420,4|2,3:0|0:0,0:0:0:0:
174,22,52999,6,0,B|231:55|231:55|265:132|223:281,1,280,4|2,3:0|3:0,0:0:0:0:
114,348,54240,2,0,P|91:328|87:298,3,46.6666666666667,4|0|0|4,3:0|0:0|0:0|3:0,0:0:0:0:
87,172,55068,2,0,P|129:159|171:188,1,93.3333333333333,4|0,3:0|0:0,0:0:0:0:
199,219,55482,2,0,P|226:236|295:221,1,93.3333333333333,2|0,3:0|0:0,2:0:0:0:
325,205,55896,2,0,P|359:182|424:187,1,93.3333333333333,4|0,3:0|0:0,2:0:0:0:
454,196,56309,5,4,3:0:0:0:
499,63,56723,1,4,3:0:0:0:
362,32,57137,1,2,3:0:0:0:
222,23,57551,2,0,P|218:56|223:79,3,46.6666666666667,4|0|0|4,3:0|0:0|0:0|3:0,0:0:0:0:
267,200,58378,2,0,P|279:243|266:310,1,93.3333333333333,4|0,3:0|0:0,0:0:0:0:
251,332,58792,2,0,P|225:356|157:351,1,93.3333333333333,2|0,3:0|0:0,2:0:0:0:
126,337,59206,2,0,P|104:316|114:250,1,93.3333333333333,4|0,3:0|0:0,2:0:0:0:
120,211,59620,6,0,L|274:191,1,140,4|8,3:0|0:0,0:0:0:0:
398,179,60447,1,2,3:0:0:0:
482,67,60861,1,8,0:0:0:0:
348,23,61275,5,4,3:0:0:0:
208,28,61689,2,0,P|200:59|227:129,1,93.3333333333333,8|0,0:0|2:0,2:0:0:0:
247,151,62102,2,0,P|266:177|262:250,1,93.3333333333333,2|0,3:0|0:0,2:0:0:0:
247,278,62516,2,0,P|221:312|158:325,1,93.3333333333333,8|0,0:0|0:0,2:0:0:0:
127,320,62930,5,4,3:0:0:0:
70,191,63344,1,8,0:0:0:0:
179,104,63758,2,0,L|330:121,1,140,2|8,3:0|0:0,0:0:0:0:
457,131,64585,1,4,3:0:0:0:
410,263,64999,2,0,P|371:281|309:270,1,93.3333333333333,8|0,0:0|0:0,2:0:0:0:
276,262,65413,2,0,P|220:244|165:253,1,93.3333333333333,2|0,3:0|0:0,2:0:0:0:
140,258,65827,2,0,P|110:276|92:344,1,93.3333333333333,8|0,0:0|0:0,2:0:0:0:
112,369,66240,5,4,3:0:0:0:
250,345,66654,2,0,P|260:309|116:144,2,280,8|8|8,0:0|0:0|0:0,2:0:0:0:
388,366,68723,2,0,P|387:333|433:272,1,93.3333333333333,2|0,3:0|0:0,2:0:0:0:
455,255,69137,2,0,P|478:219|466:160,1,93.3333333333333,8|0,0:0|0:0,2:0:0:0:
447,130,69551,5,4,3:0:0:0:
320,68,69965,2,0,P|278:59|126:218,2,280,8|8|8,0:0|0:0|0:0,2:0:0:0:
399,116,71896,2,0,P|416:147|413:175,1,46.6666666666667,0|2,0:0|3:0,2:0:0:0:
451,244,72309,2,0,P|438:268|413:279,1,46.6666666666667,0|8,0:0|0:0,2:0:0:0:
372,357,72723,2,0,P|338:361|315:356,1,46.6666666666667,0|4,0:0|3:0,2:0:0:0:
232,254,73275,6,0,P|208:220|16:273,2,280,8|8|8,0:0|0:0|0:0,2:0:0:0:
364,298,75344,2,0,P|379:275|375:199,1,93.3333333333333,2|0,3:0|0:0,0:0:0:0:
415,179,75758,2,0,P|402:145|342:115,1,93.3333333333333,8|0,0:0|0:0,2:0:0:0:
326,78,76171,1,4,3:0:0:0:
186,64,76585,2,0,P|175:99|179:119,3,46.6666666666667,8|0|0|2,0:0|0:0|0:0|3:0,2:0:0:0:
91,220,77413,2,0,P|113:247|137:253,3,46.6666666666667,8|0|0|4,0:0|0:0|0:0|3:0,0:0:0:0:
195,371,78240,2,0,P|218:331|271:295,1,93.3333333333333,8|0,0:0|0:0,2:0:0:0:
301,295,78654,2,0,L|402:310,1,93.3333333333333,2|0,3:0|0:0,2:0:0:0:
440,306,79068,2,0,P|460:284|438:176,1,140,8|6,0:0|0:0,2:0:0:0:
256,192,86102,12,0,90930,0:0:0:0:
387,214,92723,6,0,P|358:236|251:223,1,140,4|10,3:0|0:0,0:0:0:0:
140,154,93551,1,2,0:0:0:0:
238,53,93965,1,8,2:0:0:0:
140,154,94378,2,0,P|122:187|139:300,1,140,0|8,2:0|2:0,2:0:0:0:
259,339,95206,2,0,P|302:347|407:303,1,140,2|10,0:0|0:0,0:0:0:0:
464,197,96034,6,0,B|472:121|472:121|400:35|284:50,1,280,4|2,3:0|0:0,0:0:0:0:
175,129,97275,1,8,0:0:0:0:
244,250,97689,2,0,P|290:252|353:179,2,140,0|10|2,2:0|0:0|0:0,2:0:0:0:
106,225,98930,1,8,0:0:0:0:
182,342,99344,6,0,P|282:360|457:276,1,280,4|2,3:0|0:0,0:0:0:0:
490,160,100585,1,8,2:0:0:0:
427,34,100999,2,0,P|369:46|335:119,1,140,0|10,2:0|0:0,2:0:0:0:
197,83,101827,2,0,P|182:141|207:228,1,140,2|10,0:0|0:0,0:0:0:0:
121,332,102654,6,0,P|161:356|260:350,2,140,4|10|2,3:0|0:0|0:0,0:0:0:0:
59,205,103896,1,8,0:0:0:0:
78,66,104309,2,0,L|229:47,1,140,0|2,2:0|0:0,2:0:0:0:
342,111,105137,2,0,L|493:92,2,140,2|8|4,0:0|0:0|3:0,0:0:0:0:
233,199,106378,6,0,P|222:243|233:302,1,93.3333333333333,8|2,0:0|0:0,2:0:0:0:
261,323,106792,2,0,L|358:298,1,93.3333333333333,4|2,3:0|0:0,0:0:0:0:
393,320,107206,2,0,P|417:303|420:227,1,93.3333333333333,8|2,0:0|0:0,0:0:0:0:
462,210,107620,2,0,P|445:175|362:110,1,140,4|8,3:0|0:0,2:0:0:0:
265,16,108447,2,0,P|214:23|138:96,1,140,4|8,3:0|0:0,2:0:0:0:
54,183,109275,6,0,P|72:202|141:227,1,93.3333333333333,4|2,3:0|0:0,0:0:0:0:
160,265,109689,2,0,P|193:241|254:241,1,93.3333333333333,8|2,0:0|0:0,2:0:0:0:
284,213,110102,2,0,L|390:245,1,93.3333333333333,4|2,3:0|0:0,0:0:0:0:
389,283,110516,1,8,0:0:0:0:
488,184,110930,1,4,3:0:0:0:
427,57,111344,2,0,L|274:87,1,140,8|4,0:0|3:0,0:0:0:0:
150,95,112171,1,8,0:0:0:0:
166,234,112585,6,0,L|319:204,1,140,4|8,3:0|0:0,0:0:0:0:
440,176,113413,1,4,3:0:0:0:
470,312,113827,1,8,0:0:0:0:
333,342,114240,2,0,P|291:354|231:339,1,93.3333333333333,4|2,3:0|0:0,2:0:0:0:
196,348,114654,2,0,P|176:330|175:262,1,93.3333333333333,8|2,0:0|0:0,2:0:0:0:
155,223,115068,2,0,P|169:186|267:159,1,140,4|8,3:0|0:0,0:0:0:0:
389,203,115896,6,0,P|446:183|456:99,2,140,4|8|4,3:0|0:0|3:0,0:0:0:0:
316,143,116999,2,0,P|293:109|299:86,1,46.6666666666667,2|8,0:0|0:0,2:0:0:0:
206,71,117413,2,0,P|211:46|232:30,1,46.6666666666667,2|4,0:0|3:0,2:0:0:0:
363,3,117965,2,0,P|411:32|339:321,1,420,4|6,3:0|0:0,0:0:0:0:
